  0
SECTION
  2
HEADER
  9
$ACADVER
  1
AC1015
  9
$ACADMAINTVER
 70
    20
  9
$DWGCODEPAGE
  3
ANSI_932
  9
$INSBASE
 10
0.0
 20
0.0
 30
0.0
  9
$EXTMIN
 10
353.6474771889407
 20
-7271.038627651518
 30
0.0
  9
$EXTMAX
 10
10928.64747718894
 20
228.9613723484817
 30
0.0
  9
$LIMMIN
 10
-144.1413879394531
 20
-67.9833984375
  9
$LIMMAX
 10
277.8586120605469
 20
231.0166015625
  9
$ORTHOMODE
 70
     0
  9
$REGENMODE
 70
     1
  9
$FILLMODE
 70
     1
  9
$QTEXTMODE
 70
     0
  9
$MIRRTEXT
 70
     0
  9
$LTSCALE
 40
25.0
  9
$ATTMODE
 70
     1
  9
$TEXTSIZE
 40
75.0
  9
$TRACEWID
 40
0.05
  9
$TEXTSTYLE
  7
STANDARD
  9
$CLAYER
  8
0
  9
$CELTYPE
  6
ByLayer
  9
$CECOLOR
 62
   256
  9
$CELTSCALE
 40
1.0
  9
$DISPSILH
 70
     0
  9
$DIMSCALE
 40
25.0
  9
$DIMASZ
 40
2.0
  9
$DIMEXO
 40
1.0
  9
$DIMDLI
 40
0.38
  9
$DIMRND
 40
0.0
  9
$DIMDLE
 40
0.0
  9
$DIMEXE
 40
2.0
  9
$DIMTP
 40
0.0
  9
$DIMTM
 40
0.0
  9
$DIMTXT
 40
3.0
  9
$DIMCEN
 40
0.09
  9
$DIMTSZ
 40
0.0
  9
$DIMTOL
 70
     0
  9
$DIMLIM
 70
     0
  9
$DIMTIH
 70
     0
  9
$DIMTOH
 70
     0
  9
$DIMSE1
 70
     0
  9
$DIMSE2
 70
     0
  9
$DIMTAD
 70
     1
  9
$DIMZIN
 70
     8
  9
$DIMBLK
  1
Open30
  9
$DIMASO
 70
     1
  9
$DIMSHO
 70
     0
  9
$DIMPOST
  1

  9
$DIMAPOST
  1

  9
$DIMALT
 70
     0
  9
$DIMALTD
 70
     2
  9
$DIMALTF
 40
25.4
  9
$DIMLFAC
 40
1.0
  9
$DIMTOFL
 70
     1
  9
$DIMTVP
 40
1.0
  9
$DIMTIX
 70
     0
  9
$DIMSOXD
 70
     0
  9
$DIMSAH
 70
     0
  9
$DIMBLK1
  1

  9
$DIMBLK2
  1

  9
$DIMSTYLE
  2
1-25
  9
$DIMCLRD
 70
     4
  9
$DIMCLRE
 70
     4
  9
$DIMCLRT
 70
     4
  9
$DIMTFAC
 40
1.0
  9
$DIMGAP
 40
1.0
  9
$DIMJUST
 70
     0
  9
$DIMSD1
 70
     0
  9
$DIMSD2
 70
     0
  9
$DIMTOLJ
 70
     1
  9
$DIMTZIN
 70
     0
  9
$DIMALTZ
 70
     0
  9
$DIMALTTZ
 70
     0
  9
$DIMUPT
 70
     0
  9
$DIMDEC
 70
     1
  9
$DIMTDEC
 70
     1
  9
$DIMALTU
 70
     2
  9
$DIMALTTD
 70
     2
  9
$DIMTXSTY
  7
STANDARD
  9
$DIMAUNIT
 70
     0
  9
$DIMADEC
 70
     0
  9
$DIMALTRND
 40
0.0
  9
$DIMAZIN
 70
     2
  9
$DIMDSEP
 70
    46
  9
$DIMATFIT
 70
     3
  9
$DIMFRAC
 70
     0
  9
$DIMLDRBLK
  1
Open30
  9
$DIMLUNIT
 70
     2
  9
$DIMLWD
 70
     9
  9
$DIMLWE
 70
     9
  9
$DIMTMOVE
 70
     0
  9
$LUNITS
 70
     2
  9
$LUPREC
 70
     4
  9
$SKETCHINC
 40
0.1
  9
$FILLETRAD
 40
0.0
  9
$AUNITS
 70
     0
  9
$AUPREC
 70
     0
  9
$MENU
  1
.
  9
$ELEVATION
 40
0.0
  9
$PELEVATION
 40
0.0
  9
$THICKNESS
 40
0.0
  9
$LIMCHECK
 70
     0
  9
$CHAMFERA
 40
0.0
  9
$CHAMFERB
 40
0.0
  9
$CHAMFERC
 40
0.0
  9
$CHAMFERD
 40
0.0
  9
$SKPOLY
 70
     0
  9
$TDCREATE
 40
2454617.684222547
  9
$TDUCREATE
 40
2454617.309222546
  9
$TDUPDATE
 40
2460712.382228148
  9
$TDUUPDATE
 40
2460712.007228148
  9
$TDINDWG
 40
0.1013001505
  9
$TDUSRTIMER
 40
0.1013001505
  9
$USRTIMER
 70
     1
  9
$ANGBASE
 50
0.0
  9
$ANGDIR
 70
     0
  9
$PDMODE
 70
     0
  9
$PDSIZE
 40
0.0
  9
$PLINEWID
 40
0.0
  9
$SPLFRAME
 70
     0
  9
$SPLINETYPE
 70
     6
  9
$SPLINESEGS
 70
     8
  9
$HANDSEED
  5
DC3
  9
$SURFTAB1
 70
     6
  9
$SURFTAB2
 70
     6
  9
$SURFTYPE
 70
     6
  9
$SURFU
 70
     6
  9
$SURFV
 70
     6
  9
$UCSBASE
  2

  9
$UCSNAME
  2

  9
$UCSORG
 10
0.0
 20
0.0
 30
0.0
  9
$UCSXDIR
 10
1.0
 20
0.0
 30
0.0
  9
$UCSYDIR
 10
0.0
 20
1.0
 30
0.0
  9
$UCSORTHOREF
  2

  9
$UCSORTHOVIEW
 70
     0
  9
$UCSORGTOP
 10
0.0
 20
0.0
 30
0.0
  9
$UCSORGBOTTOM
 10
0.0
 20
0.0
 30
0.0
  9
$UCSORGLEFT
 10
0.0
 20
0.0
 30
0.0
  9
$UCSORGRIGHT
 10
0.0
 20
0.0
 30
0.0
  9
$UCSORGFRONT
 10
0.0
 20
0.0
 30
0.0
  9
$UCSORGBACK
 10
0.0
 20
0.0
 30
0.0
  9
$PUCSBASE
  2

  9
$PUCSNAME
  2

  9
$PUCSORG
 10
0.0
 20
0.0
 30
0.0
  9
$PUCSXDIR
 10
1.0
 20
0.0
 30
0.0
  9
$PUCSYDIR
 10
0.0
 20
1.0
 30
0.0
  9
$PUCSORTHOREF
  2

  9
$PUCSORTHOVIEW
 70
     0
  9
$PUCSORGTOP
 10
0.0
 20
0.0
 30
0.0
  9
$PUCSORGBOTTOM
 10
0.0
 20
0.0
 30
0.0
  9
$PUCSORGLEFT
 10
0.0
 20
0.0
 30
0.0
  9
$PUCSORGRIGHT
 10
0.0
 20
0.0
 30
0.0
  9
$PUCSORGFRONT
 10
0.0
 20
0.0
 30
0.0
  9
$PUCSORGBACK
 10
0.0
 20
0.0
 30
0.0
  9
$USERI1
 70
     0
  9
$USERI2
 70
     0
  9
$USERI3
 70
     0
  9
$USERI4
 70
     0
  9
$USERI5
 70
     0
  9
$USERR1
 40
0.0
  9
$USERR2
 40
0.0
  9
$USERR3
 40
0.0
  9
$USERR4
 40
0.0
  9
$USERR5
 40
0.0
  9
$WORLDVIEW
 70
     1
  9
$SHADEDGE
 70
     3
  9
$SHADEDIF
 70
    70
  9
$TILEMODE
 70
     1
  9
$MAXACTVP
 70
    64
  9
$PINSBASE
 10
0.0
 20
0.0
 30
0.0
  9
$PLIMCHECK
 70
     0
  9
$PEXTMIN
 10
-144.1413879394531
 20
-67.9833984375
 30
0.0
  9
$PEXTMAX
 10
277.8586120605469
 20
231.0166015625
 30
0.0
  9
$PLIMMIN
 10
-144.1413879394531
 20
-67.9833984375
  9
$PLIMMAX
 10
277.8586120605469
 20
231.0166015625
  9
$UNITMODE
 70
     0
  9
$VISRETAIN
 70
     1
  9
$PLINEGEN
 70
     0
  9
$PSLTSCALE
 70
     1
  9
$TREEDEPTH
 70
  3020
  9
$CMLSTYLE
  2
Standard
  9
$CMLJUST
 70
     0
  9
$CMLSCALE
 40
1.0
  9
$PROXYGRAPHICS
 70
     1
  9
$MEASUREMENT
 70
     0
  9
$CELWEIGHT
370
    -1
  9
$ENDCAPS
280
     0
  9
$JOINSTYLE
280
     0
  9
$LWDISPLAY
290
     0
  9
$INSUNITS
 70
     0
  9
$HYPERLINKBASE
  1

  9
$STYLESHEET
  1
monochrome.ctb
  9
$XEDIT
290
     1
  9
$CEPSNTYPE
380
     0
  9
$PSTYLEMODE
290
     1
  9
$FINGERPRINTGUID
  2
{261BB978-E10E-4D28-A09F-0B823C82EF67}
  9
$VERSIONGUID
  2
{C2D1BCE5-084C-4C0D-8C7F-9AE6420F5785}
  9
$EXTNAMES
290
     1
  9
$PSVPSCALE
 40
0.0
  9
$OLESTARTUP
290
     0
  0
ENDSEC
  0
SECTION
  2
CLASSES
  0
CLASS
  1
ACDBDICTIONARYWDFLT
  2
AcDbDictionaryWithDefault
  3
ObjectDBX Classes
 90
        0
280
     0
281
     0
  0
CLASS
  1
TABLESTYLE
  2
AcDbTableStyle
  3
ObjectDBX Classes
 90
     2047
280
     0
281
     0
  0
CLASS
  1
SORTENTSTABLE
  2
AcDbSortentsTable
  3
ObjectDBX Classes
 90
        0
280
     0
281
     0
  0
CLASS
  1
DICTIONARYVAR
  2
AcDbDictionaryVar
  3
ObjectDBX Classes
 90
        0
280
     0
281
     0
  0
CLASS
  1
ACDBPLACEHOLDER
  2
AcDbPlaceHolder
  3
ObjectDBX Classes
 90
        0
280
     0
281
     0
  0
CLASS
  1
LAYOUT
  2
AcDbLayout
  3
ObjectDBX Classes
 90
        0
280
     0
281
     0
  0
ENDSEC
  0
SECTION
  2
TABLES
  0
TABLE
  2
VPORT
  5
8
330
0
100
AcDbSymbolTable
 70
     2
  0
VPORT
  5
DBD
330
8
100
AcDbSymbolTableRecord
100
AcDbViewportTableRecord
  2
*Active
 70
     0
 10
0.0
 20
0.0
 11
1.0
 21
1.0
 12
5640.885272961899
 22
-3521.04118827458
 13
0.0
 23
0.0
 14
1.0
 24
1.0
 15
0.0
 25
0.0
 16
0.0
 26
0.0
 36
1.0
 17
0.0
 27
0.0
 37
0.0
 40
7586.379417377805
 41
2.451612903225806
 42
50.0
 43
0.0
 44
0.0
 50
0.0
 51
0.0
 71
     0
 72
  1000
 73
     1
 74
     1
 75
     0
 76
     0
 77
     0
 78
     0
281
     0
 65
     1
110
0.0
120
0.0
130
0.0
111
1.0
121
0.0
131
0.0
112
0.0
122
1.0
132
0.0
 79
     0
146
0.0
  0
ENDTAB
  0
TABLE
  2
LTYPE
  5
5
330
0
100
AcDbSymbolTable
 70
     2
  0
LTYPE
  5
13
330
5
100
AcDbSymbolTableRecord
100
AcDbLinetypeTableRecord
  2
ByBlock
 70
     0
  3

 72
    65
 73
     0
 40
0.0
  0
LTYPE
  5
14
330
5
100
AcDbSymbolTableRecord
100
AcDbLinetypeTableRecord
  2
ByLayer
 70
     0
  3

 72
    65
 73
     0
 40
0.0
  0
LTYPE
  5
15
330
5
100
AcDbSymbolTableRecord
100
AcDbLinetypeTableRecord
  2
CONTINUOUS
 70
     0
  3
Solid line
 72
    65
 73
     0
 40
0.0
  0
LTYPE
  5
37
330
5
100
AcDbSymbolTableRecord
100
AcDbLinetypeTableRecord
  2
CENTER
 70
     0
  3
Center ____ _ ____ _ ____ _ ____ _ ____ _ ____
 72
    65
 73
     4
 40
12.0
 49
7.5
 74
     0
 49
-1.5
 74
     0
 49
1.5
 74
     0
 49
-1.5
 74
     0
  0
ENDTAB
  0
TABLE
  2
LAYER
  5
2
102
{ACAD_XDICTIONARY
360
526
102
}
330
0
100
AcDbSymbolTable
 70
     5
  0
LAYER
  5
10
330
2
100
AcDbSymbolTableRecord
100
AcDbLayerTableRecord
  2
0
 70
     0
 62
     7
  6
CONTINUOUS
370
    -3
390
F
  0
LAYER
  5
4C
330
2
100
AcDbSymbolTableRecord
100
AcDbLayerTableRecord
  2
1
 70
     0
 62
     7
  6
CONTINUOUS
370
    -3
390
F
  0
LAYER
  5
4D
330
2
100
AcDbSymbolTableRecord
100
AcDbLayerTableRecord
  2
2
 70
     0
 62
     7
  6
CONTINUOUS
370
    -3
390
F
  0
LAYER
  5
4E
330
2
100
AcDbSymbolTableRecord
100
AcDbLayerTableRecord
  2
DEFPOINTS
 70
     0
 62
     7
  6
CONTINUOUS
290
     0
370
    -3
390
F
  0
LAYER
  5
524
330
2
100
AcDbSymbolTableRecord
100
AcDbLayerTableRecord
  2
寸法線
 70
     0
 62
     9
  6
CONTINUOUS
370
    -3
390
F
1001
AcAecLayerStandard
1000

1000

  0
ENDTAB
  0
TABLE
  2
STYLE
  5
3
330
0
100
AcDbSymbolTable
 70
     1
  0
STYLE
  5
11
330
3
100
AcDbSymbolTableRecord
100
AcDbTextStyleTableRecord
  2
STANDARD
 70
     0
 40
0.0
 41
0.6
 50
0.0
 71
     0
 42
75.0
  3
monotxt.shx
  4
extfont2.shx
  0
ENDTAB
  0
TABLE
  2
VIEW
  5
6
330
0
100
AcDbSymbolTable
 70
     0
  0
ENDTAB
  0
TABLE
  2
UCS
  5
7
330
0
100
AcDbSymbolTable
 70
     0
  0
ENDTAB
  0
TABLE
  2
APPID
  5
9
330
0
100
AcDbSymbolTable
 70
     4
  0
APPID
  5
12
330
9
100
AcDbSymbolTableRecord
100
AcDbRegAppTableRecord
  2
ACAD
 70
     0
  0
APPID
  5
271
330
9
100
AcDbSymbolTableRecord
100
AcDbRegAppTableRecord
  2
ACAD_DSTYLE_DIMTEXT_FILL
 70
     0
  0
APPID
  5
364
330
9
100
AcDbSymbolTableRecord
100
AcDbRegAppTableRecord
  2
ACAD_PSEXT
 70
     0
  0
APPID
  5
525
330
9
100
AcDbSymbolTableRecord
100
AcDbRegAppTableRecord
  2
AcAecLayerStandard
 70
     0
  0
ENDTAB
  0
TABLE
  2
DIMSTYLE
  5
A
330
0
100
AcDbSymbolTable
 70
     7
100
AcDbDimStyleTable
 71
     1
340
34A
  0
DIMSTYLE
105
34A
102
{ACAD_REACTORS
330
52B
330
54D
330
55A
330
56D
330
57A
330
587
330
594
330
5A1
330
5B7
330
5C4
330
5D1
330
65D
330
66A
330
7C8
330
BEE
330
DAA
102
}
330
A
100
AcDbSymbolTableRecord
100
AcDbDimStyleTableRecord
  2
1-25
 70
     0
 40
25.0
 41
2.0
 42
1.0
 44
2.0
 73
     0
 74
     0
 77
     1
 78
     8
 79
     2
140
3.0
145
1.0
147
1.0
172
     1
176
     4
177
     4
178
     4
271
     1
272
     1
340
11
341
6AF
342
6AF
371
     9
372
     9
  0
DIMSTYLE
105
938
330
A
100
AcDbSymbolTableRecord
100
AcDbDimStyleTableRecord
  2
1-10
 70
     0
 40
10.0
 41
2.0
 42
1.0
 44
2.0
 73
     0
 74
     0
 77
     1
 78
     8
 79
     2
140
3.0
143
0.03937007874016
147
1.0
171
     3
172
     1
271
     1
272
     1
274
     3
283
     0
284
     8
340
11
341
6AF
342
6AF
  0
DIMSTYLE
105
939
330
A
100
AcDbSymbolTableRecord
100
AcDbDimStyleTableRecord
  2
1-15
 70
     0
 40
15.0
 41
2.0
 42
1.0
 44
2.0
 73
     0
 74
     0
 77
     1
 78
     8
 79
     2
140
3.0
143
0.03937007874016
147
1.0
171
     3
172
     1
271
     1
272
     1
274
     3
283
     0
284
     8
340
11
341
6AF
342
6AF
  0
DIMSTYLE
105
93A
330
A
100
AcDbSymbolTableRecord
100
AcDbDimStyleTableRecord
  2
1-20
 70
     0
 40
20.0
 41
2.0
 42
1.0
 44
2.0
 73
     0
 74
     0
 77
     1
 78
     8
 79
     2
140
3.0
143
0.03937007874016
147
1.0
171
     3
172
     1
271
     1
272
     1
274
     3
283
     0
284
     8
340
11
341
6AF
342
6AF
  0
DIMSTYLE
105
93B
330
A
100
AcDbSymbolTableRecord
100
AcDbDimStyleTableRecord
  2
1-30
 70
     0
 40
30.0
 41
2.0
 42
1.0
 44
2.0
 73
     0
 74
     0
 77
     1
 78
     8
 79
     2
140
3.0
143
0.03937007874016
147
1.0
171
     3
172
     1
271
     1
272
     1
274
     3
283
     0
284
     8
340
11
341
6AF
342
6AF
  0
DIMSTYLE
105
93C
330
A
100
AcDbSymbolTableRecord
100
AcDbDimStyleTableRecord
  2
1-5
 70
     0
 40
5.0
 41
2.0
 42
1.0
 44
2.0
 73
     0
 74
     0
 77
     1
 78
     8
 79
     2
140
3.0
143
0.03937007874016
147
1.0
171
     3
172
     1
271
     1
272
     1
274
     3
283
     0
284
     8
340
11
341
6AF
342
6AF
  0
DIMSTYLE
105
C24
330
A
100
AcDbSymbolTableRecord
100
AcDbDimStyleTableRecord
  2
1-35
 70
     0
 40
35.0
 41
2.0
 42
1.0
 44
1.0
 73
     0
 74
     0
 77
     1
 78
     8
 79
     2
140
3.0
147
1.0
172
     1
176
     4
177
     4
178
     4
179
     1
271
     1
272
     1
340
11
341
6AF
342
6AF
371
     9
372
     9
  0
ENDTAB
  0
TABLE
  2
BLOCK_RECORD
  5
1
330
0
100
AcDbSymbolTable
 70
    16
  0
BLOCK_RECORD
  5
22
102
{ACAD_XDICTIONARY
360
26D
102
}
330
1
100
AcDbSymbolTableRecord
100
AcDbBlockTableRecord
  2
*Model_Space
340
25
  0
BLOCK_RECORD
  5
1E
330
1
100
AcDbSymbolTableRecord
100
AcDbBlockTableRecord
  2
*Paper_Space
340
21
  0
BLOCK_RECORD
  5
52C
330
1
100
AcDbSymbolTableRecord
100
AcDbBlockTableRecord
  2
*D0
340
0
  0
BLOCK_RECORD
  5
54E
330
1
100
AcDbSymbolTableRecord
100
AcDbBlockTableRecord
  2
*D1
340
0
  0
BLOCK_RECORD
  5
55B
330
1
100
AcDbSymbolTableRecord
100
AcDbBlockTableRecord
  2
*D2
340
0
  0
BLOCK_RECORD
  5
56E
330
1
100
AcDbSymbolTableRecord
100
AcDbBlockTableRecord
  2
*D3
340
0
  0
BLOCK_RECORD
  5
57B
330
1
100
AcDbSymbolTableRecord
100
AcDbBlockTableRecord
  2
*D4
340
0
  0
BLOCK_RECORD
  5
588
330
1
100
AcDbSymbolTableRecord
100
AcDbBlockTableRecord
  2
*D5
340
0
  0
BLOCK_RECORD
  5
595
330
1
100
AcDbSymbolTableRecord
100
AcDbBlockTableRecord
  2
*D6
340
0
  0
BLOCK_RECORD
  5
5A2
330
1
100
AcDbSymbolTableRecord
100
AcDbBlockTableRecord
  2
*D7
340
0
  0
BLOCK_RECORD
  5
5B8
330
1
100
AcDbSymbolTableRecord
100
AcDbBlockTableRecord
  2
*D8
340
0
  0
BLOCK_RECORD
  5
5C5
330
1
100
AcDbSymbolTableRecord
100
AcDbBlockTableRecord
  2
*D9
340
0
  0
BLOCK_RECORD
  5
5D2
330
1
100
AcDbSymbolTableRecord
100
AcDbBlockTableRecord
  2
*D10
340
0
  0
BLOCK_RECORD
  5
65E
330
1
100
AcDbSymbolTableRecord
100
AcDbBlockTableRecord
  2
*D11
340
0
  0
BLOCK_RECORD
  5
66B
330
1
100
AcDbSymbolTableRecord
100
AcDbBlockTableRecord
  2
*D12
340
0
  0
BLOCK_RECORD
  5
6AF
330
1
100
AcDbSymbolTableRecord
100
AcDbBlockTableRecord
  2
_Open30
340
0
102
{BLKREFS
331
CD1
331
CD2
331
CDA
331
CDB
331
CE3
331
CE4
331
CEC
331
CED
331
CF5
331
CF6
331
CFE
331
CFF
331
D10
331
D11
331
D19
331
D1A
331
D22
331
D23
331
D2A
331
D42
331
D43
331
D5F
331
D60
331
D93
331
D94
331
D9C
331
D9D
331
DAE
102
}
  0
BLOCK_RECORD
  5
7C9
330
1
100
AcDbSymbolTableRecord
100
AcDbBlockTableRecord
  2
*D14
340
0
  0
BLOCK_RECORD
  5
DAB
330
1
100
AcDbSymbolTableRecord
100
AcDbBlockTableRecord
  2
*D15
340
0
  0
ENDTAB
  0
ENDSEC
  0
SECTION
  2
BLOCKS
  0
BLOCK
  5
23
330
22
100
AcDbEntity
  8
0
100
AcDbBlockBegin
  2
*Model_Space
 70
     0
 10
0.0
 20
0.0
 30
0.0
  3
*Model_Space
  1

  0
ENDBLK
  5
24
330
22
100
AcDbEntity
  8
0
100
AcDbBlockEnd
  0
BLOCK
  5
1F
330
1E
100
AcDbEntity
 67
     1
  8
0
100
AcDbBlockBegin
  2
*Paper_Space
 70
     0
 10
0.0
 20
0.0
 30
0.0
  3
*Paper_Space
  1

  0
ENDBLK
  5
20
330
1E
100
AcDbEntity
 67
     1
  8
0
100
AcDbBlockEnd
  0
BLOCK
  5
536
330
52C
100
AcDbEntity
  8
0
 48
25.0
100
AcDbBlockBegin
  2
*D0
 70
     1
 10
0.0
 20
0.0
 30
0.0
  3
*D0
  1

  0
LINE
  5
CCE
330
52C
100
AcDbEntity
  8
寸法線
 62
     4
370
     9
100
AcDbLine
 10
5617.310844597144
 20
-5824.002145649516
 30
0.0
 11
5951.209900070375
 21
-5824.002145649516
 31
0.0
  0
LINE
  5
CCF
330
52C
100
AcDbEntity
  8
寸法線
 62
     4
370
     9
100
AcDbLine
 10
5617.310722526834
 20
-3424.002220433119
 30
0.0
 11
5951.209900070375
 21
-3424.002220433119
 31
0.0
  0
LINE
  5
CD0
330
52C
100
AcDbEntity
  8
寸法線
 62
     4
370
     9
100
AcDbLine
 10
5901.209900070375
 20
-5774.002145649516
 30
0.0
 11
5901.209900070375
 21
-3474.002220433118
 31
0.0
  0
INSERT
  5
CD1
330
52C
100
AcDbEntity
  8
寸法線
 62
     4
370
     9
100
AcDbBlockReference
  2
_Open30
 10
5901.209900070375
 20
-5824.002145649516
 30
0.0
 41
50.0
 42
50.0
 43
50.0
 50
270.0
  0
INSERT
  5
CD2
330
52C
100
AcDbEntity
  8
寸法線
 62
     4
370
     9
100
AcDbBlockReference
  2
_Open30
 10
5901.209900070375
 20
-3424.002220433119
 30
0.0
 41
50.0
 42
50.0
 43
50.0
 50
90.0
  0
MTEXT
  5
CD3
330
52C
100
AcDbEntity
  8
寸法線
 62
     4
100
AcDbMText
 10
5838.709900070376
 20
-4624.002183041316
 30
0.0
 40
75.0
 41
0.0
 71
     5
 72
     1
  1
\A1;300{\H0.6978x;\SP^ ;}×8=2400
 11
0.0000000000000001
 21
1.0
 31
0.0
 73
     1
 44
1.0
1001
ACAD
1000
MTEXTBEGIN
1070
    73
1070
     1
1070
    44
1040
1.0
1070
    74
1070
     0
1000
MTEXTEND
  0
POINT
  5
CD4
330
52C
100
AcDbEntity
  8
DEFPOINTS
 62
     0
100
AcDbPoint
 10
5592.310844597143
 20
-5824.002145649516
 30
0.0
  0
POINT
  5
CD5
330
52C
100
AcDbEntity
  8
DEFPOINTS
 62
     0
100
AcDbPoint
 10
5592.310722526834
 20
-3424.002220433119
 30
0.0
  0
POINT
  5
CD6
330
52C
100
AcDbEntity
  8
DEFPOINTS
 62
     0
100
AcDbPoint
 10
5901.209900070375
 20
-3424.002220433119
 30
0.0
  0
ENDBLK
  5
537
330
52C
100
AcDbEntity
  8
0
 48
25.0
100
AcDbBlockEnd
  0
BLOCK
  5
558
330
54E
100
AcDbEntity
  8
0
 48
25.0
100
AcDbBlockBegin
  2
*D1
 70
     1
 10
0.0
 20
0.0
 30
0.0
  3
*D1
  1

  0
LINE
  5
CD7
330
54E
100
AcDbEntity
  8
寸法線
 62
     4
370
     9
100
AcDbLine
 10
2046.065222480906
 20
-5824.002288859244
 30
0.0
 11
1715.787084367322
 21
-5824.002288859244
 31
0.0
  0
LINE
  5
CD8
330
54E
100
AcDbEntity
  8
寸法線
 62
     4
370
     9
100
AcDbLine
 10
2016.065220702504
 20
-3409.002288859247
 30
0.0
 11
1715.787084367323
 21
-3409.002288859247
 31
0.0
  0
LINE
  5
CD9
330
54E
100
AcDbEntity
  8
寸法線
 62
     4
370
     9
100
AcDbLine
 10
1765.787084367322
 20
-5774.002288859244
 30
0.0
 11
1765.787084367323
 21
-3459.002288859247
 31
0.0
  0
INSERT
  5
CDA
330
54E
100
AcDbEntity
  8
寸法線
 62
     4
370
     9
100
AcDbBlockReference
  2
_Open30
 10
1765.787084367322
 20
-5824.002288859244
 30
0.0
 41
50.0
 42
50.0
 43
50.0
 50
270.0
  0
INSERT
  5
CDB
330
54E
100
AcDbEntity
  8
寸法線
 62
     4
370
     9
100
AcDbBlockReference
  2
_Open30
 10
1765.787084367323
 20
-3409.002288859247
 30
0.0
 41
50.0
 42
50.0
 43
50.0
 50
90.0
  0
MTEXT
  5
CDC
330
54E
100
AcDbEntity
  8
寸法線
 62
     4
100
AcDbMText
 10
1703.287084367324
 20
-4616.502288859244
 30
0.0
 40
75.0
 41
0.0
 71
     5
 72
     1
  1
\A1;2415
 11
0.0000000000000001
 21
1.0
 31
0.0
 73
     1
 44
1.0
1001
ACAD
1000
MTEXTBEGIN
1070
    73
1070
     1
1070
    44
1040
1.0
1070
    74
1070
     0
1000
MTEXTEND
  0
POINT
  5
CDD
330
54E
100
AcDbEntity
  8
DEFPOINTS
 62
     0
100
AcDbPoint
 10
2071.065222480906
 20
-5824.002288859245
 30
0.0
  0
POINT
  5
CDE
330
54E
100
AcDbEntity
  8
DEFPOINTS
 62
     0
100
AcDbPoint
 10
2041.065220702503
 20
-3409.002288859247
 30
0.0
  0
POINT
  5
CDF
330
54E
100
AcDbEntity
  8
DEFPOINTS
 62
     0
100
AcDbPoint
 10
1765.787084367323
 20
-3409.002288859247
 30
0.0
  0
ENDBLK
  5
559
330
54E
100
AcDbEntity
  8
0
 48
25.0
100
AcDbBlockEnd
  0
BLOCK
  5
567
330
55B
100
AcDbEntity
  8
0
 48
25.0
100
AcDbBlockBegin
  2
*D2
 70
     1
 10
0.0
 20
0.0
 30
0.0
  3
*D2
  1

  0
LINE
  5
CE0
330
55B
100
AcDbEntity
  8
寸法線
 62
     4
370
     9
100
AcDbLine
 10
3096.065213063412
 20
-2819.002288859247
 30
0.0
 11
1715.787084367322
 21
-2819.002288859246
 31
0.0
  0
LINE
  5
CE1
330
55B
100
AcDbEntity
  8
寸法線
 62
     4
370
     9
100
AcDbLine
 10
2016.065220702504
 20
-3409.002288859247
 30
0.0
 11
1715.787084367322
 21
-3409.002288859247
 31
0.0
  0
LINE
  5
CE2
330
55B
100
AcDbEntity
  8
寸法線
 62
     4
370
     9
100
AcDbLine
 10
1765.787084367322
 20
-2869.002288859246
 30
0.0
 11
1765.787084367322
 21
-3359.002288859247
 31
0.0
  0
INSERT
  5
CE3
330
55B
100
AcDbEntity
  8
寸法線
 62
     4
370
     9
100
AcDbBlockReference
  2
_Open30
 10
1765.787084367322
 20
-2819.002288859246
 30
0.0
 41
50.0
 42
50.0
 43
50.0
 50
90.0
  0
INSERT
  5
CE4
330
55B
100
AcDbEntity
  8
寸法線
 62
     4
370
     9
100
AcDbBlockReference
  2
_Open30
 10
1765.787084367322
 20
-3409.002288859247
 30
0.0
 41
50.0
 42
50.0
 43
50.0
 50
270.0
  0
MTEXT
  5
CE5
330
55B
100
AcDbEntity
  8
寸法線
 62
     4
100
AcDbMText
 10
1703.287084367322
 20
-3121.502284090882
 30
0.0
 40
75.0
 41
0.0
 71
     5
 72
     1
  1
\A1;(590)
 11
0.0000000000000001
 21
1.0
 31
0.0
 73
     1
 44
1.0
1001
ACAD
1000
MTEXTBEGIN
1070
    73
1070
     1
1070
    44
1040
1.0
1070
    74
1070
     0
1000
MTEXTEND
  0
POINT
  5
CE6
330
55B
100
AcDbEntity
  8
DEFPOINTS
 62
     0
100
AcDbPoint
 10
3121.065213063412
 20
-2819.002288859247
 30
0.0
  0
POINT
  5
CE7
330
55B
100
AcDbEntity
  8
DEFPOINTS
 62
     0
100
AcDbPoint
 10
2041.065220702503
 20
-3409.002288859247
 30
0.0
  0
POINT
  5
CE8
330
55B
100
AcDbEntity
  8
DEFPOINTS
 62
     0
100
AcDbPoint
 10
1765.787084367322
 20
-3409.002288859247
 30
0.0
  0
ENDBLK
  5
568
330
55B
100
AcDbEntity
  8
0
 48
25.0
100
AcDbBlockEnd
  0
BLOCK
  5
578
330
56E
100
AcDbEntity
  8
0
 48
25.0
100
AcDbBlockBegin
  2
*D3
 70
     1
 10
0.0
 20
0.0
 30
0.0
  3
*D3
  1

  0
LINE
  5
CE9
330
56E
100
AcDbEntity
  8
寸法線
 62
     4
370
     9
100
AcDbLine
 10
2071.065072328148
 20
-3169.002365153192
 30
0.0
 11
2071.065072328148
 21
-2916.736819079801
 31
0.0
  0
LINE
  5
CEA
330
56E
100
AcDbEntity
  8
寸法線
 62
     4
370
     9
100
AcDbLine
 10
2371.065072328149
 20
-3169.002365153191
 30
0.0
 11
2371.065072328149
 21
-2916.736819079801
 31
0.0
  0
LINE
  5
CEB
330
56E
100
AcDbEntity
  8
寸法線
 62
     4
370
     9
100
AcDbLine
 10
2121.065072328148
 20
-2966.736819079801
 30
0.0
 11
2321.065072328149
 21
-2966.736819079801
 31
0.0
  0
INSERT
  5
CEC
330
56E
100
AcDbEntity
  8
寸法線
 62
     4
370
     9
100
AcDbBlockReference
  2
_Open30
 10
2071.065072328148
 20
-2966.736819079801
 30
0.0
 41
50.0
 42
50.0
 43
50.0
 50
180.0
  0
INSERT
  5
CED
330
56E
100
AcDbEntity
  8
寸法線
 62
     4
370
     9
100
AcDbBlockReference
  2
_Open30
 10
2371.065072328149
 20
-2966.736819079801
 30
0.0
 41
50.0
 42
50.0
 43
50.0
  0
MTEXT
  5
CEE
330
56E
100
AcDbEntity
  8
寸法線
 62
     4
100
AcDbMText
 10
2221.065072328149
 20
-2904.236819079801
 30
0.0
 40
75.0
 41
0.0
 71
     5
 72
     1
  1
\A1;300
 73
     1
 44
1.0
1001
ACAD
1000
MTEXTBEGIN
1070
    73
1070
     1
1070
    44
1040
1.0
1070
    74
1070
     0
1000
MTEXTEND
  0
POINT
  5
CEF
330
56E
100
AcDbEntity
  8
DEFPOINTS
 62
     0
100
AcDbPoint
 10
2071.065072328148
 20
-3194.002365153192
 30
0.0
  0
POINT
  5
CF0
330
56E
100
AcDbEntity
  8
DEFPOINTS
 62
     0
100
AcDbPoint
 10
2371.065072328149
 20
-3194.002365153191
 30
0.0
  0
POINT
  5
CF1
330
56E
100
AcDbEntity
  8
DEFPOINTS
 62
     0
100
AcDbPoint
 10
2371.065072328149
 20
-2966.736819079801
 30
0.0
  0
ENDBLK
  5
579
330
56E
100
AcDbEntity
  8
0
 48
25.0
100
AcDbBlockEnd
  0
BLOCK
  5
585
330
57B
100
AcDbEntity
  8
0
 48
25.0
100
AcDbBlockBegin
  2
*D4
 70
     1
 10
0.0
 20
0.0
 30
0.0
  3
*D4
  1

  0
LINE
  5
CF2
330
57B
100
AcDbEntity
  8
寸法線
 62
     4
370
     9
100
AcDbLine
 10
3096.065213063412
 20
-2819.002288859247
 30
0.0
 11
1350.483110331472
 21
-2819.002288859246
 31
0.0
  0
LINE
  5
CF3
330
57B
100
AcDbEntity
  8
寸法線
 62
     4
370
     9
100
AcDbLine
 10
2046.065213063412
 20
-5824.002288859245
 30
0.0
 11
1350.483110331471
 21
-5824.002288859245
 31
0.0
  0
LINE
  5
CF4
330
57B
100
AcDbEntity
  8
寸法線
 62
     4
370
     9
100
AcDbLine
 10
1400.483110331472
 20
-2869.002288859246
 30
0.0
 11
1400.483110331471
 21
-5774.002288859245
 31
0.0
  0
INSERT
  5
CF5
330
57B
100
AcDbEntity
  8
寸法線
 62
     4
370
     9
100
AcDbBlockReference
  2
_Open30
 10
1400.483110331472
 20
-2819.002288859246
 30
0.0
 41
50.0
 42
50.0
 43
50.0
 50
90.0
  0
INSERT
  5
CF6
330
57B
100
AcDbEntity
  8
寸法線
 62
     4
370
     9
100
AcDbBlockReference
  2
_Open30
 10
1400.483110331471
 20
-5824.002288859245
 30
0.0
 41
50.0
 42
50.0
 43
50.0
 50
270.0
  0
MTEXT
  5
CF7
330
57B
100
AcDbEntity
  8
寸法線
 62
     4
100
AcDbMText
 10
1337.983110331473
 20
-4321.502288859245
 30
0.0
 40
75.0
 41
0.0
 71
     5
 72
     1
  1
\A1;(3005)
 11
0.0000000000000001
 21
1.0
 31
0.0
 73
     1
 44
1.0
1001
ACAD
1000
MTEXTBEGIN
1070
    73
1070
     1
1070
    44
1040
1.0
1070
    74
1070
     0
1000
MTEXTEND
  0
POINT
  5
CF8
330
57B
100
AcDbEntity
  8
DEFPOINTS
 62
     0
100
AcDbPoint
 10
3121.065213063412
 20
-2819.002288859247
 30
0.0
  0
POINT
  5
CF9
330
57B
100
AcDbEntity
  8
DEFPOINTS
 62
     0
100
AcDbPoint
 10
2071.065213063412
 20
-5824.002288859245
 30
0.0
  0
POINT
  5
CFA
330
57B
100
AcDbEntity
  8
DEFPOINTS
 62
     0
100
AcDbPoint
 10
1400.483110331471
 20
-5824.002288859245
 30
0.0
  0
ENDBLK
  5
586
330
57B
100
AcDbEntity
  8
0
 48
25.0
100
AcDbBlockEnd
  0
BLOCK
  5
592
330
588
100
AcDbEntity
  8
0
 48
25.0
100
AcDbBlockBegin
  2
*D5
 70
     1
 10
0.0
 20
0.0
 30
0.0
  3
*D5
  1

  0
LINE
  5
CFB
330
588
100
AcDbEntity
  8
寸法線
 62
     4
370
     9
100
AcDbLine
 10
2041.065214851553
 20
-5819.002280872146
 30
0.0
 11
2041.065214851553
 21
-6536.617668714814
 31
0.0
  0
LINE
  5
CFC
330
588
100
AcDbEntity
  8
寸法線
 62
     4
370
     9
100
AcDbLine
 10
4201.065211275272
 20
-5819.002290647386
 30
0.0
 11
4201.065211275272
 21
-6536.617668714814
 31
0.0
  0
LINE
  5
CFD
330
588
100
AcDbEntity
  8
寸法線
 62
     4
370
     9
100
AcDbLine
 10
2091.065214851553
 20
-6486.617668714814
 30
0.0
 11
4151.065211275272
 21
-6486.617668714814
 31
0.0
  0
INSERT
  5
CFE
330
588
100
AcDbEntity
  8
寸法線
 62
     4
370
     9
100
AcDbBlockReference
  2
_Open30
 10
2041.065214851553
 20
-6486.617668714814
 30
0.0
 41
50.0
 42
50.0
 43
50.0
 50
180.0
  0
INSERT
  5
CFF
330
588
100
AcDbEntity
  8
寸法線
 62
     4
370
     9
100
AcDbBlockReference
  2
_Open30
 10
4201.065211275272
 20
-6486.617668714814
 30
0.0
 41
50.0
 42
50.0
 43
50.0
  0
MTEXT
  5
D00
330
588
100
AcDbEntity
  8
寸法線
 62
     4
100
AcDbMText
 10
3121.065213063413
 20
-6424.117668714814
 30
0.0
 40
75.0
 41
0.0
 71
     5
 72
     1
  1
\A1;O.D%%c2160
 73
     1
 44
1.0
1001
ACAD
1000
MTEXTBEGIN
1070
    73
1070
     1
1070
    44
1040
1.0
1070
    74
1070
     0
1000
MTEXTEND
  0
POINT
  5
D01
330
588
100
AcDbEntity
  8
DEFPOINTS
 62
     0
100
AcDbPoint
 10
2041.065214851553
 20
-5794.002280872145
 30
0.0
  0
POINT
  5
D02
330
588
100
AcDbEntity
  8
DEFPOINTS
 62
     0
100
AcDbPoint
 10
4201.065211275272
 20
-5794.002290647386
 30
0.0
  0
POINT
  5
D03
330
588
100
AcDbEntity
  8
DEFPOINTS
 62
     0
100
AcDbPoint
 10
4201.065211275272
 20
-6486.617668714814
 30
0.0
  0
ENDBLK
  5
593
330
588
100
AcDbEntity
  8
0
 48
25.0
100
AcDbBlockEnd
  0
BLOCK
  5
59F
330
595
100
AcDbEntity
  8
0
 48
25.0
100
AcDbBlockBegin
  2
*D6
 70
     1
 10
0.0
 20
0.0
 30
0.0
  3
*D6
  1

  0
LINE
  5
D5C
330
595
100
AcDbEntity
  8
寸法線
 62
     4
370
     9
100
AcDbLine
 10
3121.065213063412
 20
-6010.34817604339
 30
0.0
 11
3121.065213063412
 21
-6187.913353374632
 31
0.0
  0
LINE
  5
D5D
330
595
100
AcDbEntity
  8
寸法線
 62
     4
370
     9
100
AcDbLine
 10
4401.065184453182
 20
-5874.002288859247
 30
0.0
 11
4401.065184453182
 21
-6187.913353374632
 31
0.0
  0
LINE
  5
D5E
330
595
100
AcDbEntity
  8
寸法線
 62
     4
370
     9
100
AcDbLine
 10
3171.065213063412
 20
-6137.913353374631
 30
0.0
 11
4351.065184453182
 21
-6137.913353374631
 31
0.0
  0
INSERT
  5
D5F
330
595
100
AcDbEntity
  8
寸法線
 62
     4
370
     9
100
AcDbBlockReference
  2
_Open30
 10
3121.065213063412
 20
-6137.913353374631
 30
0.0
 41
50.0
 42
50.0
 43
50.0
 50
180.0
  0
INSERT
  5
D60
330
595
100
AcDbEntity
  8
寸法線
 62
     4
370
     9
100
AcDbBlockReference
  2
_Open30
 10
4401.065184453182
 20
-6137.913353374631
 30
0.0
 41
50.0
 42
50.0
 43
50.0
  0
MTEXT
  5
D61
330
595
100
AcDbEntity
  8
寸法線
 62
     4
100
AcDbMText
 10
3761.065198758297
 20
-6075.413353374631
 30
0.0
 40
75.0
 41
0.0
 71
     5
 72
     1
  1
\A1;(1280)
 73
     1
 44
1.0
1001
ACAD
1000
MTEXTBEGIN
1070
    73
1070
     1
1070
    44
1040
1.0
1070
    74
1070
     0
1000
MTEXTEND
  0
POINT
  5
D62
330
595
100
AcDbEntity
  8
DEFPOINTS
 62
     0
100
AcDbPoint
 10
3121.065213063412
 20
-5985.348176043391
 30
0.0
  0
POINT
  5
D63
330
595
100
AcDbEntity
  8
DEFPOINTS
 62
     0
100
AcDbPoint
 10
4401.065184453182
 20
-5849.002288859247
 30
0.0
  0
POINT
  5
D64
330
595
100
AcDbEntity
  8
DEFPOINTS
 62
     0
100
AcDbPoint
 10
4401.065184453182
 20
-6137.913353374631
 30
0.0
  0
ENDBLK
  5
5A0
330
595
100
AcDbEntity
  8
0
 48
25.0
100
AcDbBlockEnd
  0
BLOCK
  5
5AC
330
5A2
100
AcDbEntity
  8
0
 48
25.0
100
AcDbBlockBegin
  2
*D7
 70
     1
 10
0.0
 20
0.0
 30
0.0
  3
*D7
  1

  0
LINE
  5
D0D
330
5A2
100
AcDbEntity
  8
寸法線
 62
     4
370
     9
100
AcDbLine
 10
4276.065533989713
 20
-2524.002362620013
 30
0.0
 11
4846.824607230082
 21
-2524.002362620013
 31
0.0
  0
LINE
  5
D0E
330
5A2
100
AcDbEntity
  8
寸法線
 62
     4
370
     9
100
AcDbLine
 10
4451.065183894388
 20
-5824.002288859247
 30
0.0
 11
4846.824607230082
 21
-5824.002288859247
 31
0.0
  0
LINE
  5
D0F
330
5A2
100
AcDbEntity
  8
寸法線
 62
     4
370
     9
100
AcDbLine
 10
4796.824607230083
 20
-2574.002362620013
 30
0.0
 11
4796.824607230083
 21
-5774.002288859247
 31
0.0
  0
INSERT
  5
D10
330
5A2
100
AcDbEntity
  8
寸法線
 62
     4
370
     9
100
AcDbBlockReference
  2
_Open30
 10
4796.824607230083
 20
-2524.002362620013
 30
0.0
 41
50.0
 42
50.0
 43
50.0
 50
90.0
  0
INSERT
  5
D11
330
5A2
100
AcDbEntity
  8
寸法線
 62
     4
370
     9
100
AcDbBlockReference
  2
_Open30
 10
4796.824607230083
 20
-5824.002288859247
 30
0.0
 41
50.0
 42
50.0
 43
50.0
 50
270.0
  0
MTEXT
  5
D12
330
5A2
100
AcDbEntity
  8
寸法線
 62
     4
100
AcDbMText
 10
4734.324607230083
 20
-4174.002325739629
 30
0.0
 40
75.0
 41
0.0
 71
     5
 72
     1
  1
\A1;3300
 11
0.0000000000000001
 21
1.0
 31
0.0
 73
     1
 44
1.0
1001
ACAD
1000
MTEXTBEGIN
1070
    73
1070
     1
1070
    44
1040
1.0
1070
    74
1070
     0
1000
MTEXTEND
  0
POINT
  5
D13
330
5A2
100
AcDbEntity
  8
DEFPOINTS
 62
     0
100
AcDbPoint
 10
4251.065533989713
 20
-2524.002362620013
 30
0.0
  0
POINT
  5
D14
330
5A2
100
AcDbEntity
  8
DEFPOINTS
 62
     0
100
AcDbPoint
 10
4426.065183894388
 20
-5824.002288859247
 30
0.0
  0
POINT
  5
D15
330
5A2
100
AcDbEntity
  8
DEFPOINTS
 62
     0
100
AcDbPoint
 10
4796.824607230083
 20
-5824.002288859247
 30
0.0
  0
ENDBLK
  5
5AD
330
5A2
100
AcDbEntity
  8
0
 48
25.0
100
AcDbBlockEnd
  0
BLOCK
  5
5C2
330
5B8
100
AcDbEntity
  8
0
 48
25.0
100
AcDbBlockBegin
  2
*D8
 70
     1
 10
0.0
 20
0.0
 30
0.0
  3
*D8
  1

  0
LINE
  5
D16
330
5B8
100
AcDbEntity
  8
寸法線
 62
     4
370
     9
100
AcDbLine
 10
7735.913390020377
 20
-1164.086833964927
 30
0.0
 11
7735.913390020377
 21
-985.6341680789192
 31
0.0
  0
LINE
  5
D17
330
5B8
100
AcDbEntity
  8
寸法線
 62
     4
370
     9
100
AcDbLine
 10
8035.912905634802
 20
-1164.085877482539
 30
0.0
 11
8035.912905634802
 21
-985.6341680789192
 31
0.0
  0
LINE
  5
D18
330
5B8
100
AcDbEntity
  8
寸法線
 62
     4
370
     9
100
AcDbLine
 10
7785.913390020377
 20
-1035.634168078919
 30
0.0
 11
7985.912905634802
 21
-1035.634168078919
 31
0.0
  0
INSERT
  5
D19
330
5B8
100
AcDbEntity
  8
寸法線
 62
     4
370
     9
100
AcDbBlockReference
  2
_Open30
 10
7735.913390020377
 20
-1035.634168078919
 30
0.0
 41
50.0
 42
50.0
 43
50.0
 50
180.0
  0
INSERT
  5
D1A
330
5B8
100
AcDbEntity
  8
寸法線
 62
     4
370
     9
100
AcDbBlockReference
  2
_Open30
 10
8035.912905634802
 20
-1035.634168078919
 30
0.0
 41
50.0
 42
50.0
 43
50.0
  0
MTEXT
  5
D1B
330
5B8
100
AcDbEntity
  8
寸法線
 62
     4
100
AcDbMText
 10
7885.91314782759
 20
-973.1341680789192
 30
0.0
 40
75.0
 41
0.0
 71
     5
 72
     1
  1
\A1;300
 73
     1
 44
1.0
1001
ACAD
1000
MTEXTBEGIN
1070
    73
1070
     1
1070
    44
1040
1.0
1070
    74
1070
     0
1000
MTEXTEND
  0
POINT
  5
D1C
330
5B8
100
AcDbEntity
  8
DEFPOINTS
 62
     0
100
AcDbPoint
 10
7735.913390020377
 20
-1189.086833964927
 30
0.0
  0
POINT
  5
D1D
330
5B8
100
AcDbEntity
  8
DEFPOINTS
 62
     0
100
AcDbPoint
 10
8035.912905634802
 20
-1189.085877482539
 30
0.0
  0
POINT
  5
D1E
330
5B8
100
AcDbEntity
  8
DEFPOINTS
 62
     0
100
AcDbPoint
 10
8035.912905634802
 20
-1035.634168078919
 30
0.0
  0
ENDBLK
  5
5C3
330
5B8
100
AcDbEntity
  8
0
 48
25.0
100
AcDbBlockEnd
  0
BLOCK
  5
5CF
330
5C5
100
AcDbEntity
  8
0
 48
25.0
100
AcDbBlockBegin
  2
*D9
 70
     1
 10
0.0
 20
0.0
 30
0.0
  3
*D9
  1

  0
LINE
  5
D1F
330
5C5
100
AcDbEntity
  8
寸法線
 62
     4
370
     9
100
AcDbLine
 10
7725.913604759082
 20
-1135.234916468367
 30
0.0
 11
7725.913604759082
 21
-788.0607204338412
 31
0.0
  0
LINE
  5
D20
330
5C5
100
AcDbEntity
  8
寸法線
 62
     4
370
     9
100
AcDbLine
 10
8045.913272101628
 20
-1135.234916468367
 30
0.0
 11
8045.913272101628
 21
-788.0607204338412
 31
0.0
  0
LINE
  5
D21
330
5C5
100
AcDbEntity
  8
寸法線
 62
     4
370
     9
100
AcDbLine
 10
7775.913604759081
 20
-838.0607204338412
 30
0.0
 11
7995.913272101629
 21
-838.0607204338412
 31
0.0
  0
INSERT
  5
D22
330
5C5
100
AcDbEntity
  8
寸法線
 62
     4
370
     9
100
AcDbBlockReference
  2
_Open30
 10
7725.913604759082
 20
-838.0607204338412
 30
0.0
 41
50.0
 42
50.0
 43
50.0
 50
180.0
  0
INSERT
  5
D23
330
5C5
100
AcDbEntity
  8
寸法線
 62
     4
370
     9
100
AcDbBlockReference
  2
_Open30
 10
8045.913272101628
 20
-838.0607204338412
 30
0.0
 41
50.0
 42
50.0
 43
50.0
  0
MTEXT
  5
D24
330
5C5
100
AcDbEntity
  8
寸法線
 62
     4
100
AcDbMText
 10
7885.913438430356
 20
-775.5607204338412
 30
0.0
 40
75.0
 41
0.0
 71
     5
 72
     1
  1
\A1;320
 73
     1
 44
1.0
1001
ACAD
1000
MTEXTBEGIN
1070
    73
1070
     1
1070
    44
1040
1.0
1070
    74
1070
     0
1000
MTEXTEND
  0
POINT
  5
D25
330
5C5
100
AcDbEntity
  8
DEFPOINTS
 62
     0
100
AcDbPoint
 10
7725.913604759082
 20
-1160.234916468367
 30
0.0
  0
POINT
  5
D26
330
5C5
100
AcDbEntity
  8
DEFPOINTS
 62
     0
100
AcDbPoint
 10
8045.913272101628
 20
-1160.234916468367
 30
0.0
  0
POINT
  5
D27
330
5C5
100
AcDbEntity
  8
DEFPOINTS
 62
     0
100
AcDbPoint
 10
8045.913272101628
 20
-838.0607204338412
 30
0.0
  0
ENDBLK
  5
5D0
330
5C5
100
AcDbEntity
  8
0
 48
25.0
100
AcDbBlockEnd
  0
BLOCK
  5
5DB
330
5D2
100
AcDbEntity
  8
0
 48
25.0
100
AcDbBlockBegin
  2
*D10
 70
     1
 10
0.0
 20
0.0
 30
0.0
  3
*D10
  1

  0
LINE
  5
D28
330
5D2
100
AcDbEntity
  8
寸法線
 62
     4
370
     9
100
AcDbLine
 10
8070.629638897001
 20
-2108.81786193593
 30
0.0
 11
7717.989532146287
 21
-2336.951496262053
 31
0.0
  0
MTEXT
  5
D29
330
5D2
100
AcDbEntity
  8
寸法線
 62
     4
100
AcDbMText
 10
7881.351610577322
 20
-2156.829089741675
 30
0.0
 40
75.0
 41
0.0
 71
     5
 72
     1
  1
\A1;I.D\U+2205500
 11
0.8396193017874143
 21
0.5431753198241016
 31
0.0
 73
     1
 44
1.0
1001
ACAD
1000
MTEXTBEGIN
1070
    73
1070
     1
1070
    44
1040
1.0
1070
    74
1070
     0
1000
MTEXTEND
  0
INSERT
  5
D2A
330
5D2
100
AcDbEntity
  8
寸法線
 62
     4
370
     9
100
AcDbBlockReference
  2
_Open30
 10
7676.008567056915
 20
-2364.110262253257
 30
0.0
 41
50.0
 42
50.0
 43
50.0
 50
212.9000593603071
  0
POINT
  5
D2B
330
5D2
100
AcDbEntity
  8
DEFPOINTS
 62
     0
100
AcDbPoint
 10
7676.008567056915
 20
-2364.110262253257
 30
0.0
  0
POINT
  5
D2C
330
5D2
100
AcDbEntity
  8
DEFPOINTS
 62
     0
100
AcDbPoint
 10
8095.818217950624
 20
-2092.522602341206
 30
0.0
  0
ENDBLK
  5
5DC
330
5D2
100
AcDbEntity
  8
0
 48
25.0
100
AcDbBlockEnd
  0
BLOCK
  5
668
330
65E
100
AcDbEntity
  8
0
 48
25.0
100
AcDbBlockBegin
  2
*D11
 70
     1
 10
0.0
 20
0.0
 30
0.0
  3
*D11
  1

  0
LINE
  5
D90
330
65E
100
AcDbEntity
  8
寸法線
 62
     4
370
     9
100
AcDbLine
 10
9264.413375602126
 20
-2028.316444396971
 30
0.0
 11
9494.896046488229
 21
-2028.316444396971
 31
0.0
  0
LINE
  5
D91
330
65E
100
AcDbEntity
  8
寸法線
 62
     4
370
     9
100
AcDbLine
 10
9264.413375602126
 20
-2428.316450715062
 30
0.0
 11
9494.896046488229
 21
-2428.316450715062
 31
0.0
  0
LINE
  5
D92
330
65E
100
AcDbEntity
  8
寸法線
 62
     4
370
     9
100
AcDbLine
 10
9444.89604648823
 20
-2078.316444396971
 30
0.0
 11
9444.89604648823
 21
-2378.316450715061
 31
0.0
  0
INSERT
  5
D93
330
65E
100
AcDbEntity
  8
寸法線
 62
     4
370
     9
100
AcDbBlockReference
  2
_Open30
 10
9444.89604648823
 20
-2028.316444396971
 30
0.0
 41
50.0
 42
50.0
 43
50.0
 50
90.0
  0
INSERT
  5
D94
330
65E
100
AcDbEntity
  8
寸法線
 62
     4
370
     9
100
AcDbBlockReference
  2
_Open30
 10
9444.89604648823
 20
-2428.316450715062
 30
0.0
 41
50.0
 42
50.0
 43
50.0
 50
270.0
  0
MTEXT
  5
D95
330
65E
100
AcDbEntity
  8
寸法線
 62
     4
100
AcDbMText
 10
9382.39604648823
 20
-2228.316447556015
 30
0.0
 40
75.0
 41
0.0
 71
     5
 72
     1
  1
\A1;400
 11
0.0000000000000001
 21
1.0
 31
0.0
 73
     1
 44
1.0
1001
ACAD
1000
MTEXTBEGIN
1070
    73
1070
     1
1070
    44
1040
1.0
1070
    74
1070
     0
1000
MTEXTEND
  0
POINT
  5
D96
330
65E
100
AcDbEntity
  8
DEFPOINTS
 62
     0
100
AcDbPoint
 10
9239.413375602126
 20
-2028.316444396971
 30
0.0
  0
POINT
  5
D97
330
65E
100
AcDbEntity
  8
DEFPOINTS
 62
     0
100
AcDbPoint
 10
9239.413375602126
 20
-2428.316450715062
 30
0.0
  0
POINT
  5
D98
330
65E
100
AcDbEntity
  8
DEFPOINTS
 62
     0
100
AcDbPoint
 10
9444.89604648823
 20
-2428.316450715062
 30
0.0
  0
ENDBLK
  5
669
330
65E
100
AcDbEntity
  8
0
 48
25.0
100
AcDbBlockEnd
  0
BLOCK
  5
675
330
66B
100
AcDbEntity
  8
0
 48
25.0
100
AcDbBlockBegin
  2
*D12
 70
     1
 10
0.0
 20
0.0
 30
0.0
  3
*D12
  1

  0
LINE
  5
D99
330
66B
100
AcDbEntity
  8
寸法線
 62
     4
370
     9
100
AcDbLine
 10
9215.913391944971
 20
-1948.316453814503
 30
0.0
 11
9669.628067089027
 21
-1948.316453814503
 31
0.0
  0
LINE
  5
D9A
330
66B
100
AcDbEntity
  8
寸法線
 62
     4
370
     9
100
AcDbLine
 10
9215.913391944971
 20
-2508.316441297529
 30
0.0
 11
9669.628067089027
 21
-2508.31644129753
 31
0.0
  0
LINE
  5
D9B
330
66B
100
AcDbEntity
  8
寸法線
 62
     4
370
     9
100
AcDbLine
 10
9619.628067089026
 20
-1998.316453814503
 30
0.0
 11
9619.628067089026
 21
-2458.31644129753
 31
0.0
  0
INSERT
  5
D9C
330
66B
100
AcDbEntity
  8
寸法線
 62
     4
370
     9
100
AcDbBlockReference
  2
_Open30
 10
9619.628067089026
 20
-1948.316453814503
 30
0.0
 41
50.0
 42
50.0
 43
50.0
 50
90.0
  0
INSERT
  5
D9D
330
66B
100
AcDbEntity
  8
寸法線
 62
     4
370
     9
100
AcDbBlockReference
  2
_Open30
 10
9619.628067089026
 20
-2508.31644129753
 30
0.0
 41
50.0
 42
50.0
 43
50.0
 50
270.0
  0
MTEXT
  5
D9E
330
66B
100
AcDbEntity
  8
寸法線
 62
     4
100
AcDbMText
 10
9557.128067089026
 20
-2228.316447556015
 30
0.0
 40
75.0
 41
0.0
 71
     5
 72
     1
  1
\A1;560
 11
0.0000000000000001
 21
1.0
 31
0.0
 73
     1
 44
1.0
1001
ACAD
1000
MTEXTBEGIN
1070
    73
1070
     1
1070
    44
1040
1.0
1070
    74
1070
     0
1000
MTEXTEND
  0
POINT
  5
D9F
330
66B
100
AcDbEntity
  8
DEFPOINTS
 62
     0
100
AcDbPoint
 10
9190.91339194497
 20
-1948.316453814503
 30
0.0
  0
POINT
  5
DA0
330
66B
100
AcDbEntity
  8
DEFPOINTS
 62
     0
100
AcDbPoint
 10
9190.91339194497
 20
-2508.316441297529
 30
0.0
  0
POINT
  5
DA1
330
66B
100
AcDbEntity
  8
DEFPOINTS
 62
     0
100
AcDbPoint
 10
9619.628067089026
 20
-2508.31644129753
 30
0.0
  0
ENDBLK
  5
676
330
66B
100
AcDbEntity
  8
0
 48
25.0
100
AcDbBlockEnd
  0
BLOCK
  5
6B3
330
6AF
100
AcDbEntity
  8
0
 48
25.0
100
AcDbBlockBegin
  2
_Open30
 70
     0
 10
0.0
 20
0.0
 30
0.0
  3
_Open30
  1

  0
LINE
  5
6B0
330
6AF
100
AcDbEntity
  8
0
  6
ByBlock
 62
     0
370
    -2
100
AcDbLine
 10
-1.0
 20
0.26794919
 30
0.0
 11
0.0
 21
0.0
 31
0.0
  0
LINE
  5
6B1
330
6AF
100
AcDbEntity
  8
0
  6
ByBlock
 62
     0
370
    -2
100
AcDbLine
 10
0.0
 20
0.0
 30
0.0
 11
-1.0
 21
-0.26794919
 31
0.0
  0
LINE
  5
6B2
330
6AF
100
AcDbEntity
  8
0
  6
ByBlock
 62
     0
370
    -2
100
AcDbLine
 10
0.0
 20
0.0
 30
0.0
 11
-1.0
 21
0.0
 31
0.0
  0
ENDBLK
  5
6B4
330
6AF
100
AcDbEntity
  8
0
 48
25.0
100
AcDbBlockEnd
  0
BLOCK
  5
7D3
330
7C9
100
AcDbEntity
  8
0
 48
25.0
100
AcDbBlockBegin
  2
*D14
 70
     1
 10
0.0
 20
0.0
 30
0.0
  3
*D14
  1

  0
LINE
  5
D3F
330
7C9
100
AcDbEntity
  8
寸法線
 62
     4
370
     9
100
AcDbLine
 10
2871.064881903683
 20
-2854.002499888481
 30
0.0
 11
2871.064881903683
 21
-2593.244678141535
 31
0.0
  0
LINE
  5
D40
330
7C9
100
AcDbEntity
  8
寸法線
 62
     4
370
     9
100
AcDbLine
 10
3371.065325777669
 20
-2854.002388625719
 30
0.0
 11
3371.065325777669
 21
-2593.244678141535
 31
0.0
  0
LINE
  5
D41
330
7C9
100
AcDbEntity
  8
寸法線
 62
     4
370
     9
100
AcDbLine
 10
2921.064881903684
 20
-2643.244678141535
 30
0.0
 11
3321.065325777669
 21
-2643.244678141535
 31
0.0
  0
INSERT
  5
D42
330
7C9
100
AcDbEntity
  8
寸法線
 62
     4
370
     9
100
AcDbBlockReference
  2
_Open30
 10
2871.064881903683
 20
-2643.244678141535
 30
0.0
 41
50.0
 42
50.0
 43
50.0
 50
180.0
  0
INSERT
  5
D43
330
7C9
100
AcDbEntity
  8
寸法線
 62
     4
370
     9
100
AcDbBlockReference
  2
_Open30
 10
3371.065325777669
 20
-2643.244678141535
 30
0.0
 41
50.0
 42
50.0
 43
50.0
  0
MTEXT
  5
D44
330
7C9
100
AcDbEntity
  8
寸法線
 62
     4
100
AcDbMText
 10
3121.065103840676
 20
-2580.744678141535
 30
0.0
 40
75.0
 41
0.0
 71
     5
 72
     1
  1
\A1;I.D%%c500
 73
     1
 44
1.0
1001
ACAD
1000
MTEXTBEGIN
1070
    73
1070
     1
1070
    44
1040
1.0
1070
    74
1070
     0
1000
MTEXTEND
  0
POINT
  5
D45
330
7C9
100
AcDbEntity
  8
DEFPOINTS
 62
     0
100
AcDbPoint
 10
2871.064881903683
 20
-2879.002499888481
 30
0.0
  0
POINT
  5
D46
330
7C9
100
AcDbEntity
  8
DEFPOINTS
 62
     0
100
AcDbPoint
 10
3371.065325777669
 20
-2879.00238862572
 30
0.0
  0
POINT
  5
D47
330
7C9
100
AcDbEntity
  8
DEFPOINTS
 62
     0
100
AcDbPoint
 10
3371.065325777669
 20
-2643.244678141535
 30
0.0
  0
ENDBLK
  5
7D4
330
7C9
100
AcDbEntity
  8
0
 48
25.0
100
AcDbBlockEnd
  0
BLOCK
  5
DB1
330
DAB
100
AcDbEntity
  8
0
100
AcDbBlockBegin
  2
*D15
 70
     1
 10
0.0
 20
0.0
 30
0.0
  3
*D15
  1

  0
LINE
  5
DAC
330
DAB
100
AcDbEntity
  8
0
 62
     4
370
     9
100
AcDbLine
 10
8314.937008130064
 20
-1823.299473103002
 30
0.0
 11
8507.634055826621
 21
-1641.385076176781
 31
0.0
  0
MTEXT
  5
DAD
330
DAB
100
AcDbEntity
  8
0
 62
     4
100
AcDbMText
 10
8350.202226316822
 20
-1704.056593289403
 30
0.0
 40
75.0
 41
0.0
 71
     5
 72
     1
  1
\A1;R905
 11
0.727158670553043
 21
0.6864694223631022
 31
0.0
 73
     1
 44
1.0
1001
ACAD
1000
MTEXTBEGIN
1070
    73
1070
     1
1070
    44
1040
1.0
1070
    74
1070
     0
1000
MTEXTEND
  0
INSERT
  5
DAE
330
DAB
100
AcDbEntity
  8
0
 62
     4
370
     9
100
AcDbBlockReference
  2
_Open30
 10
8543.991989354273
 20
-1607.061605058625
 30
0.0
 41
50.0
 42
50.0
 43
50.0
 50
43.35127874430887
  0
POINT
  5
DAF
330
DAB
100
AcDbEntity
  8
DEFPOINTS
 62
     0
100
AcDbPoint
 10
8543.991989354273
 20
-1607.061605058625
 30
0.0
  0
POINT
  5
DB0
330
DAB
100
AcDbEntity
  8
DEFPOINTS
 62
     0
100
AcDbPoint
 10
7885.913392503772
 20
-2228.316432297229
 30
0.0
  0
ENDBLK
  5
DB2
330
DAB
100
AcDbEntity
  8
0
100
AcDbBlockEnd
  0
ENDSEC
  0
SECTION
  2
ENTITIES
  0
POINT
  5
10B
330
22
100
AcDbEntity
  8
0
  6
Continuous
100
AcDbPoint
 10
3121.065213063412
 20
-2929.002403300165
 30
0.0
  0
POINT
  5
10C
330
22
100
AcDbEntity
  8
0
  6
Continuous
100
AcDbPoint
 10
3121.065213063412
 20
-2929.002403300165
 30
0.0
  0
POINT
  5
10E
330
22
100
AcDbEntity
  8
0
  6
Continuous
100
AcDbPoint
 10
3121.065213063412
 20
-3119.002349320709
 30
0.0
  0
POINT
  5
10F
330
22
100
AcDbEntity
  8
0
  6
Continuous
 62
     5
100
AcDbPoint
 10
4401.065184453182
 20
-5824.002288859247
 30
0.0
  0
POINT
  5
110
330
22
100
AcDbEntity
  8
0
  6
Continuous
 62
     5
100
AcDbPoint
 10
4401.065184453182
 20
-5824.002288859247
 30
0.0
  0
POINT
  5
111
102
{ACAD_REACTORS
330
641
102
}
330
22
100
AcDbEntity
  8
0
  6
Continuous
 62
     5
100
AcDbPoint
 10
5312.310820338055
 20
-5824.002288859247
 30
0.0
  0
POINT
  5
112
102
{ACAD_REACTORS
330
641
102
}
330
22
100
AcDbEntity
  8
0
  6
Continuous
 62
     5
100
AcDbPoint
 10
5312.310820338055
 20
-5824.002288859247
 30
0.0
  0
LINE
  5
113
330
22
100
AcDbEntity
  8
0
  6
CENTER
 62
     1
100
AcDbLine
 10
3121.065213063412
 20
-2789.336227457879
 30
0.0
 11
3121.065213063412
 21
-5985.348176043391
 31
0.0
  0
LINE
  5
114
330
22
100
AcDbEntity
  8
0
100
AcDbLine
 10
2071.065213063412
 20
-5824.002288859247
 30
0.0
 11
4171.065213063411
 21
-5824.002288859247
 31
0.0
  0
LINE
  5
116
330
22
100
AcDbEntity
  8
0
100
AcDbLine
 10
2041.065193989926
 20
-5794.002290647387
 30
0.0
 11
2041.065193989926
 21
-3409.002288859247
 31
0.0
  0
LINE
  5
117
330
22
100
AcDbEntity
  8
0
100
AcDbLine
 10
2071.065072328148
 20
-3194.002365153192
 30
0.0
 11
2371.065072328149
 21
-3194.002365153192
 31
0.0
  0
LINE
  5
118
330
22
100
AcDbEntity
  8
0
100
AcDbLine
 10
2041.065220702503
 20
-3409.002288859247
 30
0.0
 11
2066.153838761494
 21
-3198.222389192428
 31
0.0
  0
LINE
  5
11B
330
22
100
AcDbEntity
  8
0
100
AcDbLine
 10
2781.065227368527
 20
-2879.002374689935
 30
0.0
 11
3461.065198758297
 21
-2879.002374689935
 31
0.0
  0
LINE
  5
11C
330
22
100
AcDbEntity
  8
0
100
AcDbLine
 10
2781.065227368527
 20
-2914.002412836908
 30
0.0
 11
3461.065198758297
 21
-2914.002412836908
 31
0.0
  0
LINE
  5
11D
330
22
100
AcDbEntity
  8
0
100
AcDbLine
 10
2781.065227368527
 20
-2914.002412836909
 30
0.0
 11
2781.065227368527
 21
-2879.002374689937
 31
0.0
  0
LINE
  5
11E
330
22
100
AcDbEntity
  8
0
100
AcDbLine
 10
2831.065227368526
 20
-2914.002412836909
 30
0.0
 11
2831.065227368526
 21
-2958.867258112788
 31
0.0
  0
LINE
  5
11F
330
22
100
AcDbEntity
  8
0
100
AcDbLine
 10
4201.065232136897
 20
-5794.002290647387
 30
0.0
 11
4201.065232136897
 21
-3409.002288859247
 31
0.0
  0
LINE
  5
120
330
22
100
AcDbEntity
  8
0
100
AcDbLine
 10
4171.065356114559
 20
-3194.002365153192
 30
0.0
 11
3871.065356114559
 21
-3194.002365153192
 31
0.0
  0
LINE
  5
121
330
22
100
AcDbEntity
  8
0
100
AcDbLine
 10
4201.065232136897
 20
-3409.002288859247
 30
0.0
 11
4175.976590171002
 21
-3198.22239229317
 31
0.0
  0
LINE
  5
123
330
22
100
AcDbEntity
  8
0
100
AcDbLine
 10
3411.065198758297
 20
-2914.002412836909
 30
0.0
 11
3411.065198758297
 21
-2958.867258112788
 31
0.0
  0
LINE
  5
124
330
22
100
AcDbEntity
  8
0
100
AcDbLine
 10
3461.065198758297
 20
-2914.002412836909
 30
0.0
 11
3461.065198758297
 21
-2879.002374689937
 31
0.0
  0
LINE
  5
125
330
22
100
AcDbEntity
  8
0
100
AcDbLine
 10
2975.808967927151
 20
-3194.002365153192
 30
0.0
 11
3266.321458199673
 21
-3194.002365153192
 31
0.0
  0
LINE
  5
126
330
22
100
AcDbEntity
  8
0
  6
Continuous
100
AcDbLine
 10
2970.81588825627
 20
-3198.739347032411
 30
0.0
 11
2961.771826929497
 21
-3370.579096269081
 31
0.0
  0
LINE
  5
127
330
22
100
AcDbEntity
  8
0
100
AcDbLine
 10
3271.314537870554
 20
-3198.739347032411
 30
0.0
 11
3280.35859866594
 21
-3370.579086172541
 31
0.0
  0
LINE
  5
12A
330
22
100
AcDbEntity
  8
0
  6
CENTER
 62
     1
100
AcDbLine
 10
4026.065213063412
 20
-3347.127365153192
 30
0.0
 11
4026.065213063412
 21
-3040.877365153192
 31
0.0
  0
LINE
  5
13B
102
{ACAD_REACTORS
330
642
102
}
330
22
100
AcDbEntity
  8
0
  6
Continuous
 62
     5
100
AcDbLine
 10
4414.565184151434
 20
-2674.002359826025
 30
0.0
 11
4414.565184151434
 21
-5812.002288732585
 31
0.0
  0
LINE
  5
13C
102
{ACAD_REACTORS
330
642
102
}
330
22
100
AcDbEntity
  8
0
  6
Continuous
 62
     5
100
AcDbLine
 10
4387.56518475493
 20
-2674.002359826025
 30
0.0
 11
4387.56518475493
 21
-5812.002290639934
 31
0.0
  0
LINE
  5
13D
102
{ACAD_REACTORS
330
642
102
}
330
22
100
AcDbEntity
  8
0
  6
CENTER
 62
     1
100
AcDbLine
 10
4401.065184453182
 20
-2674.002359826025
 30
0.0
 11
4401.065184453182
 21
-5849.002288859245
 31
0.0
  0
LINE
  5
13E
102
{ACAD_REACTORS
330
642
102
}
330
22
100
AcDbEntity
  8
0
  6
Continuous
 62
     5
100
AcDbLine
 10
4376.065185011976
 20
-5812.002289686259
 30
0.0
 11
4426.065183894388
 21
-5812.002289686259
 31
0.0
  0
LINE
  5
13F
102
{ACAD_REACTORS
330
642
102
}
330
22
100
AcDbEntity
  8
0
  6
Continuous
 62
     5
100
AcDbLine
 10
4376.065185011976
 20
-5812.002291593608
 30
0.0
 11
4376.065185011976
 21
-5824.002291305487
 31
0.0
  0
LINE
  5
140
102
{ACAD_REACTORS
330
642
102
}
330
22
100
AcDbEntity
  8
0
  6
Continuous
 62
     5
100
AcDbLine
 10
4426.065183894388
 20
-5812.00228777891
 30
0.0
 11
4426.065183894388
 21
-5824.002287530591
 31
0.0
  0
LINE
  5
141
102
{ACAD_REACTORS
330
642
102
}
330
22
100
AcDbEntity
  8
0
  6
Continuous
 62
     5
100
AcDbLine
 10
4376.065185011976
 20
-5824.002289418038
 30
0.0
 11
4426.065183894388
 21
-5824.002289418038
 31
0.0
  0
LINE
  5
142
102
{ACAD_REACTORS
330
642
102
}
330
22
100
AcDbEntity
  8
0
  6
Continuous
 62
     5
100
AcDbLine
 10
4087.56571025927
 20
-2674.002359826025
 30
0.0
 11
4114.565465515154
 21
-2674.002359826025
 31
0.0
  0
LINE
  5
143
102
{ACAD_REACTORS
330
641
102
}
330
22
100
AcDbEntity
  8
0
  6
CENTER
 62
     1
100
AcDbLine
 10
5512.310846385283
 20
-2524.002362644218
 30
0.0
 11
5512.310846385283
 21
-5812.002289127469
 31
0.0
  0
LINE
  5
144
102
{ACAD_REACTORS
330
641
102
}
330
22
100
AcDbEntity
  8
0
  6
CENTER
 62
     1
100
AcDbLine
 10
5112.310824808404
 20
-2524.002362643313
 30
0.0
 11
5112.310824808404
 21
-5812.002289127469
 31
0.0
  0
LINE
  5
145
102
{ACAD_REACTORS
330
641
102
}
330
22
100
AcDbEntity
  8
0
  6
Continuous
 62
     5
100
AcDbLine
 10
5125.810824506656
 20
-2537.502362318247
 30
0.0
 11
5125.810824506656
 21
-5812.002303432582
 31
0.0
  0
LINE
  5
146
102
{ACAD_REACTORS
330
641
102
}
330
22
100
AcDbEntity
  8
0
  6
Continuous
 62
     5
100
AcDbLine
 10
5498.810846687034
 20
-2537.502362318247
 30
0.0
 11
5498.810846687034
 21
-5812.002274822354
 31
0.0
  0
LINE
  5
147
102
{ACAD_REACTORS
330
641
102
}
330
22
100
AcDbEntity
  8
0
  6
Continuous
 62
     5
100
AcDbLine
 10
5525.810846083536
 20
-2537.502362318247
 30
0.0
 11
5525.810846083536
 21
-5812.002272915005
 31
0.0
  0
LINE
  5
148
102
{ACAD_REACTORS
330
641
102
}
330
22
100
AcDbEntity
  8
0
  6
Continuous
 62
     5
100
AcDbLine
 10
5032.310826596543
 20
-5824.002288859247
 30
0.0
 11
5592.310844597143
 21
-5824.002288859247
 31
0.0
  0
LINE
  5
149
102
{ACAD_REACTORS
330
641
102
}
330
22
100
AcDbEntity
  8
0
  6
CENTER
 62
     1
100
AcDbLine
 10
5312.310820338055
 20
-2490.190839938242
 30
0.0
 11
5312.310820338055
 21
-5916.824918620437
 31
0.0
  0
LINE
  5
14A
102
{ACAD_REACTORS
330
641
102
}
330
22
100
AcDbEntity
  8
0
  6
Continuous
 62
     5
100
AcDbLine
 10
5032.310826596543
 20
-5812.002432178612
 30
0.0
 11
5032.310826596543
 21
-5824.002432068963
 31
0.0
  0
LINE
  5
14B
102
{ACAD_REACTORS
330
641
102
}
330
22
100
AcDbEntity
  8
0
  6
Continuous
 62
     5
100
AcDbLine
 10
5592.310844597143
 20
-5812.002146076324
 30
0.0
 11
5592.310844597143
 21
-5824.002145649516
 31
0.0
  0
LINE
  5
14C
102
{ACAD_REACTORS
330
641
102
}
330
22
100
AcDbEntity
  8
0
  6
Continuous
 62
     5
100
AcDbLine
 10
5098.810794592575
 20
-2537.502362318247
 30
0.0
 11
5098.810794592575
 21
-5812.00230533993
 31
0.0
  0
LINE
  5
14D
102
{ACAD_REACTORS
330
641
102
}
330
22
100
AcDbEntity
  8
0
  6
Continuous
 62
     5
100
AcDbLine
 10
5032.310826596543
 20
-5812.002289127469
 30
0.0
 11
5592.310844597143
 21
-5812.002289127469
 31
0.0
  0
LINE
  5
14E
102
{ACAD_REACTORS
330
641
102
}
330
22
100
AcDbEntity
  8
0
  6
CENTER
 62
     1
100
AcDbLine
 10
5057.310826037749
 20
-5778.002308960913
 30
0.0
 11
5057.310826037749
 21
-5858.002307172774
 31
0.0
  0
LINE
  5
14F
102
{ACAD_REACTORS
330
641
102
}
330
22
100
AcDbEntity
  8
0
  6
CENTER
 62
     1
100
AcDbLine
 10
5567.310845155938
 20
-5778.002270813941
 30
0.0
 11
5567.310845155938
 21
-5858.002269025802
 31
0.0
  0
LINE
  5
150
102
{ACAD_REACTORS
330
642
102
}
330
22
100
AcDbEntity
  8
0
  6
CENTER
 62
     1
100
AcDbLine
 10
4351.065155053191
 20
-5524.002174053251
 30
0.0
 11
4451.065152818017
 21
-5524.002174053251
 31
0.0
  0
LINE
  5
151
102
{ACAD_REACTORS
330
642
102
}
330
22
100
AcDbEntity
  8
0
  6
CENTER
 62
     1
100
AcDbLine
 10
4351.065155053191
 20
-5224.002180758774
 30
0.0
 11
4451.065152818017
 21
-5224.002180758774
 31
0.0
  0
LINE
  5
152
102
{ACAD_REACTORS
330
642
102
}
330
22
100
AcDbEntity
  8
0
  6
CENTER
 62
     1
100
AcDbLine
 10
4351.065155053191
 20
-4924.002187464296
 30
0.0
 11
4451.065152818017
 21
-4924.002187464296
 31
0.0
  0
LINE
  5
153
102
{ACAD_REACTORS
330
642
102
}
330
22
100
AcDbEntity
  8
0
  6
CENTER
 62
     1
100
AcDbLine
 10
4351.065155053191
 20
-4624.002194169817
 30
0.0
 11
4451.065152818017
 21
-4624.002194169817
 31
0.0
  0
LINE
  5
154
102
{ACAD_REACTORS
330
642
102
}
330
22
100
AcDbEntity
  8
0
  6
CENTER
 62
     1
100
AcDbLine
 10
4351.065155053191
 20
-4324.00220087534
 30
0.0
 11
4451.065152818017
 21
-4324.00220087534
 31
0.0
  0
LINE
  5
155
102
{ACAD_REACTORS
330
642
102
}
330
22
100
AcDbEntity
  8
0
  6
CENTER
 62
     1
100
AcDbLine
 10
4351.065155053191
 20
-4024.002207580863
 30
0.0
 11
4451.065152818017
 21
-4024.002207580863
 31
0.0
  0
LINE
  5
156
102
{ACAD_REACTORS
330
642
102
}
330
22
100
AcDbEntity
  8
0
  6
CENTER
 62
     1
100
AcDbLine
 10
4351.065155053191
 20
-3724.002214286386
 30
0.0
 11
4451.065152818017
 21
-3724.002214286386
 31
0.0
  0
LINE
  5
157
102
{ACAD_REACTORS
330
642
102
}
330
22
100
AcDbEntity
  8
0
  6
CENTER
 62
     1
100
AcDbLine
 10
4351.065155053191
 20
-3424.002220991909
 30
0.0
 11
4451.065152818017
 21
-3424.002220991909
 31
0.0
  0
LINE
  5
158
102
{ACAD_REACTORS
330
641
102
}
330
22
100
AcDbEntity
  8
0
  6
Continuous
 62
     5
100
AcDbLine
 10
5125.810702436346
 20
-5532.002173315646
 30
0.0
 11
5498.810724616723
 21
-5532.002173315646
 31
0.0
  0
LINE
  5
159
102
{ACAD_REACTORS
330
641
102
}
330
22
100
AcDbEntity
  8
0
  6
CENTER
 62
     1
100
AcDbLine
 10
5032.310704526233
 20
-5524.002173494459
 30
0.0
 11
5592.310722526834
 21
-5524.002173494459
 31
0.0
  0
LINE
  5
15A
102
{ACAD_REACTORS
330
641
102
}
330
22
100
AcDbEntity
  8
0
  6
Continuous
 62
     5
100
AcDbLine
 10
5125.810702436346
 20
-5516.002173673274
 30
0.0
 11
5498.810724616723
 21
-5516.002173673274
 31
0.0
  0
LINE
  5
15B
102
{ACAD_REACTORS
330
641
102
}
330
22
100
AcDbEntity
  8
0
  6
Continuous
 62
     5
100
AcDbLine
 10
5125.810702436346
 20
-5216.002180378796
 30
0.0
 11
5498.810724616723
 21
-5216.002180378796
 31
0.0
  0
LINE
  5
15C
102
{ACAD_REACTORS
330
641
102
}
330
22
100
AcDbEntity
  8
0
  6
CENTER
 62
     1
100
AcDbLine
 10
5032.310704526233
 20
-5224.002180199983
 30
0.0
 11
5592.310722526834
 21
-5224.002180199983
 31
0.0
  0
LINE
  5
15D
102
{ACAD_REACTORS
330
641
102
}
330
22
100
AcDbEntity
  8
0
  6
Continuous
 62
     5
100
AcDbLine
 10
5125.810702436346
 20
-5232.002180021169
 30
0.0
 11
5498.810724616723
 21
-5232.002180021169
 31
0.0
  0
LINE
  5
15E
102
{ACAD_REACTORS
330
641
102
}
330
22
100
AcDbEntity
  8
0
  6
Continuous
 62
     5
100
AcDbLine
 10
5125.810702436346
 20
-4916.002187084319
 30
0.0
 11
5498.810724616723
 21
-4916.002187084319
 31
0.0
  0
LINE
  5
15F
102
{ACAD_REACTORS
330
641
102
}
330
22
100
AcDbEntity
  8
0
  6
CENTER
 62
     1
100
AcDbLine
 10
5032.310704526233
 20
-4924.002186905505
 30
0.0
 11
5592.310722526834
 21
-4924.002186905505
 31
0.0
  0
LINE
  5
160
102
{ACAD_REACTORS
330
641
102
}
330
22
100
AcDbEntity
  8
0
  6
Continuous
 62
     5
100
AcDbLine
 10
5125.810702436346
 20
-4932.002186726691
 30
0.0
 11
5498.810724616723
 21
-4932.002186726691
 31
0.0
  0
LINE
  5
161
102
{ACAD_REACTORS
330
641
102
}
330
22
100
AcDbEntity
  8
0
  6
Continuous
 62
     5
100
AcDbLine
 10
5125.810702436346
 20
-4632.002193432213
 30
0.0
 11
5498.810724616723
 21
-4632.002193432213
 31
0.0
  0
LINE
  5
162
102
{ACAD_REACTORS
330
641
102
}
330
22
100
AcDbEntity
  8
0
  6
CENTER
 62
     1
100
AcDbLine
 10
5032.310704526233
 20
-4624.002193611027
 30
0.0
 11
5592.310722526834
 21
-4624.002193611027
 31
0.0
  0
LINE
  5
163
102
{ACAD_REACTORS
330
641
102
}
330
22
100
AcDbEntity
  8
0
  6
Continuous
 62
     5
100
AcDbLine
 10
5125.810702436346
 20
-4616.002193789841
 30
0.0
 11
5498.810724616723
 21
-4616.002193789841
 31
0.0
  0
LINE
  5
164
102
{ACAD_REACTORS
330
641
102
}
330
22
100
AcDbEntity
  8
0
  6
Continuous
 62
     5
100
AcDbLine
 10
5125.810702436346
 20
-4316.002200495364
 30
0.0
 11
5498.810724616723
 21
-4316.002200495364
 31
0.0
  0
LINE
  5
165
102
{ACAD_REACTORS
330
641
102
}
330
22
100
AcDbEntity
  8
0
  6
CENTER
 62
     1
100
AcDbLine
 10
5032.310704526233
 20
-4324.00220031655
 30
0.0
 11
5592.310722526834
 21
-4324.00220031655
 31
0.0
  0
LINE
  5
166
102
{ACAD_REACTORS
330
641
102
}
330
22
100
AcDbEntity
  8
0
  6
Continuous
 62
     5
100
AcDbLine
 10
5125.810702436346
 20
-4332.002200137735
 30
0.0
 11
5498.810724616723
 21
-4332.002200137735
 31
0.0
  0
LINE
  5
167
102
{ACAD_REACTORS
330
641
102
}
330
22
100
AcDbEntity
  8
0
  6
Continuous
 62
     5
100
AcDbLine
 10
5125.810702436346
 20
-4032.002206843258
 30
0.0
 11
5498.810724616723
 21
-4032.002206843258
 31
0.0
  0
LINE
  5
168
102
{ACAD_REACTORS
330
641
102
}
330
22
100
AcDbEntity
  8
0
  6
CENTER
 62
     1
100
AcDbLine
 10
5032.310704526233
 20
-4024.002207022072
 30
0.0
 11
5592.310722526834
 21
-4024.002207022072
 31
0.0
  0
LINE
  5
169
102
{ACAD_REACTORS
330
641
102
}
330
22
100
AcDbEntity
  8
0
  6
Continuous
 62
     5
100
AcDbLine
 10
5125.810702436346
 20
-4016.002207200886
 30
0.0
 11
5498.810724616723
 21
-4016.002207200886
 31
0.0
  0
LINE
  5
16A
102
{ACAD_REACTORS
330
641
102
}
330
22
100
AcDbEntity
  8
0
  6
Continuous
 62
     5
100
AcDbLine
 10
5125.810702436346
 20
-3716.002213906409
 30
0.0
 11
5498.810724616723
 21
-3716.002213906409
 31
0.0
  0
LINE
  5
16B
102
{ACAD_REACTORS
330
641
102
}
330
22
100
AcDbEntity
  8
0
  6
CENTER
 62
     1
100
AcDbLine
 10
5032.310704526233
 20
-3724.002213727595
 30
0.0
 11
5592.310722526834
 21
-3724.002213727595
 31
0.0
  0
LINE
  5
16C
102
{ACAD_REACTORS
330
641
102
}
330
22
100
AcDbEntity
  8
0
  6
Continuous
 62
     5
100
AcDbLine
 10
5125.810702436346
 20
-3732.002213548781
 30
0.0
 11
5498.810724616723
 21
-3732.002213548781
 31
0.0
  0
LINE
  5
16D
102
{ACAD_REACTORS
330
641
102
}
330
22
100
AcDbEntity
  8
0
  6
Continuous
 62
     5
100
AcDbLine
 10
5125.810702436346
 20
-3432.002220254304
 30
0.0
 11
5498.810724616723
 21
-3432.002220254304
 31
0.0
  0
LINE
  5
16E
102
{ACAD_REACTORS
330
641
102
}
330
22
100
AcDbEntity
  8
0
  6
CENTER
 62
     1
100
AcDbLine
 10
5032.310704526233
 20
-3424.002220433119
 30
0.0
 11
5592.310722526834
 21
-3424.002220433119
 31
0.0
  0
LINE
  5
16F
102
{ACAD_REACTORS
330
641
102
}
330
22
100
AcDbEntity
  8
0
  6
Continuous
 62
     5
100
AcDbLine
 10
5125.810702436346
 20
-3416.002220611932
 30
0.0
 11
5498.810724616723
 21
-3416.002220611932
 31
0.0
  0
ARC
  5
170
330
22
100
AcDbEntity
  8
0
100
AcDbCircle
 10
2071.065213063412
 20
-5794.002290647386
 30
0.0
 40
29.99999821186065
100
AcDbArc
 50
179.9999813306653
 51
270.00001798609
  0
ARC
  5
171
330
22
100
AcDbEntity
  8
0
100
AcDbCircle
 10
2071.092639580465
 20
-3199.002288859247
 30
0.0
 40
4.999999701976775
100
AcDbArc
 50
89.99998201391029
 51
171.0263658736088
  0
ARC
  5
172
330
22
100
AcDbEntity
  8
0
100
AcDbCircle
 10
3339.917510088673
 20
-4673.965398065342
 30
0.0
 40
1767.79220351112
100
AcDbArc
 50
107.4896958819627
 51
133.8448884305219
  0
ARC
  5
173
330
22
100
AcDbEntity
  8
0
100
AcDbCircle
 10
2801.065232136898
 20
-2958.867258112788
 30
0.0
 40
29.99999821186065
100
AcDbArc
 50
284.6158783192978
 51
0.0
  0
ARC
  5
174
330
22
100
AcDbEntity
  8
0
100
AcDbCircle
 10
3441.065193989925
 20
-2958.867258112788
 30
0.0
 40
29.99999821186065
100
AcDbArc
 50
179.9999640278213
 51
255.3840788783358
  0
ARC
  5
175
330
22
100
AcDbEntity
  8
0
100
AcDbCircle
 10
4171.037788862385
 20
-3199.002288859247
 30
0.0
 40
4.999999701976775
100
AcDbArc
 50
8.973598154212842
 51
89.99998201391029
  0
ARC
  5
176
330
22
100
AcDbEntity
  8
0
100
AcDbCircle
 10
2902.213094920811
 20
-4673.965101232098
 30
0.0
 40
1767.791865516192
100
AcDbArc
 50
46.1551090866212
 51
72.51030748189034
  0
ARC
  5
177
330
22
100
AcDbEntity
  8
0
100
AcDbCircle
 10
4171.065213063411
 20
-5794.002290647386
 30
0.0
 40
29.99999821186065
100
AcDbArc
 50
269.9999633445766
 51
0.0
  0
ARC
  5
178
330
22
100
AcDbEntity
  8
0
  6
Continuous
100
AcDbCircle
 10
2933.15733896617
 20
-3370.392567214497
 30
0.0
 40
28.61509591966451
100
AcDbArc
 50
268.8895301699092
 51
359.6265117089753
  0
ARC
  5
179
330
22
100
AcDbEntity
  8
0
100
AcDbCircle
 10
3310.317130148365
 20
-3369.002290647387
 30
0.0
 40
29.99999821186065
100
AcDbArc
 50
183.0128460754505
 51
270.00001798609
  0
ARC
  5
17A
330
22
100
AcDbEntity
  8
0
  6
Continuous
100
AcDbCircle
 10
2975.808967927151
 20
-3199.002288859247
 30
0.0
 40
4.999999701976775
100
AcDbArc
 50
89.99998201391081
 51
176.986785094337
  0
ARC
  5
17B
330
22
100
AcDbEntity
  8
0
100
AcDbCircle
 10
3266.321458199673
 20
-3199.002288859247
 30
0.0
 40
4.999999701976775
100
AcDbArc
 50
3.01323272122508
 51
89.9999820139107
  0
ARC
  5
17C
330
22
100
AcDbEntity
  8
0
100
AcDbCircle
 10
3121.065213063412
 20
-3369.835275690912
 30
0.0
 40
550.832986831665
100
AcDbArc
 50
63.0085019235568
 51
116.9915235759671
  0
ARC
  5
17F
102
{ACAD_REACTORS
330
642
102
}
330
22
100
AcDbEntity
  8
0
  6
CENTER
 62
     1
100
AcDbCircle
 10
4251.065462464141
 20
-2674.002359826025
 30
0.0
 40
149.9999966472387
100
AcDbArc
 50
0.0000179860893038
 51
179.9999273723973
  0
ARC
  5
180
102
{ACAD_REACTORS
330
642
102
}
330
22
100
AcDbEntity
  8
0
  6
Continuous
 62
     5
100
AcDbCircle
 10
4251.065462464141
 20
-2674.002359826025
 30
0.0
 40
136.4999969489872
100
AcDbArc
 50
0.0000179860893381
 51
179.9999273723973
  0
ARC
  5
181
102
{ACAD_REACTORS
330
642
102
}
330
22
100
AcDbEntity
  8
0
  6
Continuous
 62
     5
100
AcDbCircle
 10
4251.065462464141
 20
-2674.002359826025
 30
0.0
 40
163.4999963454902
100
AcDbArc
 50
0.0000179860893996
 51
179.9999273723973
  0
ARC
  5
182
102
{ACAD_REACTORS
330
641
102
}
330
22
100
AcDbEntity
  8
0
  6
Continuous
 62
     5
100
AcDbCircle
 10
5112.310031351389
 20
-2537.502362318247
 30
0.0
 40
13.49999969825148
100
AcDbArc
 50
0.0000043257112766
 51
179.9999683535334
  0
ARC
  5
183
102
{ACAD_REACTORS
330
641
102
}
330
22
100
AcDbEntity
  8
0
  6
Continuous
 62
     5
100
AcDbCircle
 10
5512.310037669482
 20
-2537.502362318247
 30
0.0
 40
13.49999969825148
100
AcDbArc
 50
0.0000043257112766
 51
179.9999683535334
  0
POINT
  5
214
330
22
100
AcDbEntity
  8
2
  6
Continuous
100
AcDbPoint
 10
7885.913392503766
 20
-2228.316432297231
 30
0.0
  0
POINT
  5
218
330
22
100
AcDbEntity
  8
2
  6
Continuous
100
AcDbPoint
 10
8145.517793780834
 20
-2008.758820017225
 30
0.0
  0
POINT
  5
219
330
22
100
AcDbEntity
  8
2
  6
Continuous
100
AcDbPoint
 10
8145.517793780834
 20
-2008.758820017225
 30
0.0
  0
POINT
  5
21A
102
{ACAD_REACTORS
330
64D
102
}
330
22
100
AcDbEntity
  8
2
  6
Continuous
 62
     5
100
AcDbPoint
 10
9165.913377244979
 20
-2014.816444698719
 30
0.0
  0
POINT
  5
21B
330
22
100
AcDbEntity
  8
2
100
AcDbPoint
 10
7725.914001511229
 20
-1160.236061198972
 30
0.0
  0
POINT
  5
21C
330
22
100
AcDbEntity
  8
2
100
AcDbPoint
 10
8045.913436312465
 20
-1160.234025748023
 30
0.0
  0
LINE
  5
21D
330
22
100
AcDbEntity
  8
2
  6
CENTER
 62
     1
100
AcDbLine
 10
9035.913392503768
 20
-2228.316432297231
 30
0.0
 11
6735.913392503768
 21
-2228.316432297231
 31
0.0
  0
LINE
  5
21E
330
22
100
AcDbEntity
  8
2
  6
CENTER
 62
     1
100
AcDbLine
 10
7885.913392503766
 20
-3378.31643229723
 30
0.0
 11
7885.913392503766
 21
-1078.31643229723
 31
0.0
  0
LINE
  5
21F
330
22
100
AcDbEntity
  8
2
100
AcDbLine
 10
7735.913773973492
 20
-1478.316432297229
 30
0.0
 11
7735.913773973492
 21
-1189.086085617542
 31
0.0
  0
LINE
  5
220
330
22
100
AcDbEntity
  8
2
100
AcDbLine
 10
8035.913773973492
 20
-1478.316432297229
 30
0.0
 11
8035.913773973492
 21
-1189.086085617542
 31
0.0
  0
LINE
  5
221
330
22
100
AcDbEntity
  8
2
100
AcDbLine
 10
8045.913436422065
 20
-1160.234442362738
 30
0.0
 11
8035.91357894985
 21
-1189.086536697752
 31
0.0
  0
LINE
  5
222
330
22
100
AcDbEntity
  8
2
100
AcDbLine
 10
8045.913442110515
 20
-1160.233841320798
 30
0.0
 11
8035.91352959296
 21
-1478.315902787677
 31
0.0
  0
LINE
  5
223
330
22
100
AcDbEntity
  8
2
100
AcDbLine
 10
7725.913604759082
 20
-1160.234916468367
 30
0.0
 11
7735.913390020377
 21
-1189.086833964927
 31
0.0
  0
LINE
  5
224
330
22
100
AcDbEntity
  8
2
100
AcDbLine
 10
7725.913965288651
 20
-1160.234908997323
 30
0.0
 11
7735.913735682669
 21
-1478.316974932272
 31
0.0
  0
LINE
  5
225
330
22
100
AcDbEntity
  8
2
100
AcDbLine
 10
7135.913201768902
 20
-2378.31643229723
 30
0.0
 11
6846.683045824081
 21
-2378.31643229723
 31
0.0
  0
LINE
  5
226
330
22
100
AcDbEntity
  8
2
100
AcDbLine
 10
7135.913201768902
 20
-2078.316432297231
 30
0.0
 11
6846.683045824081
 21
-2078.316432297231
 31
0.0
  0
LINE
  5
227
330
22
100
AcDbEntity
  8
2
100
AcDbLine
 10
6817.830954723158
 20
-2068.316492252768
 30
0.0
 11
6846.683050747685
 21
-2078.316344850311
 31
0.0
  0
LINE
  5
228
330
22
100
AcDbEntity
  8
2
100
AcDbLine
 10
6817.83116255718
 20
-2068.316366868238
 30
0.0
 11
7135.913226258103
 21
-2078.316208324025
 31
0.0
  0
LINE
  5
229
330
22
100
AcDbEntity
  8
2
100
AcDbLine
 10
6817.831055570285
 20
-2388.316335484975
 30
0.0
 11
6846.683151594813
 21
-2378.316482887433
 31
0.0
  0
LINE
  5
22A
330
22
100
AcDbEntity
  8
2
100
AcDbLine
 10
6817.831127637791
 20
-2388.316113454237
 30
0.0
 11
7135.913381979391
 21
-2378.316266005103
 31
0.0
  0
LINE
  5
22B
330
22
100
AcDbEntity
  8
2
100
AcDbLine
 10
8035.913011034038
 20
-2978.316623032093
 30
0.0
 11
8035.913011034038
 21
-3267.546778976917
 31
0.0
  0
LINE
  5
22C
330
22
100
AcDbEntity
  8
2
100
AcDbLine
 10
7735.913011034039
 20
-2978.316623032093
 30
0.0
 11
7735.913011034039
 21
-3267.546778976917
 31
0.0
  0
LINE
  5
22D
330
22
100
AcDbEntity
  8
2
100
AcDbLine
 10
7725.913588135862
 20
-3296.398933083781
 30
0.0
 11
7735.913442358297
 21
-3267.546837622423
 31
0.0
  0
LINE
  5
22E
330
22
100
AcDbEntity
  8
2
100
AcDbLine
 10
7725.91315837371
 20
-3296.39859209531
 30
0.0
 11
7735.913023516754
 21
-2978.316529139064
 31
0.0
  0
LINE
  5
22F
330
22
100
AcDbEntity
  8
2
100
AcDbLine
 10
8045.913253890862
 20
-3296.398501392666
 30
0.0
 11
8035.913402918213
 21
-3267.546404804968
 31
0.0
  0
LINE
  5
230
330
22
100
AcDbEntity
  8
2
100
AcDbLine
 10
8045.912910677827
 20
-3296.398599261261
 30
0.0
 11
8035.913086915961
 21
-2978.316344174985
 31
0.0
  0
LINE
  5
231
330
22
100
AcDbEntity
  8
2
100
AcDbLine
 10
8635.913392503768
 20
-2078.317195236682
 30
0.0
 11
8925.143739183456
 21
-2078.317195236682
 31
0.0
  0
LINE
  5
232
330
22
100
AcDbEntity
  8
2
100
AcDbLine
 10
8635.913392503768
 20
-2378.317195236682
 30
0.0
 11
8925.143739183456
 21
-2378.317195236682
 31
0.0
  0
LINE
  5
233
330
22
100
AcDbEntity
  8
2
100
AcDbLine
 10
8953.995355254045
 20
-2388.316519009106
 30
0.0
 11
8925.143260355861
 21
-2378.31666316178
 31
0.0
  0
LINE
  5
234
330
22
100
AcDbEntity
  8
2
100
AcDbLine
 10
8953.996232492489
 20
-2388.316478090353
 30
0.0
 11
8635.914170280926
 21
-2378.316589260052
 31
0.0
  0
LINE
  5
235
330
22
100
AcDbEntity
  8
2
100
AcDbLine
 10
8953.994944324909
 20
-2068.316941619615
 30
0.0
 11
8925.142847174036
 21
-2078.316790967376
 31
0.0
  0
LINE
  5
236
330
22
100
AcDbEntity
  8
2
100
AcDbLine
 10
8953.995089402425
 20
-2068.317043497227
 30
0.0
 11
8635.913024212152
 21
-2078.316837578503
 31
0.0
  0
LINE
  5
237
102
{ACAD_REACTORS
330
64D
102
}
330
22
100
AcDbEntity
  8
2
  6
Continuous
 62
     5
100
AcDbLine
 10
8150.52203283313
 20
-2441.816450413314
 30
0.0
 11
9165.913407762557
 21
-2441.816450413314
 31
0.0
  0
LINE
  5
238
102
{ACAD_REACTORS
330
64D
102
}
330
22
100
AcDbEntity
  8
2
  6
Continuous
 62
     5
100
AcDbLine
 10
8170.197991611981
 20
-2414.816451016812
 30
0.0
 11
9165.913407762557
 21
-2414.816451016812
 31
0.0
  0
LINE
  5
239
102
{ACAD_REACTORS
330
64D
102
}
330
22
100
AcDbEntity
  8
2
  6
CENTER
 62
     1
100
AcDbLine
 10
8091.019898804502
 20
-2428.316450715062
 30
0.0
 11
9239.413406119703
 21
-2428.316450715062
 31
0.0
  0
LINE
  5
23A
102
{ACAD_REACTORS
330
64D
102
}
330
22
100
AcDbEntity
  8
2
  6
CENTER
 62
     1
100
AcDbLine
 10
8087.177979945062
 20
-2028.316444396971
 30
0.0
 11
9239.413375602126
 21
-2028.316444396971
 31
0.0
  0
LINE
  5
23B
102
{ACAD_REACTORS
330
64D
102
}
330
22
100
AcDbEntity
  8
2
  6
Continuous
 62
     5
100
AcDbLine
 10
8150.52205745629
 20
-2014.816444698719
 30
0.0
 11
9165.913377244979
 21
-2014.816444698719
 31
0.0
  0
LINE
  5
23C
102
{ACAD_REACTORS
330
64D
102
}
330
22
100
AcDbEntity
  8
2
  6
Continuous
 62
     5
100
AcDbLine
 10
8170.198011632505
 20
-2041.816444095221
 30
0.0
 11
9165.913377244979
 21
-2041.816444095221
 31
0.0
  0
LINE
  5
23D
102
{ACAD_REACTORS
330
64D
102
}
330
22
100
AcDbEntity
  8
2
  6
CENTER
 62
     1
100
AcDbLine
 10
9165.913392503767
 20
-1933.067722440344
 30
0.0
 11
9165.913392503767
 21
-2522.457407631282
 31
0.0
  0
LINE
  5
23E
102
{ACAD_REACTORS
330
64D
102
}
330
22
100
AcDbEntity
  8
2
  6
Continuous
 62
     5
100
AcDbLine
 10
9157.913392682582
 20
-2041.816444095221
 30
0.0
 11
9157.913392682582
 21
-2414.816435758022
 31
0.0
  0
LINE
  5
23F
102
{ACAD_REACTORS
330
64D
102
}
330
22
100
AcDbEntity
  8
2
  6
Continuous
 62
     5
100
AcDbLine
 10
9173.913392324953
 20
-2039.190467591416
 30
0.0
 11
9173.913392324953
 21
-2417.441923980589
 31
0.0
  0
LINE
  5
241
102
{ACAD_REACTORS
330
64D
102
}
330
22
100
AcDbEntity
  8
2
  6
CENTER
 62
     1
100
AcDbLine
 10
9277.934421041202
 20
-2228.316447556017
 30
0.0
 11
8880.164087965036
 21
-2228.316447556017
 31
0.0
  0
LINE
  5
243
102
{ACAD_REACTORS
330
64D
102
}
330
22
100
AcDbEntity
  8
2
  6
Continuous
 62
     5
100
AcDbLine
 10
9190.91339194497
 20
-2508.316441297529
 30
0.0
 11
9190.91339194497
 21
-1948.316453814503
 31
0.0
  0
LINE
  5
244
102
{ACAD_REACTORS
330
64D
102
}
330
22
100
AcDbEntity
  8
2
  6
Continuous
 62
     5
100
AcDbLine
 10
9140.913393062557
 20
-2508.316441297529
 30
0.0
 11
9140.913393062557
 21
-2441.816450413314
 31
0.0
  0
LINE
  5
245
102
{ACAD_REACTORS
330
64D
102
}
330
22
100
AcDbEntity
  8
2
  6
Continuous
 62
     5
100
AcDbLine
 10
9140.913393062557
 20
-1948.316453814503
 30
0.0
 11
9190.91339194497
 21
-1948.316453814503
 31
0.0
  0
LINE
  5
246
102
{ACAD_REACTORS
330
64D
102
}
330
22
100
AcDbEntity
  8
2
  6
Continuous
 62
     5
100
AcDbLine
 10
9140.913393062557
 20
-2508.316441297529
 30
0.0
 11
9190.91339194497
 21
-2508.316441297529
 31
0.0
  0
LINE
  5
247
102
{ACAD_REACTORS
330
64D
102
}
330
22
100
AcDbEntity
  8
2
  6
CENTER
 62
     1
 48
0.2
100
AcDbLine
 10
9115.913393621354
 20
-1973.316453255711
 30
0.0
 11
9215.91339138618
 21
-1973.316453255711
 31
0.0
  0
LINE
  5
248
102
{ACAD_REACTORS
330
64D
102
}
330
22
100
AcDbEntity
  8
2
  6
CENTER
 62
     1
 48
0.2
100
AcDbLine
 10
9115.913393621354
 20
-2483.316441856322
 30
0.0
 11
9215.91339138618
 21
-2483.316441856322
 31
0.0
  0
LINE
  5
249
102
{ACAD_REACTORS
330
64D
102
}
330
22
100
AcDbEntity
  8
2
  6
Continuous
 62
     5
100
AcDbLine
 10
9140.913393062557
 20
-2414.816451016812
 30
0.0
 11
9140.913393062557
 21
-2041.816444095221
 31
0.0
  0
LINE
  5
24A
102
{ACAD_REACTORS
330
64D
102
}
330
22
100
AcDbEntity
  8
2
  6
Continuous
 62
     5
100
AcDbLine
 10
9140.913393062557
 20
-2014.816444698719
 30
0.0
 11
9140.913393062557
 21
-1948.316453814503
 31
0.0
  0
CIRCLE
  5
24C
330
22
100
AcDbEntity
  8
2
100
AcDbCircle
 10
7885.913392503766
 20
-2228.316432297231
 30
0.0
 40
339.9999856948852
  0
CIRCLE
  5
24D
330
22
100
AcDbEntity
  8
2
100
AcDbCircle
 10
7885.913392503766
 20
-2228.316432297231
 30
0.0
 40
250.0
  0
ARC
  5
24F
330
22
100
AcDbEntity
  8
2
100
AcDbCircle
 10
7885.913392503766
 20
-2228.316432297231
 30
0.0
 40
1050.0
100
AcDbArc
 50
81.78681614075374
 51
98.21317520782429
  0
ARC
  5
250
330
22
100
AcDbEntity
  8
2
100
AcDbCircle
 10
7885.913392503766
 20
-2228.316432297231
 30
0.0
 40
1050.0
100
AcDbArc
 50
171.7868118150427
 51
188.2131708821139
  0
ARC
  5
251
330
22
100
AcDbEntity
  8
2
100
AcDbCircle
 10
7885.913392503766
 20
-2228.316432297231
 30
0.0
 40
1050.0
100
AcDbArc
 50
261.7868247921765
 51
278.213183859247
  0
ARC
  5
252
330
22
100
AcDbEntity
  8
2
100
AcDbCircle
 10
7885.913392503766
 20
-2228.316432297231
 30
0.0
 40
1050.0
100
AcDbArc
 50
351.7868204664654
 51
8.213179533535278
  0
ARC
  5
257
102
{ACAD_REACTORS
330
64D
102
}
330
22
100
AcDbEntity
  8
2
  6
Continuous
 62
     5
100
AcDbCircle
 10
9165.91337694685
 20
-2028.316444396971
 30
0.0
 40
13.49999969825148
100
AcDbArc
 50
270.000022311801
 51
89.99998633962233
  0
ARC
  5
258
102
{ACAD_REACTORS
330
64D
102
}
330
22
100
AcDbEntity
  8
2
  6
Continuous
 62
     5
100
AcDbCircle
 10
8865.913368691712
 20
-2028.316444396971
 30
0.0
 40
13.49999969825148
100
AcDbArc
 50
89.99998633962233
 51
270.0000050089558
  0
ARC
  5
259
102
{ACAD_REACTORS
330
64D
102
}
330
22
100
AcDbEntity
  8
2
  6
Continuous
 62
     5
100
AcDbCircle
 10
8865.91339920929
 20
-2428.316450715062
 30
0.0
 40
13.49999969825148
100
AcDbArc
 50
89.99998633962233
 51
270.0000050089558
  0
ARC
  5
25A
102
{ACAD_REACTORS
330
64D
102
}
330
22
100
AcDbEntity
  8
2
  6
Continuous
 62
     5
100
AcDbCircle
 10
9165.91340714601
 20
-2428.316435456275
 30
0.0
 40
13.49999969825148
100
AcDbArc
 50
270.000022311801
 51
89.99998633962233
  0
DIMENSION
  5
52B
330
22
100
AcDbEntity
  8
寸法線
 48
25.0
100
AcDbDimension
  2
*D0
 10
5901.209900070375
 20
-3424.002220433119
 30
0.0
 11
5838.709900070376
 21
-4624.002183041316
 31
0.0
 70
    32
  1
300{\H0.6978x;\SP^ ;}×8=<>
 71
     5
 42
2399.999925216398
  3
1-25
100
AcDbAlignedDimension
 13
5592.310844597143
 23
-5824.002145649516
 33
0.0
 14
5592.310722526834
 24
-3424.002220433119
 34
0.0
 50
90.0
100
AcDbRotatedDimension
1001
ACAD
1000
DSTYLE
1002
{
1070
   340
1005
11
1002
}
  0
TEXT
  5
547
330
22
100
AcDbEntity
  8
0
 48
25.0
100
AcDbText
 10
8351.147477188927
 20
-6552.03862765149
 30
0.0
 40
75.0
  1
１／２５
 41
0.8
 72
     4
 11
8491.147477188926
 21
-6512.038627651491
 31
0.0
100
AcDbText
  0
TEXT
  5
548
330
22
100
AcDbEntity
  8
0
 48
25.0
100
AcDbText
 10
9104.632615393347
 20
-6210.49932799901
 30
0.0
 40
150.0
  1
ＵＬ－８０００
 41
0.6
100
AcDbText
  0
DIMENSION
  5
54D
330
22
100
AcDbEntity
  8
寸法線
 48
25.0
100
AcDbDimension
  2
*D1
 10
1765.787084367323
 20
-3409.002288859247
 30
0.0
 11
1703.287084367324
 21
-4616.502288859244
 31
0.0
 70
    32
 71
     5
 42
2414.999999999998
  3
1-25
100
AcDbAlignedDimension
 13
2071.065222480906
 23
-5824.002288859245
 33
0.0
 14
2041.065220702503
 24
-3409.002288859247
 34
0.0
 50
90.0
100
AcDbRotatedDimension
1001
ACAD
1000
DSTYLE
1002
{
1070
   340
1005
11
1002
}
  0
DIMENSION
  5
55A
330
22
100
AcDbEntity
  8
寸法線
 48
25.0
100
AcDbDimension
  2
*D2
 10
1765.787084367322
 20
-3409.002288859247
 30
0.0
 11
1765.787084367322
 21
-3121.502284090882
 31
0.0
 70
   160
  1
(<>)
 71
     5
 42
590.0000000000004
  3
1-25
100
AcDbAlignedDimension
 13
3121.065213063412
 23
-2819.002288859247
 33
0.0
 14
2041.065220702503
 24
-3409.002288859247
 34
0.0
 50
90.0
100
AcDbRotatedDimension
1001
ACAD
1000
DSTYLE
1002
{
1070
   340
1005
11
1002
}
  0
DIMENSION
  5
56D
330
22
100
AcDbEntity
  8
寸法線
 48
25.0
100
AcDbDimension
  2
*D3
 10
2371.065072328149
 20
-2966.736819079801
 30
0.0
 11
2221.065072328149
 21
-2904.236819079801
 31
0.0
 70
    32
 71
     5
 42
300.0000000000009
  3
1-25
100
AcDbAlignedDimension
 13
2071.065072328148
 23
-3194.002365153192
 33
0.0
 14
2371.065072328149
 24
-3194.002365153191
 34
0.0
100
AcDbRotatedDimension
1001
ACAD
1000
DSTYLE
1002
{
1070
   340
1005
11
1002
}
  0
DIMENSION
  5
57A
330
22
100
AcDbEntity
  8
寸法線
 48
25.0
100
AcDbDimension
  2
*D4
 10
1400.483110331471
 20
-5824.002288859245
 30
0.0
 11
1337.983110331473
 21
-4321.502288859245
 31
0.0
 70
    32
  1
(<>)
 71
     5
 42
3004.999999999999
  3
1-25
100
AcDbAlignedDimension
 13
3121.065213063412
 23
-2819.002288859247
 33
0.0
 14
2071.065213063412
 24
-5824.002288859245
 34
0.0
 50
90.0
100
AcDbRotatedDimension
1001
ACAD
1000
DSTYLE
1002
{
1070
   340
1005
11
1002
}
  0
DIMENSION
  5
587
330
22
100
AcDbEntity
  8
寸法線
 48
25.0
100
AcDbDimension
  2
*D5
 10
4201.065211275272
 20
-6486.617668714814
 30
0.0
 11
3121.065213063413
 21
-6424.117668714814
 31
0.0
 70
    32
  1
O.D%%c<>
 71
     5
 42
2159.999996423719
  3
1-25
100
AcDbAlignedDimension
 13
2041.065214851553
 23
-5794.002280872145
 33
0.0
 14
4201.065211275272
 24
-5794.002290647386
 34
0.0
100
AcDbRotatedDimension
1001
ACAD
1000
DSTYLE
1002
{
1070
   340
1005
11
1002
}
  0
DIMENSION
  5
594
330
22
100
AcDbEntity
  8
寸法線
 48
25.0
100
AcDbDimension
  2
*D6
 10
4401.065184453182
 20
-6137.913353374631
 30
0.0
 11
3761.065198758297
 21
-6075.413353374631
 31
0.0
 70
    32
  1
(<>)
 71
     5
 42
1279.99997138977
  3
1-25
100
AcDbAlignedDimension
 13
3121.065213063412
 23
-5985.348176043391
 33
0.0
 14
4401.065184453182
 24
-5849.002288859247
 34
0.0
100
AcDbRotatedDimension
1001
ACAD
1000
DSTYLE
1002
{
1070
   340
1005
11
1002
}
  0
DIMENSION
  5
5A1
330
22
100
AcDbEntity
  8
寸法線
 48
25.0
100
AcDbDimension
  2
*D7
 10
4796.824607230083
 20
-5824.002288859247
 30
0.0
 11
4734.324607230083
 21
-4174.002325739629
 31
0.0
 70
    32
 71
     5
 42
3299.999926239235
  3
1-25
100
AcDbAlignedDimension
 13
4251.065533989713
 23
-2524.002362620013
 33
0.0
 14
4426.065183894388
 24
-5824.002288859247
 34
0.0
 50
90.0
100
AcDbRotatedDimension
1001
ACAD
1000
DSTYLE
1002
{
1070
   340
1005
11
1002
}
  0
DIMENSION
  5
5B7
330
22
100
AcDbEntity
  8
寸法線
 48
25.0
100
AcDbDimension
  2
*D8
 10
8035.912905634802
 20
-1035.634168078919
 30
0.0
 11
7885.91314782759
 21
-973.1341680789192
 31
0.0
 70
    32
 71
     5
 42
299.9995156144251
  3
1-25
100
AcDbAlignedDimension
 13
7735.913390020377
 23
-1189.086833964927
 33
0.0
 14
8035.912905634802
 24
-1189.085877482539
 34
0.0
100
AcDbRotatedDimension
1001
ACAD
1000
DSTYLE
1002
{
1070
   340
1005
11
1002
}
  0
DIMENSION
  5
5C4
330
22
100
AcDbEntity
  8
寸法線
 48
25.0
100
AcDbDimension
  2
*D9
 10
8045.913272101628
 20
-838.0607204338412
 30
0.0
 11
7885.913438430356
 21
-775.5607204338412
 31
0.0
 70
    32
 71
     5
 42
319.9996673425467
  3
1-25
100
AcDbAlignedDimension
 13
7725.913604759082
 23
-1160.234916468367
 33
0.0
 14
8045.913272101628
 24
-1160.234916468367
 34
0.0
100
AcDbRotatedDimension
1001
ACAD
1000
DSTYLE
1002
{
1070
   340
1005
11
1002
}
  0
DIMENSION
  5
5D1
330
22
100
AcDbEntity
  8
寸法線
 48
25.0
100
AcDbDimension
  2
*D10
 10
8095.818217950624
 20
-2092.522602341206
 30
0.0
 11
7915.300068066328
 21
-2209.305296103389
 31
0.0
 70
   163
  1
I.D<>
 71
     5
 42
500.0000000000018
  3
1-25
100
AcDbDiametricDimension
 15
7676.008567056915
 25
-2364.110262253257
 35
0.0
 40
0.0
1001
ACAD
1000
DSTYLE
1002
{
1070
   340
1005
11
1070
   288
1070
     1
1002
}
  0
ARC
  5
628
330
22
100
AcDbEntity
  8
0
 48
25.0
100
AcDbCircle
 10
7885.913392503768
 20
-2228.316432297231
 30
0.0
 40
980.0
100
AcDbArc
 50
9.208863445667191
 51
80.79110148258102
  0
ARC
  5
629
330
22
100
AcDbEntity
  8
0
 48
25.0
100
AcDbCircle
 10
7885.913392503768
 20
-2228.316432297231
 30
0.0
 40
980.0
100
AcDbArc
 50
279.2088697562094
 51
350.7911017262284
  0
ARC
  5
62A
330
22
100
AcDbEntity
  8
0
 48
25.0
100
AcDbCircle
 10
7885.913392503768
 20
-2228.316432297231
 30
0.0
 40
980.0
100
AcDbArc
 50
189.208878736717
 51
260.7910889253806
  0
ARC
  5
62B
330
22
100
AcDbEntity
  8
0
 48
25.0
100
AcDbCircle
 10
7885.913392503768
 20
-2228.316432297231
 30
0.0
 40
980.0
100
AcDbArc
 50
99.20886647339454
 51
170.7910985541728
  0
CIRCLE
  5
63F
330
22
100
AcDbEntity
  8
0
 48
25.0
100
AcDbCircle
 10
7885.913392503768
 20
-2228.316432297231
 30
0.0
 40
1080.0
  0
DIMENSION
  5
65D
330
22
100
AcDbEntity
  8
寸法線
 48
25.0
100
AcDbDimension
  2
*D11
 10
9444.89604648823
 20
-2428.316450715062
 30
0.0
 11
9382.39604648823
 21
-2228.316447556015
 31
0.0
 70
    32
 71
     5
 42
400.0000063180898
  3
1-25
100
AcDbAlignedDimension
 13
9239.413375602126
 23
-2028.316444396971
 33
0.0
 14
9239.413375602126
 24
-2428.316450715062
 34
0.0
 50
90.0
100
AcDbRotatedDimension
1001
ACAD
1000
DSTYLE
1002
{
1070
   340
1005
11
1002
}
  0
DIMENSION
  5
66A
330
22
100
AcDbEntity
  8
寸法線
 48
25.0
100
AcDbDimension
  2
*D12
 10
9619.628067089026
 20
-2508.31644129753
 30
0.0
 11
9557.128067089026
 21
-2228.316447556015
 31
0.0
 70
    32
 71
     5
 42
559.9999874830261
  3
1-25
100
AcDbAlignedDimension
 13
9190.91339194497
 23
-1948.316453814503
 33
0.0
 14
9190.91339194497
 24
-2508.316441297529
 34
0.0
 50
90.0
100
AcDbRotatedDimension
1001
ACAD
1000
DSTYLE
1002
{
1070
   340
1005
11
1002
}
  0
DIMENSION
  5
7C8
330
22
100
AcDbEntity
  8
寸法線
 48
25.0
100
AcDbDimension
  2
*D14
 10
3371.065325777669
 20
-2643.244678141535
 30
0.0
 11
3121.065103840676
 21
-2580.744678141535
 31
0.0
 70
    32
  1
I.D%%c<>
 71
     5
 42
500.0004438739861
  3
1-25
100
AcDbAlignedDimension
 13
2871.064881903683
 23
-2879.002499888481
 33
0.0
 14
3371.065325777669
 24
-2879.00238862572
 34
0.0
100
AcDbRotatedDimension
  0
LINE
  5
8E1
330
22
100
AcDbEntity
  8
0
100
AcDbLine
 10
2041.065193989926
 20
-3409.002288859247
 30
0.0
 11
4201.065232136897
 21
-3409.002288859247
 31
0.0
  0
LINE
  5
8E2
330
22
100
AcDbEntity
  8
0
100
AcDbLine
 10
2115.352956886912
 20
-3399.002288859247
 30
0.0
 11
4126.77746923991
 21
-3399.002288859247
 31
0.0
  0
LWPOLYLINE
  5
8E3
330
22
100
AcDbEntity
  8
0
100
AcDbPolyline
 90
        2
 70
     0
 43
0.0
 10
2115.352956886913
 20
-3399.002288859247
 10
2115.352956886913
 20
-3409.002288859247
  0
LWPOLYLINE
  5
8E4
330
22
100
AcDbEntity
  8
0
100
AcDbPolyline
 90
        2
 70
     0
 43
0.0
 10
4126.77746923991
 20
-3399.002288859247
 10
4126.77746923991
 20
-3409.002288859247
  0
LINE
  5
A1A
330
22
100
AcDbEntity
  8
0
100
AcDbLine
 10
603.6474771889261
 20
-21.0386276515037
 30
0.0
 11
778.6474771889261
 21
-21.0386276515037
 31
0.0
  0
LINE
  5
A1B
330
22
100
AcDbEntity
  8
0
100
AcDbLine
 10
778.6474771889261
 20
-21.0386276515037
 30
0.0
 11
906.6474771889007
 21
-21.0386276515037
 31
0.0
  0
LINE
  5
A1C
330
22
100
AcDbEntity
  8
0
100
AcDbLine
 10
603.6474771889261
 20
-21.0386276515037
 30
0.0
 11
603.6474771889261
 21
-190.7052943181525
 31
0.0
  0
LINE
  5
A1D
330
22
100
AcDbEntity
  8
0
100
AcDbLine
 10
906.6474771889007
 20
-21.0386276515037
 30
0.0
 11
1081.647477188901
 21
-21.0386276515037
 31
0.0
  0
LINE
  5
A1E
330
22
100
AcDbEntity
  8
0
100
AcDbLine
 10
1081.647477188901
 20
-21.0386276515037
 30
0.0
 11
1256.647477188901
 21
-21.0386276515037
 31
0.0
  0
LINE
  5
A1F
330
22
100
AcDbEntity
  8
0
100
AcDbLine
 10
1256.647477188901
 20
-21.0386276515037
 30
0.0
 11
1431.6474771889
 21
-21.0386276515037
 31
0.0
  0
LINE
  5
A20
330
22
100
AcDbEntity
  8
0
100
AcDbLine
 10
1431.6474771889
 20
-21.0386276515037
 30
0.0
 11
1606.6474771889
 21
-21.0386276515037
 31
0.0
  0
LINE
  5
A21
330
22
100
AcDbEntity
  8
0
100
AcDbLine
 10
1606.6474771889
 20
-21.0386276515037
 30
0.0
 11
1781.6474771889
 21
-21.0386276515037
 31
0.0
  0
LINE
  5
A22
330
22
100
AcDbEntity
  8
0
100
AcDbLine
 10
1781.6474771889
 20
-21.0386276515037
 30
0.0
 11
1956.6474771889
 21
-21.0386276515037
 31
0.0
  0
LINE
  5
A23
330
22
100
AcDbEntity
  8
0
100
AcDbLine
 10
1956.6474771889
 20
-21.0386276515037
 30
0.0
 11
2131.6474771889
 21
-21.0386276515037
 31
0.0
  0
LINE
  5
A24
330
22
100
AcDbEntity
  8
0
100
AcDbLine
 10
2131.6474771889
 20
-21.0386276515037
 30
0.0
 11
2306.647477188901
 21
-21.0386276515037
 31
0.0
  0
LINE
  5
A25
330
22
100
AcDbEntity
  8
0
100
AcDbLine
 10
906.6474771889007
 20
-21.0386276515037
 30
0.0
 11
906.6474771889007
 21
-190.7052943181525
 31
0.0
  0
LINE
  5
A26
330
22
100
AcDbEntity
  8
0
100
AcDbLine
 10
2306.647477188901
 20
-21.0386276515037
 30
0.0
 11
2481.6474771889
 21
-21.0386276515037
 31
0.0
  0
LINE
  5
A27
330
22
100
AcDbEntity
  8
0
100
AcDbLine
 10
2481.6474771889
 20
-21.0386276515037
 30
0.0
 11
2656.647477188901
 21
-21.0386276515037
 31
0.0
  0
LINE
  5
A28
330
22
100
AcDbEntity
  8
0
100
AcDbLine
 10
2656.647477188901
 20
-21.0386276515037
 30
0.0
 11
2831.647477188901
 21
-21.0386276515037
 31
0.0
  0
LINE
  5
A29
330
22
100
AcDbEntity
  8
0
100
AcDbLine
 10
2306.647477188901
 20
-21.0386276515037
 30
0.0
 11
2306.647477188901
 21
-190.7052943181525
 31
0.0
  0
LINE
  5
A2A
330
22
100
AcDbEntity
  8
0
100
AcDbLine
 10
2831.647477188901
 20
-21.0386276515037
 30
0.0
 11
3006.647477188901
 21
-21.0386276515037
 31
0.0
  0
LINE
  5
A2B
330
22
100
AcDbEntity
  8
0
100
AcDbLine
 10
3006.647477188901
 20
-21.0386276515037
 30
0.0
 11
3181.647477188901
 21
-21.0386276515037
 31
0.0
  0
LINE
  5
A2C
330
22
100
AcDbEntity
  8
0
100
AcDbLine
 10
2831.647477188901
 20
-21.0386276515037
 30
0.0
 11
2831.647477188901
 21
-190.7052943181525
 31
0.0
  0
LINE
  5
A2D
330
22
100
AcDbEntity
  8
0
100
AcDbLine
 10
3181.647477188901
 20
-21.0386276515037
 30
0.0
 11
3181.647477188901
 21
-190.7052943181525
 31
0.0
  0
LINE
  5
A2E
330
22
100
AcDbEntity
  8
0
100
AcDbLine
 10
603.6474771889261
 20
-190.7052943181525
 30
0.0
 11
778.6474771889261
 21
-190.7052943181525
 31
0.0
  0
LINE
  5
A2F
330
22
100
AcDbEntity
  8
0
100
AcDbLine
 10
778.6474771889261
 20
-190.7052943181525
 30
0.0
 11
906.6474771889007
 21
-190.7052943181525
 31
0.0
  0
LINE
  5
A30
330
22
100
AcDbEntity
  8
0
100
AcDbLine
 10
906.6474771889007
 20
-190.7052943181525
 30
0.0
 11
1081.647477188901
 21
-190.7052943181525
 31
0.0
  0
LINE
  5
A31
330
22
100
AcDbEntity
  8
0
100
AcDbLine
 10
1081.647477188901
 20
-190.7052943181525
 30
0.0
 11
1256.647477188901
 21
-190.7052943181525
 31
0.0
  0
LINE
  5
A32
330
22
100
AcDbEntity
  8
0
100
AcDbLine
 10
1256.647477188901
 20
-190.7052943181525
 30
0.0
 11
1431.6474771889
 21
-190.7052943181525
 31
0.0
  0
LINE
  5
A33
330
22
100
AcDbEntity
  8
0
100
AcDbLine
 10
1431.6474771889
 20
-190.7052943181525
 30
0.0
 11
1606.6474771889
 21
-190.7052943181525
 31
0.0
  0
LINE
  5
A34
330
22
100
AcDbEntity
  8
0
100
AcDbLine
 10
1606.6474771889
 20
-190.7052943181525
 30
0.0
 11
1781.6474771889
 21
-190.7052943181525
 31
0.0
  0
LINE
  5
A35
330
22
100
AcDbEntity
  8
0
100
AcDbLine
 10
1781.6474771889
 20
-190.7052943181525
 30
0.0
 11
1956.6474771889
 21
-190.7052943181525
 31
0.0
  0
LINE
  5
A36
330
22
100
AcDbEntity
  8
0
100
AcDbLine
 10
1956.6474771889
 20
-190.7052943181525
 30
0.0
 11
2131.6474771889
 21
-190.7052943181525
 31
0.0
  0
LINE
  5
A37
330
22
100
AcDbEntity
  8
0
100
AcDbLine
 10
2131.6474771889
 20
-190.7052943181525
 30
0.0
 11
2306.647477188901
 21
-190.7052943181525
 31
0.0
  0
LINE
  5
A38
330
22
100
AcDbEntity
  8
0
100
AcDbLine
 10
2306.647477188901
 20
-190.7052943181525
 30
0.0
 11
2481.6474771889
 21
-190.7052943181525
 31
0.0
  0
LINE
  5
A39
330
22
100
AcDbEntity
  8
0
100
AcDbLine
 10
2481.6474771889
 20
-190.7052943181525
 30
0.0
 11
2656.647477188901
 21
-190.7052943181525
 31
0.0
  0
LINE
  5
A3A
330
22
100
AcDbEntity
  8
0
100
AcDbLine
 10
2656.647477188901
 20
-190.7052943181525
 30
0.0
 11
2831.647477188901
 21
-190.7052943181525
 31
0.0
  0
LINE
  5
A3B
330
22
100
AcDbEntity
  8
0
100
AcDbLine
 10
2831.647477188901
 20
-190.7052943181525
 30
0.0
 11
3006.647477188901
 21
-190.7052943181525
 31
0.0
  0
LINE
  5
A3C
330
22
100
AcDbEntity
  8
0
100
AcDbLine
 10
3006.647477188901
 20
-190.7052943181525
 30
0.0
 11
3181.647477188901
 21
-190.7052943181525
 31
0.0
  0
TEXT
  5
A3D
330
22
100
AcDbEntity
  8
0
100
AcDbText
 10
657.5458915864401
 20
-143.3719609848394
 30
0.0
 40
75.0
  1
記 号
 41
0.8
 72
     1
 11
751.54589158644
 21
-105.8719609848394
 31
0.0
100
AcDbText
 73
     2
  0
TEXT
  5
A3E
330
22
100
AcDbEntity
  8
0
100
AcDbText
 10
1254.647477188901
 20
-143.3719609848167
 30
0.0
 40
75.0
  1
来　　　　　　　　歴
 41
0.8
 72
     4
 11
1606.6474771889
 21
-105.8719609848167
 31
0.0
100
AcDbText
  0
TEXT
  5
A3F
330
22
100
AcDbEntity
  8
0
100
AcDbText
 10
2401.147477188901
 20
-143.3719609848394
 30
0.0
 40
75.0
  1
年・月・日
 41
0.8
 72
     1
 11
2569.147477188901
 21
-105.8719609848394
 31
0.0
100
AcDbText
 73
     2
  0
TEXT
  5
A40
330
22
100
AcDbEntity
  8
0
100
AcDbText
 10
2912.647477188901
 20
-143.3719609848394
 30
0.0
 40
75.0
  1
記 入
 41
0.8
 72
     1
 11
3006.647477188901
 21
-105.8719609848394
 31
0.0
100
AcDbText
 73
     2
  0
LWPOLYLINE
  5
A41
330
22
100
AcDbEntity
  8
0
100
AcDbPolyline
 90
        4
 70
     1
 43
0.0
 10
603.6474771889406
 20
-21.03862765151825
 10
10678.64747718894
 20
-21.03862765151825
 10
10678.64747718894
 20
-7021.038627651518
 10
603.6474771889406
 20
-7021.038627651518
  0
LWPOLYLINE
  5
A42
330
22
100
AcDbEntity
  8
0
100
AcDbPolyline
 90
        4
 70
     1
 43
0.0
 10
353.6474771889407
 20
228.9613723484817
 10
10928.64747718894
 20
228.9613723484817
 10
10928.64747718894
 20
-7271.038627651518
 10
353.6474771889407
 20
-7271.038627651518
  0
LINE
  5
A43
330
22
100
AcDbEntity
  8
0
100
AcDbLine
 10
7353.647477188926
 20
-5833.371960984826
 30
0.0
 11
7353.647477188926
 21
-6003.038627651497
 31
0.0
  0
LINE
  5
A44
330
22
100
AcDbEntity
  8
0
100
AcDbLine
 10
7703.647477188926
 20
-5833.371960984826
 30
0.0
 11
7703.647477188926
 21
-6003.038627651497
 31
0.0
  0
LINE
  5
A45
330
22
100
AcDbEntity
  8
0
100
AcDbLine
 10
8053.647477188926
 20
-5833.371960984826
 30
0.0
 11
8053.647477188926
 21
-6003.038627651497
 31
0.0
  0
LINE
  5
A46
330
22
100
AcDbEntity
  8
0
100
AcDbLine
 10
8403.647477188926
 20
-5833.371960984826
 30
0.0
 11
8403.647477188926
 21
-6003.038627651497
 31
0.0
  0
LINE
  5
A47
330
22
100
AcDbEntity
  8
0
100
AcDbLine
 10
8753.647477188925
 20
-5833.371960984826
 30
0.0
 11
8753.647477188925
 21
-6003.038627651497
 31
0.0
  0
LINE
  5
A48
330
22
100
AcDbEntity
  8
0
100
AcDbLine
 10
8753.647477188925
 20
-6003.038627651497
 30
0.0
 11
8753.647477188925
 21
-6172.705294318169
 31
0.0
  0
LINE
  5
A49
330
22
100
AcDbEntity
  8
0
100
AcDbLine
 10
8753.647477188925
 20
-6172.705294318169
 30
0.0
 11
8753.647477188925
 21
-6342.371960984817
 31
0.0
  0
LINE
  5
A4A
330
22
100
AcDbEntity
  8
0
100
AcDbLine
 10
8753.647477188925
 20
-6342.371960984817
 30
0.0
 11
8753.647477188925
 21
-6512.038627651489
 31
0.0
  0
LINE
  5
A4B
330
22
100
AcDbEntity
  8
0
100
AcDbLine
 10
8753.647477188925
 20
-6512.038627651489
 30
0.0
 11
8753.647477188925
 21
-6681.70529431816
 31
0.0
  0
LINE
  5
A4C
330
22
100
AcDbEntity
  8
0
100
AcDbLine
 10
8928.647477188926
 20
-5833.371960984826
 30
0.0
 11
8928.647477188926
 21
-6003.038627651497
 31
0.0
  0
LINE
  5
A4D
330
22
100
AcDbEntity
  8
0
100
AcDbLine
 10
10678.64747718892
 20
-5833.371960984826
 30
0.0
 11
10678.64747718892
 21
-6003.038627651497
 31
0.0
  0
LINE
  5
A4E
330
22
100
AcDbEntity
  8
0
100
AcDbLine
 10
8928.647477188926
 20
-6003.038627651497
 30
0.0
 11
8928.647477188926
 21
-6172.705294318169
 31
0.0
  0
LINE
  5
A4F
330
22
100
AcDbEntity
  8
0
100
AcDbLine
 10
10678.64747718892
 20
-6003.038627651497
 30
0.0
 11
10678.64747718892
 21
-6172.705294318169
 31
0.0
  0
LINE
  5
A50
330
22
100
AcDbEntity
  8
0
100
AcDbLine
 10
8928.647477188926
 20
-6172.705294318169
 30
0.0
 11
8928.647477188926
 21
-6342.371960984817
 31
0.0
  0
LINE
  5
A51
330
22
100
AcDbEntity
  8
0
100
AcDbLine
 10
10678.64747718892
 20
-6172.705294318169
 30
0.0
 11
10678.64747718892
 21
-6342.371960984817
 31
0.0
  0
LINE
  5
A52
330
22
100
AcDbEntity
  8
0
100
AcDbLine
 10
8928.647477188926
 20
-6342.371960984817
 30
0.0
 11
8928.647477188926
 21
-6512.038627651489
 31
0.0
  0
LINE
  5
A53
330
22
100
AcDbEntity
  8
0
100
AcDbLine
 10
10678.64747718892
 20
-6342.371960984817
 30
0.0
 11
10678.64747718892
 21
-6512.038627651489
 31
0.0
  0
LINE
  5
A54
330
22
100
AcDbEntity
  8
0
100
AcDbLine
 10
8928.647477188926
 20
-6512.038627651489
 30
0.0
 11
8928.647477188926
 21
-6681.70529431816
 31
0.0
  0
LINE
  5
A55
330
22
100
AcDbEntity
  8
0
100
AcDbLine
 10
10678.64747718892
 20
-6512.038627651489
 30
0.0
 11
10678.64747718892
 21
-6681.70529431816
 31
0.0
  0
LINE
  5
A56
330
22
100
AcDbEntity
  8
0
100
AcDbLine
 10
7353.647477188926
 20
-6003.038627651497
 30
0.0
 11
7528.647477188926
 21
-6003.038627651497
 31
0.0
  0
LINE
  5
A57
330
22
100
AcDbEntity
  8
0
100
AcDbLine
 10
7528.647477188926
 20
-6003.038627651497
 30
0.0
 11
7703.647477188926
 21
-6003.038627651497
 31
0.0
  0
LINE
  5
A58
330
22
100
AcDbEntity
  8
0
100
AcDbLine
 10
7353.647477188926
 20
-6003.038627651497
 30
0.0
 11
7353.647477188926
 21
-6172.705294318169
 31
0.0
  0
LINE
  5
A59
330
22
100
AcDbEntity
  8
0
100
AcDbLine
 10
7353.647477188926
 20
-6172.705294318169
 30
0.0
 11
7353.647477188926
 21
-6342.371960984817
 31
0.0
  0
LINE
  5
A5A
330
22
100
AcDbEntity
  8
0
100
AcDbLine
 10
7703.647477188926
 20
-6003.038627651497
 30
0.0
 11
7878.647477188926
 21
-6003.038627651497
 31
0.0
  0
LINE
  5
A5B
330
22
100
AcDbEntity
  8
0
100
AcDbLine
 10
7878.647477188926
 20
-6003.038627651497
 30
0.0
 11
8053.647477188926
 21
-6003.038627651497
 31
0.0
  0
LINE
  5
A5C
330
22
100
AcDbEntity
  8
0
100
AcDbLine
 10
7703.647477188926
 20
-6003.038627651497
 30
0.0
 11
7703.647477188926
 21
-6172.705294318169
 31
0.0
  0
LINE
  5
A5D
330
22
100
AcDbEntity
  8
0
100
AcDbLine
 10
7703.647477188926
 20
-6172.705294318169
 30
0.0
 11
7703.647477188926
 21
-6342.371960984817
 31
0.0
  0
LINE
  5
A5E
330
22
100
AcDbEntity
  8
0
100
AcDbLine
 10
8053.647477188926
 20
-6003.038627651497
 30
0.0
 11
8228.647477188927
 21
-6003.038627651497
 31
0.0
  0
LINE
  5
A5F
330
22
100
AcDbEntity
  8
0
100
AcDbLine
 10
8228.647477188927
 20
-6003.038627651497
 30
0.0
 11
8403.647477188926
 21
-6003.038627651497
 31
0.0
  0
LINE
  5
A60
330
22
100
AcDbEntity
  8
0
100
AcDbLine
 10
8053.647477188926
 20
-6003.038627651497
 30
0.0
 11
8053.647477188926
 21
-6172.705294318169
 31
0.0
  0
LINE
  5
A61
330
22
100
AcDbEntity
  8
0
100
AcDbLine
 10
8053.647477188926
 20
-6172.705294318169
 30
0.0
 11
8053.647477188926
 21
-6342.371960984817
 31
0.0
  0
LINE
  5
A62
330
22
100
AcDbEntity
  8
0
100
AcDbLine
 10
8403.647477188926
 20
-6003.038627651497
 30
0.0
 11
8578.647477188926
 21
-6003.038627651497
 31
0.0
  0
LINE
  5
A63
330
22
100
AcDbEntity
  8
0
100
AcDbLine
 10
8578.647477188926
 20
-6003.038627651497
 30
0.0
 11
8753.647477188925
 21
-6003.038627651497
 31
0.0
  0
LINE
  5
A64
330
22
100
AcDbEntity
  8
0
100
AcDbLine
 10
8403.647477188926
 20
-6003.038627651497
 30
0.0
 11
8403.647477188926
 21
-6172.705294318169
 31
0.0
  0
LINE
  5
A65
330
22
100
AcDbEntity
  8
0
100
AcDbLine
 10
8403.647477188926
 20
-6172.705294318169
 30
0.0
 11
8403.647477188926
 21
-6342.371960984817
 31
0.0
  0
LINE
  5
A66
330
22
100
AcDbEntity
  8
0
100
AcDbLine
 10
7353.647477188926
 20
-6342.371960984817
 30
0.0
 11
7528.647477188926
 21
-6342.371960984817
 31
0.0
  0
LINE
  5
A67
330
22
100
AcDbEntity
  8
0
100
AcDbLine
 10
7353.647477188926
 20
-6342.371960984817
 30
0.0
 11
7353.647477188926
 21
-6512.038627651489
 31
0.0
  0
LINE
  5
A68
330
22
100
AcDbEntity
  8
0
100
AcDbLine
 10
7353.647477188926
 20
-6512.038627651489
 30
0.0
 11
7353.647477188926
 21
-6681.70529431816
 31
0.0
  0
LINE
  5
A69
330
22
100
AcDbEntity
  8
0
100
AcDbLine
 10
7528.647477188926
 20
-6342.371960984817
 30
0.0
 11
7703.647477188926
 21
-6342.371960984817
 31
0.0
  0
LINE
  5
A6A
330
22
100
AcDbEntity
  8
0
100
AcDbLine
 10
7703.647477188926
 20
-6342.371960984817
 30
0.0
 11
7878.647477188926
 21
-6342.371960984817
 31
0.0
  0
LINE
  5
A6B
330
22
100
AcDbEntity
  8
0
100
AcDbLine
 10
7878.647477188926
 20
-6342.371960984817
 30
0.0
 11
8053.647477188926
 21
-6342.371960984817
 31
0.0
  0
LINE
  5
A6C
330
22
100
AcDbEntity
  8
0
100
AcDbLine
 10
7528.647477188926
 20
-6342.371960984817
 30
0.0
 11
7528.647477188926
 21
-6512.038627651489
 31
0.0
  0
LINE
  5
A6D
330
22
100
AcDbEntity
  8
0
100
AcDbLine
 10
7528.647477188926
 20
-6512.038627651489
 30
0.0
 11
7528.647477188926
 21
-6681.70529431816
 31
0.0
  0
LINE
  5
A6E
330
22
100
AcDbEntity
  8
0
100
AcDbLine
 10
8053.647477188926
 20
-6342.371960984817
 30
0.0
 11
8228.647477188927
 21
-6342.371960984817
 31
0.0
  0
LINE
  5
A6F
330
22
100
AcDbEntity
  8
0
100
AcDbLine
 10
8053.647477188926
 20
-6342.371960984817
 30
0.0
 11
8053.647477188926
 21
-6512.038627651489
 31
0.0
  0
LINE
  5
A70
330
22
100
AcDbEntity
  8
0
100
AcDbLine
 10
8053.647477188926
 20
-6512.038627651489
 30
0.0
 11
8053.647477188926
 21
-6681.70529431816
 31
0.0
  0
LINE
  5
A71
330
22
100
AcDbEntity
  8
0
100
AcDbLine
 10
8228.647477188927
 20
-6342.371960984817
 30
0.0
 11
8403.647477188926
 21
-6342.371960984817
 31
0.0
  0
LINE
  5
A72
330
22
100
AcDbEntity
  8
0
100
AcDbLine
 10
8403.647477188926
 20
-6342.371960984817
 30
0.0
 11
8578.647477188926
 21
-6342.371960984817
 31
0.0
  0
LINE
  5
A73
330
22
100
AcDbEntity
  8
0
100
AcDbLine
 10
8578.647477188926
 20
-6342.371960984817
 30
0.0
 11
8753.647477188925
 21
-6342.371960984817
 31
0.0
  0
LINE
  5
A74
330
22
100
AcDbEntity
  8
0
100
AcDbLine
 10
8228.647477188927
 20
-6342.371960984817
 30
0.0
 11
8228.647477188927
 21
-6512.038627651489
 31
0.0
  0
LINE
  5
A75
330
22
100
AcDbEntity
  8
0
100
AcDbLine
 10
8228.647477188927
 20
-6512.038627651489
 30
0.0
 11
8228.647477188927
 21
-6681.70529431816
 31
0.0
  0
LINE
  5
A76
330
22
100
AcDbEntity
  8
0
100
AcDbLine
 10
7353.647477188926
 20
-6681.70529431816
 30
0.0
 11
7528.647477188926
 21
-6681.70529431816
 31
0.0
  0
LINE
  5
A77
330
22
100
AcDbEntity
  8
0
100
AcDbLine
 10
7353.647477188926
 20
-7021.038627651503
 30
0.0
 11
7528.647477188926
 21
-7021.038627651503
 31
0.0
  0
LINE
  5
A78
330
22
100
AcDbEntity
  8
0
100
AcDbLine
 10
7528.647477188926
 20
-6681.70529431816
 30
0.0
 11
7703.647477188926
 21
-6681.70529431816
 31
0.0
  0
LINE
  5
A79
330
22
100
AcDbEntity
  8
0
100
AcDbLine
 10
7528.647477188926
 20
-7021.038627651503
 30
0.0
 11
7703.647477188926
 21
-7021.038627651503
 31
0.0
  0
LINE
  5
A7A
330
22
100
AcDbEntity
  8
0
100
AcDbLine
 10
7703.647477188926
 20
-6681.70529431816
 30
0.0
 11
7878.647477188926
 21
-6681.70529431816
 31
0.0
  0
LINE
  5
A7B
330
22
100
AcDbEntity
  8
0
100
AcDbLine
 10
7703.647477188926
 20
-7021.038627651503
 30
0.0
 11
7878.647477188926
 21
-7021.038627651503
 31
0.0
  0
LINE
  5
A7C
330
22
100
AcDbEntity
  8
0
100
AcDbLine
 10
7878.647477188926
 20
-6681.70529431816
 30
0.0
 11
8053.647477188926
 21
-6681.70529431816
 31
0.0
  0
LINE
  5
A7D
330
22
100
AcDbEntity
  8
0
100
AcDbLine
 10
7878.647477188926
 20
-7021.038627651503
 30
0.0
 11
8053.647477188926
 21
-7021.038627651503
 31
0.0
  0
LINE
  5
A7E
330
22
100
AcDbEntity
  8
0
100
AcDbLine
 10
8053.647477188926
 20
-6681.70529431816
 30
0.0
 11
8228.647477188927
 21
-6681.70529431816
 31
0.0
  0
LINE
  5
A7F
330
22
100
AcDbEntity
  8
0
100
AcDbLine
 10
8053.647477188926
 20
-7021.038627651503
 30
0.0
 11
8228.647477188927
 21
-7021.038627651503
 31
0.0
  0
LINE
  5
A80
330
22
100
AcDbEntity
  8
0
100
AcDbLine
 10
8228.647477188927
 20
-6681.70529431816
 30
0.0
 11
8403.647477188926
 21
-6681.70529431816
 31
0.0
  0
LINE
  5
A81
330
22
100
AcDbEntity
  8
0
100
AcDbLine
 10
8228.647477188927
 20
-7021.038627651503
 30
0.0
 11
8403.647477188926
 21
-7021.038627651503
 31
0.0
  0
LINE
  5
A82
330
22
100
AcDbEntity
  8
0
100
AcDbLine
 10
8403.647477188926
 20
-6681.70529431816
 30
0.0
 11
8578.647477188926
 21
-6681.70529431816
 31
0.0
  0
LINE
  5
A83
330
22
100
AcDbEntity
  8
0
100
AcDbLine
 10
8403.647477188926
 20
-7021.038627651503
 30
0.0
 11
8578.647477188926
 21
-7021.038627651503
 31
0.0
  0
LINE
  5
A84
330
22
100
AcDbEntity
  8
0
100
AcDbLine
 10
8578.647477188926
 20
-6681.70529431816
 30
0.0
 11
8753.647477188925
 21
-6681.70529431816
 31
0.0
  0
LINE
  5
A85
330
22
100
AcDbEntity
  8
0
100
AcDbLine
 10
8578.647477188926
 20
-7021.038627651503
 30
0.0
 11
8753.647477188925
 21
-7021.038627651503
 31
0.0
  0
LINE
  5
A86
330
22
100
AcDbEntity
  8
0
100
AcDbLine
 10
7353.647477188926
 20
-6681.70529431816
 30
0.0
 11
7353.647477188926
 21
-6851.371960984832
 31
0.0
  0
LINE
  5
A87
330
22
100
AcDbEntity
  8
0
100
AcDbLine
 10
7353.647477188926
 20
-6851.371960984832
 30
0.0
 11
7353.647477188926
 21
-7021.038627651503
 31
0.0
  0
LINE
  5
A88
330
22
100
AcDbEntity
  8
0
100
AcDbLine
 10
8753.647477188925
 20
-6681.70529431816
 30
0.0
 11
8928.647477188926
 21
-6681.70529431816
 31
0.0
  0
LINE
  5
A89
330
22
100
AcDbEntity
  8
0
100
AcDbLine
 10
8753.647477188925
 20
-7021.038627651503
 30
0.0
 11
8928.647477188926
 21
-7021.038627651503
 31
0.0
  0
LINE
  5
A8A
330
22
100
AcDbEntity
  8
0
100
AcDbLine
 10
8753.647477188925
 20
-6681.70529431816
 30
0.0
 11
8753.647477188925
 21
-6851.371960984832
 31
0.0
  0
LINE
  5
A8B
330
22
100
AcDbEntity
  8
0
100
AcDbLine
 10
8753.647477188925
 20
-6851.371960984832
 30
0.0
 11
8753.647477188925
 21
-7021.038627651503
 31
0.0
  0
LINE
  5
A8C
330
22
100
AcDbEntity
  8
0
100
AcDbLine
 10
8928.647477188926
 20
-6681.70529431816
 30
0.0
 11
9103.647477188927
 21
-6681.70529431816
 31
0.0
  0
LINE
  5
A8D
330
22
100
AcDbEntity
  8
0
100
AcDbLine
 10
8928.647477188926
 20
-7021.038627651503
 30
0.0
 11
9103.647477188927
 21
-7021.038627651503
 31
0.0
  0
LINE
  5
A8E
330
22
100
AcDbEntity
  8
0
100
AcDbLine
 10
9103.647477188927
 20
-6681.70529431816
 30
0.0
 11
9278.647477188926
 21
-6681.70529431816
 31
0.0
  0
LINE
  5
A8F
330
22
100
AcDbEntity
  8
0
100
AcDbLine
 10
9103.647477188927
 20
-7021.038627651503
 30
0.0
 11
9278.647477188926
 21
-7021.038627651503
 31
0.0
  0
LINE
  5
A90
330
22
100
AcDbEntity
  8
0
100
AcDbLine
 10
9278.647477188926
 20
-6681.70529431816
 30
0.0
 11
9453.647477188926
 21
-6681.70529431816
 31
0.0
  0
LINE
  5
A91
330
22
100
AcDbEntity
  8
0
100
AcDbLine
 10
9278.647477188926
 20
-7021.038627651503
 30
0.0
 11
9453.647477188926
 21
-7021.038627651503
 31
0.0
  0
LINE
  5
A92
330
22
100
AcDbEntity
  8
0
100
AcDbLine
 10
9453.647477188926
 20
-6681.70529431816
 30
0.0
 11
9628.647477188927
 21
-6681.70529431816
 31
0.0
  0
LINE
  5
A93
330
22
100
AcDbEntity
  8
0
100
AcDbLine
 10
9453.647477188926
 20
-7021.038627651503
 30
0.0
 11
9628.647477188927
 21
-7021.038627651503
 31
0.0
  0
LINE
  5
A94
330
22
100
AcDbEntity
  8
0
100
AcDbLine
 10
9628.647477188927
 20
-6681.70529431816
 30
0.0
 11
9803.647477188926
 21
-6681.70529431816
 31
0.0
  0
LINE
  5
A95
330
22
100
AcDbEntity
  8
0
100
AcDbLine
 10
9628.647477188927
 20
-7021.038627651503
 30
0.0
 11
9803.647477188926
 21
-7021.038627651503
 31
0.0
  0
LINE
  5
A96
330
22
100
AcDbEntity
  8
0
100
AcDbLine
 10
9803.647477188926
 20
-6681.70529431816
 30
0.0
 11
9978.647477188927
 21
-6681.70529431816
 31
0.0
  0
LINE
  5
A97
330
22
100
AcDbEntity
  8
0
100
AcDbLine
 10
9803.647477188926
 20
-7021.038627651503
 30
0.0
 11
9978.647477188927
 21
-7021.038627651503
 31
0.0
  0
LINE
  5
A98
330
22
100
AcDbEntity
  8
0
100
AcDbLine
 10
9978.647477188927
 20
-6681.70529431816
 30
0.0
 11
10153.64747718892
 21
-6681.70529431816
 31
0.0
  0
LINE
  5
A99
330
22
100
AcDbEntity
  8
0
100
AcDbLine
 10
9978.647477188927
 20
-7021.038627651503
 30
0.0
 11
10153.64747718892
 21
-7021.038627651503
 31
0.0
  0
LINE
  5
A9A
330
22
100
AcDbEntity
  8
0
100
AcDbLine
 10
10153.64747718892
 20
-6681.70529431816
 30
0.0
 11
10328.64747718892
 21
-6681.70529431816
 31
0.0
  0
LINE
  5
A9B
330
22
100
AcDbEntity
  8
0
100
AcDbLine
 10
10153.64747718892
 20
-7021.038627651503
 30
0.0
 11
10328.64747718892
 21
-7021.038627651503
 31
0.0
  0
LINE
  5
A9C
330
22
100
AcDbEntity
  8
0
100
AcDbLine
 10
10328.64747718892
 20
-6681.70529431816
 30
0.0
 11
10503.64747718892
 21
-6681.70529431816
 31
0.0
  0
LINE
  5
A9D
330
22
100
AcDbEntity
  8
0
100
AcDbLine
 10
10328.64747718892
 20
-7021.038627651503
 30
0.0
 11
10503.64747718892
 21
-7021.038627651503
 31
0.0
  0
LINE
  5
A9E
330
22
100
AcDbEntity
  8
0
100
AcDbLine
 10
10503.64747718892
 20
-6681.70529431816
 30
0.0
 11
10678.64747718892
 21
-6681.70529431816
 31
0.0
  0
LINE
  5
A9F
330
22
100
AcDbEntity
  8
0
100
AcDbLine
 10
10503.64747718892
 20
-7021.038627651503
 30
0.0
 11
10678.64747718892
 21
-7021.038627651503
 31
0.0
  0
LINE
  5
AA0
330
22
100
AcDbEntity
  8
0
100
AcDbLine
 10
8928.647477188926
 20
-6681.70529431816
 30
0.0
 11
8928.647477188926
 21
-6851.371960984832
 31
0.0
  0
LINE
  5
AA1
330
22
100
AcDbEntity
  8
0
100
AcDbLine
 10
10678.64747718892
 20
-6681.70529431816
 30
0.0
 11
10678.64747718892
 21
-6851.371960984832
 31
0.0
  0
LINE
  5
AA2
330
22
100
AcDbEntity
  8
0
100
AcDbLine
 10
8928.647477188926
 20
-6851.371960984832
 30
0.0
 11
8928.647477188926
 21
-7021.038627651503
 31
0.0
  0
LINE
  5
AA3
330
22
100
AcDbEntity
  8
0
100
AcDbLine
 10
10678.64747718892
 20
-6851.371960984832
 30
0.0
 11
10678.64747718892
 21
-7021.038627651503
 31
0.0
  0
MTEXT
  5
AA4
330
22
100
AcDbEntity
  8
0
100
AcDbMText
 10
7528.64747718894
 20
-5918.205294318175
 30
0.0
 40
75.0
 41
215.345047391213
 71
     5
 72
     5
  1
設　計
 73
     1
 44
1.0
1001
ACAD
1000
MTEXTBEGIN
1070
    73
1070
     1
1070
    44
1040
1.0
1070
    74
1070
     0
1000
MTEXTEND
  0
MTEXT
  5
AA5
330
22
100
AcDbEntity
  8
0
100
AcDbMText
 10
7878.64747718894
 20
-5918.205294318175
 30
0.0
 40
75.0
 41
216.4007587334822
 71
     5
 72
     5
  1
製　図
 73
     1
 44
1.0
1001
ACAD
1000
MTEXTBEGIN
1070
    73
1070
     1
1070
    44
1040
1.0
1070
    74
1070
     0
1000
MTEXTEND
  0
MTEXT
  5
AA6
330
22
100
AcDbEntity
  8
0
100
AcDbMText
 10
8228.647477188941
 20
-5918.205294318175
 30
0.0
 40
75.0
 41
216.533299436685
 71
     5
 72
     5
  1
検　図
 73
     1
 44
1.0
1001
ACAD
1000
MTEXTBEGIN
1070
    73
1070
     1
1070
    44
1040
1.0
1070
    74
1070
     0
1000
MTEXTEND
  0
MTEXT
  5
AA7
330
22
100
AcDbEntity
  8
0
100
AcDbMText
 10
8578.64747718894
 20
-5918.205294318175
 30
0.0
 40
75.0
 41
213.2369123885269
 71
     5
 72
     5
  1
承　認
 73
     1
 44
1.0
1001
ACAD
1000
MTEXTBEGIN
1070
    73
1070
     1
1070
    44
1040
1.0
1070
    74
1070
     0
1000
MTEXTEND
  0
LINE
  5
AA8
330
22
100
AcDbEntity
  8
0
100
AcDbLine
 10
7353.647477188926
 20
-5833.371960984826
 30
0.0
 11
7528.647477188926
 21
-5833.371960984826
 31
0.0
  0
LINE
  5
AA9
330
22
100
AcDbEntity
  8
0
100
AcDbLine
 10
7528.647477188926
 20
-5833.371960984826
 30
0.0
 11
7703.647477188926
 21
-5833.371960984826
 31
0.0
  0
LINE
  5
AAA
330
22
100
AcDbEntity
  8
0
100
AcDbLine
 10
7703.647477188926
 20
-5833.371960984826
 30
0.0
 11
7878.647477188926
 21
-5833.371960984826
 31
0.0
  0
LINE
  5
AAB
330
22
100
AcDbEntity
  8
0
100
AcDbLine
 10
7878.647477188926
 20
-5833.371960984826
 30
0.0
 11
8053.647477188926
 21
-5833.371960984826
 31
0.0
  0
LINE
  5
AAC
330
22
100
AcDbEntity
  8
0
100
AcDbLine
 10
8053.647477188926
 20
-5833.371960984826
 30
0.0
 11
8228.647477188927
 21
-5833.371960984826
 31
0.0
  0
LINE
  5
AAD
330
22
100
AcDbEntity
  8
0
100
AcDbLine
 10
8228.647477188927
 20
-5833.371960984826
 30
0.0
 11
8403.647477188926
 21
-5833.371960984826
 31
0.0
  0
LINE
  5
AAE
330
22
100
AcDbEntity
  8
0
100
AcDbLine
 10
8403.647477188926
 20
-5833.371960984826
 30
0.0
 11
8578.647477188926
 21
-5833.371960984826
 31
0.0
  0
LINE
  5
AAF
330
22
100
AcDbEntity
  8
0
100
AcDbLine
 10
8578.647477188926
 20
-5833.371960984826
 30
0.0
 11
8753.647477188925
 21
-5833.371960984826
 31
0.0
  0
LINE
  5
AB0
330
22
100
AcDbEntity
  8
0
100
AcDbLine
 10
8753.647477188925
 20
-5833.371960984826
 30
0.0
 11
8928.647477188926
 21
-5833.371960984826
 31
0.0
  0
LINE
  5
AB1
330
22
100
AcDbEntity
  8
0
100
AcDbLine
 10
8928.647477188926
 20
-5833.371960984826
 30
0.0
 11
9103.647477188927
 21
-5833.371960984826
 31
0.0
  0
LINE
  5
AB2
330
22
100
AcDbEntity
  8
0
100
AcDbLine
 10
9103.647477188927
 20
-5833.371960984826
 30
0.0
 11
9278.647477188926
 21
-5833.371960984826
 31
0.0
  0
LINE
  5
AB3
330
22
100
AcDbEntity
  8
0
100
AcDbLine
 10
9278.647477188926
 20
-5833.371960984826
 30
0.0
 11
9453.647477188926
 21
-5833.371960984826
 31
0.0
  0
LINE
  5
AB4
330
22
100
AcDbEntity
  8
0
100
AcDbLine
 10
9453.647477188926
 20
-5833.371960984826
 30
0.0
 11
9628.647477188927
 21
-5833.371960984826
 31
0.0
  0
LINE
  5
AB5
330
22
100
AcDbEntity
  8
0
100
AcDbLine
 10
9628.647477188927
 20
-5833.371960984826
 30
0.0
 11
9803.647477188926
 21
-5833.371960984826
 31
0.0
  0
LINE
  5
AB6
330
22
100
AcDbEntity
  8
0
100
AcDbLine
 10
9803.647477188926
 20
-5833.371960984826
 30
0.0
 11
9978.647477188927
 21
-5833.371960984826
 31
0.0
  0
LINE
  5
AB7
330
22
100
AcDbEntity
  8
0
100
AcDbLine
 10
9978.647477188927
 20
-5833.371960984826
 30
0.0
 11
10153.64747718892
 21
-5833.371960984826
 31
0.0
  0
LINE
  5
AB8
330
22
100
AcDbEntity
  8
0
100
AcDbLine
 10
10153.64747718892
 20
-5833.371960984826
 30
0.0
 11
10328.64747718892
 21
-5833.371960984826
 31
0.0
  0
LINE
  5
AB9
330
22
100
AcDbEntity
  8
0
100
AcDbLine
 10
10328.64747718892
 20
-5833.371960984826
 30
0.0
 11
10503.64747718892
 21
-5833.371960984826
 31
0.0
  0
LINE
  5
ABA
330
22
100
AcDbEntity
  8
0
100
AcDbLine
 10
10503.64747718892
 20
-5833.371960984826
 30
0.0
 11
10678.64747718892
 21
-5833.371960984826
 31
0.0
  0
LINE
  5
ABB
330
22
100
AcDbEntity
  8
0
100
AcDbLine
 10
7353.647477188926
 20
-5483.371960984825
 30
0.0
 11
7528.647477188926
 21
-5483.371960984825
 31
0.0
  0
LINE
  5
ABC
330
22
100
AcDbEntity
  8
0
100
AcDbLine
 10
7353.647477188926
 20
-5833.371960984826
 30
0.0
 11
7528.647477188926
 21
-5833.371960984826
 31
0.0
  0
LINE
  5
ABD
330
22
100
AcDbEntity
  8
0
100
AcDbLine
 10
7528.647477188926
 20
-5483.371960984825
 30
0.0
 11
7703.647477188926
 21
-5483.371960984825
 31
0.0
  0
LINE
  5
ABE
330
22
100
AcDbEntity
  8
0
100
AcDbLine
 10
7528.647477188926
 20
-5833.371960984826
 30
0.0
 11
7703.647477188926
 21
-5833.371960984826
 31
0.0
  0
LINE
  5
ABF
330
22
100
AcDbEntity
  8
0
100
AcDbLine
 10
7703.647477188926
 20
-5483.371960984825
 30
0.0
 11
7878.647477188926
 21
-5483.371960984825
 31
0.0
  0
LINE
  5
AC0
330
22
100
AcDbEntity
  8
0
100
AcDbLine
 10
7703.647477188926
 20
-5833.371960984826
 30
0.0
 11
7878.647477188926
 21
-5833.371960984826
 31
0.0
  0
LINE
  5
AC1
330
22
100
AcDbEntity
  8
0
100
AcDbLine
 10
7878.647477188926
 20
-5483.371960984825
 30
0.0
 11
8053.647477188926
 21
-5483.371960984825
 31
0.0
  0
LINE
  5
AC2
330
22
100
AcDbEntity
  8
0
100
AcDbLine
 10
7878.647477188926
 20
-5833.371960984826
 30
0.0
 11
8053.647477188926
 21
-5833.371960984826
 31
0.0
  0
LINE
  5
AC3
330
22
100
AcDbEntity
  8
0
100
AcDbLine
 10
7353.647477188926
 20
-5483.371960984825
 30
0.0
 11
7353.647477188926
 21
-5658.371960984826
 31
0.0
  0
LINE
  5
AC4
330
22
100
AcDbEntity
  8
0
100
AcDbLine
 10
7353.647477188926
 20
-5658.371960984826
 30
0.0
 11
7353.647477188926
 21
-5833.371960984826
 31
0.0
  0
LINE
  5
AC5
330
22
100
AcDbEntity
  8
0
100
AcDbLine
 10
8053.647477188926
 20
-5483.371960984825
 30
0.0
 11
8228.647477188927
 21
-5483.371960984825
 31
0.0
  0
LINE
  5
AC6
330
22
100
AcDbEntity
  8
0
100
AcDbLine
 10
8053.647477188926
 20
-5833.371960984826
 30
0.0
 11
8228.647477188927
 21
-5833.371960984826
 31
0.0
  0
LINE
  5
AC7
330
22
100
AcDbEntity
  8
0
100
AcDbLine
 10
8228.647477188927
 20
-5483.371960984825
 30
0.0
 11
8403.647477188926
 21
-5483.371960984825
 31
0.0
  0
LINE
  5
AC8
330
22
100
AcDbEntity
  8
0
100
AcDbLine
 10
8228.647477188927
 20
-5833.371960984826
 30
0.0
 11
8403.647477188926
 21
-5833.371960984826
 31
0.0
  0
LINE
  5
AC9
330
22
100
AcDbEntity
  8
0
100
AcDbLine
 10
8403.647477188926
 20
-5483.371960984825
 30
0.0
 11
8578.647477188926
 21
-5483.371960984825
 31
0.0
  0
LINE
  5
ACA
330
22
100
AcDbEntity
  8
0
100
AcDbLine
 10
8403.647477188926
 20
-5833.371960984826
 30
0.0
 11
8578.647477188926
 21
-5833.371960984826
 31
0.0
  0
LINE
  5
ACB
330
22
100
AcDbEntity
  8
0
100
AcDbLine
 10
8578.647477188926
 20
-5483.371960984825
 30
0.0
 11
8753.647477188925
 21
-5483.371960984825
 31
0.0
  0
LINE
  5
ACC
330
22
100
AcDbEntity
  8
0
100
AcDbLine
 10
8578.647477188926
 20
-5833.371960984826
 30
0.0
 11
8753.647477188925
 21
-5833.371960984826
 31
0.0
  0
LINE
  5
ACD
330
22
100
AcDbEntity
  8
0
100
AcDbLine
 10
8753.647477188925
 20
-5483.371960984825
 30
0.0
 11
8928.647477188926
 21
-5483.371960984825
 31
0.0
  0
LINE
  5
ACE
330
22
100
AcDbEntity
  8
0
100
AcDbLine
 10
8753.647477188925
 20
-5833.371960984826
 30
0.0
 11
8928.647477188926
 21
-5833.371960984826
 31
0.0
  0
LINE
  5
ACF
330
22
100
AcDbEntity
  8
0
100
AcDbLine
 10
8928.647477188926
 20
-5483.371960984825
 30
0.0
 11
9103.647477188927
 21
-5483.371960984825
 31
0.0
  0
LINE
  5
AD0
330
22
100
AcDbEntity
  8
0
100
AcDbLine
 10
8928.647477188926
 20
-5833.371960984826
 30
0.0
 11
9103.647477188927
 21
-5833.371960984826
 31
0.0
  0
LINE
  5
AD1
330
22
100
AcDbEntity
  8
0
100
AcDbLine
 10
9103.647477188927
 20
-5483.371960984825
 30
0.0
 11
9278.647477188926
 21
-5483.371960984825
 31
0.0
  0
LINE
  5
AD2
330
22
100
AcDbEntity
  8
0
100
AcDbLine
 10
9103.647477188927
 20
-5833.371960984826
 30
0.0
 11
9278.647477188926
 21
-5833.371960984826
 31
0.0
  0
LINE
  5
AD3
330
22
100
AcDbEntity
  8
0
100
AcDbLine
 10
9278.647477188926
 20
-5483.371960984825
 30
0.0
 11
9453.647477188926
 21
-5483.371960984825
 31
0.0
  0
LINE
  5
AD4
330
22
100
AcDbEntity
  8
0
100
AcDbLine
 10
9278.647477188926
 20
-5833.371960984826
 30
0.0
 11
9453.647477188926
 21
-5833.371960984826
 31
0.0
  0
LINE
  5
AD5
330
22
100
AcDbEntity
  8
0
100
AcDbLine
 10
9453.647477188926
 20
-5483.371960984825
 30
0.0
 11
9628.647477188927
 21
-5483.371960984825
 31
0.0
  0
LINE
  5
AD6
330
22
100
AcDbEntity
  8
0
100
AcDbLine
 10
9453.647477188926
 20
-5833.371960984826
 30
0.0
 11
9628.647477188927
 21
-5833.371960984826
 31
0.0
  0
LINE
  5
AD7
330
22
100
AcDbEntity
  8
0
100
AcDbLine
 10
9628.647477188927
 20
-5483.371960984825
 30
0.0
 11
9803.647477188926
 21
-5483.371960984825
 31
0.0
  0
LINE
  5
AD8
330
22
100
AcDbEntity
  8
0
100
AcDbLine
 10
9628.647477188927
 20
-5833.371960984826
 30
0.0
 11
9803.647477188926
 21
-5833.371960984826
 31
0.0
  0
LINE
  5
AD9
330
22
100
AcDbEntity
  8
0
100
AcDbLine
 10
9803.647477188926
 20
-5483.371960984825
 30
0.0
 11
9978.647477188927
 21
-5483.371960984825
 31
0.0
  0
LINE
  5
ADA
330
22
100
AcDbEntity
  8
0
100
AcDbLine
 10
9803.647477188926
 20
-5833.371960984826
 30
0.0
 11
9978.647477188927
 21
-5833.371960984826
 31
0.0
  0
LINE
  5
ADB
330
22
100
AcDbEntity
  8
0
100
AcDbLine
 10
9978.647477188927
 20
-5483.371960984825
 30
0.0
 11
10153.64747718892
 21
-5483.371960984825
 31
0.0
  0
LINE
  5
ADC
330
22
100
AcDbEntity
  8
0
100
AcDbLine
 10
9978.647477188927
 20
-5833.371960984826
 30
0.0
 11
10153.64747718892
 21
-5833.371960984826
 31
0.0
  0
LINE
  5
ADD
330
22
100
AcDbEntity
  8
0
100
AcDbLine
 10
10153.64747718892
 20
-5483.371960984825
 30
0.0
 11
10328.64747718892
 21
-5483.371960984825
 31
0.0
  0
LINE
  5
ADE
330
22
100
AcDbEntity
  8
0
100
AcDbLine
 10
10153.64747718892
 20
-5833.371960984826
 30
0.0
 11
10328.64747718892
 21
-5833.371960984826
 31
0.0
  0
LINE
  5
ADF
330
22
100
AcDbEntity
  8
0
100
AcDbLine
 10
10328.64747718892
 20
-5483.371960984825
 30
0.0
 11
10503.64747718892
 21
-5483.371960984825
 31
0.0
  0
LINE
  5
AE0
330
22
100
AcDbEntity
  8
0
100
AcDbLine
 10
10328.64747718892
 20
-5833.371960984826
 30
0.0
 11
10503.64747718892
 21
-5833.371960984826
 31
0.0
  0
LINE
  5
AE1
330
22
100
AcDbEntity
  8
0
100
AcDbLine
 10
10503.64747718892
 20
-5483.371960984825
 30
0.0
 11
10678.64747718892
 21
-5483.371960984825
 31
0.0
  0
LINE
  5
AE2
330
22
100
AcDbEntity
  8
0
100
AcDbLine
 10
10503.64747718892
 20
-5833.371960984826
 30
0.0
 11
10678.64747718892
 21
-5833.371960984826
 31
0.0
  0
LINE
  5
AE3
330
22
100
AcDbEntity
  8
0
100
AcDbLine
 10
8053.647477188926
 20
-5483.371960984825
 30
0.0
 11
8053.647477188926
 21
-5658.371960984826
 31
0.0
  0
LINE
  5
AE4
330
22
100
AcDbEntity
  8
0
100
AcDbLine
 10
10678.64747718892
 20
-5483.371960984825
 30
0.0
 11
10678.64747718892
 21
-5658.371960984826
 31
0.0
  0
LINE
  5
AE5
330
22
100
AcDbEntity
  8
0
100
AcDbLine
 10
8053.647477188926
 20
-5658.371960984826
 30
0.0
 11
8053.647477188926
 21
-5833.371960984826
 31
0.0
  0
LINE
  5
AE6
330
22
100
AcDbEntity
  8
0
100
AcDbLine
 10
10678.64747718892
 20
-5658.371960984826
 30
0.0
 11
10678.64747718892
 21
-5833.371960984826
 31
0.0
  0
MTEXT
  5
AE7
330
22
100
AcDbEntity
  8
0
100
AcDbMText
 10
7703.64747718894
 20
-5658.371960984832
 30
0.0
 40
87.5
 41
404.31397995128
 71
     5
 72
     5
  1
納　入　先
 73
     1
 44
1.0
1001
ACAD
1000
MTEXTBEGIN
1070
    73
1070
     1
1070
    44
1040
1.0
1070
    74
1070
     0
1000
MTEXTEND
  0
OLE2FRAME
  5
AE8
330
22
100
AcDbEntity
  8
0
100
AcDbOle2Frame
 70
     2
  1
OLE
1001
ACAD
1000
OLEBEGIN
1070
    70
1070
     1
1070
    71
1070
     1
1070
    40
1040
0.0
1070
    41
1040
14.51097576329994
1070
    42
1040
10.65217267122534
1070
    72
1070
     0
1070
     3
1000

1070
    90
1071
        0
1070
    43
1040
0.0
1070
     4
1000

1070
    91
1071
        0
1070
    44
1040
0.0
1000
OLEEND
  0
TEXT
  5
AE9
330
22
100
AcDbEntity
  8
0
100
AcDbText
 10
7750.36214427889
 20
-6906.665415233127
 30
0.0
 40
100.0
  1
北海道スイコー株式会社
 41
0.75
100
AcDbText
  0
MTEXT
  5
AEA
330
22
100
AcDbEntity
  8
0
100
AcDbMText
 10
8841.14747718894
 20
-6257.538627651518
 30
0.0
 40
75.0
 41
459.0903337585132
 71
     5
 72
     3
  1
名　　　称
 73
     1
 44
1.0
1001
ACAD
1000
MTEXTBEGIN
1070
    73
1070
     1
1070
    44
1040
1.0
1070
    74
1070
     0
1000
MTEXTEND
  0
MTEXT
  5
AEB
330
22
100
AcDbEntity
  8
0
100
AcDbMText
 10
8841.14747718894
 20
-6851.371960984832
 30
0.0
 40
75.0
 41
64.5153168748493
 71
     5
 72
     5
  1
図番
 73
     1
 44
1.0
1001
ACAD
1000
MTEXTBEGIN
1070
    73
1070
     1
1070
    44
1040
1.0
1070
    74
1070
     0
1000
MTEXTEND
  0
MTEXT
  5
AEC
330
22
100
AcDbEntity
  8
0
100
AcDbMText
 10
7441.14747718894
 20
-6512.038627651489
 30
0.0
 40
75.0
 41
56.16669837991139
 71
     5
 72
     5
  1
年月日
 73
     1
 44
1.0
1001
ACAD
1000
MTEXTBEGIN
1070
    73
1070
     1
1070
    44
1040
1.0
1070
    74
1070
     0
1000
MTEXTEND
  0
MTEXT
  5
AED
330
22
100
AcDbEntity
  8
0
100
AcDbMText
 10
8141.14747718894
 20
-6512.038627651489
 30
0.0
 40
75.0
 41
62.90165563166283
 71
     5
 72
     5
  1
尺度
 73
     1
 44
1.0
1001
ACAD
1000
MTEXTBEGIN
1070
    73
1070
     1
1070
    44
1040
1.0
1070
    74
1070
     0
1000
MTEXTEND
  0
TEXT
  5
AEE
330
22
100
AcDbEntity
  8
0
100
AcDbText
 10
10430.52678503966
 20
-6976.371960984832
 30
0.0
 40
250.0
  1
△
 41
0.8
 72
     4
 11
10523.860118373
 21
-6851.371960984832
 31
0.0
100
AcDbText
  0
TEXT
  5
AEF
330
22
100
AcDbEntity
  8
0
 48
25.0
100
AcDbText
 10
9104.632615393347
 20
-6483.753231952966
 30
0.0
 40
125.0
  1
製品図
 41
0.6
100
AcDbText
  0
CIRCLE
  5
AFB
102
{ACAD_REACTORS
330
64D
102
}
330
22
100
AcDbEntity
  8
0
 62
     5
100
AcDbCircle
 10
9165.913392503767
 20
-1973.316453255711
 30
0.0
 40
9.0
  0
CIRCLE
  5
AFC
102
{ACAD_REACTORS
330
64D
102
}
330
22
100
AcDbEntity
  8
0
 62
     5
100
AcDbCircle
 10
9165.913392503767
 20
-2483.316441856322
 30
0.0
 40
9.0
  0
LEADER
  5
BEE
330
22
100
AcDbEntity
  8
0
100
AcDbLeader
  3
1-25
 73
     0
 74
     0
 40
75.00000000000003
 41
375.0
 76
     3
 10
9168.304036403196
 20
-1964.639770609323
 30
0.0
 10
9232.383856636879
 20
-1732.066335335883
 30
0.0
 10
9307.95524069896
 20
-1732.066335335883
 30
0.0
340
BEF
1001
ACAD
1000
DSTYLE
1002
{
1070
   147
1040
1.0
1070
    77
1070
     1
1002
}
  0
MTEXT
  5
BEF
102
{ACAD_REACTORS
330
BEE
102
}
330
22
100
AcDbEntity
  8
0
 62
     4
100
AcDbMText
 10
9332.955240698961
 20
-1707.066335335882
 30
0.0
 40
75.0
 41
0.0
 71
     7
 72
     1
  1
2-%%c18ｱﾝｶｰ穴
 73
     1
 44
1.0
1001
ACAD
1000
MTEXTBEGIN
1070
    73
1070
     1
1070
    44
1040
1.0
1070
    74
1070
     0
1000
MTEXTEND
  0
LWPOLYLINE
  5
C30
102
{ACAD_REACTORS
330
C35
330
642
102
}
330
22
100
AcDbEntity
  8
0
 62
     5
100
AcDbPolyline
 90
        4
 70
     1
 43
0.0
 10
2828.565213063413
 20
-2919.002289418039
 10
3463.565213063413
 20
-2919.002289418039
 10
3463.565213063413
 20
-2969.002289418039
 10
2828.565213063413
 20
-2969.002289418039
  0
LWPOLYLINE
  5
C31
102
{ACAD_REACTORS
330
C35
330
642
102
}
330
22
100
AcDbEntity
  8
0
  6
CENTER
 62
     1
 48
0.05
100
AcDbPolyline
 90
        2
 70
     0
 43
0.0
 10
3438.565213063413
 20
-2929.710647377086
 10
3438.565213063413
 20
-2958.293931458991
  0
LWPOLYLINE
  5
C32
102
{ACAD_REACTORS
330
C35
330
642
102
}
330
22
100
AcDbEntity
  8
0
 62
     5
100
AcDbPolyline
 90
        2
 70
     0
 43
0.0
 10
3413.565213063413
 20
-2919.002289418039
 10
3413.565213063413
 20
-2969.002289418039
  0
CIRCLE
  5
C33
102
{ACAD_REACTORS
330
C35
330
642
102
}
330
22
100
AcDbEntity
  8
0
 62
     5
100
AcDbCircle
 10
3438.565213063413
 20
-2944.002289418039
 30
0.0
 40
6.5
  0
LWPOLYLINE
  5
C34
102
{ACAD_REACTORS
330
C35
330
642
102
}
330
22
100
AcDbEntity
  8
0
  6
CENTER
 62
     1
 48
0.05
100
AcDbPolyline
 90
        2
 70
     0
 43
0.0
 10
3424.27357102246
 20
-2944.002289418039
 10
3452.856855104366
 20
-2944.002289418039
  0
LINE
  5
C4D
102
{ACAD_REACTORS
330
C5E
330
642
102
}
330
22
100
AcDbEntity
  8
0
 62
     5
100
AcDbLine
 10
3463.565213063413
 20
-2927.002289418039
 30
0.0
 11
4334.56518475493
 21
-2927.002289418038
 31
0.0
  0
LINE
  5
C4E
102
{ACAD_REACTORS
330
C5E
330
642
102
}
330
22
100
AcDbEntity
  8
0
 62
     5
100
AcDbLine
 10
3455.565213063413
 20
-2969.002289418039
 30
0.0
 11
3413.565213063413
 21
-2969.002289418039
 31
0.0
  0
LINE
  5
C4F
102
{ACAD_REACTORS
330
C5E
330
642
102
}
330
22
100
AcDbEntity
  8
0
 62
     5
100
AcDbLine
 10
4334.56518475493
 20
-2961.002289418038
 30
0.0
 11
3463.565213063413
 21
-2961.002289418038
 31
0.0
  0
LINE
  5
C50
102
{ACAD_REACTORS
330
C5E
330
642
102
}
330
22
100
AcDbEntity
  8
0
 62
     5
100
AcDbLine
 10
3413.565213063413
 20
-2969.002289418039
 30
0.0
 11
3413.565213063413
 21
-2919.002289418039
 31
0.0
  0
LWPOLYLINE
  5
C51
102
{ACAD_REACTORS
330
C5E
330
642
102
}
330
22
100
AcDbEntity
  8
0
  6
CENTER
 62
     1
100
AcDbPolyline
 90
        2
 70
     0
 43
0.0
 10
3397.650729470553
 20
-2944.002289418038
 10
4406.6728002112
 20
-2944.002289418037
  0
LWPOLYLINE
  5
C52
102
{ACAD_REACTORS
330
C5E
330
642
102
}
330
22
100
AcDbEntity
  8
0
  6
CENTER
 62
     1
 48
0.05
100
AcDbPolyline
 90
        2
 70
     0
 43
0.0
 10
3438.565213063413
 20
-2960.214022910895
 10
3438.565213063413
 20
-2927.790555925181
  0
LINE
  5
C53
102
{ACAD_REACTORS
330
C5E
330
642
102
}
330
22
100
AcDbEntity
  8
0
 62
     5
100
AcDbLine
 10
3455.565213063413
 20
-2919.00228941804
 30
0.0
 11
3413.565213063413
 21
-2919.002289418039
 31
0.0
  0
ARC
  5
C54
102
{ACAD_REACTORS
330
C5E
330
642
102
}
330
22
100
AcDbEntity
  8
0
 62
     5
100
AcDbCircle
 10
3463.565213063413
 20
-2919.00228941804
 30
0.0
 40
8.0
100
AcDbArc
 50
180.0
 51
270.0
  0
CIRCLE
  5
C55
102
{ACAD_REACTORS
330
C5E
330
642
102
}
330
22
100
AcDbEntity
  8
0
 62
     5
100
AcDbCircle
 10
3438.565213063413
 20
-2944.002289418039
 30
0.0
 40
6.5
  0
ARC
  5
C56
102
{ACAD_REACTORS
330
C5E
330
642
102
}
330
22
100
AcDbEntity
  8
0
 62
     5
100
AcDbCircle
 10
3463.565213063413
 20
-2969.002289418039
 30
0.0
 40
8.0
100
AcDbArc
 50
90.0
 51
180.0
  0
LINE
  5
C57
102
{ACAD_REACTORS
330
C5E
330
642
102
}
330
22
100
AcDbEntity
  8
0
 62
     5
100
AcDbLine
 10
4342.56518475493
 20
-2969.002289418038
 30
0.0
 11
4384.56518475493
 21
-2969.002289418038
 31
0.0
  0
LINE
  5
C58
102
{ACAD_REACTORS
330
C5E
330
642
102
}
330
22
100
AcDbEntity
  8
0
 62
     5
100
AcDbLine
 10
4384.56518475493
 20
-2969.002289418038
 30
0.0
 11
4384.56518475493
 21
-2919.002289418037
 31
0.0
  0
LWPOLYLINE
  5
C59
102
{ACAD_REACTORS
330
C5E
330
642
102
}
330
22
100
AcDbEntity
  8
0
  6
CENTER
 62
     1
 48
0.05
100
AcDbPolyline
 90
        2
 70
     0
 43
0.0
 10
4359.56518475493
 20
-2960.214022910895
 10
4359.56518475493
 20
-2927.79055592518
  0
LINE
  5
C5A
102
{ACAD_REACTORS
330
C5E
330
642
102
}
330
22
100
AcDbEntity
  8
0
 62
     5
100
AcDbLine
 10
4342.56518475493
 20
-2919.002289418039
 30
0.0
 11
4384.56518475493
 21
-2919.002289418037
 31
0.0
  0
ARC
  5
C5B
102
{ACAD_REACTORS
330
C5E
330
642
102
}
330
22
100
AcDbEntity
  8
0
 62
     5
100
AcDbCircle
 10
4334.56518475493
 20
-2919.002289418039
 30
0.0
 40
8.0
100
AcDbArc
 50
270.0
 51
0.0
  0
CIRCLE
  5
C5C
102
{ACAD_REACTORS
330
C5E
330
642
102
}
330
22
100
AcDbEntity
  8
0
 62
     5
100
AcDbCircle
 10
4359.56518475493
 20
-2944.002289418037
 30
0.0
 40
6.5
  0
ARC
  5
C5D
102
{ACAD_REACTORS
330
C5E
330
642
102
}
330
22
100
AcDbEntity
  8
0
 62
     5
100
AcDbCircle
 10
4334.56518475493
 20
-2969.002289418038
 30
0.0
 40
8.0
100
AcDbArc
 50
0.0
 51
90.0
  0
LWPOLYLINE
  5
C6C
102
{ACAD_REACTORS
330
642
102
}
330
22
100
AcDbEntity
  8
0
 62
     5
100
AcDbPolyline
 90
        4
 70
     1
 43
0.0
 10
4337.565184754931
 20
-2919.002289418037
 10
4387.56518475493
 20
-2919.002289418037
 10
4387.56518475493
 20
-2969.002289418038
 10
4337.565184754931
 20
-2969.002289418038
  0
LWPOLYLINE
  5
C6D
102
{ACAD_REACTORS
330
642
102
}
330
22
100
AcDbEntity
  8
0
  6
CENTER
 62
     1
 48
0.05
100
AcDbPolyline
 90
        2
 70
     0
 43
0.0
 10
4359.56518475493
 20
-2966.002494638561
 10
4359.56518475493
 20
-2922.002084197514
  0
LWPOLYLINE
  5
C6E
102
{ACAD_REACTORS
330
642
102
}
330
22
100
AcDbEntity
  8
0
 62
     5
100
AcDbPolyline
 90
        2
 70
     0
 43
0.0
 10
4366.065184754931
 20
-2952.502289418037
 10
4366.065184754931
 20
-2935.502289418037
  0
LWPOLYLINE
  5
C6F
102
{ACAD_REACTORS
330
642
102
}
330
22
100
AcDbEntity
  8
0
 62
     5
100
AcDbPolyline
 90
        2
 70
     0
 43
0.0
 10
4353.065184754931
 20
-2952.502289418037
 10
4353.065184754931
 20
-2935.502289418037
  0
LWPOLYLINE
  5
C70
102
{ACAD_REACTORS
330
642
102
}
330
22
100
AcDbEntity
  8
0
  6
CENTER
 62
     1
 48
0.05
100
AcDbPolyline
 90
        2
 70
     0
 43
0.0
 10
4343.476726387154
 20
-2944.002289418037
 10
4375.653643122706
 20
-2944.002289418037
  0
ARC
  5
C71
102
{ACAD_REACTORS
330
642
102
}
330
22
100
AcDbEntity
  8
0
 62
     5
100
AcDbCircle
 10
4359.56518475493
 20
-2935.502289418037
 30
0.0
 40
6.5
100
AcDbArc
 50
0.0
 51
180.0
  0
ARC
  5
C72
102
{ACAD_REACTORS
330
642
102
}
330
22
100
AcDbEntity
  8
0
 62
     5
100
AcDbCircle
 10
4359.56518475493
 20
-2952.502289418037
 30
0.0
 40
6.5
100
AcDbArc
 50
180.0
 51
0.0
  0
CIRCLE
  5
DA9
330
22
100
AcDbEntity
  8
0
  6
CENTER
 62
     1
100
AcDbCircle
 10
7885.913392503766
 20
-2228.316432297231
 30
0.0
 40
905.0
  0
DIMENSION
  5
DAA
330
22
100
AcDbEntity
  8
0
100
AcDbDimension
  2
*D15
 10
7885.913392503772
 20
-2228.316432297229
 30
0.0
 11
8393.106565214514
 21
-1749.504010198968
 31
0.0
 70
   164
 71
     5
 42
904.9999999999945
  3
1-25
100
AcDbRadialDimension
 15
8543.991989354273
 25
-1607.061605058625
 35
0.0
 40
0.0
1001
ACAD
1000
DSTYLE
1002
{
1070
   288
1070
     1
1002
}
  0
LINE
  5
DB4
330
22
100
AcDbEntity
  8
0
  6
CENTER
 62
     1
100
AcDbLine
 10
2216.065213063412
 20
-3347.127365153192
 30
0.0
 11
2216.065213063412
 21
-3040.877365153192
 31
0.0
  0
ENDSEC
  0
SECTION
  2
OBJECTS
  0
DICTIONARY
  5
C
330
0
100
AcDbDictionary
281
     1
  3
ACAD_COLOR
350
1B
  3
ACAD_GROUP
350
D
  3
ACAD_LAYOUT
350
19
  3
ACAD_MATERIAL
350
1A
  3
ACAD_MLINESTYLE
350
16
  3
ACAD_PLOTSETTINGS
350
18
  3
ACAD_PLOTSTYLENAME
350
E
  3
ACAD_TABLESTYLE
350
1C
  3
AcadDim
350
AFD
  3
ACDBHEADERROUNDTRIPXREC
350
DBE
  3
AcDbVariableDictionary
350
544
  0
DICTIONARY
  5
526
330
2
100
AcDbDictionary
280
     1
281
     1
  3
ACAD_LAYERFILTERS
360
884
  3
ACAD_LAYERSTATES
360
93E
  3
ACLYDICTIONARY
360
883
  0
DICTIONARY
  5
26D
330
22
100
AcDbDictionary
280
     1
281
     1
  3
ACAD_SORTENTS
360
26E
  0
DICTIONARY
  5
1B
102
{ACAD_REACTORS
330
C
102
}
330
C
100
AcDbDictionary
281
     1
  0
DICTIONARY
  5
D
102
{ACAD_REACTORS
330
C
102
}
330
C
100
AcDbDictionary
281
     1
  3
梯子ステー_正面図
350
C5E
  3
梯子リング_正面図
350
C35
  3
梯子詳細図
350
641
  3
梯子正面図
350
642
  3
梯子平面図
350
64D
  0
DICTIONARY
  5
19
102
{ACAD_REACTORS
330
C
102
}
330
C
100
AcDbDictionary
281
     1
  3
Model
350
25
  3
レイアウト1
350
21
  0
DICTIONARY
  5
1A
102
{ACAD_REACTORS
330
C
102
}
330
C
100
AcDbDictionary
281
     1
  0
DICTIONARY
  5
16
102
{ACAD_REACTORS
330
C
102
}
330
C
100
AcDbDictionary
281
     1
  3
Standard
350
17
  0
DICTIONARY
  5
18
102
{ACAD_REACTORS
330
C
102
}
330
C
100
AcDbDictionary
281
     1
  0
ACDBDICTIONARYWDFLT
  5
E
102
{ACAD_REACTORS
330
C
102
}
330
C
100
AcDbDictionary
281
     1
  3
Normal
350
F
100
AcDbDictionaryWithDefault
340
F
  0
DICTIONARY
  5
1C
102
{ACAD_REACTORS
330
C
102
}
330
C
100
AcDbDictionary
281
     1
  3
Standard
350
1D
  3
表
350
93D
  0
XRECORD
  5
AFD
102
{ACAD_REACTORS
330
C
102
}
330
C
100
AcDbXrecord
280
     1
 90
   990106
  3

 60
     0
 61
     0
 62
     1
 63
     3
 64
     1
 65
     0
 66
     0
 67
     3
 68
     1
 69
     1
 70
     0
 71
     0
 72
     0
 40
0.0
170
     2
340
BEF
  0
DICTIONARY
  5
DBE
102
{ACAD_REACTORS
330
C
102
}
330
C
100
AcDbDictionary
281
     1
  0
DICTIONARY
  5
544
102
{ACAD_REACTORS
330
C
102
}
330
C
100
AcDbDictionary
281
     1
  3
CTABLESTYLE
350
545
  3
DIMASSOC
350
DBB
  3
PROJECTNAME
350
DBC
  0
DICTIONARY
  5
884
102
{ACAD_REACTORS
330
526
102
}
330
526
100
AcDbDictionary
281
     1
  0
DICTIONARY
  5
93E
102
{ACAD_REACTORS
330
526
102
}
330
526
100
AcDbDictionary
281
     1
  0
DICTIONARY
  5
883
102
{ACAD_REACTORS
330
526
102
}
330
526
100
AcDbDictionary
281
     1
1001
ACAD
1000
<All
  0
SORTENTSTABLE
  5
26E
102
{ACAD_REACTORS
330
26D
102
}
330
26D
100
AcDbSortentsTable
330
22
331
13D
  5
C4E
331
145
  5
147
331
174
  5
16E
331
23B
  5
234
331
14D
  5
14F
331
17C
  5
176
331
243
  5
23B
331
A25
  5
90C
331
A5C
  5
A50
331
A9B
  5
A8F
331
AD2
  5
AC6
331
AA3
  5
A97
331
A2D
  5
A21
331
10E
  5
113
331
63F
  5
5B7
331
A64
  5
A58
331
ADA
  5
ACE
331
C51
  5
AEC
331
AAB
  5
A9F
331
A35
  5
A29
331
214
  5
179
331
A6C
  5
A60
331
AE2
  5
AD6
331
C59
  5
BEF
331
A74
  5
A68
331
AEA
  5
ADE
331
116
  5
122
331
21C
  5
17E
331
11E
  5
129
331
155
  5
C59
331
126
  5
141
331
15D
  5
157
331
224
  5
21B
331
A3D
  5
A31
331
A7C
  5
A70
331
AB3
  5
AA7
331
A84
  5
A78
331
165
  5
15F
331
22C
  5
225
331
A45
  5
A39
331
ABB
  5
AAF
331
C71
  5
C72
331
16D
  5
167
331
234
  5
22D
331
55A
  5
258
331
A4D
  5
A41
331
A8C
  5
A80
331
AC3
  5
AB7
331
C32
  5
10E
331
A94
  5
A88
331
A1E
  5
65D
331
A55
  5
A49
331
ACB
  5
ABF
331
13E
  5
C4F
331
146
  5
148
331
175
  5
16F
331
23C
  5
235
331
5A1
  5
449
331
628
  5
56D
331
14E
  5
150
331
244
  5
23C
331
A26
  5
A1A
331
A5D
  5
A51
331
A9C
  5
A90
331
AD3
  5
AC7
331
AA4
  5
A98
331
A2E
  5
A22
331
10F
  5
114
331
24C
  5
244
331
57A
  5
25A
331
A65
  5
A59
331
ADB
  5
ACF
331
C52
  5
AED
331
AAC
  5
AA0
331
A36
  5
A2A
331
52B
  5
251
331
A6D
  5
A61
331
AE3
  5
AD7
331
C5A
  5
C30
331
A75
  5
A69
331
AEB
  5
ADF
331
117
  5
123
331
21D
  5
17F
331
11F
  5
12B
331
156
  5
C5A
331
127
  5
142
331
15E
  5
158
331
225
  5
21C
331
A3E
  5
A32
331
A7D
  5
A71
331
AB4
  5
AA8
331
AFB
  5
AE4
331
A85
  5
A79
331
166
  5
160
331
22D
  5
226
331
5D1
  5
44C
331
A46
  5
A3A
331
ABC
  5
AB0
331
C72
  5
DA9
331
16E
  5
168
331
235
  5
22E
331
A4E
  5
A42
331
A8D
  5
A81
331
AC4
  5
AB8
331
C33
  5
10F
331
A95
  5
A89
331
A1F
  5
66A
331
A56
  5
A4A
331
ACC
  5
AC0
331
13F
  5
C50
331
147
  5
149
331
176
  5
170
331
23D
  5
236
331
629
  5
5A1
331
14F
  5
151
331
245
  5
23D
331
A27
  5
A1B
331
A5E
  5
A52
331
A9D
  5
A91
331
AD4
  5
AC8
331
AA5
  5
A99
331
A2F
  5
A23
331
24D
  5
245
331
7C8
  5
628
331
A66
  5
A5A
331
ADC
  5
AD0
331
C53
  5
AEE
331
AAD
  5
AA1
331
A37
  5
A2B
331
A6E
  5
A62
331
AE4
  5
AD8
331
C5B
  5
C31
331
A76
  5
A6A
331
AEC
  5
AE0
331
110
  5
118
331
118
  5
125
331
21E
  5
180
331
120
  5
12C
331
157
  5
C5B
331
15F
  5
159
331
226
  5
21D
331
A3F
  5
A33
331
A7E
  5
A72
331
AB5
  5
AA9
331
AFC
  5
AE5
331
167
  5
161
331
22E
  5
227
331
A47
  5
A3B
331
A86
  5
A7A
331
ABD
  5
AB1
331
16F
  5
169
331
236
  5
22F
331
A4F
  5
A43
331
A8E
  5
A82
331
AC5
  5
AB9
331
C34
  5
110
331
A96
  5
A8A
331
A57
  5
A4B
331
ACD
  5
AC1
331
140
  5
C51
331
23E
  5
237
331
148
  5
14A
331
177
  5
171
331
62A
  5
594
331
A20
  5
7C8
331
246
  5
23E
331
17F
  5
C5C
331
A28
  5
A1C
331
A5F
  5
A53
331
A9E
  5
A92
331
AD5
  5
AC9
331
AA6
  5
A9A
331
A30
  5
A24
331
A67
  5
A5B
331
ADD
  5
AD1
331
C54
  5
AEF
331
AAE
  5
AA2
331
A6F
  5
A63
331
AE5
  5
AD9
331
C5C
  5
C32
331
A77
  5
A6B
331
AED
  5
AE1
331
DA9
  5
DAA
331
111
  5
119
331
150
  5
C54
331
121
  5
12D
331
158
  5
152
331
21F
  5
183
331
A38
  5
A2C
331
A7F
  5
A73
331
8E1
  5
120
331
160
  5
15A
331
227
  5
21E
331
A40
  5
A34
331
AB6
  5
AAA
331
C6C
  5
C6D
331
168
  5
162
331
22F
  5
228
331
54D
  5
257
331
594
  5
448
331
66A
  5
5D1
331
A48
  5
A3C
331
A87
  5
A7B
331
ABE
  5
AB2
331
237
  5
230
331
A50
  5
A44
331
A8F
  5
A83
331
AC6
  5
ABA
331
A97
  5
A8B
331
ACE
  5
AC2
331
170
  5
16A
331
141
  5
C52
331
23F
  5
239
331
149
  5
14B
331
178
  5
172
331
62B
  5
57A
331
A21
  5
8B3
331
A58
  5
A4C
331
247
  5
23F
331
180
  5
C5D
331
56D
  5
259
331
A29
  5
A1D
331
A60
  5
A54
331
A9F
  5
A93
331
AD6
  5
ACA
331
C4D
  5
AE8
331
AA7
  5
A9B
331
A31
  5
A25
331
24F
  5
246
331
A68
  5
A5C
331
ADE
  5
AD2
331
C55
  5
AFA
331
AAF
  5
AA3
331
A70
  5
A64
331
AE6
  5
ADA
331
C5D
  5
C33
331
AEE
  5
AE2
331
DAA
  5
DB3
331
112
  5
11A
331
218
  5
17A
331
151
  5
C55
331
159
  5
153
331
220
  5
18F
331
257
  5
24C
331
5C4
  5
44B
331
A39
  5
A2D
331
A78
  5
A6C
331
A80
  5
A74
331
8E2
  5
121
331
12A
  5
144
331
161
  5
15B
331
228
  5
220
331
A41
  5
A35
331
AB7
  5
AAB
331
C6D
  5
C6E
331
169
  5
163
331
230
  5
229
331
A49
  5
A3D
331
A88
  5
A7C
331
ABF
  5
AB3
331
BEE
  5
AE6
331
A1A
  5
62B
331
A51
  5
A45
331
A90
  5
A84
331
AC7
  5
ABB
331
ACF
  5
AC3
331
171
  5
16B
331
142
  5
C53
331
238
  5
231
331
14A
  5
14C
331
179
  5
173
331
A22
  5
8D6
331
A59
  5
A4D
331
A98
  5
A8C
331
A2A
  5
A1E
331
248
  5
240
331
10B
  5
111
331
181
  5
C6C
331
A61
  5
A55
331
AA0
  5
A94
331
AD7
  5
ACB
331
C4E
  5
AE9
331
AA8
  5
A9C
331
A32
  5
A26
331
A69
  5
A5D
331
ADF
  5
AD3
331
C56
  5
AFB
331
A71
  5
A65
331
AE7
  5
ADB
331
AEF
  5
AE3
331
113
  5
11D
331
219
  5
17B
331
11B
  5
126
331
152
  5
C56
331
250
  5
247
331
123
  5
12E
331
15A
  5
154
331
221
  5
190
331
258
  5
24D
331
A3A
  5
A2E
331
A79
  5
A6D
331
AB0
  5
AA4
331
A81
  5
A75
331
229
  5
221
331
162
  5
15C
331
547
  5
252
331
8E3
  5
629
331
A42
  5
A36
331
AB8
  5
AAC
331
C6E
  5
C6F
331
16A
  5
164
331
231
  5
22A
331
A4A
  5
A3E
331
A89
  5
A7D
331
AC0
  5
AB4
331
BEF
  5
AE7
331
A1B
  5
63F
331
A52
  5
A46
331
A91
  5
A85
331
AC8
  5
ABC
331
13B
  5
C34
331
143
  5
145
331
172
  5
16C
331
239
  5
232
331
14B
  5
14D
331
17A
  5
174
331
241
  5
23A
331
A23
  5
8DF
331
A5A
  5
A4E
331
A99
  5
A8D
331
AD0
  5
AC4
331
A2B
  5
A1F
331
10C
  5
112
331
182
  5
177
331
249
  5
241
331
A62
  5
A56
331
AA1
  5
A95
331
AD8
  5
ACC
331
C4F
  5
AEA
331
AA9
  5
A9D
331
A33
  5
A27
331
A6A
  5
A5E
331
AE0
  5
AD4
331
C57
  5
AFC
331
A72
  5
A66
331
AE8
  5
ADC
331
114
  5
11F
331
21A
  5
17C
331
11C
  5
127
331
153
  5
C57
331
251
  5
248
331
124
  5
13F
331
15B
  5
155
331
222
  5
191
331
259
  5
24F
331
587
  5
25B
331
A3B
  5
A2F
331
A7A
  5
A6E
331
AB1
  5
AA5
331
A82
  5
A76
331
548
  5
256
331
163
  5
15D
331
22A
  5
222
331
65D
  5
5C4
331
8E4
  5
62A
331
A43
  5
A37
331
AB9
  5
AAD
331
C6F
  5
C70
331
16B
  5
165
331
232
  5
22B
331
A4B
  5
A3F
331
A8A
  5
A7E
331
AC1
  5
AB5
331
C30
  5
10B
331
A92
  5
A86
331
A1C
  5
64B
331
A53
  5
A47
331
AC9
  5
ABD
331
13C
  5
C4D
331
144
  5
146
331
173
  5
16D
331
23A
  5
233
331
14C
  5
14E
331
17B
  5
175
331
A24
  5
8E2
331
A5B
  5
A4F
331
A9A
  5
A8E
331
AD1
  5
AC5
331
AA2
  5
A96
331
A2C
  5
A20
331
183
  5
178
331
24A
  5
243
331
A63
  5
A57
331
AD9
  5
ACD
331
C50
  5
AEB
331
AAA
  5
A9E
331
A34
  5
A28
331
5B7
  5
44A
331
A6B
  5
A5F
331
AE1
  5
AD5
331
C58
  5
BEE
331
A73
  5
A67
331
AE9
  5
ADD
331
21B
  5
17D
331
11D
  5
128
331
154
  5
C58
331
252
  5
24A
331
125
  5
140
331
15C
  5
156
331
223
  5
214
331
25A
  5
250
331
A3C
  5
A30
331
A7B
  5
A6F
331
AB2
  5
AA6
331
A83
  5
A77
331
164
  5
15E
331
22B
  5
223
331
A44
  5
A38
331
ABA
  5
AAE
331
C70
  5
C71
331
16C
  5
166
331
233
  5
22C
331
A4C
  5
A40
331
A8B
  5
A7F
331
AC2
  5
AB6
331
C31
  5
10C
331
A93
  5
A87
331
A1D
  5
64E
331
A54
  5
A48
331
ACA
  5
ABE
  0
GROUP
  5
C5E
102
{ACAD_REACTORS
330
D
102
}
330
D
100
AcDbGroup
300

 70
     0
 71
     1
340
C5D
340
C5C
340
C5B
340
C5A
340
C59
340
C58
340
C57
340
C56
340
C55
340
C54
340
C53
340
C52
340
C51
340
C50
340
C4F
340
C4E
340
C4D
  0
GROUP
  5
C35
102
{ACAD_REACTORS
330
D
102
}
330
D
100
AcDbGroup
300

 70
     0
 71
     1
340
C34
340
C33
340
C32
340
C31
340
C30
  0
GROUP
  5
641
102
{ACAD_REACTORS
330
D
102
}
330
D
100
AcDbGroup
300

 70
     0
 71
     1
340
183
340
182
340
14C
340
149
340
147
340
146
340
145
340
144
340
143
340
16F
340
16E
340
16D
340
16C
340
16B
340
16A
340
169
340
168
340
167
340
166
340
165
340
164
340
163
340
162
340
161
340
160
340
15F
340
15E
340
15D
340
15C
340
15B
340
15A
340
159
340
158
340
14D
340
148
340
112
340
111
340
14E
340
14A
340
14F
340
14B
  0
GROUP
  5
642
102
{ACAD_REACTORS
330
D
102
}
330
D
100
AcDbGroup
300

 70
     0
 71
     1
340
13D
340
13C
340
13B
340
181
340
180
340
17F
340
142
340
157
340
156
340
155
340
154
340
153
340
152
340
151
340
141
340
13F
340
13E
340
150
340
140
340
C5D
340
C5C
340
C5B
340
C5A
340
C59
340
C58
340
C57
340
C56
340
C55
340
C52
340
C50
340
C54
340
C53
340
C51
340
C4F
340
C4E
340
C4D
340
C34
340
C33
340
C32
340
C31
340
C30
340
C72
340
C71
340
C70
340
C6F
340
C6E
340
C6D
340
C6C
  0
GROUP
  5
64D
102
{ACAD_REACTORS
330
D
102
}
330
D
100
AcDbGroup
300

 70
     0
 71
     1
340
258
340
257
340
24A
340
249
340
247
340
245
340
243
340
23F
340
23E
340
23D
340
23C
340
23B
340
23A
340
21A
340
25A
340
259
340
248
340
246
340
244
340
239
340
238
340
237
340
AFC
340
AFB
340
241
  0
LAYOUT
  5
25
102
{ACAD_XDICTIONARY
360
DC1
102
}
102
{ACAD_REACTORS
330
19
102
}
330
19
100
AcDbPlotSettings
  1

  2
FUJI XEROX DocuCentre-VII C3373.pc3
  4
A3
  6

 40
4.900083065032958
 41
4.857729434967041
 42
4.900054931640625
 43
4.90008544921875
 44
297.0106506347656
 45
419.9889831542968
 46
0.0
 47
0.0
 48
603.6474771889406
 49
-7021.038627651518
140
10678.64747718894
141
-21.03862765151825
142
1.0
143
24.55932356989086
 70
 11952
 72
     1
 73
     1
 74
     4
  7
monochrome.ctb
 75
     0
147
0.0407177338233361
148
-603.6474771889406
149
7021.038627651518
100
AcDbLayout
  1
Model
 70
     1
 71
     0
 10
0.0
 20
0.0
 11
12.0
 21
9.0
 12
0.0
 22
0.0
 32
0.0
 14
0.0
 24
0.0
 34
0.0
 15
0.0
 25
0.0
 35
0.0
146
0.0
 13
0.0
 23
0.0
 33
0.0
 16
1.0
 26
0.0
 36
0.0
 17
0.0
 27
1.0
 37
0.0
 76
     0
330
22
1001
ACAD_PSEXT
1000
FUJI XEROX DocuCentre-VII C3373.pc3
1000
FX DocuCentre-VII C3373
1000
192.168.8.53
1000

1070
     0
  0
LAYOUT
  5
21
102
{ACAD_XDICTIONARY
360
DBF
102
}
102
{ACAD_REACTORS
330
19
102
}
330
19
100
AcDbPlotSettings
  1

  2
DocuCentre-II C2200
  4

  6

 40
0.0
 41
0.0
 42
0.0
 43
0.0
 44
0.0
 45
0.0
 46
0.0
 47
0.0
 48
0.0
 49
0.0
140
0.0
141
0.0
142
1.0
143
1.0
 70
   688
 72
     0
 73
     0
 74
     5
  7
monochrome.ctb
 75
    16
147
1.0
148
0.0
149
0.0
100
AcDbLayout
  1
レイアウト1
 70
     1
 71
     1
 10
-144.1413879394531
 20
-67.9833984375
 11
277.8586120605469
 21
231.0166015625
 12
0.0
 22
0.0
 32
0.0
 14
-144.1413879394531
 24
-67.9833984375
 34
0.0
 15
277.8586120605469
 25
231.0166015625
 35
0.0
146
0.0
 13
0.0
 23
0.0
 33
0.0
 16
1.0
 26
0.0
 36
0.0
 17
0.0
 27
1.0
 37
0.0
 76
     0
330
1E
  0
MLINESTYLE
  5
17
102
{ACAD_REACTORS
330
16
102
}
330
16
100
AcDbMlineStyle
  2
STANDARD
 70
     0
  3

 62
   256
 51
90.0
 52
90.0
 71
     2
 49
0.5
 62
   256
  6
BYLAYER
 49
-0.5
 62
   256
  6
BYLAYER
  0
ACDBPLACEHOLDER
  5
F
102
{ACAD_REACTORS
330
E
102
}
330
E
  0
TABLESTYLE
  5
1D
102
{ACAD_REACTORS
330
1C
102
}
330
1C
100
AcDbTableStyle
  3
Standard
 70
     0
 71
     0
 40
0.06
 41
0.06
280
     0
281
     0
  7
STANDARD
140
0.18
170
     2
 62
     0
 63
     7
283
     0
274
    -2
284
     1
 64
     0
275
    -2
285
     1
 65
     0
276
    -2
286
     1
 66
     0
277
    -2
287
     1
 67
     0
278
    -2
288
     1
 68
     0
279
    -2
289
     1
 69
     0
  7
STANDARD
140
0.25
170
     5
 62
     0
 63
     7
283
     0
274
    -2
284
     1
 64
     0
275
    -2
285
     1
 65
     0
276
    -2
286
     1
 66
     0
277
    -2
287
     1
 67
     0
278
    -2
288
     1
 68
     0
279
    -2
289
     1
 69
     0
  7
STANDARD
140
0.18
170
     5
 62
     0
 63
     7
283
     0
274
    -2
284
     1
 64
     0
275
    -2
285
     1
 65
     0
276
    -2
286
     1
 66
     0
277
    -2
287
     1
 67
     0
278
    -2
288
     1
 68
     0
279
    -2
289
     1
 69
     0
  0
TABLESTYLE
  5
93D
102
{ACAD_REACTORS
330
1C
102
}
330
1C
100
AcDbTableStyle
  3
Standard
 70
     0
 71
     0
 40
1.0
 41
1.0
280
     1
281
     1
  7
STANDARD
140
3.0
170
     5
 62
     0
 63
     7
283
     0
274
    -2
284
     1
 64
     0
275
    -2
285
     1
 65
     0
276
    -2
286
     1
 66
     0
277
    -2
287
     1
 67
     0
278
    -2
288
     1
 68
     0
279
    -2
289
     1
 69
     0
  7
STANDARD
140
6.0
170
     5
 62
     0
 63
     7
283
     0
274
    -2
284
     1
 64
     0
275
    -2
285
     1
 65
     0
276
    -2
286
     1
 66
     0
277
    -2
287
     1
 67
     0
278
    -2
288
     1
 68
     0
279
    -2
289
     1
 69
     0
  7
STANDARD
140
4.5
170
     5
 62
     0
 63
     7
283
     0
274
    -2
284
     1
 64
     0
275
    -2
285
     1
 65
     0
276
    -2
286
     1
 66
     0
277
    -2
287
     1
 67
     0
278
    -2
288
     1
 68
     0
279
    -2
289
     1
 69
     0
  0
DICTIONARYVAR
  5
545
102
{ACAD_REACTORS
330
544
102
}
330
544
100
DictionaryVariables
280
     0
  1
STANDARD
  0
DICTIONARYVAR
  5
DBB
102
{ACAD_REACTORS
330
544
102
}
330
544
100
DictionaryVariables
280
     0
  1
1
  0
DICTIONARYVAR
  5
DBC
102
{ACAD_REACTORS
330
544
102
}
330
544
100
DictionaryVariables
280
     0
  1

  0
DICTIONARY
  5
DC1
330
25
100
AcDbDictionary
280
     1
281
     1
  3
ACAD_XREC_ROUNDTRIP
360
DC2
  0
DICTIONARY
  5
DBF
330
21
100
AcDbDictionary
280
     1
281
     1
  3
ACAD_XREC_ROUNDTRIP
360
DC0
  0
XRECORD
  5
DC2
102
{ACAD_REACTORS
330
DC1
102
}
330
DC1
100
AcDbXrecord
280
     1
102
SHADEPLOT
 70
     0
102
SHADEPLOTRESLEVEL
 70
     2
102
SHADEPLOTCUSTOMDPI
 70
   300
  0
XRECORD
  5
DC0
102
{ACAD_REACTORS
330
DBF
102
}
330
DBF
100
AcDbXrecord
280
     1
102
SHADEPLOT
 70
     0
102
SHADEPLOTRESLEVEL
 70
     2
102
SHADEPLOTCUSTOMDPI
 70
   300
  0
ENDSEC
  0
EOF
