  0
SECTION
  2
HEADER
  9
$ACADVER
  1
AC1015
  9
$ACADMAINTVER
 70
    20
  9
$DWGCODEPAGE
  3
ANSI_932
  9
$INSBASE
 10
0.0
 20
0.0
 30
0.0
  9
$EXTMIN
 10
14864.47727610499
 20
-242.2205676238209
 30
-0.000000000000013
  9
$EXTMAX
 10
25440.74543546007
 20
7258.465974844867
 30
0.0000000000000023
  9
$LIMMIN
 10
-144.1413879394531
 20
-67.9833984375
  9
$LIMMAX
 10
277.8586120605469
 20
231.0166015625
  9
$ORTHOMODE
 70
     0
  9
$REGENMODE
 70
     1
  9
$FILLMODE
 70
     1
  9
$QTEXTMODE
 70
     0
  9
$MIRRTEXT
 70
     0
  9
$LTSCALE
 40
25.0
  9
$ATTMODE
 70
     1
  9
$TEXTSIZE
 40
75.0
  9
$TRACEWID
 40
0.05
  9
$TEXTSTYLE
  7
STANDARD
  9
$CLAYER
  8
0
  9
$CELTYPE
  6
ByLayer
  9
$CECOLOR
 62
   256
  9
$CELTSCALE
 40
1.0
  9
$DISPSILH
 70
     0
  9
$DIMSCALE
 40
25.0
  9
$DIMASZ
 40
3.0
  9
$DIMEXO
 40
1.0
  9
$DIMDLI
 40
0.38
  9
$DIMRND
 40
0.0
  9
$DIMDLE
 40
0.0
  9
$DIMEXE
 40
2.0
  9
$DIMTP
 40
0.0
  9
$DIMTM
 40
0.0
  9
$DIMTXT
 40
3.0
  9
$DIMCEN
 40
0.09
  9
$DIMTSZ
 40
0.0
  9
$DIMTOL
 70
     0
  9
$DIMLIM
 70
     0
  9
$DIMTIH
 70
     0
  9
$DIMTOH
 70
     0
  9
$DIMSE1
 70
     0
  9
$DIMSE2
 70
     0
  9
$DIMTAD
 70
     1
  9
$DIMZIN
 70
     8
  9
$DIMBLK
  1
Open30
  9
$DIMASO
 70
     1
  9
$DIMSHO
 70
     0
  9
$DIMPOST
  1

  9
$DIMAPOST
  1

  9
$DIMALT
 70
     0
  9
$DIMALTD
 70
     2
  9
$DIMALTF
 40
25.4
  9
$DIMLFAC
 40
1.0
  9
$DIMTOFL
 70
     1
  9
$DIMTVP
 40
1.0
  9
$DIMTIX
 70
     0
  9
$DIMSOXD
 70
     0
  9
$DIMSAH
 70
     0
  9
$DIMBLK1
  1

  9
$DIMBLK2
  1

  9
$DIMSTYLE
  2
1-25
  9
$DIMCLRD
 70
     4
  9
$DIMCLRE
 70
     4
  9
$DIMCLRT
 70
     4
  9
$DIMTFAC
 40
1.0
  9
$DIMGAP
 40
1.0
  9
$DIMJUST
 70
     0
  9
$DIMSD1
 70
     0
  9
$DIMSD2
 70
     0
  9
$DIMTOLJ
 70
     1
  9
$DIMTZIN
 70
     0
  9
$DIMALTZ
 70
     0
  9
$DIMALTTZ
 70
     0
  9
$DIMUPT
 70
     0
  9
$DIMDEC
 70
     1
  9
$DIMTDEC
 70
     1
  9
$DIMALTU
 70
     2
  9
$DIMALTTD
 70
     2
  9
$DIMTXSTY
  7
STANDARD
  9
$DIMAUNIT
 70
     0
  9
$DIMADEC
 70
     0
  9
$DIMALTRND
 40
0.0
  9
$DIMAZIN
 70
     2
  9
$DIMDSEP
 70
    46
  9
$DIMATFIT
 70
     3
  9
$DIMFRAC
 70
     0
  9
$DIMLDRBLK
  1
Open30
  9
$DIMLUNIT
 70
     2
  9
$DIMLWD
 70
     9
  9
$DIMLWE
 70
     9
  9
$DIMTMOVE
 70
     0
  9
$LUNITS
 70
     2
  9
$LUPREC
 70
     4
  9
$SKETCHINC
 40
0.1
  9
$FILLETRAD
 40
4.0
  9
$AUNITS
 70
     0
  9
$AUPREC
 70
     0
  9
$MENU
  1
.
  9
$ELEVATION
 40
0.0
  9
$PELEVATION
 40
0.0
  9
$THICKNESS
 40
0.0
  9
$LIMCHECK
 70
     0
  9
$CHAMFERA
 40
0.0
  9
$CHAMFERB
 40
0.0
  9
$CHAMFERC
 40
0.0
  9
$CHAMFERD
 40
0.0
  9
$SKPOLY
 70
     0
  9
$TDCREATE
 40
2454655.449996667
  9
$TDUCREATE
 40
2454655.074996667
  9
$TDUPDATE
 40
2460712.381386563
  9
$TDUUPDATE
 40
2460712.006386563
  9
$TDINDWG
 40
0.3145210532
  9
$TDUSRTIMER
 40
0.3145210532
  9
$USRTIMER
 70
     1
  9
$ANGBASE
 50
0.0
  9
$ANGDIR
 70
     0
  9
$PDMODE
 70
     0
  9
$PDSIZE
 40
0.0
  9
$PLINEWID
 40
0.0
  9
$SPLFRAME
 70
     0
  9
$SPLINETYPE
 70
     6
  9
$SPLINESEGS
 70
     8
  9
$HANDSEED
  5
1661
  9
$SURFTAB1
 70
     6
  9
$SURFTAB2
 70
     6
  9
$SURFTYPE
 70
     6
  9
$SURFU
 70
     6
  9
$SURFV
 70
     6
  9
$UCSBASE
  2

  9
$UCSNAME
  2

  9
$UCSORG
 10
0.0
 20
0.0
 30
0.0
  9
$UCSXDIR
 10
1.0
 20
0.0
 30
0.0
  9
$UCSYDIR
 10
0.0
 20
1.0
 30
0.0
  9
$UCSORTHOREF
  2

  9
$UCSORTHOVIEW
 70
     0
  9
$UCSORGTOP
 10
0.0
 20
0.0
 30
0.0
  9
$UCSORGBOTTOM
 10
0.0
 20
0.0
 30
0.0
  9
$UCSORGLEFT
 10
0.0
 20
0.0
 30
0.0
  9
$UCSORGRIGHT
 10
0.0
 20
0.0
 30
0.0
  9
$UCSORGFRONT
 10
0.0
 20
0.0
 30
0.0
  9
$UCSORGBACK
 10
0.0
 20
0.0
 30
0.0
  9
$PUCSBASE
  2

  9
$PUCSNAME
  2

  9
$PUCSORG
 10
0.0
 20
0.0
 30
0.0
  9
$PUCSXDIR
 10
1.0
 20
0.0
 30
0.0
  9
$PUCSYDIR
 10
0.0
 20
1.0
 30
0.0
  9
$PUCSORTHOREF
  2

  9
$PUCSORTHOVIEW
 70
     0
  9
$PUCSORGTOP
 10
0.0
 20
0.0
 30
0.0
  9
$PUCSORGBOTTOM
 10
0.0
 20
0.0
 30
0.0
  9
$PUCSORGLEFT
 10
0.0
 20
0.0
 30
0.0
  9
$PUCSORGRIGHT
 10
0.0
 20
0.0
 30
0.0
  9
$PUCSORGFRONT
 10
0.0
 20
0.0
 30
0.0
  9
$PUCSORGBACK
 10
0.0
 20
0.0
 30
0.0
  9
$USERI1
 70
     0
  9
$USERI2
 70
     0
  9
$USERI3
 70
     0
  9
$USERI4
 70
     0
  9
$USERI5
 70
     0
  9
$USERR1
 40
0.0
  9
$USERR2
 40
0.0
  9
$USERR3
 40
0.0
  9
$USERR4
 40
0.0
  9
$USERR5
 40
0.0
  9
$WORLDVIEW
 70
     1
  9
$SHADEDGE
 70
     3
  9
$SHADEDIF
 70
    70
  9
$TILEMODE
 70
     1
  9
$MAXACTVP
 70
    64
  9
$PINSBASE
 10
0.0
 20
0.0
 30
0.0
  9
$PLIMCHECK
 70
     0
  9
$PEXTMIN
 10
-144.1413879394531
 20
-67.9833984375
 30
0.0
  9
$PEXTMAX
 10
277.8586120605469
 20
231.0166015625
 30
0.0
  9
$PLIMMIN
 10
-144.1413879394531
 20
-67.9833984375
  9
$PLIMMAX
 10
277.8586120605469
 20
231.0166015625
  9
$UNITMODE
 70
     0
  9
$VISRETAIN
 70
     1
  9
$PLINEGEN
 70
     0
  9
$PSLTSCALE
 70
     1
  9
$TREEDEPTH
 70
  3020
  9
$CMLSTYLE
  2
Standard
  9
$CMLJUST
 70
     0
  9
$CMLSCALE
 40
1.0
  9
$PROXYGRAPHICS
 70
     1
  9
$MEASUREMENT
 70
     0
  9
$CELWEIGHT
370
    -1
  9
$ENDCAPS
280
     0
  9
$JOINSTYLE
280
     0
  9
$LWDISPLAY
290
     0
  9
$INSUNITS
 70
     0
  9
$HYPERLINKBASE
  1

  9
$STYLESHEET
  1
monochrome.ctb
  9
$XEDIT
290
     1
  9
$CEPSNTYPE
380
     0
  9
$PSTYLEMODE
290
     1
  9
$FINGERPRINTGUID
  2
{607623E6-CECC-4E5B-9B7E-931526AFF3A5}
  9
$VERSIONGUID
  2
{CAA279FC-2121-4786-9AD0-0E6F4DCF2E6D}
  9
$EXTNAMES
290
     1
  9
$PSVPSCALE
 40
0.0
  9
$OLESTARTUP
290
     0
  0
ENDSEC
  0
SECTION
  2
CLASSES
  0
CLASS
  1
ACDBDICTIONARYWDFLT
  2
AcDbDictionaryWithDefault
  3
ObjectDBX Classes
 90
        0
280
     0
281
     0
  0
CLASS
  1
TABLESTYLE
  2
AcDbTableStyle
  3
ObjectDBX Classes
 90
     2047
280
     0
281
     0
  0
CLASS
  1
SORTENTSTABLE
  2
AcDbSortentsTable
  3
ObjectDBX Classes
 90
        0
280
     0
281
     0
  0
CLASS
  1
DICTIONARYVAR
  2
AcDbDictionaryVar
  3
ObjectDBX Classes
 90
        0
280
     0
281
     0
  0
CLASS
  1
ACDBPLACEHOLDER
  2
AcDbPlaceHolder
  3
ObjectDBX Classes
 90
        0
280
     0
281
     0
  0
CLASS
  1
LAYOUT
  2
AcDbLayout
  3
ObjectDBX Classes
 90
        0
280
     0
281
     0
  0
ENDSEC
  0
SECTION
  2
TABLES
  0
TABLE
  2
VPORT
  5
8
330
0
100
AcDbSymbolTable
 70
     3
  0
VPORT
  5
165B
330
8
100
AcDbSymbolTableRecord
100
AcDbViewportTableRecord
  2
*Active
 70
     0
 10
0.0
 20
0.0
 11
1.0
 21
1.0
 12
20152.61135578253
 22
3508.122703610523
 13
0.0
 23
0.0
 14
1.0
 24
1.0
 15
0.0
 25
0.0
 16
0.0
 26
0.0
 36
1.0
 17
0.0
 27
0.0
 37
0.0
 40
7585.921616814923
 41
2.451612903225806
 42
50.0
 43
0.0
 44
0.0
 50
0.0
 51
0.0
 71
     0
 72
  1000
 73
     1
 74
     1
 75
     0
 76
     0
 77
     0
 78
     0
281
     0
 65
     1
110
0.0
120
0.0
130
0.0
111
1.0
121
0.0
131
0.0
112
0.0
122
1.0
132
0.0
 79
     0
146
0.0
  0
ENDTAB
  0
TABLE
  2
LTYPE
  5
5
330
0
100
AcDbSymbolTable
 70
     2
  0
LTYPE
  5
13
330
5
100
AcDbSymbolTableRecord
100
AcDbLinetypeTableRecord
  2
ByBlock
 70
     0
  3

 72
    65
 73
     0
 40
0.0
  0
LTYPE
  5
14
330
5
100
AcDbSymbolTableRecord
100
AcDbLinetypeTableRecord
  2
ByLayer
 70
     0
  3

 72
    65
 73
     0
 40
0.0
  0
LTYPE
  5
15
330
5
100
AcDbSymbolTableRecord
100
AcDbLinetypeTableRecord
  2
CONTINUOUS
 70
     0
  3
Solid line
 72
    65
 73
     0
 40
0.0
  0
LTYPE
  5
37
330
5
100
AcDbSymbolTableRecord
100
AcDbLinetypeTableRecord
  2
CENTER
 70
     0
  3
Center ____ _ ____ _ ____ _ ____ _ ____ _ ____
 72
    65
 73
     4
 40
12.0
 49
7.5
 74
     0
 49
-1.5
 74
     0
 49
1.5
 74
     0
 49
-1.5
 74
     0
  0
ENDTAB
  0
TABLE
  2
LAYER
  5
2
102
{ACAD_XDICTIONARY
360
6EB
102
}
330
0
100
AcDbSymbolTable
 70
     3
  0
LAYER
  5
10
330
2
100
AcDbSymbolTableRecord
100
AcDbLayerTableRecord
  2
0
 70
     0
 62
     7
  6
CONTINUOUS
370
    -3
390
F
  0
LAYER
  5
4E
330
2
100
AcDbSymbolTableRecord
100
AcDbLayerTableRecord
  2
DEFPOINTS
 70
     0
 62
     7
  6
CONTINUOUS
290
     0
370
    -3
390
F
  0
LAYER
  5
6E9
330
2
100
AcDbSymbolTableRecord
100
AcDbLayerTableRecord
  2
寸法線
 70
     0
 62
     9
  6
CONTINUOUS
370
    -3
390
F
1001
AcAecLayerStandard
1000

1000

  0
ENDTAB
  0
TABLE
  2
STYLE
  5
3
330
0
100
AcDbSymbolTable
 70
     2
  0
STYLE
  5
11
330
3
100
AcDbSymbolTableRecord
100
AcDbTextStyleTableRecord
  2
STANDARD
 70
     0
 40
0.0
 41
0.6
 50
0.0
 71
     0
 42
75.0
  3
monotxt.shx
  4
extfont2.shx
  0
STYLE
  5
435
330
3
100
AcDbSymbolTableRecord
100
AcDbTextStyleTableRecord
  2
ＭＳゴシック
 70
     0
 40
0.0
 41
1.0
 50
0.0
 71
     0
 42
75.0
  3

  4

1001
ACAD
1000
MS Gothic
1071
    32817
  0
ENDTAB
  0
TABLE
  2
VIEW
  5
6
330
0
100
AcDbSymbolTable
 70
     0
  0
ENDTAB
  0
TABLE
  2
UCS
  5
7
330
0
100
AcDbSymbolTable
 70
     0
  0
ENDTAB
  0
TABLE
  2
APPID
  5
9
330
0
100
AcDbSymbolTable
 70
     4
  0
APPID
  5
12
330
9
100
AcDbSymbolTableRecord
100
AcDbRegAppTableRecord
  2
ACAD
 70
     0
  0
APPID
  5
437
330
9
100
AcDbSymbolTableRecord
100
AcDbRegAppTableRecord
  2
ACAD_DSTYLE_DIMTEXT_FILL
 70
     0
  0
APPID
  5
512
330
9
100
AcDbSymbolTableRecord
100
AcDbRegAppTableRecord
  2
ACAD_PSEXT
 70
     0
  0
APPID
  5
6EA
330
9
100
AcDbSymbolTableRecord
100
AcDbRegAppTableRecord
  2
AcAecLayerStandard
 70
     0
  0
ENDTAB
  0
TABLE
  2
DIMSTYLE
  5
A
330
0
100
AcDbSymbolTable
 70
     6
100
AcDbDimStyleTable
 71
     1
340
4F8
  0
DIMSTYLE
105
4F8
102
{ACAD_REACTORS
330
6F0
330
706
330
718
330
725
330
737
330
744
330
751
330
75E
330
76B
330
78B
330
7A7
330
7BF
330
7CC
330
7F0
330
7FD
330
A8A
330
B26
330
E39
330
E70
330
EA9
330
1442
330
1354
330
1440
102
}
330
A
100
AcDbSymbolTableRecord
100
AcDbDimStyleTableRecord
  2
1-25
 70
     0
 40
25.0
 41
3.0
 42
1.0
 44
2.0
 73
     0
 74
     0
 77
     1
 78
     8
 79
     2
140
3.0
145
1.0
147
1.0
172
     1
176
     4
177
     4
178
     4
271
     1
272
     1
340
11
341
8C2
342
8C2
371
     9
372
     9
  0
DIMSTYLE
105
1068
330
A
100
AcDbSymbolTableRecord
100
AcDbDimStyleTableRecord
  2
1-10
 70
     0
 40
10.0
 41
2.0
 42
1.0
 44
2.0
 73
     0
 74
     0
 77
     1
 78
     8
 79
     2
140
3.0
143
0.03937007874016
147
1.0
171
     3
172
     1
271
     1
272
     1
274
     3
283
     0
284
     8
340
11
341
8C2
342
8C2
  0
DIMSTYLE
105
1069
330
A
100
AcDbSymbolTableRecord
100
AcDbDimStyleTableRecord
  2
1-15
 70
     0
 40
15.0
 41
2.0
 42
1.0
 44
2.0
 73
     0
 74
     0
 77
     1
 78
     8
 79
     2
140
3.0
143
0.03937007874016
147
1.0
171
     3
172
     1
271
     1
272
     1
274
     3
283
     0
284
     8
340
11
341
8C2
342
8C2
  0
DIMSTYLE
105
106A
330
A
100
AcDbSymbolTableRecord
100
AcDbDimStyleTableRecord
  2
1-20
 70
     0
 40
20.0
 41
2.0
 42
1.0
 44
2.0
 73
     0
 74
     0
 77
     1
 78
     8
 79
     2
140
3.0
143
0.03937007874016
147
1.0
171
     3
172
     1
271
     1
272
     1
274
     3
283
     0
284
     8
340
11
341
8C2
342
8C2
  0
DIMSTYLE
105
106B
330
A
100
AcDbSymbolTableRecord
100
AcDbDimStyleTableRecord
  2
1-30
 70
     0
 40
30.0
 41
2.0
 42
1.0
 44
2.0
 73
     0
 74
     0
 77
     1
 78
     8
 79
     2
140
3.0
143
0.03937007874016
147
1.0
171
     3
172
     1
271
     1
272
     1
274
     3
283
     0
284
     8
340
11
341
8C2
342
8C2
  0
DIMSTYLE
105
106C
330
A
100
AcDbSymbolTableRecord
100
AcDbDimStyleTableRecord
  2
1-5
 70
     0
 40
5.0
 41
2.0
 42
1.0
 44
2.0
 73
     0
 74
     0
 77
     1
 78
     8
 79
     2
140
3.0
143
0.03937007874016
147
1.0
171
     3
172
     1
271
     1
272
     1
274
     3
283
     0
284
     8
340
11
341
8C2
342
8C2
  0
ENDTAB
  0
TABLE
  2
BLOCK_RECORD
  5
1
330
0
100
AcDbSymbolTable
 70
    22
  0
BLOCK_RECORD
  5
22
102
{ACAD_XDICTIONARY
360
433
102
}
330
1
100
AcDbSymbolTableRecord
100
AcDbBlockTableRecord
  2
*Model_Space
340
25
  0
BLOCK_RECORD
  5
1E
330
1
100
AcDbSymbolTableRecord
100
AcDbBlockTableRecord
  2
*Paper_Space
340
21
  0
BLOCK_RECORD
  5
6F1
330
1
100
AcDbSymbolTableRecord
100
AcDbBlockTableRecord
  2
*D0
340
0
  0
BLOCK_RECORD
  5
707
330
1
100
AcDbSymbolTableRecord
100
AcDbBlockTableRecord
  2
*D1
340
0
  0
BLOCK_RECORD
  5
719
330
1
100
AcDbSymbolTableRecord
100
AcDbBlockTableRecord
  2
*D2
340
0
  0
BLOCK_RECORD
  5
726
330
1
100
AcDbSymbolTableRecord
100
AcDbBlockTableRecord
  2
*D3
340
0
  0
BLOCK_RECORD
  5
738
330
1
100
AcDbSymbolTableRecord
100
AcDbBlockTableRecord
  2
*D4
340
0
  0
BLOCK_RECORD
  5
745
330
1
100
AcDbSymbolTableRecord
100
AcDbBlockTableRecord
  2
*D5
340
0
  0
BLOCK_RECORD
  5
752
330
1
100
AcDbSymbolTableRecord
100
AcDbBlockTableRecord
  2
*D6
340
0
  0
BLOCK_RECORD
  5
75F
330
1
100
AcDbSymbolTableRecord
100
AcDbBlockTableRecord
  2
*D7
340
0
  0
BLOCK_RECORD
  5
76C
330
1
100
AcDbSymbolTableRecord
100
AcDbBlockTableRecord
  2
*D8
340
0
  0
BLOCK_RECORD
  5
78C
330
1
100
AcDbSymbolTableRecord
100
AcDbBlockTableRecord
  2
*D9
340
0
  0
BLOCK_RECORD
  5
7A8
330
1
100
AcDbSymbolTableRecord
100
AcDbBlockTableRecord
  2
*D10
340
0
  0
BLOCK_RECORD
  5
7C0
330
1
100
AcDbSymbolTableRecord
100
AcDbBlockTableRecord
  2
*D11
340
0
  0
BLOCK_RECORD
  5
7CD
330
1
100
AcDbSymbolTableRecord
100
AcDbBlockTableRecord
  2
*D12
340
0
  0
BLOCK_RECORD
  5
7F1
330
1
100
AcDbSymbolTableRecord
100
AcDbBlockTableRecord
  2
*D13
340
0
  0
BLOCK_RECORD
  5
7FE
330
1
100
AcDbSymbolTableRecord
100
AcDbBlockTableRecord
  2
*D14
340
0
  0
BLOCK_RECORD
  5
8C2
330
1
100
AcDbSymbolTableRecord
100
AcDbBlockTableRecord
  2
_Open30
340
0
102
{BLKREFS
331
14CE
331
14CF
331
14DA
331
14DB
331
14E2
331
14E3
331
14EC
331
14ED
331
14F4
331
14F5
331
14FD
331
14FE
331
1521
331
1522
331
1533
331
1534
331
153C
331
153D
331
1545
331
1546
331
154E
331
154F
331
156B
331
156C
331
1574
331
1575
331
157C
331
1581
331
1597
331
1598
331
15B2
331
15B3
331
15C4
331
15C5
331
15CD
331
15CE
331
15FD
331
15FE
331
1624
331
1625
102
}
  0
BLOCK_RECORD
  5
A8B
330
1
100
AcDbSymbolTableRecord
100
AcDbBlockTableRecord
  2
*D16
340
0
  0
BLOCK_RECORD
  5
B27
330
1
100
AcDbSymbolTableRecord
100
AcDbBlockTableRecord
  2
*D17
340
0
  0
BLOCK_RECORD
  5
E3A
330
1
100
AcDbSymbolTableRecord
100
AcDbBlockTableRecord
  2
*D18
340
0
  0
BLOCK_RECORD
  5
E71
330
1
100
AcDbSymbolTableRecord
100
AcDbBlockTableRecord
  2
*D19
340
0
  0
BLOCK_RECORD
  5
EAA
330
1
100
AcDbSymbolTableRecord
100
AcDbBlockTableRecord
  2
*D20
340
0
  0
BLOCK_RECORD
  5
1443
330
1
100
AcDbSymbolTableRecord
100
AcDbBlockTableRecord
  2
*D21
340
0
  0
ENDTAB
  0
ENDSEC
  0
SECTION
  2
BLOCKS
  0
BLOCK
  5
23
330
22
100
AcDbEntity
  8
0
100
AcDbBlockBegin
  2
*Model_Space
 70
     0
 10
0.0
 20
0.0
 30
0.0
  3
*Model_Space
  1

  0
ENDBLK
  5
24
330
22
100
AcDbEntity
  8
0
100
AcDbBlockEnd
  0
BLOCK
  5
1F
330
1E
100
AcDbEntity
 67
     1
  8
0
100
AcDbBlockBegin
  2
*Paper_Space
 70
     0
 10
0.0
 20
0.0
 30
0.0
  3
*Paper_Space
  1

  0
ENDBLK
  5
20
330
1E
100
AcDbEntity
 67
     1
  8
0
100
AcDbBlockEnd
  0
BLOCK
  5
6FB
330
6F1
100
AcDbEntity
  8
0
 48
25.0
100
AcDbBlockBegin
  2
*D0
 70
     1
 10
0.0
 20
0.0
 30
0.0
  3
*D0
  1

  0
LINE
  5
14CB
330
6F1
100
AcDbEntity
  8
寸法線
 62
     4
370
     9
100
AcDbLine
 10
16657.00261134696
 20
1168.152220325778
 30
0.0
 11
16412.33551094966
 21
1168.152220325778
 31
0.0
  0
LINE
  5
14CC
330
6F1
100
AcDbEntity
  8
寸法線
 62
     4
370
     9
100
AcDbLine
 10
16707.00261134696
 20
2068.152220325778
 30
0.0
 11
16412.33551094966
 21
2068.152220325778
 31
0.0
  0
LINE
  5
14CD
330
6F1
100
AcDbEntity
  8
寸法線
 62
     4
370
     9
100
AcDbLine
 10
16462.33551094966
 20
1243.152220325778
 30
0.0
 11
16462.33551094966
 21
1993.152220325778
 31
0.0
  0
INSERT
  5
14CE
330
6F1
100
AcDbEntity
  8
寸法線
 62
     4
370
     9
100
AcDbBlockReference
  2
_Open30
 10
16462.33551094966
 20
1168.152220325778
 30
0.0
 41
75.0
 42
75.0
 43
75.0
 50
270.0
  0
INSERT
  5
14CF
330
6F1
100
AcDbEntity
  8
寸法線
 62
     4
370
     9
100
AcDbBlockReference
  2
_Open30
 10
16462.33551094966
 20
2068.152220325778
 30
0.0
 41
75.0
 42
75.0
 43
75.0
 50
90.0
  0
MTEXT
  5
14D0
330
6F1
100
AcDbEntity
  8
寸法線
 62
     4
100
AcDbMText
 10
16399.83551094966
 20
1618.152220325781
 30
0.0
 40
75.0
 41
0.0
 71
     5
 72
     1
  1
\A1;900
 11
0.0000000000000001
 21
1.0
 31
0.0
 73
     1
 44
1.0
1001
ACAD
1000
MTEXTBEGIN
1070
    73
1070
     1
1070
    44
1040
1.0
1070
    74
1070
     0
1000
MTEXTEND
  0
POINT
  5
14D1
330
6F1
100
AcDbEntity
  8
DEFPOINTS
 62
     0
100
AcDbPoint
 10
16682.00261134695
 20
1168.152220325778
 30
0.0
  0
POINT
  5
14D2
330
6F1
100
AcDbEntity
  8
DEFPOINTS
 62
     0
100
AcDbPoint
 10
16732.00261134696
 20
2068.152220325778
 30
0.0
  0
POINT
  5
14D3
330
6F1
100
AcDbEntity
  8
DEFPOINTS
 62
     0
100
AcDbPoint
 10
16462.33551094966
 20
2068.152220325778
 30
0.0
  0
ENDBLK
  5
6FC
330
6F1
100
AcDbEntity
  8
0
 48
25.0
100
AcDbBlockEnd
  0
BLOCK
  5
716
330
707
100
AcDbEntity
  8
0
 48
25.0
100
AcDbBlockBegin
  2
*D1
 70
     1
 10
0.0
 20
0.0
 30
0.0
  3
*D1
  1

  0
LINE
  5
14D4
330
707
100
AcDbEntity
  8
寸法線
 62
     4
370
     9
100
AcDbLine
 10
16707.00261134696
 20
2068.152220325778
 30
0.0
 11
16412.33551094966
 21
2068.152220325778
 31
0.0
  0
LINE
  5
14D5
330
707
100
AcDbEntity
  8
寸法線
 62
     4
370
     9
100
AcDbLine
 10
16707.00261134696
 20
2168.152220325778
 30
0.0
 11
16412.33551094966
 21
2168.152220325778
 31
0.0
  0
LINE
  5
14D6
330
707
100
AcDbEntity
  8
寸法線
 62
     4
370
     9
100
AcDbLine
 10
16462.33551094966
 20
1993.152220325778
 30
0.0
 11
16462.33551094966
 21
1918.152220325778
 31
0.0
  0
LINE
  5
14D7
330
707
100
AcDbEntity
  8
寸法線
 62
     4
370
     9
100
AcDbLine
 10
16462.33551094966
 20
2243.152220325778
 30
0.0
 11
16462.33551094966
 21
2318.152220325778
 31
0.0
  0
MTEXT
  5
14D8
330
707
100
AcDbEntity
  8
寸法線
 62
     4
100
AcDbMText
 10
16399.83551094966
 20
2118.152220325778
 30
0.0
 40
75.0
 41
0.0
 71
     5
 72
     1
  1
\A1;100
 11
0.0000000000000001
 21
1.0
 31
0.0
 73
     1
 44
1.0
1001
ACAD
1000
MTEXTBEGIN
1070
    73
1070
     1
1070
    44
1040
1.0
1070
    74
1070
     0
1000
MTEXTEND
  0
LINE
  5
14D9
330
707
100
AcDbEntity
  8
寸法線
 62
     4
370
     9
100
AcDbLine
 10
16462.33551094966
 20
2068.152220325778
 30
0.0
 11
16462.33551094966
 21
2168.152220325778
 31
0.0
  0
INSERT
  5
14DA
330
707
100
AcDbEntity
  8
寸法線
 62
     4
370
     9
100
AcDbBlockReference
  2
_Open30
 10
16462.33551094966
 20
2068.152220325778
 30
0.0
 41
75.0
 42
75.0
 43
75.0
 50
90.0
  0
INSERT
  5
14DB
330
707
100
AcDbEntity
  8
寸法線
 62
     4
370
     9
100
AcDbBlockReference
  2
_Open30
 10
16462.33551094966
 20
2168.152220325778
 30
0.0
 41
75.0
 42
75.0
 43
75.0
 50
270.0
  0
POINT
  5
14DC
330
707
100
AcDbEntity
  8
DEFPOINTS
 62
     0
100
AcDbPoint
 10
16732.00261134696
 20
2068.152220325778
 30
0.0
  0
POINT
  5
14DD
330
707
100
AcDbEntity
  8
DEFPOINTS
 62
     0
100
AcDbPoint
 10
16732.00261134696
 20
2168.152220325778
 30
0.0
  0
POINT
  5
14DE
330
707
100
AcDbEntity
  8
DEFPOINTS
 62
     0
100
AcDbPoint
 10
16462.33551094966
 20
2168.152220325778
 30
0.0
  0
ENDBLK
  5
717
330
707
100
AcDbEntity
  8
0
 48
25.0
100
AcDbBlockEnd
  0
BLOCK
  5
723
330
719
100
AcDbEntity
  8
0
 48
25.0
100
AcDbBlockBegin
  2
*D2
 70
     1
 10
0.0
 20
0.0
 30
0.0
  3
*D2
  1

  0
LINE
  5
14DF
330
719
100
AcDbEntity
  8
寸法線
 62
     4
370
     9
100
AcDbLine
 10
16707.00261134696
 20
2168.152220325778
 30
0.0
 11
16412.33551094966
 21
2168.152220325778
 31
0.0
  0
LINE
  5
14E0
330
719
100
AcDbEntity
  8
寸法線
 62
     4
370
     9
100
AcDbLine
 10
16703.102592117
 20
2768.152220325778
 30
0.0
 11
16412.33551094966
 21
2768.152220325778
 31
0.0
  0
LINE
  5
14E1
330
719
100
AcDbEntity
  8
寸法線
 62
     4
370
     9
100
AcDbLine
 10
16462.33551094966
 20
2243.152220325778
 30
0.0
 11
16462.33551094966
 21
2693.152220325778
 31
0.0
  0
INSERT
  5
14E2
330
719
100
AcDbEntity
  8
寸法線
 62
     4
370
     9
100
AcDbBlockReference
  2
_Open30
 10
16462.33551094966
 20
2168.152220325778
 30
0.0
 41
75.0
 42
75.0
 43
75.0
 50
270.0
  0
INSERT
  5
14E3
330
719
100
AcDbEntity
  8
寸法線
 62
     4
370
     9
100
AcDbBlockReference
  2
_Open30
 10
16462.33551094966
 20
2768.152220325778
 30
0.0
 41
75.0
 42
75.0
 43
75.0
 50
90.0
  0
MTEXT
  5
14E4
330
719
100
AcDbEntity
  8
寸法線
 62
     4
100
AcDbMText
 10
16399.83551094966
 20
2468.152220325781
 30
0.0
 40
75.0
 41
0.0
 71
     5
 72
     1
  1
\A1;600
 11
0.0000000000000001
 21
1.0
 31
0.0
 73
     1
 44
1.0
1001
ACAD
1000
MTEXTBEGIN
1070
    73
1070
     1
1070
    44
1040
1.0
1070
    74
1070
     0
1000
MTEXTEND
  0
POINT
  5
14E5
330
719
100
AcDbEntity
  8
DEFPOINTS
 62
     0
100
AcDbPoint
 10
16732.00261134696
 20
2168.152220325778
 30
0.0
  0
POINT
  5
14E6
330
719
100
AcDbEntity
  8
DEFPOINTS
 62
     0
100
AcDbPoint
 10
16728.10259211701
 20
2768.152220325778
 30
0.0
  0
POINT
  5
14E7
330
719
100
AcDbEntity
  8
DEFPOINTS
 62
     0
100
AcDbPoint
 10
16462.33551094966
 20
2768.152220325778
 30
0.0
  0
ENDBLK
  5
724
330
719
100
AcDbEntity
  8
0
 48
25.0
100
AcDbBlockEnd
  0
BLOCK
  5
735
330
726
100
AcDbEntity
  8
0
 48
25.0
100
AcDbBlockBegin
  2
*D3
 70
     1
 10
0.0
 20
0.0
 30
0.0
  3
*D3
  1

  0
LINE
  5
14E8
330
726
100
AcDbEntity
  8
寸法線
 62
     4
370
     9
100
AcDbLine
 10
16707.00261134696
 20
2768.152220325778
 30
0.0
 11
16412.33551094966
 21
2768.152220325778
 31
0.0
  0
LINE
  5
14E9
330
726
100
AcDbEntity
  8
寸法線
 62
     4
370
     9
100
AcDbLine
 10
16707.00261134696
 20
2968.152220325778
 30
0.0
 11
16412.33551094966
 21
2968.152220325778
 31
0.0
  0
LINE
  5
14EA
330
726
100
AcDbEntity
  8
寸法線
 62
     4
370
     9
100
AcDbLine
 10
16462.33551094966
 20
2843.152220325778
 30
0.0
 11
16462.33551094966
 21
2893.152220325778
 31
0.0
  0
MTEXT
  5
14EB
330
726
100
AcDbEntity
  8
寸法線
 62
     4
100
AcDbMText
 10
16399.83551094966
 20
2868.152220325778
 30
0.0
 40
75.0
 41
0.0
 71
     5
 72
     1
  1
\A1;200
 11
0.0000000000000001
 21
1.0
 31
0.0
 73
     1
 44
1.0
1001
ACAD
1000
MTEXTBEGIN
1070
    73
1070
     1
1070
    44
1040
1.0
1070
    74
1070
     0
1000
MTEXTEND
  0
INSERT
  5
14EC
330
726
100
AcDbEntity
  8
寸法線
 62
     4
370
     9
100
AcDbBlockReference
  2
_Open30
 10
16462.33551094966
 20
2768.152220325778
 30
0.0
 41
75.0
 42
75.0
 43
75.0
 50
270.0
  0
INSERT
  5
14ED
330
726
100
AcDbEntity
  8
寸法線
 62
     4
370
     9
100
AcDbBlockReference
  2
_Open30
 10
16462.33551094966
 20
2968.152220325778
 30
0.0
 41
75.0
 42
75.0
 43
75.0
 50
90.0
  0
POINT
  5
14EE
330
726
100
AcDbEntity
  8
DEFPOINTS
 62
     0
100
AcDbPoint
 10
16732.00261134696
 20
2768.152220325778
 30
0.0
  0
POINT
  5
14EF
330
726
100
AcDbEntity
  8
DEFPOINTS
 62
     0
100
AcDbPoint
 10
16732.00261134696
 20
2968.152220325778
 30
0.0
  0
POINT
  5
14F0
330
726
100
AcDbEntity
  8
DEFPOINTS
 62
     0
100
AcDbPoint
 10
16462.33551094966
 20
2968.152220325778
 30
0.0
  0
ENDBLK
  5
736
330
726
100
AcDbEntity
  8
0
 48
25.0
100
AcDbBlockEnd
  0
BLOCK
  5
742
330
738
100
AcDbEntity
  8
0
 48
25.0
100
AcDbBlockBegin
  2
*D4
 70
     1
 10
0.0
 20
0.0
 30
0.0
  3
*D4
  1

  0
LINE
  5
14F1
330
738
100
AcDbEntity
  8
寸法線
 62
     4
370
     9
100
AcDbLine
 10
16707.00261134696
 20
2968.152220325778
 30
0.0
 11
16412.33551094966
 21
2968.152220325778
 31
0.0
  0
LINE
  5
14F2
330
738
100
AcDbEntity
  8
寸法線
 62
     4
370
     9
100
AcDbLine
 10
16707.00261134696
 20
3268.152220325779
 30
0.0
 11
16412.33551094966
 21
3268.152220325779
 31
0.0
  0
LINE
  5
14F3
330
738
100
AcDbEntity
  8
寸法線
 62
     4
370
     9
100
AcDbLine
 10
16462.33551094966
 20
3043.152220325778
 30
0.0
 11
16462.33551094966
 21
3193.152220325778
 31
0.0
  0
INSERT
  5
14F4
330
738
100
AcDbEntity
  8
寸法線
 62
     4
370
     9
100
AcDbBlockReference
  2
_Open30
 10
16462.33551094966
 20
2968.152220325778
 30
0.0
 41
75.0
 42
75.0
 43
75.0
 50
270.0
  0
INSERT
  5
14F5
330
738
100
AcDbEntity
  8
寸法線
 62
     4
370
     9
100
AcDbBlockReference
  2
_Open30
 10
16462.33551094966
 20
3268.152220325779
 30
0.0
 41
75.0
 42
75.0
 43
75.0
 50
90.0
  0
MTEXT
  5
14F6
330
738
100
AcDbEntity
  8
寸法線
 62
     4
100
AcDbMText
 10
16399.83551094966
 20
3118.152220325781
 30
0.0
 40
75.0
 41
0.0
 71
     5
 72
     1
  1
\A1;300
 11
0.0000000000000001
 21
1.0
 31
0.0
 73
     1
 44
1.0
1001
ACAD
1000
MTEXTBEGIN
1070
    73
1070
     1
1070
    44
1040
1.0
1070
    74
1070
     0
1000
MTEXTEND
  0
POINT
  5
14F7
330
738
100
AcDbEntity
  8
DEFPOINTS
 62
     0
100
AcDbPoint
 10
16732.00261134696
 20
2968.152220325778
 30
0.0
  0
POINT
  5
14F8
330
738
100
AcDbEntity
  8
DEFPOINTS
 62
     0
100
AcDbPoint
 10
16732.00261134696
 20
3268.152220325779
 30
0.0
  0
POINT
  5
14F9
330
738
100
AcDbEntity
  8
DEFPOINTS
 62
     0
100
AcDbPoint
 10
16462.33551094966
 20
3268.152220325779
 30
0.0
  0
ENDBLK
  5
743
330
738
100
AcDbEntity
  8
0
 48
25.0
100
AcDbBlockEnd
  0
BLOCK
  5
74F
330
745
100
AcDbEntity
  8
0
 48
25.0
100
AcDbBlockBegin
  2
*D5
 70
     1
 10
0.0
 20
0.0
 30
0.0
  3
*D5
  1

  0
LINE
  5
14FA
330
745
100
AcDbEntity
  8
寸法線
 62
     4
370
     9
100
AcDbLine
 10
16707.00261134696
 20
3268.152220325779
 30
0.0
 11
16412.33551094966
 21
3268.152220325779
 31
0.0
  0
LINE
  5
14FB
330
745
100
AcDbEntity
  8
寸法線
 62
     4
370
     9
100
AcDbLine
 10
16657.00261134696
 20
3563.152220325778
 30
0.0
 11
16412.33551094966
 21
3563.152220325778
 31
0.0
  0
LINE
  5
14FC
330
745
100
AcDbEntity
  8
寸法線
 62
     4
370
     9
100
AcDbLine
 10
16462.33551094966
 20
3343.152220325779
 30
0.0
 11
16462.33551094966
 21
3488.152220325778
 31
0.0
  0
INSERT
  5
14FD
330
745
100
AcDbEntity
  8
寸法線
 62
     4
370
     9
100
AcDbBlockReference
  2
_Open30
 10
16462.33551094966
 20
3268.152220325779
 30
0.0
 41
75.0
 42
75.0
 43
75.0
 50
270.0
  0
INSERT
  5
14FE
330
745
100
AcDbEntity
  8
寸法線
 62
     4
370
     9
100
AcDbBlockReference
  2
_Open30
 10
16462.33551094966
 20
3563.152220325778
 30
0.0
 41
75.0
 42
75.0
 43
75.0
 50
90.0
  0
MTEXT
  5
14FF
330
745
100
AcDbEntity
  8
寸法線
 62
     4
100
AcDbMText
 10
16399.83551094966
 20
3415.652220325781
 30
0.0
 40
75.0
 41
0.0
 71
     5
 72
     1
  1
\A1;295
 11
0.0000000000000001
 21
1.0
 31
0.0
 73
     1
 44
1.0
1001
ACAD
1000
MTEXTBEGIN
1070
    73
1070
     1
1070
    44
1040
1.0
1070
    74
1070
     0
1000
MTEXTEND
  0
POINT
  5
1500
330
745
100
AcDbEntity
  8
DEFPOINTS
 62
     0
100
AcDbPoint
 10
16732.00261134696
 20
3268.152220325779
 30
0.0
  0
POINT
  5
1501
330
745
100
AcDbEntity
  8
DEFPOINTS
 62
     0
100
AcDbPoint
 10
16682.00261134695
 20
3563.152220325778
 30
0.0
  0
POINT
  5
1502
330
745
100
AcDbEntity
  8
DEFPOINTS
 62
     0
100
AcDbPoint
 10
16462.33551094966
 20
3563.152220325778
 30
0.0
  0
ENDBLK
  5
750
330
745
100
AcDbEntity
  8
0
 48
25.0
100
AcDbBlockEnd
  0
BLOCK
  5
75C
330
752
100
AcDbEntity
  8
0
 48
25.0
100
AcDbBlockBegin
  2
*D6
 70
     1
 10
0.0
 20
0.0
 30
0.0
  3
*D6
  1

  0
LINE
  5
15AF
330
752
100
AcDbEntity
  8
寸法線
 62
     4
370
     9
100
AcDbLine
 10
16657.00261134696
 20
1168.152220325778
 30
0.0
 11
16164.41419417858
 21
1168.152220325778
 31
0.0
  0
LINE
  5
15B0
330
752
100
AcDbEntity
  8
寸法線
 62
     4
370
     9
100
AcDbLine
 10
16708.60259227347
 20
3583.152220325779
 30
0.0
 11
16164.41419417858
 21
3583.152220325779
 31
0.0
  0
LINE
  5
15B1
330
752
100
AcDbEntity
  8
寸法線
 62
     4
370
     9
100
AcDbLine
 10
16214.41419417858
 20
1243.152220325778
 30
0.0
 11
16214.41419417858
 21
3508.152220325778
 31
0.0
  0
INSERT
  5
15B2
330
752
100
AcDbEntity
  8
寸法線
 62
     4
370
     9
100
AcDbBlockReference
  2
_Open30
 10
16214.41419417858
 20
1168.152220325778
 30
0.0
 41
75.0
 42
75.0
 43
75.0
 50
270.0
  0
INSERT
  5
15B3
330
752
100
AcDbEntity
  8
寸法線
 62
     4
370
     9
100
AcDbBlockReference
  2
_Open30
 10
16214.41419417858
 20
3583.152220325779
 30
0.0
 41
75.0
 42
75.0
 43
75.0
 50
90.0
  0
MTEXT
  5
15B4
330
752
100
AcDbEntity
  8
寸法線
 62
     4
100
AcDbMText
 10
16151.91419417858
 20
2375.652220325781
 30
0.0
 40
75.0
 41
0.0
 71
     5
 72
     1
  1
\A1;2415
 11
0.0000000000000001
 21
1.0
 31
0.0
 73
     1
 44
1.0
1001
ACAD
1000
MTEXTBEGIN
1070
    73
1070
     1
1070
    44
1040
1.0
1070
    74
1070
     0
1000
MTEXTEND
  0
POINT
  5
15B5
330
752
100
AcDbEntity
  8
DEFPOINTS
 62
     0
100
AcDbPoint
 10
16682.00261134695
 20
1168.152220325778
 30
0.0
  0
POINT
  5
15B6
330
752
100
AcDbEntity
  8
DEFPOINTS
 62
     0
100
AcDbPoint
 10
16733.60259227347
 20
3583.152220325779
 30
0.0
  0
POINT
  5
15B7
330
752
100
AcDbEntity
  8
DEFPOINTS
 62
     0
100
AcDbPoint
 10
16214.41419417858
 20
3583.152220325779
 30
0.0
  0
ENDBLK
  5
75D
330
752
100
AcDbEntity
  8
0
 48
25.0
100
AcDbBlockEnd
  0
BLOCK
  5
769
330
75F
100
AcDbEntity
  8
0
 48
25.0
100
AcDbBlockBegin
  2
*D7
 70
     1
 10
0.0
 20
0.0
 30
0.0
  3
*D7
  1

  0
LINE
  5
15CA
330
75F
100
AcDbEntity
  8
寸法線
 62
     4
370
     9
100
AcDbLine
 10
16657.00261134696
 20
1168.152220325778
 30
0.0
 11
15951.80952212819
 21
1168.152220325778
 31
0.0
  0
LINE
  5
15CB
330
75F
100
AcDbEntity
  8
寸法線
 62
     4
370
     9
100
AcDbLine
 10
17788.60261134695
 20
4173.152220325792
 30
0.0
 11
15951.80952212819
 21
4173.152220325792
 31
0.0
  0
LINE
  5
15CC
330
75F
100
AcDbEntity
  8
寸法線
 62
     4
370
     9
100
AcDbLine
 10
16001.80952212819
 20
1243.152220325778
 30
0.0
 11
16001.80952212819
 21
4098.152220325792
 31
0.0
  0
INSERT
  5
15CD
330
75F
100
AcDbEntity
  8
寸法線
 62
     4
370
     9
100
AcDbBlockReference
  2
_Open30
 10
16001.80952212819
 20
1168.152220325778
 30
0.0
 41
75.0
 42
75.0
 43
75.0
 50
270.0
  0
INSERT
  5
15CE
330
75F
100
AcDbEntity
  8
寸法線
 62
     4
370
     9
100
AcDbBlockReference
  2
_Open30
 10
16001.80952212819
 20
4173.152220325792
 30
0.0
 41
75.0
 42
75.0
 43
75.0
 50
90.0
  0
MTEXT
  5
15CF
330
75F
100
AcDbEntity
  8
寸法線
 62
     4
100
AcDbMText
 10
15939.30952212819
 20
2670.652220325788
 30
0.0
 40
75.0
 41
0.0
 71
     5
 72
     1
  1
\A1;(3005)
 11
0.0000000000000001
 21
1.0
 31
0.0
 73
     1
 44
1.0
1001
ACAD
1000
MTEXTBEGIN
1070
    73
1070
     1
1070
    44
1040
1.0
1070
    74
1070
     0
1000
MTEXTEND
  0
POINT
  5
15D0
330
75F
100
AcDbEntity
  8
DEFPOINTS
 62
     0
100
AcDbPoint
 10
16682.00261134695
 20
1168.152220325778
 30
0.0
  0
POINT
  5
15D1
330
75F
100
AcDbEntity
  8
DEFPOINTS
 62
     0
100
AcDbPoint
 10
17813.60261134695
 20
4173.152220325792
 30
0.0
  0
POINT
  5
15D2
330
75F
100
AcDbEntity
  8
DEFPOINTS
 62
     0
100
AcDbPoint
 10
16001.80952212819
 20
4173.152220325792
 30
0.0
  0
ENDBLK
  5
76A
330
75F
100
AcDbEntity
  8
0
 48
25.0
100
AcDbBlockEnd
  0
BLOCK
  5
778
330
76C
100
AcDbEntity
  8
0
 48
25.0
100
AcDbBlockBegin
  2
*D8
 70
     1
 10
0.0
 20
0.0
 30
0.0
  3
*D8
  1

  0
LINE
  5
15C1
330
76C
100
AcDbEntity
  8
寸法線
 62
     4
370
     9
100
AcDbLine
 10
16708.60263879587
 20
3583.152611179375
 30
0.0
 11
16164.41419417858
 21
3583.152611179375
 31
0.0
  0
LINE
  5
15C2
330
76C
100
AcDbEntity
  8
寸法線
 62
     4
370
     9
100
AcDbLine
 10
17788.60261134695
 20
4173.152220325792
 30
0.0
 11
16164.41419417858
 21
4173.152220325792
 31
0.0
  0
LINE
  5
15C3
330
76C
100
AcDbEntity
  8
寸法線
 62
     4
370
     9
100
AcDbLine
 10
16214.41419417858
 20
3658.152611179375
 30
0.0
 11
16214.41419417858
 21
4098.152220325792
 31
0.0
  0
INSERT
  5
15C4
330
76C
100
AcDbEntity
  8
寸法線
 62
     4
370
     9
100
AcDbBlockReference
  2
_Open30
 10
16214.41419417858
 20
3583.152611179375
 30
0.0
 41
75.0
 42
75.0
 43
75.0
 50
270.0
  0
INSERT
  5
15C5
330
76C
100
AcDbEntity
  8
寸法線
 62
     4
370
     9
100
AcDbBlockReference
  2
_Open30
 10
16214.41419417858
 20
4173.152220325792
 30
0.0
 41
75.0
 42
75.0
 43
75.0
 50
90.0
  0
MTEXT
  5
15C6
330
76C
100
AcDbEntity
  8
寸法線
 62
     4
100
AcDbMText
 10
16151.91419417858
 20
3878.152415752587
 30
0.0
 40
75.0
 41
0.0
 71
     5
 72
     1
  1
\A1;(590)
 11
0.0000000000000001
 21
1.0
 31
0.0
 73
     1
 44
1.0
1001
ACAD
1000
MTEXTBEGIN
1070
    73
1070
     1
1070
    44
1040
1.0
1070
    74
1070
     0
1000
MTEXTEND
  0
POINT
  5
15C7
330
76C
100
AcDbEntity
  8
DEFPOINTS
 62
     0
100
AcDbPoint
 10
16733.60263879587
 20
3583.152611179375
 30
0.0
  0
POINT
  5
15C8
330
76C
100
AcDbEntity
  8
DEFPOINTS
 62
     0
100
AcDbPoint
 10
17813.60261134695
 20
4173.152220325792
 30
0.0
  0
POINT
  5
15C9
330
76C
100
AcDbEntity
  8
DEFPOINTS
 62
     0
100
AcDbPoint
 10
16214.41419417858
 20
4173.152220325792
 30
0.0
  0
ENDBLK
  5
779
330
76C
100
AcDbEntity
  8
0
 48
25.0
100
AcDbBlockEnd
  0
BLOCK
  5
796
330
78C
100
AcDbEntity
  8
0
 48
25.0
100
AcDbBlockBegin
  2
*D9
 70
     1
 10
0.0
 20
0.0
 30
0.0
  3
*D9
  1

  0
LINE
  5
151E
330
78C
100
AcDbEntity
  8
寸法線
 62
     4
370
     9
100
AcDbLine
 10
19108.60258892071
 20
1168.152205226198
 30
0.0
 11
19492.34059660494
 21
1168.152205226198
 31
0.0
  0
LINE
  5
151F
330
78C
100
AcDbEntity
  8
寸法線
 62
     4
370
     9
100
AcDbLine
 10
18768.60284347183
 20
4268.152151035431
 30
0.0
 11
19492.34059660494
 21
4268.152151035431
 31
0.0
  0
LINE
  5
1520
330
78C
100
AcDbEntity
  8
寸法線
 62
     4
370
     9
100
AcDbLine
 10
19442.34059660495
 20
1243.152205226198
 30
0.0
 11
19442.34059660495
 21
4193.152151035431
 31
0.0
  0
INSERT
  5
1521
330
78C
100
AcDbEntity
  8
寸法線
 62
     4
370
     9
100
AcDbBlockReference
  2
_Open30
 10
19442.34059660495
 20
1168.152205226198
 30
0.0
 41
75.0
 42
75.0
 43
75.0
 50
270.0
  0
INSERT
  5
1522
330
78C
100
AcDbEntity
  8
寸法線
 62
     4
370
     9
100
AcDbBlockReference
  2
_Open30
 10
19442.34059660495
 20
4268.152151035431
 30
0.0
 41
75.0
 42
75.0
 43
75.0
 50
90.0
  0
MTEXT
  5
1523
330
78C
100
AcDbEntity
  8
寸法線
 62
     4
100
AcDbMText
 10
19379.84059660495
 20
2718.152178130818
 30
0.0
 40
75.0
 41
0.0
 71
     5
 72
     1
  1
\A1;3100
 11
0.0000000000000001
 21
1.0
 31
0.0
 73
     1
 44
1.0
1001
ACAD
1000
MTEXTBEGIN
1070
    73
1070
     1
1070
    44
1040
1.0
1070
    74
1070
     0
1000
MTEXTEND
  0
POINT
  5
1524
330
78C
100
AcDbEntity
  8
DEFPOINTS
 62
     0
100
AcDbPoint
 10
19083.60258892071
 20
1168.152205226198
 30
0.0
  0
POINT
  5
1525
330
78C
100
AcDbEntity
  8
DEFPOINTS
 62
     0
100
AcDbPoint
 10
18743.60284347183
 20
4268.152151035431
 30
0.0
  0
POINT
  5
1526
330
78C
100
AcDbEntity
  8
DEFPOINTS
 62
     0
100
AcDbPoint
 10
19442.34059660495
 20
4268.152151035431
 30
0.0
  0
ENDBLK
  5
797
330
78C
100
AcDbEntity
  8
0
 48
25.0
100
AcDbBlockEnd
  0
BLOCK
  5
7B2
330
7A8
100
AcDbEntity
  8
0
 48
25.0
100
AcDbBlockBegin
  2
*D10
 70
     1
 10
0.0
 20
0.0
 30
0.0
  3
*D10
  1

  0
LINE
  5
1621
330
7A8
100
AcDbEntity
  8
寸法線
 62
     4
370
     9
100
AcDbLine
 10
20334.59150457235
 20
1168.152220325779
 30
0.0
 11
20869.26193902486
 21
1168.152220325779
 31
0.0
  0
LINE
  5
1622
330
7A8
100
AcDbEntity
  8
寸法線
 62
     4
370
     9
100
AcDbLine
 10
20473.64295410103
 20
3268.152213620257
 30
0.0
 11
20869.26193902486
 21
3268.152213620257
 31
0.0
  0
LINE
  5
1623
330
7A8
100
AcDbEntity
  8
寸法線
 62
     4
370
     9
100
AcDbLine
 10
20819.26193902485
 20
1243.152220325779
 30
0.0
 11
20819.26193902485
 21
3193.152213620257
 31
0.0
  0
INSERT
  5
1624
330
7A8
100
AcDbEntity
  8
寸法線
 62
     4
370
     9
100
AcDbBlockReference
  2
_Open30
 10
20819.26193902485
 20
1168.152220325779
 30
0.0
 41
75.0
 42
75.0
 43
75.0
 50
270.0
  0
INSERT
  5
1625
330
7A8
100
AcDbEntity
  8
寸法線
 62
     4
370
     9
100
AcDbBlockReference
  2
_Open30
 10
20819.26193902485
 20
3268.152213620257
 30
0.0
 41
75.0
 42
75.0
 43
75.0
 50
90.0
  0
MTEXT
  5
1626
330
7A8
100
AcDbEntity
  8
寸法線
 62
     4
100
AcDbMText
 10
20756.76193902486
 20
2218.152216973021
 30
0.0
 40
75.0
 41
0.0
 71
     5
 72
     1
  1
\A1;300{\H0.6878x;\SP^ ;}×7=2100
 11
0.0000000000000001
 21
1.0
 31
0.0
 73
     1
 44
1.0
1001
ACAD
1000
MTEXTBEGIN
1070
    73
1070
     1
1070
    44
1040
1.0
1070
    74
1070
     0
1000
MTEXTEND
  0
POINT
  5
1627
330
7A8
100
AcDbEntity
  8
DEFPOINTS
 62
     0
100
AcDbPoint
 10
20309.59150457235
 20
1168.152220325779
 30
0.0
  0
POINT
  5
1628
330
7A8
100
AcDbEntity
  8
DEFPOINTS
 62
     0
100
AcDbPoint
 10
20448.64295410103
 20
3268.152213620257
 30
0.0
  0
POINT
  5
1629
330
7A8
100
AcDbEntity
  8
DEFPOINTS
 62
     0
100
AcDbPoint
 10
20819.26193902485
 20
3268.152213620257
 30
0.0
  0
ENDBLK
  5
7B3
330
7A8
100
AcDbEntity
  8
0
 48
25.0
100
AcDbBlockEnd
  0
BLOCK
  5
7CA
330
7C0
100
AcDbEntity
  8
0
 48
25.0
100
AcDbBlockBegin
  2
*D11
 70
     1
 10
0.0
 20
0.0
 30
0.0
  3
*D11
  1

  0
LINE
  5
1530
330
7C0
100
AcDbEntity
  8
寸法線
 62
     4
370
     9
100
AcDbLine
 10
22611.61241784277
 20
6211.913160847009
 30
0.0
 11
22611.61241784277
 21
6473.533495436729
 31
0.0
  0
LINE
  5
1531
330
7C0
100
AcDbEntity
  8
寸法線
 62
     4
370
     9
100
AcDbLine
 10
22911.61280179589
 20
6211.913160847009
 30
0.0
 11
22911.61280179589
 21
6473.533495436729
 31
0.0
  0
LINE
  5
1532
330
7C0
100
AcDbEntity
  8
寸法線
 62
     4
370
     9
100
AcDbLine
 10
22686.61241784277
 20
6423.533495436728
 30
0.0
 11
22836.61280179588
 21
6423.533495436728
 31
0.0
  0
INSERT
  5
1533
330
7C0
100
AcDbEntity
  8
寸法線
 62
     4
370
     9
100
AcDbBlockReference
  2
_Open30
 10
22611.61241784277
 20
6423.533495436728
 30
0.0
 41
75.0
 42
75.0
 43
75.0
 50
180.0
  0
INSERT
  5
1534
330
7C0
100
AcDbEntity
  8
寸法線
 62
     4
370
     9
100
AcDbBlockReference
  2
_Open30
 10
22911.61280179589
 20
6423.533495436728
 30
0.0
 41
75.0
 42
75.0
 43
75.0
  0
MTEXT
  5
1535
330
7C0
100
AcDbEntity
  8
寸法線
 62
     4
100
AcDbMText
 10
22761.61260981933
 20
6486.033495436728
 30
0.0
 40
75.0
 41
0.0
 71
     5
 72
     1
  1
\A1;300
 73
     1
 44
1.0
1001
ACAD
1000
MTEXTBEGIN
1070
    73
1070
     1
1070
    44
1040
1.0
1070
    74
1070
     0
1000
MTEXTEND
  0
POINT
  5
1536
330
7C0
100
AcDbEntity
  8
DEFPOINTS
 62
     0
100
AcDbPoint
 10
22611.61241784277
 20
6186.913160847009
 30
0.0
  0
POINT
  5
1537
330
7C0
100
AcDbEntity
  8
DEFPOINTS
 62
     0
100
AcDbPoint
 10
22911.61280179589
 20
6186.913160847009
 30
0.0
  0
POINT
  5
1538
330
7C0
100
AcDbEntity
  8
DEFPOINTS
 62
     0
100
AcDbPoint
 10
22911.61280179589
 20
6423.533495436728
 30
0.0
  0
ENDBLK
  5
7CB
330
7C0
100
AcDbEntity
  8
0
 48
25.0
100
AcDbBlockEnd
  0
BLOCK
  5
7D7
330
7CD
100
AcDbEntity
  8
0
 48
25.0
100
AcDbBlockBegin
  2
*D12
 70
     1
 10
0.0
 20
0.0
 30
0.0
  3
*D12
  1

  0
LINE
  5
1539
330
7CD
100
AcDbEntity
  8
寸法線
 62
     4
370
     9
100
AcDbLine
 10
22601.61263258147
 20
6240.765078343571
 30
0.0
 11
22601.61263258147
 21
6679.892840178706
 31
0.0
  0
LINE
  5
153A
330
7CD
100
AcDbEntity
  8
寸法線
 62
     4
370
     9
100
AcDbLine
 10
22921.61246993291
 20
6240.766153491138
 30
0.0
 11
22921.61246993291
 21
6679.892840178706
 31
0.0
  0
LINE
  5
153B
330
7CD
100
AcDbEntity
  8
寸法線
 62
     4
370
     9
100
AcDbLine
 10
22676.61263258147
 20
6629.892840178706
 30
0.0
 11
22846.61246993291
 21
6629.892840178706
 31
0.0
  0
INSERT
  5
153C
330
7CD
100
AcDbEntity
  8
寸法線
 62
     4
370
     9
100
AcDbBlockReference
  2
_Open30
 10
22601.61263258147
 20
6629.892840178706
 30
0.0
 41
75.0
 42
75.0
 43
75.0
 50
180.0
  0
INSERT
  5
153D
330
7CD
100
AcDbEntity
  8
寸法線
 62
     4
370
     9
100
AcDbBlockReference
  2
_Open30
 10
22921.61246993291
 20
6629.892840178706
 30
0.0
 41
75.0
 42
75.0
 43
75.0
  0
MTEXT
  5
153E
330
7CD
100
AcDbEntity
  8
寸法線
 62
     4
100
AcDbMText
 10
22761.61255125719
 20
6692.392840178706
 30
0.0
 40
75.0
 41
0.0
 71
     5
 72
     1
  1
\A1;320
 73
     1
 44
1.0
1001
ACAD
1000
MTEXTBEGIN
1070
    73
1070
     1
1070
    44
1040
1.0
1070
    74
1070
     0
1000
MTEXTEND
  0
POINT
  5
153F
330
7CD
100
AcDbEntity
  8
DEFPOINTS
 62
     0
100
AcDbPoint
 10
22601.61263258147
 20
6215.765078343571
 30
0.0
  0
POINT
  5
1540
330
7CD
100
AcDbEntity
  8
DEFPOINTS
 62
     0
100
AcDbPoint
 10
22921.61246993291
 20
6215.766153491138
 30
0.0
  0
POINT
  5
1541
330
7CD
100
AcDbEntity
  8
DEFPOINTS
 62
     0
100
AcDbPoint
 10
22921.61246993291
 20
6629.892840178706
 30
0.0
  0
ENDBLK
  5
7D8
330
7CD
100
AcDbEntity
  8
0
 48
25.0
100
AcDbBlockEnd
  0
BLOCK
  5
7FB
330
7F1
100
AcDbEntity
  8
0
 48
25.0
100
AcDbBlockBegin
  2
*D13
 70
     1
 10
0.0
 20
0.0
 30
0.0
  3
*D13
  1

  0
LINE
  5
1542
330
7F1
100
AcDbEntity
  8
寸法線
 62
     4
370
     9
100
AcDbLine
 10
16733.60259227347
 20
1143.152220325778
 30
0.0
 11
16733.60259227347
 21
679.621321347543
 31
0.0
  0
LINE
  5
1543
330
7F1
100
AcDbEntity
  8
寸法線
 62
     4
370
     9
100
AcDbLine
 10
18893.60263042044
 20
1143.152220325778
 30
0.0
 11
18893.60263042044
 21
679.621321347543
 31
0.0
  0
LINE
  5
1544
330
7F1
100
AcDbEntity
  8
寸法線
 62
     4
370
     9
100
AcDbLine
 10
16808.60259227347
 20
729.621321347543
 30
0.0
 11
18818.60263042044
 21
729.621321347543
 31
0.0
  0
INSERT
  5
1545
330
7F1
100
AcDbEntity
  8
寸法線
 62
     4
370
     9
100
AcDbBlockReference
  2
_Open30
 10
16733.60259227347
 20
729.621321347543
 30
0.0
 41
75.0
 42
75.0
 43
75.0
 50
180.0
  0
INSERT
  5
1546
330
7F1
100
AcDbEntity
  8
寸法線
 62
     4
370
     9
100
AcDbBlockReference
  2
_Open30
 10
18893.60263042044
 20
729.621321347543
 30
0.0
 41
75.0
 42
75.0
 43
75.0
  0
MTEXT
  5
1547
330
7F1
100
AcDbEntity
  8
寸法線
 62
     4
100
AcDbMText
 10
17813.60261134695
 20
792.121321347543
 30
0.0
 40
75.0
 41
0.0
 71
     5
 72
     1
  1
\A1;O.Dφ2160
 73
     1
 44
1.0
1001
ACAD
1000
MTEXTBEGIN
1070
    73
1070
     1
1070
    44
1040
1.0
1070
    74
1070
     0
1000
MTEXTEND
  0
POINT
  5
1548
330
7F1
100
AcDbEntity
  8
DEFPOINTS
 62
     0
100
AcDbPoint
 10
16733.60259227347
 20
1168.152220325778
 30
0.0
  0
POINT
  5
1549
330
7F1
100
AcDbEntity
  8
DEFPOINTS
 62
     0
100
AcDbPoint
 10
18893.60263042044
 20
1168.152220325778
 30
0.0
  0
POINT
  5
154A
330
7F1
100
AcDbEntity
  8
DEFPOINTS
 62
     0
100
AcDbPoint
 10
18893.60263042044
 20
729.621321347543
 30
0.0
  0
ENDBLK
  5
7FC
330
7F1
100
AcDbEntity
  8
0
 48
25.0
100
AcDbBlockEnd
  0
BLOCK
  5
808
330
7FE
100
AcDbEntity
  8
0
 48
25.0
100
AcDbBlockBegin
  2
*D14
 70
     1
 10
0.0
 20
0.0
 30
0.0
  3
*D14
  1

  0
LINE
  5
154B
330
7FE
100
AcDbEntity
  8
寸法線
 62
     4
370
     9
100
AcDbLine
 10
16706.10261134696
 20
1075.50938852341
 30
0.0
 11
16706.10261134696
 21
436.479528822042
 31
0.0
  0
LINE
  5
154C
330
7FE
100
AcDbEntity
  8
寸法線
 62
     4
370
     9
100
AcDbLine
 10
18921.10261134695
 20
1093.152220325778
 30
0.0
 11
18921.10261134695
 21
436.479528822042
 31
0.0
  0
LINE
  5
154D
330
7FE
100
AcDbEntity
  8
寸法線
 62
     4
370
     9
100
AcDbLine
 10
16781.10261134695
 20
486.479528822042
 30
0.0
 11
18846.10261134696
 21
486.479528822042
 31
0.0
  0
INSERT
  5
154E
330
7FE
100
AcDbEntity
  8
寸法線
 62
     4
370
     9
100
AcDbBlockReference
  2
_Open30
 10
16706.10261134696
 20
486.479528822042
 30
0.0
 41
75.0
 42
75.0
 43
75.0
 50
180.0
  0
INSERT
  5
154F
330
7FE
100
AcDbEntity
  8
寸法線
 62
     4
370
     9
100
AcDbBlockReference
  2
_Open30
 10
18921.10261134695
 20
486.479528822042
 30
0.0
 41
75.0
 42
75.0
 43
75.0
  0
MTEXT
  5
1550
330
7FE
100
AcDbEntity
  8
寸法線
 62
     4
100
AcDbMText
 10
17813.60261134695
 20
548.979528822042
 30
0.0
 40
75.0
 41
0.0
 71
     5
 72
     1
  1
\A1;P.C.Dφ2215
 73
     1
 44
1.0
1001
ACAD
1000
MTEXTBEGIN
1070
    73
1070
     1
1070
    44
1040
1.0
1070
    74
1070
     0
1000
MTEXTEND
  0
POINT
  5
1551
330
7FE
100
AcDbEntity
  8
DEFPOINTS
 62
     0
100
AcDbPoint
 10
16706.10261134696
 20
1100.50938852341
 30
0.0
  0
POINT
  5
1552
330
7FE
100
AcDbEntity
  8
DEFPOINTS
 62
     0
100
AcDbPoint
 10
18921.10261134695
 20
1118.152220325778
 30
0.0
  0
POINT
  5
1553
330
7FE
100
AcDbEntity
  8
DEFPOINTS
 62
     0
100
AcDbPoint
 10
18921.10261134695
 20
486.479528822042
 30
0.0
  0
ENDBLK
  5
809
330
7FE
100
AcDbEntity
  8
0
 48
25.0
100
AcDbBlockEnd
  0
BLOCK
  5
8C6
330
8C2
100
AcDbEntity
  8
0
 48
25.0
100
AcDbBlockBegin
  2
_Open30
 70
     0
 10
0.0
 20
0.0
 30
0.0
  3
_Open30
  1

  0
LINE
  5
8C3
330
8C2
100
AcDbEntity
  8
0
  6
ByBlock
 62
     0
370
    -2
100
AcDbLine
 10
-1.0
 20
0.26794919
 30
0.0
 11
0.0
 21
0.0
 31
0.0
  0
LINE
  5
8C4
330
8C2
100
AcDbEntity
  8
0
  6
ByBlock
 62
     0
370
    -2
100
AcDbLine
 10
0.0
 20
0.0
 30
0.0
 11
-1.0
 21
-0.26794919
 31
0.0
  0
LINE
  5
8C5
330
8C2
100
AcDbEntity
  8
0
  6
ByBlock
 62
     0
370
    -2
100
AcDbLine
 10
0.0
 20
0.0
 30
0.0
 11
-1.0
 21
0.0
 31
0.0
  0
ENDBLK
  5
8C7
330
8C2
100
AcDbEntity
  8
0
 48
25.0
100
AcDbBlockEnd
  0
BLOCK
  5
A97
330
A8B
100
AcDbEntity
  8
0
 48
25.0
100
AcDbBlockBegin
  2
*D16
 70
     1
 10
0.0
 20
0.0
 30
0.0
  3
*D16
  1

  0
LINE
  5
1592
330
A8B
100
AcDbEntity
  8
寸法線
 62
     4
370
     9
100
AcDbLine
 10
16708.60259227347
 20
3583.152220325779
 30
0.0
 11
16412.33551094966
 21
3583.152220325779
 31
0.0
  0
LINE
  5
1593
330
A8B
100
AcDbEntity
  8
寸法線
 62
     4
370
     9
100
AcDbLine
 10
16728.60259227347
 20
3773.152144329857
 30
0.0
 11
16412.33551094966
 21
3773.152144329857
 31
0.0
  0
LINE
  5
1594
330
A8B
100
AcDbEntity
  8
寸法線
 62
     4
370
     9
100
AcDbLine
 10
16462.33551094966
 20
3508.152220325778
 30
0.0
 11
16462.33551094966
 21
3433.152220325779
 31
0.0
  0
LINE
  5
1595
330
A8B
100
AcDbEntity
  8
寸法線
 62
     4
370
     9
100
AcDbLine
 10
16462.33551094966
 20
3848.152144329857
 30
0.0
 11
16462.33551094966
 21
3923.152144329857
 31
0.0
  0
LINE
  5
1596
330
A8B
100
AcDbEntity
  8
寸法線
 62
     4
370
     9
100
AcDbLine
 10
16462.33551094966
 20
3583.152220325779
 30
0.0
 11
16462.33551094966
 21
3773.152144329857
 31
0.0
  0
INSERT
  5
1597
330
A8B
100
AcDbEntity
  8
寸法線
 62
     4
370
     9
100
AcDbBlockReference
  2
_Open30
 10
16462.33551094966
 20
3583.152220325779
 30
0.0
 41
75.0
 42
75.0
 43
75.0
 50
90.0
  0
INSERT
  5
1598
330
A8B
100
AcDbEntity
  8
寸法線
 62
     4
370
     9
100
AcDbBlockReference
  2
_Open30
 10
16462.33551094966
 20
3773.152144329857
 30
0.0
 41
75.0
 42
75.0
 43
75.0
 50
270.0
  0
MTEXT
  5
1599
330
A8B
100
AcDbEntity
  8
寸法線
 62
     4
100
AcDbMText
 10
16399.83551094966
 20
3678.15218232782
 30
0.0
 40
75.0
 41
0.0
 71
     5
 72
     1
  1
\A1;190
 11
0.0000000000000001
 21
1.0
 31
0.0
 73
     1
 44
1.0
1001
ACAD
1000
MTEXTBEGIN
1070
    73
1070
     1
1070
    44
1040
1.0
1070
    74
1070
     0
1000
MTEXTEND
  0
POINT
  5
159A
330
A8B
100
AcDbEntity
  8
DEFPOINTS
 62
     0
100
AcDbPoint
 10
16733.60259227347
 20
3583.152220325779
 30
0.0
  0
POINT
  5
159B
330
A8B
100
AcDbEntity
  8
DEFPOINTS
 62
     0
100
AcDbPoint
 10
16753.60259227347
 20
3773.152144329857
 30
0.0
  0
POINT
  5
159C
330
A8B
100
AcDbEntity
  8
DEFPOINTS
 62
     0
100
AcDbPoint
 10
16462.33551094966
 20
3773.152144329857
 30
0.0
  0
ENDBLK
  5
A98
330
A8B
100
AcDbEntity
  8
0
 48
25.0
100
AcDbBlockEnd
  0
BLOCK
  5
B31
330
B27
100
AcDbEntity
  8
0
 48
25.0
100
AcDbBlockBegin
  2
*D17
 70
     1
 10
0.0
 20
0.0
 30
0.0
  3
*D17
  1

  0
LINE
  5
15FA
330
B27
100
AcDbEntity
  8
寸法線
 62
     4
370
     9
100
AcDbLine
 10
19869.59151440711
 20
1143.152220325779
 30
0.0
 11
19869.59151440711
 21
862.7067386373964
 31
0.0
  0
LINE
  5
15FB
330
B27
100
AcDbEntity
  8
寸法線
 62
     4
370
     9
100
AcDbLine
 10
20269.59150546642
 20
1143.152220325779
 30
0.0
 11
20269.59150546642
 21
862.7067386373964
 31
0.0
  0
LINE
  5
15FC
330
B27
100
AcDbEntity
  8
寸法線
 62
     4
370
     9
100
AcDbLine
 10
19944.59151440711
 20
912.7067386373964
 30
0.0
 11
20194.59150546642
 21
912.7067386373964
 31
0.0
  0
INSERT
  5
15FD
330
B27
100
AcDbEntity
  8
寸法線
 62
     4
370
     9
100
AcDbBlockReference
  2
_Open30
 10
19869.59151440711
 20
912.7067386373964
 30
0.0
 41
75.0
 42
75.0
 43
75.0
 50
180.0
  0
INSERT
  5
15FE
330
B27
100
AcDbEntity
  8
寸法線
 62
     4
370
     9
100
AcDbBlockReference
  2
_Open30
 10
20269.59150546642
 20
912.7067386373964
 30
0.0
 41
75.0
 42
75.0
 43
75.0
  0
MTEXT
  5
15FF
330
B27
100
AcDbEntity
  8
寸法線
 62
     4
100
AcDbMText
 10
20069.59150993677
 20
975.2067386373964
 30
0.0
 40
75.0
 41
0.0
 71
     5
 72
     1
  1
\A1;400
 73
     1
 44
1.0
1001
ACAD
1000
MTEXTBEGIN
1070
    73
1070
     1
1070
    44
1040
1.0
1070
    74
1070
     0
1000
MTEXTEND
  0
POINT
  5
1600
330
B27
100
AcDbEntity
  8
DEFPOINTS
 62
     0
100
AcDbPoint
 10
19869.59151440711
 20
1168.152220325779
 30
0.0
  0
POINT
  5
1601
330
B27
100
AcDbEntity
  8
DEFPOINTS
 62
     0
100
AcDbPoint
 10
20269.59150546642
 20
1168.152220325779
 30
0.0
  0
POINT
  5
1602
330
B27
100
AcDbEntity
  8
DEFPOINTS
 62
     0
100
AcDbPoint
 10
20269.59150546642
 20
912.7067386373964
 30
0.0
  0
ENDBLK
  5
B32
330
B27
100
AcDbEntity
  8
0
 48
25.0
100
AcDbBlockEnd
  0
BLOCK
  5
E44
330
E3A
100
AcDbEntity
  8
0
100
AcDbBlockBegin
  2
*D18
 70
     1
 10
0.0
 20
0.0
 30
0.0
  3
*D18
  1

  0
LINE
  5
1568
330
E3A
100
AcDbEntity
  8
寸法線
 62
     4
370
     9
100
AcDbLine
 10
17053.57502345157
 20
3798.152144329857
 30
0.0
 11
17053.57502345157
 21
4074.349165961172
 31
0.0
  0
LINE
  5
1569
330
E3A
100
AcDbEntity
  8
寸法線
 62
     4
370
     9
100
AcDbLine
 10
16753.57502345157
 20
3798.152144329857
 30
0.0
 11
16753.57502345157
 21
4074.349165961172
 31
0.0
  0
LINE
  5
156A
330
E3A
100
AcDbEntity
  8
寸法線
 62
     4
370
     9
100
AcDbLine
 10
16978.57502345157
 20
4024.349165961172
 30
0.0
 11
16828.57502345157
 21
4024.349165961172
 31
0.0
  0
INSERT
  5
156B
330
E3A
100
AcDbEntity
  8
寸法線
 62
     4
370
     9
100
AcDbBlockReference
  2
_Open30
 10
17053.57502345157
 20
4024.349165961172
 30
0.0
 41
75.0
 42
75.0
 43
75.0
  0
INSERT
  5
156C
330
E3A
100
AcDbEntity
  8
寸法線
 62
     4
370
     9
100
AcDbBlockReference
  2
_Open30
 10
16753.57502345157
 20
4024.349165961172
 30
0.0
 41
75.0
 42
75.0
 43
75.0
 50
180.0
  0
MTEXT
  5
156D
330
E3A
100
AcDbEntity
  8
寸法線
 62
     4
100
AcDbMText
 10
16903.57502345157
 20
4086.849165961172
 30
0.0
 40
75.0
 41
0.0
 71
     5
 72
     1
  1
\A1;300
 73
     1
 44
1.0
1001
ACAD
1000
MTEXTBEGIN
1070
    73
1070
     1
1070
    44
1040
1.0
1070
    74
1070
     0
1000
MTEXTEND
  0
POINT
  5
156E
330
E3A
100
AcDbEntity
  8
DEFPOINTS
 62
     0
100
AcDbPoint
 10
17053.57502345157
 20
3773.152144329857
 30
0.0
  0
POINT
  5
156F
330
E3A
100
AcDbEntity
  8
DEFPOINTS
 62
     0
100
AcDbPoint
 10
16753.57502345157
 20
3773.152144329857
 30
0.0
  0
POINT
  5
1570
330
E3A
100
AcDbEntity
  8
DEFPOINTS
 62
     0
100
AcDbPoint
 10
16753.57502345157
 20
4024.349165961172
 30
0.0
  0
ENDBLK
  5
E45
330
E3A
100
AcDbEntity
  8
0
100
AcDbBlockEnd
  0
BLOCK
  5
E7B
330
E71
100
AcDbEntity
  8
0
100
AcDbBlockBegin
  2
*D19
 70
     1
 10
0.0
 20
0.0
 30
0.0
  3
*D19
  1

  0
LINE
  5
1571
330
E71
100
AcDbEntity
  8
寸法線
 62
     4
370
     9
100
AcDbLine
 10
17563.60228018711
 20
4138.152009296498
 30
0.0
 11
17563.60228018711
 21
4367.672789454201
 31
0.0
  0
LINE
  5
1572
330
E71
100
AcDbEntity
  8
寸法線
 62
     4
370
     9
100
AcDbLine
 10
18063.60272406114
 20
4138.152120559356
 30
0.0
 11
18063.60272406114
 21
4367.672789454201
 31
0.0
  0
LINE
  5
1573
330
E71
100
AcDbEntity
  8
寸法線
 62
     4
370
     9
100
AcDbLine
 10
17638.60228018711
 20
4317.672789454201
 30
0.0
 11
17988.60272406114
 21
4317.672789454201
 31
0.0
  0
INSERT
  5
1574
330
E71
100
AcDbEntity
  8
寸法線
 62
     4
370
     9
100
AcDbBlockReference
  2
_Open30
 10
17563.60228018711
 20
4317.672789454201
 30
0.0
 41
75.0
 42
75.0
 43
75.0
 50
180.0
  0
INSERT
  5
1575
330
E71
100
AcDbEntity
  8
寸法線
 62
     4
370
     9
100
AcDbBlockReference
  2
_Open30
 10
18063.60272406114
 20
4317.672789454201
 30
0.0
 41
75.0
 42
75.0
 43
75.0
  0
MTEXT
  5
1576
330
E71
100
AcDbEntity
  8
寸法線
 62
     4
100
AcDbMText
 10
17813.60250212412
 20
4380.172789454201
 30
0.0
 40
75.0
 41
0.0
 71
     5
 72
     1
  1
\A1;I.D%%c500
 73
     1
 44
1.0
1001
ACAD
1000
MTEXTBEGIN
1070
    73
1070
     1
1070
    44
1040
1.0
1070
    74
1070
     0
1000
MTEXTEND
  0
POINT
  5
1577
330
E71
100
AcDbEntity
  8
DEFPOINTS
 62
     0
100
AcDbPoint
 10
17563.60228018711
 20
4113.152009296498
 30
0.0
  0
POINT
  5
1578
330
E71
100
AcDbEntity
  8
DEFPOINTS
 62
     0
100
AcDbPoint
 10
18063.60272406114
 20
4113.152120559357
 30
0.0
  0
POINT
  5
1579
330
E71
100
AcDbEntity
  8
DEFPOINTS
 62
     0
100
AcDbPoint
 10
18063.60272406114
 20
4317.672789454201
 30
0.0
  0
ENDBLK
  5
E7C
330
E71
100
AcDbEntity
  8
0
100
AcDbBlockEnd
  0
BLOCK
  5
EB0
330
EAA
100
AcDbEntity
  8
0
100
AcDbBlockBegin
  2
*D20
 70
     1
 10
0.0
 20
0.0
 30
0.0
  3
*D20
  1

  0
LINE
  5
157A
330
EAA
100
AcDbEntity
  8
寸法線
 62
     4
370
     9
100
AcDbLine
 10
23102.69499202886
 20
5476.471854050714
 30
0.0
 11
23359.18188782082
 21
5723.713710612994
 31
0.0
  0
MTEXT
  5
157B
330
EAA
100
AcDbEntity
  8
寸法線
 62
     4
100
AcDbMText
 10
23136.71527335359
 20
5596.075869278404
 30
0.0
 40
75.0
 41
0.0
 71
     5
 72
     1
  1
\A1;R905
 11
0.7199632138490081
 21
0.694012226624436
 31
0.0
 73
     1
 44
1.0
1001
ACAD
1000
MTEXTBEGIN
1070
    73
1070
     1
1070
    44
1040
1.0
1070
    74
1070
     0
1000
MTEXTEND
  0
INSERT
  5
157C
330
EAA
100
AcDbEntity
  8
寸法線
 62
     4
370
     9
100
AcDbBlockReference
  2
_Open30
 10
23413.1791288595
 20
5775.764627609827
 30
0.0
 41
75.0
 42
75.0
 43
75.0
 50
43.94855661132258
  0
POINT
  5
157D
330
EAA
100
AcDbEntity
  8
DEFPOINTS
 62
     0
100
AcDbPoint
 10
23413.1791288595
 20
5775.764627609827
 30
0.0
  0
POINT
  5
157E
330
EAA
100
AcDbEntity
  8
DEFPOINTS
 62
     0
100
AcDbPoint
 10
22761.61242032615
 20
5147.683562514714
 30
0.0
  0
ENDBLK
  5
EB1
330
EAA
100
AcDbEntity
  8
0
100
AcDbBlockEnd
  0
BLOCK
  5
144C
330
1443
100
AcDbEntity
  8
0
100
AcDbBlockBegin
  2
*D21
 70
     1
 10
0.0
 20
0.0
 30
0.0
  3
*D21
  1

  0
LINE
  5
157F
330
1443
100
AcDbEntity
  8
寸法線
 62
     4
370
     9
100
AcDbLine
 10
22636.27077108862
 20
5104.721707731536
 30
0.0
 11
22927.15799479085
 21
5204.425634869846
 31
0.0
  0
MTEXT
  5
1580
330
1443
100
AcDbEntity
  8
寸法線
 62
     4
100
AcDbMText
 10
22717.69802670438
 20
5198.700971629939
 30
0.0
 40
75.0
 41
0.0
 71
     5
 72
     1
  1
\A1;\U+2205500
 11
0.9459747112268056
 21
0.3242404134579182
 31
0.0
 73
     1
 44
1.0
1001
ACAD
1000
MTEXTBEGIN
1070
    73
1070
     1
1070
    44
1040
1.0
1070
    74
1070
     0
1000
MTEXTEND
  0
INSERT
  5
1581
330
1443
100
AcDbEntity
  8
寸法線
 62
     4
370
     9
100
AcDbBlockReference
  2
_Open30
 10
22998.10609813287
 20
5228.74366587919
 30
0.0
 41
75.0
 42
75.0
 43
75.0
 50
18.91956202691511
  0
POINT
  5
1582
330
1443
100
AcDbEntity
  8
DEFPOINTS
 62
     0
100
AcDbPoint
 10
22998.10609813287
 20
5228.74366587919
 30
0.0
  0
POINT
  5
1583
330
1443
100
AcDbEntity
  8
DEFPOINTS
 62
     0
100
AcDbPoint
 10
22525.11874251946
 20
5066.623459150228
 30
0.0
  0
ENDBLK
  5
144D
330
1443
100
AcDbEntity
  8
0
100
AcDbBlockEnd
  0
ENDSEC
  0
SECTION
  2
ENTITIES
  0
POINT
  5
192
330
22
100
AcDbEntity
  8
0
  6
Continuous
 62
     5
100
AcDbPoint
 10
19043.60262706768
 20
1168.152220325778
 30
0.0
  0
POINT
  5
193
330
22
100
AcDbEntity
  8
0
  6
Continuous
 62
     5
100
AcDbPoint
 10
19043.60262706768
 20
1168.152220325778
 30
0.0
  0
POINT
  5
196
330
22
100
AcDbEntity
  8
0
  6
Continuous
 62
     5
100
AcDbPoint
 10
18743.60262706768
 20
4268.15215103538
 30
0.0
  0
POINT
  5
197
330
22
100
AcDbEntity
  8
0
  6
Continuous
 62
     5
100
AcDbPoint
 10
18743.60262706768
 20
4268.15215103538
 30
0.0
  0
POINT
  5
198
102
{ACAD_REACTORS
330
88E
102
}
330
22
100
AcDbEntity
  8
0
  6
Continuous
 62
     5
100
AcDbPoint
 10
20069.59150993677
 20
1168.152220325779
 30
0.0
  0
POINT
  5
199
102
{ACAD_REACTORS
330
88E
102
}
330
22
100
AcDbEntity
  8
0
  6
Continuous
 62
     5
100
AcDbPoint
 10
20069.59150993677
 20
1168.152220325779
 30
0.0
  0
LINE
  5
19D
102
{ACAD_REACTORS
330
88C
102
}
330
22
100
AcDbEntity
  8
0
 62
    49
100
AcDbLine
 10
16682.00261134695
 20
1168.152220325778
 30
0.0
 11
18945.20261134695
 21
1168.152220325778
 31
0.0
  0
LINE
  5
1B2
102
{ACAD_REACTORS
330
88C
102
}
330
22
100
AcDbEntity
  8
0
 62
    49
100
AcDbLine
 10
16732.00261134696
 20
2068.152220325778
 30
0.0
 11
17748.60261168223
 21
2068.152220325778
 31
0.0
  0
LINE
  5
1B3
102
{ACAD_REACTORS
330
88C
102
}
330
22
100
AcDbEntity
  8
0
 62
    49
100
AcDbLine
 10
16732.00261134696
 20
2168.152220325778
 30
0.0
 11
17748.60261168223
 21
2168.152220325778
 31
0.0
  0
LINE
  5
1B4
102
{ACAD_REACTORS
330
88C
102
}
330
22
100
AcDbEntity
  8
0
 62
    49
100
AcDbLine
 10
16732.00261134696
 20
2768.152220325778
 30
0.0
 11
17748.60261168223
 21
2768.152220325778
 31
0.0
  0
LINE
  5
1B5
102
{ACAD_REACTORS
330
88C
102
}
330
22
100
AcDbEntity
  8
0
 62
    49
100
AcDbLine
 10
16732.00261134696
 20
2968.152220325778
 30
0.0
 11
17748.60261168223
 21
2968.152220325778
 31
0.0
  0
LINE
  5
1B6
102
{ACAD_REACTORS
330
88C
102
}
330
22
100
AcDbEntity
  8
0
 62
    49
100
AcDbLine
 10
16732.00261134696
 20
3268.152220325779
 30
0.0
 11
17748.60261168223
 21
3268.152220325779
 31
0.0
  0
LINE
  5
1B7
102
{ACAD_REACTORS
330
88C
102
}
330
22
100
AcDbEntity
  8
0
 62
    49
100
AcDbLine
 10
16682.00261134695
 20
3563.152220325778
 30
0.0
 11
17798.60261168223
 21
3563.152220325778
 31
0.0
  0
LINE
  5
1BD
102
{ACAD_REACTORS
330
88C
102
}
330
22
100
AcDbEntity
  8
0
 62
    49
100
AcDbLine
 10
16732.00261134696
 20
1218.152220325778
 30
0.0
 11
17748.60261168223
 21
1218.152220325778
 31
0.0
  0
LINE
  5
1BF
102
{ACAD_REACTORS
330
88C
102
}
330
22
100
AcDbEntity
  8
0
 62
    49
100
AcDbLine
 10
16732.00261134696
 20
3513.152220325778
 30
0.0
 11
17748.60261168223
 21
3513.152220325778
 31
0.0
  0
LINE
  5
1C2
102
{ACAD_REACTORS
330
88C
102
}
330
22
100
AcDbEntity
  8
0
 62
    49
100
AcDbLine
 10
17828.60261101168
 20
3563.152220325778
 30
0.0
 11
17828.60261101168
 21
1168.152220325778
 31
0.0
  0
LINE
  5
1C3
102
{ACAD_REACTORS
330
88C
102
}
330
22
100
AcDbEntity
  8
0
 62
    49
100
AcDbLine
 10
17798.60261168223
 20
3563.152220325778
 30
0.0
 11
17798.60261168223
 21
1168.152220325778
 31
0.0
  0
LINE
  5
1C6
102
{ACAD_REACTORS
330
88C
102
}
330
22
100
AcDbEntity
  8
0
 62
    49
100
AcDbLine
 10
17878.60261101168
 20
3513.152220325778
 30
0.0
 11
17878.60261101168
 21
1218.152220325778
 31
0.0
  0
LINE
  5
1C7
102
{ACAD_REACTORS
330
88C
102
}
330
22
100
AcDbEntity
  8
0
 62
    49
100
AcDbLine
 10
17748.60261168223
 20
3513.152220325778
 30
0.0
 11
17748.60261168223
 21
1218.152220325778
 31
0.0
  0
LINE
  5
1C8
102
{ACAD_REACTORS
330
88C
102
}
330
22
100
AcDbEntity
  8
0
 62
    49
100
AcDbLine
 10
17828.60261101168
 20
3563.152220325778
 30
0.0
 11
18945.20261134695
 21
3563.152220325778
 31
0.0
  0
LINE
  5
1CA
102
{ACAD_REACTORS
330
88C
102
}
330
22
100
AcDbEntity
  8
0
 62
    49
100
AcDbLine
 10
17878.60261101168
 20
3513.152220325778
 30
0.0
 11
18895.20261134695
 21
3513.152220325778
 31
0.0
  0
LINE
  5
1CB
102
{ACAD_REACTORS
330
88C
102
}
330
22
100
AcDbEntity
  8
0
 62
    49
100
AcDbLine
 10
17878.60261101168
 20
1218.152220325778
 30
0.0
 11
18895.20261134696
 21
1218.152220325778
 31
0.0
  0
LINE
  5
1CC
102
{ACAD_REACTORS
330
88C
102
}
330
22
100
AcDbEntity
  8
0
 62
    49
100
AcDbLine
 10
17878.60261101168
 20
2168.152220325778
 30
0.0
 11
18895.20261134695
 21
2168.152220325778
 31
0.0
  0
LINE
  5
1CD
102
{ACAD_REACTORS
330
88C
102
}
330
22
100
AcDbEntity
  8
0
 62
    49
100
AcDbLine
 10
17878.60261101168
 20
2068.152220325778
 30
0.0
 11
18895.20261134695
 21
2068.152220325778
 31
0.0
  0
LINE
  5
1CE
102
{ACAD_REACTORS
330
88C
102
}
330
22
100
AcDbEntity
  8
0
 62
    49
100
AcDbLine
 10
17878.60261101168
 20
2768.152220325778
 30
0.0
 11
18895.20261134695
 21
2768.152220325778
 31
0.0
  0
LINE
  5
1CF
102
{ACAD_REACTORS
330
88C
102
}
330
22
100
AcDbEntity
  8
0
 62
    49
100
AcDbLine
 10
17878.60261101168
 20
2968.152220325778
 30
0.0
 11
18895.20261134695
 21
2968.152220325778
 31
0.0
  0
LINE
  5
1D0
102
{ACAD_REACTORS
330
88C
102
}
330
22
100
AcDbEntity
  8
0
 62
    49
100
AcDbLine
 10
17878.60261101168
 20
3268.152220325779
 30
0.0
 11
18895.20261134695
 21
3268.152220325779
 31
0.0
  0
LINE
  5
1D3
102
{ACAD_REACTORS
330
88C
102
}
330
22
100
AcDbEntity
  8
0
  6
CENTER
 62
    49
 48
0.5
100
AcDbLine
 10
16706.10261134696
 20
1330.332381801913
 30
0.0
 11
16706.10261134696
 21
1100.50938852341
 31
0.0
  0
LINE
  5
1D4
102
{ACAD_REACTORS
330
88C
102
}
330
22
100
AcDbEntity
  8
0
  6
CENTER
 62
    49
 48
0.5
100
AcDbLine
 10
18921.10261134695
 20
1347.261883242117
 30
0.0
 11
18921.10261134695
 21
1118.152220325778
 31
0.0
  0
LINE
  5
1E5
102
{ACAD_REACTORS
330
891
102
}
330
22
100
AcDbEntity
  8
0
 62
     5
100
AcDbLine
 10
18941.20261134695
 20
3559.152220325778
 30
0.0
 11
19043.60262706768
 21
3559.152220325777
 31
0.0
  0
LINE
  5
1E6
102
{ACAD_REACTORS
330
891
102
}
330
22
100
AcDbEntity
  8
0
 62
     5
100
AcDbLine
 10
19083.60258892071
 20
1168.152205226197
 30
0.0
 11
19083.60258892071
 21
3928.152165340547
 31
0.0
  0
LINE
  5
1E7
102
{ACAD_REACTORS
330
891
102
}
330
22
100
AcDbEntity
  8
0
  6
Continuous
 62
     5
100
AcDbLine
 10
19043.60262706768
 20
1168.152220325778
 30
0.0
 11
19083.60258892071
 21
1168.152220325778
 31
0.0
  0
LINE
  5
1E8
102
{ACAD_REACTORS
330
891
102
}
330
22
100
AcDbEntity
  8
0
 62
     5
100
AcDbLine
 10
19043.60262706768
 20
1168.152208246115
 30
0.0
 11
19043.60262706768
 21
3928.152165340547
 31
0.0
  0
LINE
  5
1EA
102
{ACAD_REACTORS
330
891
102
}
330
22
100
AcDbEntity
  8
0
 62
     5
100
AcDbLine
 10
18743.60262706768
 20
4228.152165340547
 30
0.0
 11
18743.60262706768
 21
4268.152317928437
 31
0.0
  0
LINE
  5
1EB
102
{ACAD_REACTORS
330
891
102
}
330
22
100
AcDbEntity
  8
0
  6
CENTER
 62
     1
100
AcDbLine
 10
18986.79320171368
 20
1468.152224423597
 30
0.0
 11
19159.8684962083
 21
1468.152224423597
 31
0.0
  0
LINE
  5
1EC
102
{ACAD_REACTORS
330
891
102
}
330
22
100
AcDbEntity
  8
0
  6
CENTER
 62
     1
100
AcDbLine
 10
18986.79320171368
 20
1768.152217718074
 30
0.0
 11
19159.8684962083
 21
1768.152217718074
 31
0.0
  0
LINE
  5
1ED
102
{ACAD_REACTORS
330
891
102
}
330
22
100
AcDbEntity
  8
0
  6
CENTER
 62
     1
100
AcDbLine
 10
19068.10261562359
 20
1434.724938481006
 30
0.0
 11
19068.10261562359
 21
1512.230378529424
 31
0.0
  0
LINE
  5
1EE
102
{ACAD_REACTORS
330
891
102
}
330
22
100
AcDbEntity
  8
0
  6
CENTER
 62
     1
100
AcDbLine
 10
19068.10261562359
 20
1730.795719465962
 30
0.0
 11
19068.10261562359
 21
1802.100724310506
 31
0.0
  0
LINE
  5
1F0
102
{ACAD_REACTORS
330
891
102
}
330
22
100
AcDbEntity
  8
0
  6
CENTER
 62
     1
100
AcDbLine
 10
18986.79320171368
 20
3268.152184190463
 30
0.0
 11
19159.8684962083
 21
3268.152184190463
 31
0.0
  0
LINE
  5
1F1
102
{ACAD_REACTORS
330
891
102
}
330
22
100
AcDbEntity
  8
0
  6
CENTER
 62
     1
100
AcDbLine
 10
18986.79320171368
 20
2968.152190895985
 30
0.0
 11
19159.8684962083
 21
2968.152190895985
 31
0.0
  0
LINE
  5
1F2
102
{ACAD_REACTORS
330
891
102
}
330
22
100
AcDbEntity
  8
0
  6
CENTER
 62
     1
100
AcDbLine
 10
19068.10261562359
 20
2635.72888475575
 30
0.0
 11
19068.10261562359
 21
2703.490422286919
 31
0.0
  0
LINE
  5
1F3
102
{ACAD_REACTORS
330
891
102
}
330
22
100
AcDbEntity
  8
0
  6
CENTER
 62
     1
100
AcDbLine
 10
18986.79320171368
 20
2668.152197601508
 30
0.0
 11
19159.8684962083
 21
2668.152197601508
 31
0.0
  0
LINE
  5
1F4
102
{ACAD_REACTORS
330
891
102
}
330
22
100
AcDbEntity
  8
0
  6
CENTER
 62
     1
100
AcDbLine
 10
19068.10261562359
 20
2937.429063763573
 30
0.0
 11
19068.10261562359
 21
2992.283641764996
 31
0.0
  0
LINE
  5
1F5
102
{ACAD_REACTORS
330
891
102
}
330
22
100
AcDbEntity
  8
0
  6
CENTER
 62
     1
100
AcDbLine
 10
18986.79320171368
 20
2368.15220430703
 30
0.0
 11
19159.8684962083
 21
2368.15220430703
 31
0.0
  0
LINE
  5
1F6
102
{ACAD_REACTORS
330
891
102
}
330
22
100
AcDbEntity
  8
0
  6
CENTER
 62
     1
100
AcDbLine
 10
19068.10261562359
 20
3237.515872830178
 30
0.0
 11
19068.10261562359
 21
3297.210560655256
 31
0.0
  0
LINE
  5
1F7
102
{ACAD_REACTORS
330
891
102
}
330
22
100
AcDbEntity
  8
0
  6
CENTER
 62
     1
100
AcDbLine
 10
18986.79320171368
 20
2068.152211012552
 30
0.0
 11
19159.8684962083
 21
2068.152211012552
 31
0.0
  0
LINE
  5
1FA
102
{ACAD_REACTORS
330
891
102
}
330
22
100
AcDbEntity
  8
0
 62
     5
100
AcDbLine
 10
18899.20261134695
 20
3509.152220325777
 30
0.0
 11
19043.60262706768
 21
3509.152220325777
 31
0.0
  0
LINE
  5
1FB
102
{ACAD_REACTORS
330
891
102
}
330
22
100
AcDbEntity
  8
0
  6
CENTER
 62
     1
100
AcDbLine
 10
19068.10261562359
 20
2335.45918355006
 30
0.0
 11
19068.10261562359
 21
2396.95013345544
 31
0.0
  0
LINE
  5
1FC
102
{ACAD_REACTORS
330
891
102
}
330
22
100
AcDbEntity
  8
0
  6
CENTER
 62
     1
100
AcDbLine
 10
19068.10261562359
 20
2028.918894718581
 30
0.0
 11
19068.10261562359
 21
2088.152201252292
 31
0.0
  0
LINE
  5
200
102
{ACAD_REACTORS
330
891
102
}
330
22
100
AcDbEntity
  8
0
  6
CENTER
 62
     1
 48
0.1
100
AcDbLine
 10
18969.60258708786
 20
3553.076297735139
 30
0.0
 11
18969.60258708786
 21
3514.955606393023
 31
0.0
  0
LINE
  5
201
102
{ACAD_REACTORS
330
891
102
}
330
22
100
AcDbEntity
  8
0
  6
CENTER
 62
     1
 48
0.1
100
AcDbLine
 10
18950.08545451259
 20
3534.152219766984
 30
0.0
 11
18989.28747305981
 21
3534.152219766984
 31
0.0
  0
LINE
  5
202
102
{ACAD_REACTORS
330
88E
102
}
330
22
100
AcDbEntity
  8
0
 62
     5
100
AcDbLine
 10
19829.59151530118
 20
1168.152220325779
 30
0.0
 11
19869.59151440711
 21
1168.152220325779
 31
0.0
  0
LINE
  5
203
102
{ACAD_REACTORS
330
88E
102
}
330
22
100
AcDbEntity
  8
0
 62
     5
100
AcDbLine
 10
19869.59151440711
 20
1168.152220325779
 30
0.0
 11
19869.59151440711
 21
4268.152151035382
 31
0.0
  0
LINE
  5
204
102
{ACAD_REACTORS
330
88E
102
}
330
22
100
AcDbEntity
  8
0
 62
     5
100
AcDbLine
 10
19829.59151530118
 20
1168.152220325779
 30
0.0
 11
19829.59151530118
 21
4228.152151929447
 31
0.0
  0
LINE
  5
206
102
{ACAD_REACTORS
330
88E
102
}
330
22
100
AcDbEntity
  8
0
 62
     5
100
AcDbLine
 10
19866.59151440711
 20
4268.152151035383
 30
0.0
 11
19869.59151440711
 21
4268.152151035382
 31
0.0
  0
LINE
  5
207
102
{ACAD_REACTORS
330
88E
102
}
330
22
100
AcDbEntity
  8
0
 62
     5
100
AcDbLine
 10
19829.59151530118
 20
4228.152151929447
 30
0.0
 11
19866.59151440711
 21
4228.152151929449
 31
0.0
  0
LINE
  5
208
102
{ACAD_REACTORS
330
88E
102
}
330
22
100
AcDbEntity
  8
0
  6
CENTER
 62
     1
100
AcDbLine
 10
20069.59150993677
 20
1128.788890364553
 30
0.0
 11
20069.59150993677
 21
4306.272511511448
 31
0.0
  0
LINE
  5
209
102
{ACAD_REACTORS
330
88E
102
}
330
22
100
AcDbEntity
  8
0
 62
     5
100
AcDbLine
 10
20309.59150457235
 20
1168.152220325779
 30
0.0
 11
20269.59150546642
 21
1168.152220325779
 31
0.0
  0
LINE
  5
20A
102
{ACAD_REACTORS
330
88E
102
}
330
22
100
AcDbEntity
  8
0
 62
     5
100
AcDbLine
 10
20269.59150546642
 20
1168.152220325779
 30
0.0
 11
20269.59150546642
 21
4268.152151035382
 31
0.0
  0
LINE
  5
20B
102
{ACAD_REACTORS
330
88E
102
}
330
22
100
AcDbEntity
  8
0
 62
     5
100
AcDbLine
 10
20309.59150457235
 20
1168.152220325779
 30
0.0
 11
20309.59150457235
 21
4228.152151929447
 31
0.0
  0
LINE
  5
20D
102
{ACAD_REACTORS
330
88E
102
}
330
22
100
AcDbEntity
  8
0
 62
     5
100
AcDbLine
 10
20272.59150546642
 20
4268.152151035383
 30
0.0
 11
20269.59150546642
 21
4268.152151035382
 31
0.0
  0
LINE
  5
20E
102
{ACAD_REACTORS
330
88E
102
}
330
22
100
AcDbEntity
  8
0
 62
     5
100
AcDbLine
 10
20309.59150457235
 20
4228.152151929447
 30
0.0
 11
20272.59150546642
 21
4228.152151929449
 31
0.0
  0
LINE
  5
20F
102
{ACAD_REACTORS
330
88E
102
}
330
22
100
AcDbEntity
  8
0
  6
CENTER
 62
     1
100
AcDbLine
 10
19719.67092449638
 20
1468.152213620256
 30
0.0
 11
20448.64295410103
 21
1468.152213620256
 31
0.0
  0
LINE
  5
210
102
{ACAD_REACTORS
330
88E
102
}
330
22
100
AcDbEntity
  8
0
 62
     5
100
AcDbLine
 10
19869.59151440711
 20
1474.65221347497
 30
0.0
 11
20269.59150546642
 21
1474.65221347497
 31
0.0
  0
LINE
  5
211
102
{ACAD_REACTORS
330
88E
102
}
330
22
100
AcDbEntity
  8
0
 62
     5
100
AcDbLine
 10
19869.59151440711
 20
1461.652213765543
 30
0.0
 11
20269.59150546642
 21
1461.652213765543
 31
0.0
  0
LINE
  5
212
102
{ACAD_REACTORS
330
88E
102
}
330
22
100
AcDbEntity
  8
0
 62
     5
100
AcDbLine
 10
19869.59151440711
 20
1761.65220706002
 30
0.0
 11
20269.59150546642
 21
1761.65220706002
 31
0.0
  0
LINE
  5
213
102
{ACAD_REACTORS
330
88E
102
}
330
22
100
AcDbEntity
  8
0
 62
     5
100
AcDbLine
 10
19869.59151440711
 20
2061.652200354498
 30
0.0
 11
20269.59150546642
 21
2061.652200354498
 31
0.0
  0
LINE
  5
214
102
{ACAD_REACTORS
330
88E
102
}
330
22
100
AcDbEntity
  8
0
 62
     5
100
AcDbLine
 10
19869.59151440711
 20
2361.652193648975
 30
0.0
 11
20269.59150546642
 21
2361.652193648975
 31
0.0
  0
LINE
  5
215
102
{ACAD_REACTORS
330
88E
102
}
330
22
100
AcDbEntity
  8
0
 62
     5
100
AcDbLine
 10
19869.59151440711
 20
2661.652186943453
 30
0.0
 11
20269.59150546642
 21
2661.652186943453
 31
0.0
  0
LINE
  5
216
102
{ACAD_REACTORS
330
88E
102
}
330
22
100
AcDbEntity
  8
0
 62
     5
100
AcDbLine
 10
19869.59151440711
 20
3261.652173532408
 30
0.0
 11
20269.59150546642
 21
3261.652173532408
 31
0.0
  0
LINE
  5
217
102
{ACAD_REACTORS
330
88E
102
}
330
22
100
AcDbEntity
  8
0
 62
     5
100
AcDbLine
 10
19869.59151440711
 20
1774.652206769448
 30
0.0
 11
20269.59150546642
 21
1774.652206769448
 31
0.0
  0
LINE
  5
218
102
{ACAD_REACTORS
330
88E
102
}
330
22
100
AcDbEntity
  8
0
 62
     5
100
AcDbLine
 10
19869.59151440711
 20
2074.652200063925
 30
0.0
 11
20269.59150546642
 21
2074.652200063925
 31
0.0
  0
LINE
  5
219
102
{ACAD_REACTORS
330
88E
102
}
330
22
100
AcDbEntity
  8
0
 62
     5
100
AcDbLine
 10
19869.59151440711
 20
2374.652193358403
 30
0.0
 11
20269.59150546642
 21
2374.652193358403
 31
0.0
  0
LINE
  5
21A
102
{ACAD_REACTORS
330
88E
102
}
330
22
100
AcDbEntity
  8
0
 62
     5
100
AcDbLine
 10
19869.59151440711
 20
2674.65218665288
 30
0.0
 11
20269.59150546642
 21
2674.65218665288
 31
0.0
  0
LINE
  5
21B
102
{ACAD_REACTORS
330
88E
102
}
330
22
100
AcDbEntity
  8
0
 62
     5
100
AcDbLine
 10
19869.59151440711
 20
3274.652173241835
 30
0.0
 11
20269.59150546642
 21
3274.652173241835
 31
0.0
  0
LINE
  5
21C
102
{ACAD_REACTORS
330
88E
102
}
330
22
100
AcDbEntity
  8
0
 62
     5
100
AcDbLine
 10
19869.59151440711
 20
2961.65218023793
 30
0.0
 11
20269.59150546642
 21
2961.65218023793
 31
0.0
  0
LINE
  5
21D
102
{ACAD_REACTORS
330
88E
102
}
330
22
100
AcDbEntity
  8
0
 62
     5
100
AcDbLine
 10
19869.59151440711
 20
2974.652179947358
 30
0.0
 11
20269.59150546642
 21
2974.652179947358
 31
0.0
  0
LINE
  5
223
330
22
100
AcDbEntity
  8
0
  6
Continuous
100
AcDbLine
 10
18031.92021954168
 20
3039.238212929184
 30
0.0
 11
18348.48233659695
 21
3039.238212929184
 31
0.0
  0
ARC
  5
22F
102
{ACAD_REACTORS
330
891
102
}
330
22
100
AcDbEntity
  8
0
 62
     5
100
AcDbCircle
 10
18743.60281780254
 20
3928.152165340547
 30
0.0
 40
300.0
100
AcDbArc
 50
0.00001366037834
 51
89.99999567428899
  0
ARC
  5
231
102
{ACAD_REACTORS
330
891
102
}
330
22
100
AcDbEntity
  8
0
 62
     5
100
AcDbCircle
 10
18743.60281780254
 20
3928.152165340547
 30
0.0
 40
339.9999856948852
100
AcDbArc
 50
0.00001366037834
 51
89.99999567428899
  0
CIRCLE
  5
233
102
{ACAD_REACTORS
330
891
102
}
330
22
100
AcDbEntity
  8
0
 62
     5
100
AcDbCircle
 10
18969.60258708786
 20
3534.152219766984
 30
0.0
 40
5.99999986588955
  0
TEXT
  5
238
330
22
100
AcDbEntity
  8
0
  6
Continuous
100
AcDbText
 10
18065.62334158681
 20
3067.200431994526
 30
0.0
 40
85.00000238418579
  1
P
 41
0.6
100
AcDbText
  0
TEXT
  5
239
330
22
100
AcDbEntity
  8
0
  6
Continuous
100
AcDbText
 10
18079.96727671346
 20
3067.214217601328
 30
0.0
 40
85.00000238418579
  1
L-1.6
 41
0.6
100
AcDbText
  0
LINE
  5
2B6
330
22
100
AcDbEntity
  8
0
  6
Continuous
100
AcDbLine
 10
22611.61280179588
 20
5897.683562514706
 30
0.0
 11
22611.61280179588
 21
6186.913909194394
 31
0.0
  0
LINE
  5
2B7
330
22
100
AcDbEntity
  8
0
  6
Continuous
100
AcDbLine
 10
22911.61280179589
 20
5897.683562514706
 30
0.0
 11
22911.61280179589
 21
6186.913909194394
 31
0.0
  0
LINE
  5
2B8
330
22
100
AcDbEntity
  8
0
  6
Continuous
100
AcDbLine
 10
22921.61246424446
 20
6215.765552449198
 30
0.0
 11
22911.61260677224
 21
6186.913458114186
 31
0.0
  0
LINE
  5
2B9
330
22
100
AcDbEntity
  8
0
  6
Continuous
100
AcDbLine
 10
22921.61246993291
 20
6215.766153491138
 30
0.0
 11
22911.61255741535
 21
5897.68409202426
 31
0.0
  0
LINE
  5
2BA
330
22
100
AcDbEntity
  8
0
  6
Continuous
100
AcDbLine
 10
22601.61263258147
 20
6215.765078343571
 30
0.0
 11
22611.61241784277
 21
6186.913160847009
 31
0.0
  0
LINE
  5
2BB
330
22
100
AcDbEntity
  8
0
  6
Continuous
100
AcDbLine
 10
22601.61299311104
 20
6215.765085814616
 30
0.0
 11
22611.61276350506
 21
5897.683019879666
 31
0.0
  0
LINE
  5
2BC
330
22
100
AcDbEntity
  8
0
  6
Continuous
100
AcDbLine
 10
22011.61222959129
 20
4997.683562514708
 30
0.0
 11
21722.38207364647
 21
4997.683562514708
 31
0.0
  0
LINE
  5
2BD
330
22
100
AcDbEntity
  8
0
  6
Continuous
100
AcDbLine
 10
22011.61222959129
 20
5297.683562514709
 30
0.0
 11
21722.38207364647
 21
5297.683562514709
 31
0.0
  0
LINE
  5
2BE
330
22
100
AcDbEntity
  8
0
  6
Continuous
100
AcDbLine
 10
21693.52998254555
 20
5307.683502559169
 30
0.0
 11
21722.38207857008
 21
5297.683649961627
 31
0.0
  0
LINE
  5
2BF
330
22
100
AcDbEntity
  8
0
  6
Continuous
100
AcDbLine
 10
21693.53019037957
 20
5307.6836279437
 30
0.0
 11
22011.61225408049
 21
5297.683786487914
 31
0.0
  0
LINE
  5
2C0
330
22
100
AcDbEntity
  8
0
  6
Continuous
100
AcDbLine
 10
21693.53008339268
 20
4987.683659326964
 30
0.0
 11
21722.3821794172
 21
4997.683511924506
 31
0.0
  0
LINE
  5
2C1
330
22
100
AcDbEntity
  8
0
  6
Continuous
100
AcDbLine
 10
21693.53015546018
 20
4987.683881357699
 30
0.0
 11
22011.61240980178
 21
4997.683728806835
 31
0.0
  0
LINE
  5
2C2
330
22
100
AcDbEntity
  8
0
  6
Continuous
100
AcDbLine
 10
22911.61203885643
 20
4397.683371779842
 30
0.0
 11
22911.61203885643
 21
4108.453215835018
 31
0.0
  0
LINE
  5
2C3
330
22
100
AcDbEntity
  8
0
  6
Continuous
100
AcDbLine
 10
22611.61203885643
 20
4397.683371779842
 30
0.0
 11
22611.61203885643
 21
4108.453215835018
 31
0.0
  0
LINE
  5
2C4
330
22
100
AcDbEntity
  8
0
  6
Continuous
100
AcDbLine
 10
22601.61261595825
 20
4079.601061728155
 30
0.0
 11
22611.61247018069
 21
4108.453157189511
 31
0.0
  0
LINE
  5
2C5
330
22
100
AcDbEntity
  8
0
  6
Continuous
100
AcDbLine
 10
22601.6121861961
 20
4079.601402716631
 30
0.0
 11
22611.61205133914
 21
4397.683465672873
 31
0.0
  0
LINE
  5
2C6
330
22
100
AcDbEntity
  8
0
  6
Continuous
100
AcDbLine
 10
22921.61228171326
 20
4079.601493419271
 30
0.0
 11
22911.61243074061
 21
4108.453590006969
 31
0.0
  0
LINE
  5
2C7
330
22
100
AcDbEntity
  8
0
  6
Continuous
100
AcDbLine
 10
22921.61193850022
 20
4079.601395550675
 30
0.0
 11
22911.61211473836
 21
4397.683650636953
 31
0.0
  0
LINE
  5
2C8
330
22
100
AcDbEntity
  8
0
  6
Continuous
100
AcDbLine
 10
23511.61242032616
 20
5297.682799575256
 30
0.0
 11
23800.84276700585
 21
5297.682799575256
 31
0.0
  0
LINE
  5
2C9
330
22
100
AcDbEntity
  8
0
  6
Continuous
100
AcDbLine
 10
23511.61242032616
 20
4997.682799575255
 30
0.0
 11
23800.84276700585
 21
4997.682799575255
 31
0.0
  0
LINE
  5
2CA
330
22
100
AcDbEntity
  8
0
  6
Continuous
100
AcDbLine
 10
23829.69438307644
 20
4987.683475802835
 30
0.0
 11
23800.84228817826
 21
4997.683331650159
 31
0.0
  0
LINE
  5
2CB
330
22
100
AcDbEntity
  8
0
  6
Continuous
100
AcDbLine
 10
23829.69526031488
 20
4987.683516721583
 30
0.0
 11
23511.61319810332
 21
4997.683405551885
 31
0.0
  0
LINE
  5
2CC
330
22
100
AcDbEntity
  8
0
  6
Continuous
100
AcDbLine
 10
23829.6939721473
 20
5307.683053192324
 30
0.0
 11
23800.84187499643
 21
5297.683203844563
 31
0.0
  0
LINE
  5
2CD
330
22
100
AcDbEntity
  8
0
  6
Continuous
100
AcDbLine
 10
23829.69411722482
 20
5307.682951314709
 30
0.0
 11
23511.61205203454
 21
5297.683157233436
 31
0.0
  0
LINE
  5
2DD
330
22
100
AcDbEntity
  8
0
  6
CENTER
 62
     1
100
AcDbLine
 10
24011.61242032616
 20
5147.683562514709
 30
0.0
 11
21511.61242032616
 21
5147.683562514709
 31
0.0
  0
LINE
  5
2DE
330
22
100
AcDbEntity
  8
0
  6
CENTER
 62
     1
100
AcDbLine
 10
22761.61242032616
 20
3935.315350638144
 30
0.0
 11
22761.61242032616
 21
6397.683562514705
 31
0.0
  0
LINE
  5
2DF
102
{ACAD_REACTORS
330
88D
102
}
330
22
100
AcDbEntity
  8
0
 62
     5
100
AcDbLine
 10
24032.61243513046
 20
4947.683566985056
 30
0.0
 11
24032.61243513046
 21
5347.683558044361
 31
0.0
  0
LINE
  5
2E0
102
{ACAD_REACTORS
330
88D
102
}
330
22
100
AcDbEntity
  8
0
 62
     5
100
AcDbLine
 10
24019.61243542103
 20
4947.683566985056
 30
0.0
 11
24019.61243542103
 21
5347.683558044361
 31
0.0
  0
LINE
  5
2E1
102
{ACAD_REACTORS
330
88D
102
}
330
22
100
AcDbEntity
  8
0
  6
CENTER
 62
     1
100
AcDbLine
 10
24026.11243527575
 20
4926.085499230506
 30
0.0
 11
24026.11243527575
 21
5373.982751792464
 31
0.0
  0
LINE
  5
2E2
102
{ACAD_REACTORS
330
88D
102
}
330
22
100
AcDbEntity
  8
0
 62
     5
100
AcDbLine
 10
23701.61244252889
 20
5387.683557150291
 30
0.0
 11
23701.61244252889
 21
5347.683558044361
 31
0.0
  0
LINE
  5
2E5
102
{ACAD_REACTORS
330
88D
102
}
330
22
100
AcDbEntity
  8
0
 62
     5
100
AcDbLine
 10
23701.61244252889
 20
5347.683558044361
 30
0.0
 11
24041.6124349293
 21
5347.683558044361
 31
0.0
  0
LINE
  5
2E6
102
{ACAD_REACTORS
330
88D
102
}
330
22
100
AcDbEntity
  8
0
 62
     5
100
AcDbLine
 10
23701.61244252889
 20
5387.683557150293
 30
0.0
 11
24004.61243562221
 21
5387.683557150293
 31
0.0
  0
LINE
  5
2E7
102
{ACAD_REACTORS
330
88D
102
}
330
22
100
AcDbEntity
  8
0
 62
     5
100
AcDbLine
 10
24041.6124349293
 20
5350.683558044361
 30
0.0
 11
24041.6124349293
 21
5347.683558044361
 31
0.0
  0
LINE
  5
2E8
102
{ACAD_REACTORS
330
88D
102
}
330
22
100
AcDbEntity
  8
0
  6
CENTER
 62
     1
100
AcDbLine
 10
23667.62190373786
 20
5147.683562514711
 30
0.0
 11
24084.14286000406
 21
5147.683562514711
 31
0.0
  0
LINE
  5
2E9
102
{ACAD_REACTORS
330
88D
102
}
330
22
100
AcDbEntity
  8
0
 62
     5
100
AcDbLine
 10
23701.61244252889
 20
4907.683567879127
 30
0.0
 11
23701.61244252889
 21
4947.683566985056
 31
0.0
  0
LINE
  5
2EC
102
{ACAD_REACTORS
330
88D
102
}
330
22
100
AcDbEntity
  8
0
 62
     5
100
AcDbLine
 10
23701.61244252889
 20
4947.683566985058
 30
0.0
 11
24041.6124349293
 21
4947.683566985058
 31
0.0
  0
LINE
  5
2ED
102
{ACAD_REACTORS
330
88D
102
}
330
22
100
AcDbEntity
  8
0
 62
     5
100
AcDbLine
 10
23701.61244252889
 20
4907.683567879129
 30
0.0
 11
24004.61243562221
 21
4907.683567879129
 31
0.0
  0
LINE
  5
2EE
330
22
100
AcDbEntity
  8
0
 62
     5
100
AcDbLine
 10
24041.6124349293
 20
4944.683566985058
 30
0.0
 11
24041.6124349293
 21
4947.683566985056
 31
0.0
  0
CIRCLE
  5
2EF
330
22
100
AcDbEntity
  8
0
100
AcDbCircle
 10
22761.61242032616
 20
5147.683562514709
 30
0.0
 40
1080.000019073486
  0
CIRCLE
  5
2F0
330
22
100
AcDbEntity
  8
0
  6
Continuous
100
AcDbCircle
 10
22761.61242032616
 20
5147.683562514709
 30
0.0
 40
339.9999856948852
  0
CIRCLE
  5
2F1
330
22
100
AcDbEntity
  8
0
  6
Continuous
100
AcDbCircle
 10
22761.61242032616
 20
5147.683562514709
 30
0.0
 40
250.0
  0
ARC
  5
2F2
330
22
100
AcDbEntity
  8
0
  6
Continuous
100
AcDbCircle
 10
22761.61242032616
 20
5147.683562514709
 30
0.0
 40
980.0000190734863
100
AcDbArc
 50
9.208864873945881
 51
80.79111116354924
  0
ARC
  5
2F3
330
22
100
AcDbEntity
  8
0
  6
Continuous
100
AcDbCircle
 10
22761.61242032616
 20
5147.683562514709
 30
0.0
 40
1050.0
100
AcDbArc
 50
81.78681614075374
 51
98.21317520782429
  0
ARC
  5
2F4
330
22
100
AcDbEntity
  8
0
  6
Continuous
100
AcDbCircle
 10
22761.61242032616
 20
5147.683562514709
 30
0.0
 40
1050.0
100
AcDbArc
 50
171.7868118150427
 51
188.2131708821139
  0
ARC
  5
2F5
330
22
100
AcDbEntity
  8
0
  6
Continuous
100
AcDbCircle
 10
22761.61242032616
 20
5147.683562514709
 30
0.0
 40
1050.0
100
AcDbArc
 50
261.7868247921765
 51
278.213183859247
  0
ARC
  5
2F6
330
22
100
AcDbEntity
  8
0
  6
Continuous
100
AcDbCircle
 10
22761.61242032616
 20
5147.683562514709
 30
0.0
 40
1050.0
100
AcDbArc
 50
351.7868204664654
 51
8.213179533535278
  0
ARC
  5
2F7
330
22
100
AcDbEntity
  8
0
  6
Continuous
100
AcDbCircle
 10
22761.61242032616
 20
5147.683562514709
 30
0.0
 40
980.0000190734863
100
AcDbArc
 50
99.20888018502878
 51
170.7911341585949
  0
ARC
  5
2F8
330
22
100
AcDbEntity
  8
0
  6
Continuous
100
AcDbCircle
 10
22761.61242032616
 20
5147.683562514709
 30
0.0
 40
980.0000190734863
100
AcDbArc
 50
189.2088658414058
 51
260.7910720036478
  0
ARC
  5
2F9
330
22
100
AcDbEntity
  8
0
  6
Continuous
100
AcDbCircle
 10
22761.61242032616
 20
5147.683562514709
 30
0.0
 40
980.0000190734863
100
AcDbArc
 50
279.208868345884
 51
350.791074508126
  0
LWPOLYLINE
  5
6D2
102
{ACAD_REACTORS
330
891
102
}
330
22
100
AcDbEntity
  8
0
 62
     5
 48
25.0
100
AcDbPolyline
 90
        2
 70
     0
 43
0.0
 10
18899.20261134695
 20
3509.152220325777
 10
18899.20261134695
 20
3517.152220325777
  0
DIMENSION
  5
6F0
330
22
100
AcDbEntity
  8
寸法線
 48
25.0
100
AcDbDimension
  2
*D0
 10
16462.33551094966
 20
2068.152220325778
 30
0.0
 11
16399.83551094966
 21
1618.152220325781
 31
0.0
 70
    32
 71
     5
 42
900.0
  3
1-25
100
AcDbAlignedDimension
 13
16682.00261134695
 23
1168.152220325778
 33
0.0
 14
16732.00261134696
 24
2068.152220325778
 34
0.0
 50
90.0
100
AcDbRotatedDimension
1001
ACAD
1000
DSTYLE
1002
{
1070
   340
1005
11
1002
}
  0
DIMENSION
  5
706
330
22
100
AcDbEntity
  8
寸法線
 48
25.0
100
AcDbDimension
  2
*D1
 10
16462.33551094966
 20
2168.152220325778
 30
0.0
 11
16462.33551094966
 21
2118.152220325778
 31
0.0
 70
   160
 71
     5
 42
100.0
  3
1-25
100
AcDbAlignedDimension
 13
16732.00261134696
 23
2068.152220325778
 33
0.0
 14
16732.00261134696
 24
2168.152220325778
 34
0.0
 50
90.0
100
AcDbRotatedDimension
1001
ACAD
1000
DSTYLE
1002
{
1070
   340
1005
11
1070
   279
1070
     1
1002
}
  0
DIMENSION
  5
718
330
22
100
AcDbEntity
  8
寸法線
 48
25.0
100
AcDbDimension
  2
*D2
 10
16462.33551094966
 20
2768.152220325778
 30
0.0
 11
16399.83551094966
 21
2468.152220325781
 31
0.0
 70
    32
 71
     5
 42
600.0
  3
1-25
100
AcDbAlignedDimension
 13
16732.00261134696
 23
2168.152220325778
 33
0.0
 14
16728.10259211701
 24
2768.152220325778
 34
0.0
 50
90.0
100
AcDbRotatedDimension
1001
ACAD
1000
DSTYLE
1002
{
1070
   340
1005
11
1070
   279
1070
     1
1002
}
  0
DIMENSION
  5
725
330
22
100
AcDbEntity
  8
寸法線
 48
25.0
100
AcDbDimension
  2
*D3
 10
16462.33551094966
 20
2968.152220325778
 30
0.0
 11
16462.33551094966
 21
2868.152220325778
 31
0.0
 70
   160
 71
     5
 42
200.0
  3
1-25
100
AcDbAlignedDimension
 13
16732.00261134696
 23
2768.152220325778
 33
0.0
 14
16732.00261134696
 24
2968.152220325778
 34
0.0
 50
90.0
100
AcDbRotatedDimension
1001
ACAD
1000
DSTYLE
1002
{
1070
   340
1005
11
1070
   279
1070
     1
1002
}
  0
DIMENSION
  5
737
330
22
100
AcDbEntity
  8
寸法線
 48
25.0
100
AcDbDimension
  2
*D4
 10
16462.33551094966
 20
3268.152220325779
 30
0.0
 11
16399.83551094966
 21
3118.152220325781
 31
0.0
 70
    32
 71
     5
 42
300.0
  3
1-25
100
AcDbAlignedDimension
 13
16732.00261134696
 23
2968.152220325778
 33
0.0
 14
16732.00261134696
 24
3268.152220325779
 34
0.0
 50
90.0
100
AcDbRotatedDimension
1001
ACAD
1000
DSTYLE
1002
{
1070
   340
1005
11
1070
   279
1070
     1
1002
}
  0
DIMENSION
  5
744
330
22
100
AcDbEntity
  8
寸法線
 48
25.0
100
AcDbDimension
  2
*D5
 10
16462.33551094966
 20
3563.152220325778
 30
0.0
 11
16399.83551094966
 21
3415.652220325781
 31
0.0
 70
    32
 71
     5
 42
294.9999999999995
  3
1-25
100
AcDbAlignedDimension
 13
16732.00261134696
 23
3268.152220325779
 33
0.0
 14
16682.00261134695
 24
3563.152220325778
 34
0.0
 50
90.0
100
AcDbRotatedDimension
1001
ACAD
1000
DSTYLE
1002
{
1070
   340
1005
11
1070
   279
1070
     1
1002
}
  0
DIMENSION
  5
751
330
22
100
AcDbEntity
  8
寸法線
 48
25.0
100
AcDbDimension
  2
*D6
 10
16214.41419417858
 20
3583.152220325779
 30
0.0
 11
16151.91419417858
 21
2375.652220325781
 31
0.0
 70
    32
 71
     5
 42
2415.0
  3
1-25
100
AcDbAlignedDimension
 13
16682.00261134695
 23
1168.152220325778
 33
0.0
 14
16733.60259227347
 24
3583.152220325779
 34
0.0
 50
90.0
100
AcDbRotatedDimension
1001
ACAD
1000
DSTYLE
1002
{
1070
   340
1005
11
1002
}
  0
DIMENSION
  5
75E
330
22
100
AcDbEntity
  8
寸法線
 48
25.0
100
AcDbDimension
  2
*D7
 10
16001.80952212819
 20
4173.152220325792
 30
0.0
 11
15939.30952212819
 21
2670.652220325788
 31
0.0
 70
    32
  1
(<>)
 71
     5
 42
3005.000000000014
  3
1-25
100
AcDbAlignedDimension
 13
16682.00261134695
 23
1168.152220325778
 33
0.0
 14
17813.60261134695
 24
4173.152220325792
 34
0.0
 50
90.0
100
AcDbRotatedDimension
1001
ACAD
1000
DSTYLE
1002
{
1070
   340
1005
11
1002
}
  0
DIMENSION
  5
76B
330
22
100
AcDbEntity
  8
寸法線
 48
25.0
100
AcDbDimension
  2
*D8
 10
16214.41419417858
 20
4173.152220325792
 30
0.0
 11
16151.91419417858
 21
3878.152415752587
 31
0.0
 70
    32
  1
(<>)
 71
     5
 42
589.9996091464167
  3
1-25
100
AcDbAlignedDimension
 13
16733.60263879587
 23
3583.152611179375
 33
0.0
 14
17813.60261134695
 24
4173.152220325792
 34
0.0
 50
90.0
100
AcDbRotatedDimension
1001
ACAD
1000
DSTYLE
1002
{
1070
   340
1005
11
1002
}
  0
DIMENSION
  5
78B
330
22
100
AcDbEntity
  8
寸法線
 48
25.0
100
AcDbDimension
  2
*D9
 10
19442.34059660495
 20
4268.152151035431
 30
0.0
 11
19379.84059660495
 21
2718.152178130818
 31
0.0
 70
    32
 71
     5
 42
3099.999945809234
  3
1-25
100
AcDbAlignedDimension
 13
19083.60258892071
 23
1168.152205226198
 33
0.0
 14
18743.60284347183
 24
4268.152151035431
 34
0.0
 50
90.0
100
AcDbRotatedDimension
1001
ACAD
1000
DSTYLE
1002
{
1070
   340
1005
11
1002
}
  0
LINE
  5
7A1
102
{ACAD_REACTORS
330
88E
102
}
330
22
100
AcDbEntity
  8
0
  6
CENTER
 62
     1
100
AcDbLine
 10
19719.67092449638
 20
1768.152213620257
 30
0.0
 11
20448.64295410103
 21
1768.152213620257
 31
0.0
  0
LINE
  5
7A2
102
{ACAD_REACTORS
330
88E
102
}
330
22
100
AcDbEntity
  8
0
  6
CENTER
 62
     1
100
AcDbLine
 10
19719.67092449638
 20
2068.152213620257
 30
0.0
 11
20448.64295410103
 21
2068.152213620257
 31
0.0
  0
LINE
  5
7A3
102
{ACAD_REACTORS
330
88E
102
}
330
22
100
AcDbEntity
  8
0
  6
CENTER
 62
     1
100
AcDbLine
 10
19719.67092449638
 20
2368.152213620257
 30
0.0
 11
20448.64295410103
 21
2368.152213620257
 31
0.0
  0
LINE
  5
7A4
102
{ACAD_REACTORS
330
88E
102
}
330
22
100
AcDbEntity
  8
0
  6
CENTER
 62
     1
100
AcDbLine
 10
19719.67092449638
 20
2668.152213620257
 30
0.0
 11
20448.64295410103
 21
2668.152213620257
 31
0.0
  0
LINE
  5
7A5
102
{ACAD_REACTORS
330
88E
102
}
330
22
100
AcDbEntity
  8
0
  6
CENTER
 62
     1
100
AcDbLine
 10
19719.67092449638
 20
2968.152213620257
 30
0.0
 11
20448.64295410103
 21
2968.152213620257
 31
0.0
  0
LINE
  5
7A6
102
{ACAD_REACTORS
330
88E
102
}
330
22
100
AcDbEntity
  8
0
  6
CENTER
 62
     1
100
AcDbLine
 10
19719.67092449638
 20
3268.152213620257
 30
0.0
 11
20448.64295410103
 21
3268.152213620257
 31
0.0
  0
DIMENSION
  5
7A7
330
22
100
AcDbEntity
  8
寸法線
 48
25.0
100
AcDbDimension
  2
*D10
 10
20819.26193902485
 20
3268.152213620257
 30
0.0
 11
20756.76193902486
 21
2218.152216973021
 31
0.0
 70
    32
  1
300{\H0.6878x;\SP^ ;}×7=<>
 71
     5
 42
2099.999993294478
  3
1-25
100
AcDbAlignedDimension
 13
20309.59150457235
 23
1168.152220325779
 33
0.0
 14
20448.64295410103
 24
3268.152213620257
 34
0.0
 50
90.0
100
AcDbRotatedDimension
1001
ACAD
1000
DSTYLE
1002
{
1070
   340
1005
11
1002
}
  0
DIMENSION
  5
7BF
330
22
100
AcDbEntity
  8
寸法線
 48
25.0
100
AcDbDimension
  2
*D11
 10
22911.61280179589
 20
6423.533495436728
 30
0.0
 11
22761.61260981933
 21
6486.033495436728
 31
0.0
 70
    32
 71
     5
 42
300.0003839531128
  3
1-25
100
AcDbAlignedDimension
 13
22611.61241784277
 23
6186.913160847009
 33
0.0
 14
22911.61280179589
 24
6186.913160847009
 34
0.0
100
AcDbRotatedDimension
1001
ACAD
1000
DSTYLE
1002
{
1070
   340
1005
11
1002
}
  0
DIMENSION
  5
7CC
330
22
100
AcDbEntity
  8
寸法線
 48
25.0
100
AcDbDimension
  2
*D12
 10
22921.61246993291
 20
6629.892840178706
 30
0.0
 11
22761.61255125719
 21
6692.392840178706
 31
0.0
 70
    32
 71
     5
 42
319.9998373514354
  3
1-25
100
AcDbAlignedDimension
 13
22601.61263258147
 23
6215.765078343571
 33
0.0
 14
22921.61246993291
 24
6215.766153491138
 34
0.0
100
AcDbRotatedDimension
1001
ACAD
1000
DSTYLE
1002
{
1070
   340
1005
11
1002
}
  0
DIMENSION
  5
7F0
330
22
100
AcDbEntity
  8
寸法線
 48
25.0
100
AcDbDimension
  2
*D13
 10
18893.60263042044
 20
729.621321347543
 30
0.0
 11
17813.60261134695
 21
792.121321347543
 31
0.0
 70
    32
  1
O.Dφ<>
 71
     5
 42
2160.000038146973
  3
1-25
100
AcDbAlignedDimension
 13
16733.60259227347
 23
1168.152220325778
 33
0.0
 14
18893.60263042044
 24
1168.152220325778
 34
0.0
100
AcDbRotatedDimension
1001
ACAD
1000
DSTYLE
1002
{
1070
   340
1005
11
1002
}
  0
DIMENSION
  5
7FD
330
22
100
AcDbEntity
  8
寸法線
 48
25.0
100
AcDbDimension
  2
*D14
 10
18921.10261134695
 20
486.479528822042
 30
0.0
 11
17813.60261134695
 21
548.979528822042
 31
0.0
 70
    32
  1
P.C.Dφ<>
 71
     5
 42
2215.0
  3
1-25
100
AcDbAlignedDimension
 13
16706.10261134696
 23
1100.50938852341
 33
0.0
 14
18921.10261134695
 24
1118.152220325778
 34
0.0
100
AcDbRotatedDimension
1001
ACAD
1000
DSTYLE
1002
{
1070
   340
1005
11
1002
}
  0
DIMENSION
  5
A8A
330
22
100
AcDbEntity
  8
寸法線
 48
25.0
100
AcDbDimension
  2
*D16
 10
16462.33551094966
 20
3773.152144329857
 30
0.0
 11
16462.33551094966
 21
3678.15218232782
 31
0.0
 70
   160
 71
     5
 42
189.9999240040783
  3
1-25
100
AcDbAlignedDimension
 13
16733.60259227347
 23
3583.152220325779
 33
0.0
 14
16753.60259227347
 24
3773.152144329857
 34
0.0
 50
90.0
100
AcDbRotatedDimension
  0
DIMENSION
  5
B26
330
22
100
AcDbEntity
  8
寸法線
 48
25.0
100
AcDbDimension
  2
*D17
 10
20269.59150546642
 20
912.7067386373964
 30
0.0
 11
20069.59150993677
 21
975.2067386373964
 31
0.0
 70
    32
 71
     5
 42
399.9999910593033
  3
1-25
100
AcDbAlignedDimension
 13
19869.59151440711
 23
1168.152220325779
 33
0.0
 14
20269.59150546642
 24
1168.152220325779
 34
0.0
100
AcDbRotatedDimension
  0
LINE
  5
B74
102
{ACAD_REACTORS
330
88C
102
}
330
22
100
AcDbEntity
  8
0
 62
    49
100
AcDbLine
 10
18903.20261134695
 20
3559.152220325778
 30
0.0
 11
18941.20261134695
 21
3559.152220325778
 31
0.0
  0
ARC
  5
B77
102
{ACAD_REACTORS
330
88C
102
}
330
22
100
AcDbEntity
  8
0
 62
    49
100
AcDbCircle
 10
18941.20261134695
 20
3563.152220325778
 30
0.0
 40
4.0
100
AcDbArc
 50
270.0
 51
0.0
  0
LINE
  5
B79
102
{ACAD_REACTORS
330
88C
102
}
330
22
100
AcDbEntity
  8
0
 62
    49
100
AcDbLine
 10
18899.20261134695
 20
3517.152220325778
 30
0.0
 11
18899.20261134695
 21
3555.152220325778
 31
0.0
  0
ARC
  5
B7A
102
{ACAD_REACTORS
330
88C
102
}
330
22
100
AcDbEntity
  8
0
 62
    49
100
AcDbCircle
 10
18903.20261134695
 20
3555.152220325778
 30
0.0
 40
4.0
100
AcDbArc
 50
90.0
 51
180.0
  0
LINE
  5
B7B
102
{ACAD_REACTORS
330
88C
102
}
330
22
100
AcDbEntity
  8
0
 62
    49
100
AcDbLine
 10
17832.60261101168
 20
3559.152220325778
 30
0.0
 11
17832.60261101168
 21
1172.152220325778
 31
0.0
  0
LINE
  5
B7D
102
{ACAD_REACTORS
330
88C
102
}
330
22
100
AcDbEntity
  8
0
 62
    49
100
AcDbLine
 10
18903.20261134695
 20
1172.152220325778
 30
0.0
 11
18941.20261134695
 21
1172.152220325778
 31
0.0
  0
ARC
  5
B7F
102
{ACAD_REACTORS
330
88C
102
}
330
22
100
AcDbEntity
  8
0
 62
    49
100
AcDbCircle
 10
18941.20261134695
 20
1168.152220325778
 30
0.0
 40
4.0
100
AcDbArc
 50
0.0
 51
90.0
  0
LINE
  5
B81
102
{ACAD_REACTORS
330
88C
102
}
330
22
100
AcDbEntity
  8
0
 62
    49
100
AcDbLine
 10
18899.20261134695
 20
1176.152220325778
 30
0.0
 11
18899.20261134696
 21
1214.152220325778
 31
0.0
  0
ARC
  5
B82
102
{ACAD_REACTORS
330
88C
102
}
330
22
100
AcDbEntity
  8
0
 62
    49
100
AcDbCircle
 10
18903.20261134695
 20
1176.152220325778
 30
0.0
 40
4.0
100
AcDbArc
 50
180.0
 51
270.0
  0
LWPOLYLINE
  5
B83
102
{ACAD_REACTORS
330
88C
102
}
330
22
100
AcDbEntity
  8
0
 62
    49
100
AcDbPolyline
 90
        2
 70
     0
 43
0.0
 10
18903.20261134695
 20
1172.152220325778
 10
17832.60261101168
 20
1172.152220325778
  0
LINE
  5
B85
102
{ACAD_REACTORS
330
88C
102
}
330
22
100
AcDbEntity
  8
0
 62
    49
100
AcDbLine
 10
16724.00261134695
 20
3559.152220325778
 30
0.0
 11
16686.00261134695
 21
3559.152220325778
 31
0.0
  0
ARC
  5
B86
102
{ACAD_REACTORS
330
88C
102
}
330
22
100
AcDbEntity
  8
0
 62
    49
100
AcDbCircle
 10
16724.00261134695
 20
3555.152220325778
 30
0.0
 40
4.0
100
AcDbArc
 50
0.000000000000007
 51
90.0
  0
LINE
  5
B88
102
{ACAD_REACTORS
330
88C
102
}
330
22
100
AcDbEntity
  8
0
 62
    49
100
AcDbLine
 10
16728.00261134696
 20
3517.152220325778
 30
0.0
 11
16728.00261134696
 21
3555.152220325778
 31
0.0
  0
ARC
  5
B89
102
{ACAD_REACTORS
330
88C
102
}
330
22
100
AcDbEntity
  8
0
 62
    49
100
AcDbCircle
 10
16686.00261134695
 20
3563.152220325778
 30
0.0
 40
4.0
100
AcDbArc
 50
180.0
 51
270.0
  0
LINE
  5
B8A
102
{ACAD_REACTORS
330
88C
102
}
330
22
100
AcDbEntity
  8
0
 62
    49
100
AcDbLine
 10
17794.60261168223
 20
3559.152220325778
 30
0.0
 11
17794.60261168223
 21
1172.152220325779
 31
0.0
  0
LINE
  5
B8B
102
{ACAD_REACTORS
330
88C
102
}
330
22
100
AcDbEntity
  8
0
 62
    49
100
AcDbLine
 10
16724.00261134695
 20
1172.152220325778
 30
0.0
 11
16686.00261134695
 21
1172.152220325778
 31
0.0
  0
ARC
  5
B8C
102
{ACAD_REACTORS
330
88C
102
}
330
22
100
AcDbEntity
  8
0
 62
    49
100
AcDbCircle
 10
16724.00261134695
 20
1176.152220325778
 30
0.0
 40
4.0
100
AcDbArc
 50
270.0
 51
0.000000000000007
  0
LINE
  5
B8D
102
{ACAD_REACTORS
330
88C
102
}
330
22
100
AcDbEntity
  8
0
 62
    49
100
AcDbLine
 10
16728.00261134696
 20
1176.152220325778
 30
0.0
 11
16728.00261134696
 21
1214.152220325778
 31
0.0
  0
ARC
  5
B8E
102
{ACAD_REACTORS
330
88C
102
}
330
22
100
AcDbEntity
  8
0
 62
    49
100
AcDbCircle
 10
16686.00261134695
 20
1168.152220325778
 30
0.0
 40
4.0
100
AcDbArc
 50
90.0
 51
180.0
  0
LWPOLYLINE
  5
B8F
102
{ACAD_REACTORS
330
88C
102
}
330
22
100
AcDbEntity
  8
0
 62
    49
100
AcDbPolyline
 90
        2
 70
     0
 43
0.0
 10
16724.00261134695
 20
1172.152220325778
 10
17794.60261168223
 20
1172.152220325778
  0
ARC
  5
B90
102
{ACAD_REACTORS
330
88C
102
}
330
22
100
AcDbEntity
  8
0
 62
    49
100
AcDbCircle
 10
18895.20261134696
 20
1214.152220325778
 30
0.0
 40
4.0
100
AcDbArc
 50
359.9999999999988
 51
90.0
  0
ARC
  5
B91
102
{ACAD_REACTORS
330
88C
102
}
330
22
100
AcDbEntity
  8
0
 62
    49
100
AcDbCircle
 10
18895.20261134695
 20
3517.152220325778
 30
0.0
 40
4.0
100
AcDbArc
 50
270.0
 51
0.0
  0
ARC
  5
B92
102
{ACAD_REACTORS
330
88C
102
}
330
22
100
AcDbEntity
  8
0
 62
    49
100
AcDbCircle
 10
16732.00261134696
 20
3517.152220325778
 30
0.0
 40
4.0
100
AcDbArc
 50
180.0
 51
270.0
  0
ARC
  5
B93
102
{ACAD_REACTORS
330
88C
102
}
330
22
100
AcDbEntity
  8
0
 62
    49
100
AcDbCircle
 10
16732.00261134696
 20
1214.152220325778
 30
0.0
 40
4.0
100
AcDbArc
 50
90.0
 51
180.0000000000012
  0
LINE
  5
BC7
330
22
100
AcDbEntity
  8
0
  6
CENTER
 62
     1
100
AcDbLine
 10
17813.60261134695
 20
4202.818281727146
 30
0.0
 11
17813.60261134695
 21
1006.806333141634
 31
0.0
  0
LINE
  5
BC9
330
22
100
AcDbEntity
  8
0
100
AcDbLine
 10
16733.60259227347
 20
3583.152220325779
 30
0.0
 11
18893.60263042044
 21
3583.152220325779
 31
0.0
  0
LINE
  5
BCA
330
22
100
AcDbEntity
  8
0
100
AcDbLine
 10
16833.60259227338
 20
3593.152220325777
 30
0.0
 11
18793.60263042044
 21
3593.152220325722
 31
0.0
  0
LINE
  5
BCC
330
22
100
AcDbEntity
  8
0
100
AcDbLine
 10
16753.57502345157
 20
3773.152144329857
 30
0.0
 11
17053.57502345157
 21
3773.152144329857
 31
0.0
  0
LINE
  5
BCD
330
22
100
AcDbEntity
  8
0
100
AcDbLine
 10
16733.60259227347
 20
3583.152220325779
 30
0.0
 11
16748.66378988491
 21
3768.932120290623
 31
0.0
  0
LINE
  5
BCE
330
22
100
AcDbEntity
  8
0
100
AcDbLine
 10
17473.60262565207
 20
4113.152134495105
 30
0.0
 11
18153.60259704184
 21
4113.152134495105
 31
0.0
  0
LINE
  5
BCF
330
22
100
AcDbEntity
  8
0
100
AcDbLine
 10
17473.60262565207
 20
4078.152096348131
 30
0.0
 11
18153.60259704184
 21
4078.152096348131
 31
0.0
  0
LINE
  5
BD0
330
22
100
AcDbEntity
  8
0
100
AcDbLine
 10
17473.60262565207
 20
4078.152096348129
 30
0.0
 11
17473.60262565207
 21
4113.1521344951
 31
0.0
  0
LINE
  5
BD1
330
22
100
AcDbEntity
  8
0
100
AcDbLine
 10
17523.60262565207
 20
4078.152096348129
 30
0.0
 11
17523.60262565207
 21
4033.287251072251
 31
0.0
  0
LINE
  5
BD5
330
22
100
AcDbEntity
  8
0
100
AcDbLine
 10
18103.60259704184
 20
4078.152096348129
 30
0.0
 11
18103.60259704184
 21
4033.287251072251
 31
0.0
  0
LINE
  5
BD6
330
22
100
AcDbEntity
  8
0
100
AcDbLine
 10
18153.60259704184
 20
4078.152096348129
 30
0.0
 11
18153.60259704184
 21
4113.1521344951
 31
0.0
  0
LINE
  5
BD7
330
22
100
AcDbEntity
  8
0
100
AcDbLine
 10
17668.34636621069
 20
3798.152144031833
 30
0.0
 11
17958.85885648321
 21
3798.152144031833
 31
0.0
  0
LINE
  5
BD8
330
22
100
AcDbEntity
  8
0
  6
Continuous
100
AcDbLine
 10
17663.35328653981
 20
3793.415162152613
 30
0.0
 11
17654.1707189659
 21
3618.943754646918
 31
0.0
  0
LINE
  5
BD9
330
22
100
AcDbEntity
  8
0
100
AcDbLine
 10
17963.8519361541
 20
3793.415162152613
 30
0.0
 11
17972.89599694948
 21
3621.575423012484
 31
0.0
  0
LINE
  5
BDA
330
22
100
AcDbEntity
  8
0
  6
CENTER
 62
     1
100
AcDbLine
 10
16908.60261134695
 20
3644.402296619722
 30
0.0
 11
16908.60261134695
 21
3861.313776274073
 31
0.0
  0
ARC
  5
BDD
330
22
100
AcDbEntity
  8
0
100
AcDbCircle
 10
16753.60259070388
 20
3768.152220623802
 30
0.0
 40
4.999999701976775
100
AcDbArc
 50
89.99998201390118
 51
171.026365873584
  0
ARC
  5
BDF
330
22
100
AcDbEntity
  8
0
100
AcDbCircle
 10
17493.60263042044
 20
4033.287251072251
 30
0.0
 40
29.99999821186065
100
AcDbArc
 50
284.6158783192963
 51
0.0
  0
ARC
  5
BE0
330
22
100
AcDbEntity
  8
0
100
AcDbCircle
 10
18133.60259227347
 20
4033.287251072251
 30
0.0
 40
29.99999821186065
100
AcDbArc
 50
179.9999640278024
 51
255.3840788783381
  0
ARC
  5
BE4
330
22
100
AcDbEntity
  8
0
  6
Continuous
100
AcDbCircle
 10
17625.69473724972
 20
3621.761941970528
 30
0.0
 40
28.61509591966451
100
AcDbArc
 50
268.8895301699152
 51
359.6265117089508
  0
ARC
  5
BE5
330
22
100
AcDbEntity
  8
0
100
AcDbCircle
 10
18002.85452843191
 20
3623.152218537638
 30
0.0
 40
29.99999821186065
100
AcDbArc
 50
183.0128460754709
 51
270.0000179860727
  0
ARC
  5
BE6
330
22
100
AcDbEntity
  8
0
  6
Continuous
100
AcDbCircle
 10
17668.34636621069
 20
3793.152220325779
 30
0.0
 40
4.999999701976775
100
AcDbArc
 50
89.99998201390118
 51
176.9867850943437
  0
ARC
  5
BE7
330
22
100
AcDbEntity
  8
0
100
AcDbCircle
 10
17958.85885648321
 20
3793.152220325779
 30
0.0
 40
4.999999701976775
100
AcDbArc
 50
3.01323272123349
 51
89.99998201390118
  0
ARC
  5
BE8
330
22
100
AcDbEntity
  8
0
100
AcDbCircle
 10
17813.60261134695
 20
3622.319233494127
 30
0.0
 40
550.832986831665
100
AcDbArc
 50
63.00850192356551
 51
116.9915235759808
  0
LWPOLYLINE
  5
BEA
102
{ACAD_REACTORS
330
88C
102
}
330
22
100
AcDbEntity
  8
0
 62
    49
100
AcDbPolyline
 90
        2
 70
     0
 43
0.0
 10
18903.20261134695
 20
3559.152220325778
 10
17832.60261101168
 20
3559.152220325778
  0
ARC
  5
BEC
102
{ACAD_REACTORS
330
866
102
}
330
22
100
AcDbEntity
  8
0
 62
    49
100
AcDbCircle
 10
22761.61242032616
 20
5147.683562514709
 30
0.0
 40
1080.0
100
AcDbArc
 50
30.79580030200139
 51
149.2041996979986
  0
ARC
  5
BED
102
{ACAD_REACTORS
330
866
102
}
330
22
100
AcDbEntity
  8
0
 62
    49
100
AcDbCircle
 10
22761.61242032616
 20
5147.683562514709
 30
0.0
 40
1081.6
100
AcDbArc
 50
30.79462300708124
 51
149.2053769929188
  0
ARC
  5
BEE
102
{ACAD_REACTORS
330
866
102
}
330
22
100
AcDbEntity
  8
0
 62
    49
100
AcDbCircle
 10
22761.61242032616
 20
5147.683562514709
 30
0.0
 40
1131.6
100
AcDbArc
 50
30.75951030691002
 51
149.24048969309
  0
ARC
  5
BEF
102
{ACAD_REACTORS
330
866
102
}
330
22
100
AcDbEntity
  8
0
 62
    49
100
AcDbCircle
 10
22761.61242032616
 20
5147.683562514709
 30
0.0
 40
1085.6
100
AcDbArc
 50
30.79169495374113
 51
149.2083050462589
  0
ARC
  5
C0C
102
{ACAD_REACTORS
330
866
102
}
330
22
100
AcDbEntity
  8
0
  6
CENTER
 62
    49
100
AcDbCircle
 10
22761.61242032616
 20
5147.683562514712
 30
0.0
 40
1107.500000000004
100
AcDbArc
 50
261.1115791386996
 51
278.8711156799472
  0
LWPOLYLINE
  5
C0E
102
{ACAD_REACTORS
330
866
102
}
330
22
100
AcDbEntity
  8
0
  6
CENTER
 62
    49
 48
0.5
100
AcDbPolyline
 90
        2
 70
     0
 43
0.0
 10
22761.61242032616
 20
4141.045628924764
 10
22761.61242032616
 20
3935.315350638144
  0
LWPOLYLINE
  5
C14
102
{ACAD_REACTORS
330
866
102
}
330
22
100
AcDbEntity
  8
0
 62
    49
100
AcDbPolyline
 90
        2
 70
     0
 43
0.0
 10
22746.61242032616
 20
4067.78773420533
 10
22746.61242032616
 20
4016.182983637261
  0
LWPOLYLINE
  5
C15
102
{ACAD_REACTORS
330
866
102
}
330
22
100
AcDbEntity
  8
0
 62
    49
100
AcDbPolyline
 90
        2
 70
     0
 43
0.0
 10
22776.61242032616
 20
4067.78773420533
 10
22776.61242032616
 20
4016.182983637261
  0
LWPOLYLINE
  5
C1A
102
{ACAD_REACTORS
330
866
102
}
330
22
100
AcDbEntity
  8
0
  6
CENTER
 62
    49
100
AcDbPolyline
 90
        2
 70
     0
 43
0.0
 10
22644.58599455536
 20
4026.760532100067
 10
22648.50822527585
 20
4064.329130100412
  0
LWPOLYLINE
  5
C39
102
{ACAD_REACTORS
330
866
102
}
330
22
100
AcDbEntity
  8
0
 62
    49
100
AcDbPolyline
 90
        2
 70
     0
 43
0.0
 10
22636.45295497719
 20
4038.188358273806
 10
22653.35982719845
 20
4036.411374398256
  0
LWPOLYLINE
  5
C3A
102
{ACAD_REACTORS
330
866
102
}
330
22
100
AcDbEntity
  8
0
 62
    49
100
AcDbPolyline
 90
        2
 70
     0
 43
0.0
 10
22638.33446731601
 20
4056.089752390436
 10
22655.24133953727
 20
4054.312768514885
  0
ARC
  5
C3B
102
{ACAD_REACTORS
330
866
102
}
330
22
100
AcDbEntity
  8
0
 62
    49
100
AcDbCircle
 10
22637.3937111466
 20
4047.139055332121
 30
0.0
 40
9.0
100
AcDbArc
 50
84.0
 51
264.0
  0
ARC
  5
C3C
102
{ACAD_REACTORS
330
866
102
}
330
22
100
AcDbEntity
  8
0
 62
    49
100
AcDbCircle
 10
22654.30058336786
 20
4045.362071456572
 30
0.0
 40
9.0
100
AcDbArc
 50
264.0
 51
84.0
  0
LWPOLYLINE
  5
C3D
102
{ACAD_REACTORS
330
866
102
}
330
22
100
AcDbEntity
  8
0
 62
    49
100
AcDbPolyline
 90
        2
 70
     0
 43
0.0
 10
22886.77188567513
 20
4038.188358273806
 10
22869.86501345386
 20
4036.411374398256
  0
LWPOLYLINE
  5
C3E
102
{ACAD_REACTORS
330
866
102
}
330
22
100
AcDbEntity
  8
0
 62
    49
100
AcDbPolyline
 90
        2
 70
     0
 43
0.0
 10
22884.89037333631
 20
4056.089752390436
 10
22867.98350111504
 20
4054.312768514885
  0
ARC
  5
C3F
102
{ACAD_REACTORS
330
866
102
}
330
22
100
AcDbEntity
  8
0
 62
    49
100
AcDbCircle
 10
22885.83112950572
 20
4047.139055332121
 30
0.0
 40
9.0
100
AcDbArc
 50
276.0
 51
96.0
  0
ARC
  5
C40
102
{ACAD_REACTORS
330
866
102
}
330
22
100
AcDbEntity
  8
0
 62
    49
100
AcDbCircle
 10
22868.92425728445
 20
4045.362071456572
 30
0.0
 40
9.0
100
AcDbArc
 50
96.0
 51
276.0
  0
LWPOLYLINE
  5
C43
102
{ACAD_REACTORS
330
866
102
}
330
22
100
AcDbEntity
  8
0
  6
CENTER
 62
    49
100
AcDbPolyline
 90
        2
 70
     0
 43
0.0
 10
22878.63884609695
 20
4026.760532100067
 10
22874.71661537646
 20
4064.329130100412
  0
LWPOLYLINE
  5
C44
102
{ACAD_REACTORS
330
866
102
}
330
22
100
AcDbEntity
  8
0
 62
    49
100
AcDbPolyline
 90
        2
 70
     0
 43
0.0
 10
23689.32964108292
 20
5700.621857726163
 10
23734.02066603083
 20
5726.424233010198
  0
LWPOLYLINE
  5
C45
102
{ACAD_REACTORS
330
866
102
}
330
22
100
AcDbEntity
  8
0
 62
    49
100
AcDbPolyline
 90
        2
 70
     0
 43
0.0
 10
23704.32964108292
 20
5674.64109561263
 10
23749.02066603083
 20
5700.443470896665
  0
LWPOLYLINE
  5
C46
102
{ACAD_REACTORS
330
866
102
}
330
22
100
AcDbEntity
  8
0
 62
    49
100
AcDbPolyline
 90
        2
 70
     0
 43
0.0
 10
23790.87345323767
 20
5606.797220090425
 10
23756.37697762456
 20
5591.409672533701
  0
LWPOLYLINE
  5
C47
102
{ACAD_REACTORS
330
866
102
}
330
22
100
AcDbEntity
  8
0
 62
    49
100
AcDbPolyline
 90
        2
 70
     0
 43
0.0
 10
23785.04318525027
 20
5594.039888118874
 10
23778.12866231798
 20
5609.570160898801
  0
LWPOLYLINE
  5
C48
102
{ACAD_REACTORS
330
866
102
}
330
22
100
AcDbEntity
  8
0
 62
    49
100
AcDbPolyline
 90
        2
 70
     0
 43
0.0
 10
23768.5993670127
 20
5586.718628543511
 10
23761.68484408041
 20
5602.248901323434
  0
ARC
  5
C49
102
{ACAD_REACTORS
330
866
102
}
330
22
100
AcDbEntity
  8
0
 62
    49
100
AcDbCircle
 10
23776.82127613149
 20
5590.379258331193
 30
0.0
 40
9.0
100
AcDbArc
 50
204.0
 51
24.0
  0
ARC
  5
C4A
102
{ACAD_REACTORS
330
866
102
}
330
22
100
AcDbEntity
  8
0
 62
    49
100
AcDbCircle
 10
23769.9067531992
 20
5605.90953111112
 30
0.0
 40
9.0
100
AcDbArc
 50
24.0
 51
204.0
  0
LWPOLYLINE
  5
C4B
102
{ACAD_REACTORS
330
866
102
}
330
22
100
AcDbEntity
  8
0
 62
    49
100
AcDbPolyline
 90
        2
 70
     0
 43
0.0
 10
23659.8837199013
 20
5810.822441151441
 10
23669.87606919027
 20
5797.069152247067
  0
LWPOLYLINE
  5
C4C
102
{ACAD_REACTORS
330
866
102
}
330
22
100
AcDbEntity
  8
0
 62
    49
100
AcDbPolyline
 90
        2
 70
     0
 43
0.0
 10
23645.32141400255
 20
5800.242306610178
 10
23655.31376329152
 20
5786.489017705801
  0
ARC
  5
C4D
102
{ACAD_REACTORS
330
866
102
}
330
22
100
AcDbEntity
  8
0
 62
    49
100
AcDbCircle
 10
23652.60256695192
 20
5805.532373880812
 30
0.0
 40
9.0
100
AcDbArc
 50
36.00000000000003
 51
216.0
  0
ARC
  5
C4E
102
{ACAD_REACTORS
330
866
102
}
330
22
100
AcDbEntity
  8
0
 62
    49
100
AcDbCircle
 10
23662.5949162409
 20
5791.779084976438
 30
0.0
 40
9.0
100
AcDbArc
 50
216.0
 51
36.00000000000003
  0
LWPOLYLINE
  5
C4F
102
{ACAD_REACTORS
330
866
102
}
330
22
100
AcDbEntity
  8
0
 62
    49
100
AcDbPolyline
 90
        2
 70
     0
 43
0.0
 10
23673.84702746687
 20
5809.492935353633
 10
23643.27278257425
 20
5787.311884910007
  0
LWPOLYLINE
  5
C50
102
{ACAD_REACTORS
330
866
102
}
330
22
100
AcDbEntity
  8
0
 62
    49
100
AcDbPolyline
 90
        2
 70
     0
 43
0.0
 10
21818.8951995694
 20
5674.641095612631
 10
21774.20417462149
 20
5700.443470896665
  0
LWPOLYLINE
  5
C51
102
{ACAD_REACTORS
330
866
102
}
330
22
100
AcDbEntity
  8
0
 62
    49
100
AcDbPolyline
 90
        2
 70
     0
 43
0.0
 10
21833.8951995694
 20
5700.621857726162
 10
21789.20417462149
 20
5726.424233010197
  0
LWPOLYLINE
  5
C52
102
{ACAD_REACTORS
330
866
102
}
330
22
100
AcDbEntity
  8
0
 62
    49
100
AcDbPolyline
 90
        2
 70
     0
 43
0.0
 10
21849.37781318544
 20
5809.492935353631
 10
21879.95205807806
 20
5787.31188491001
  0
LWPOLYLINE
  5
C53
102
{ACAD_REACTORS
330
866
102
}
330
22
100
AcDbEntity
  8
0
 62
    49
100
AcDbPolyline
 90
        2
 70
     0
 43
0.0
 10
21863.34112075102
 20
5810.822441151442
 10
21853.34877146204
 20
5797.069152247066
  0
LWPOLYLINE
  5
C54
102
{ACAD_REACTORS
330
866
102
}
330
22
100
AcDbEntity
  8
0
 62
    49
100
AcDbPolyline
 90
        2
 70
     0
 43
0.0
 10
21877.90342664976
 20
5800.242306610176
 10
21867.91107736079
 20
5786.489017705802
  0
ARC
  5
C55
102
{ACAD_REACTORS
330
866
102
}
330
22
100
AcDbEntity
  8
0
 62
    49
100
AcDbCircle
 10
21870.62227370039
 20
5805.532373880808
 30
0.0
 40
9.0
100
AcDbArc
 50
324.0
 51
144.0
  0
ARC
  5
C56
102
{ACAD_REACTORS
330
866
102
}
330
22
100
AcDbEntity
  8
0
 62
    49
100
AcDbCircle
 10
21860.62992441142
 20
5791.779084976433
 30
0.0
 40
9.0
100
AcDbArc
 50
144.0
 51
324.0
  0
LWPOLYLINE
  5
C57
102
{ACAD_REACTORS
330
866
102
}
330
22
100
AcDbEntity
  8
0
 62
    49
100
AcDbPolyline
 90
        2
 70
     0
 43
0.0
 10
21738.18165540205
 20
5594.039888118875
 10
21745.09617833434
 20
5609.5701608988
  0
LWPOLYLINE
  5
C58
102
{ACAD_REACTORS
330
866
102
}
330
22
100
AcDbEntity
  8
0
 62
    49
100
AcDbPolyline
 90
        2
 70
     0
 43
0.0
 10
21754.62547363962
 20
5586.718628543511
 10
21761.53999657191
 20
5602.248901323437
  0
ARC
  5
C59
102
{ACAD_REACTORS
330
866
102
}
330
22
100
AcDbEntity
  8
0
 62
    49
100
AcDbCircle
 10
21746.40356452083
 20
5590.379258331188
 30
0.0
 40
9.0
100
AcDbArc
 50
156.0
 51
335.9999999999999
  0
ARC
  5
C5A
102
{ACAD_REACTORS
330
866
102
}
330
22
100
AcDbEntity
  8
0
 62
    49
100
AcDbCircle
 10
21753.31808745312
 20
5605.909531111113
 30
0.0
 40
9.0
100
AcDbArc
 50
335.9999999999999
 51
156.0
  0
LWPOLYLINE
  5
C5B
102
{ACAD_REACTORS
330
866
102
}
330
22
100
AcDbEntity
  8
0
 62
    49
100
AcDbPolyline
 90
        2
 70
     0
 43
0.0
 10
21732.35138741465
 20
5606.797220090424
 10
21766.84786302776
 20
5591.409672533703
  0
ARC
  5
C5C
102
{ACAD_REACTORS
330
866
102
}
330
22
100
AcDbEntity
  8
0
 62
    49
100
AcDbCircle
 10
22761.61242032616
 20
5147.683562514709
 30
0.0
 40
1131.6
100
AcDbArc
 50
150.7595103069101
 51
269.2404896930899
  0
ARC
  5
C5D
102
{ACAD_REACTORS
330
866
102
}
330
22
100
AcDbEntity
  8
0
 62
    49
100
AcDbCircle
 10
22761.61242032616
 20
5147.683562514709
 30
0.0
 40
1081.6
100
AcDbArc
 50
150.7946230070813
 51
269.2053769929187
  0
ARC
  5
C5E
102
{ACAD_REACTORS
330
866
102
}
330
22
100
AcDbEntity
  8
0
 62
    49
100
AcDbCircle
 10
22761.61242032616
 20
5147.683562514709
 30
0.0
 40
1080.0
100
AcDbArc
 50
150.7958003020014
 51
269.2041996979985
  0
ARC
  5
C5F
102
{ACAD_REACTORS
330
866
102
}
330
22
100
AcDbEntity
  8
0
 62
    49
100
AcDbCircle
 10
22761.61242032616
 20
5147.683562514709
 30
0.0
 40
1085.6
100
AcDbArc
 50
150.7916949537412
 51
269.2083050462589
  0
ARC
  5
C60
102
{ACAD_REACTORS
330
866
102
}
330
22
100
AcDbEntity
  8
0
 62
    49
100
AcDbCircle
 10
22761.5169388079
 20
5147.684222191911
 30
0.0
 40
1085.683020283681
100
AcDbArc
 50
270.7966738311319
 51
29.20581572751664
  0
ARC
  5
C61
102
{ACAD_REACTORS
330
866
102
}
330
22
100
AcDbEntity
  8
0
 62
    49
100
AcDbCircle
 10
22761.61242032616
 20
5147.683562514709
 30
0.0
 40
1080.0
100
AcDbArc
 50
270.7958003020014
 51
29.20419969799851
  0
ARC
  5
C62
102
{ACAD_REACTORS
330
866
102
}
330
22
100
AcDbEntity
  8
0
 62
    49
100
AcDbCircle
 10
22761.61242032616
 20
5147.683562514709
 30
0.0
 40
1081.6
100
AcDbArc
 50
270.7946230070813
 51
29.20537699291863
  0
ARC
  5
C63
102
{ACAD_REACTORS
330
866
102
}
330
22
100
AcDbEntity
  8
0
 62
    49
100
AcDbCircle
 10
22761.61242032616
 20
5147.683562514709
 30
0.0
 40
1131.6
100
AcDbArc
 50
270.7595103069101
 51
29.24048969308987
  0
ARC
  5
C6A
102
{ACAD_REACTORS
330
866
102
}
330
22
100
AcDbEntity
  8
0
 62
    49
100
AcDbCircle
 10
22775.48416882394
 20
4022.680293410103
 30
0.0
 40
6.594542117276186
100
AcDbArc
 50
279.8511232016787
 51
338.3246305905059
  0
ARC
  5
C6B
102
{ACAD_REACTORS
330
866
102
}
330
22
100
AcDbEntity
  8
0
 62
    49
100
AcDbCircle
 10
22822.6074139824
 20
4067.799820588313
 30
0.0
 40
4.001107487786635
100
AcDbArc
 50
270.0716907614967
 51
3.409773126138424
  0
LINE
  5
C6E
102
{ACAD_REACTORS
330
866
102
}
330
22
100
AcDbEntity
  8
0
 62
    49
100
AcDbLine
 10
22781.61242032616
 20
4020.260944327545
 30
0.0
 11
22781.61242032616
 21
4058.187196790714
 31
0.0
  0
ARC
  5
C6F
102
{ACAD_REACTORS
330
866
102
}
330
22
100
AcDbEntity
  8
0
 62
    49
100
AcDbCircle
 10
22785.75488470072
 20
4058.128186114617
 30
0.0
 40
4.142884665834088
100
AcDbArc
 50
91.97065997332073
 51
179.1838592432347
  0
ARC
  5
C71
102
{ACAD_REACTORS
330
866
102
}
330
22
100
AcDbEntity
  8
0
 62
    49
100
AcDbCircle
 10
22747.74067182837
 20
4022.680293410103
 30
0.0
 40
6.594542117276186
100
AcDbArc
 50
201.6753694094941
 51
260.1488767983213
  0
ARC
  5
C72
102
{ACAD_REACTORS
330
866
102
}
330
22
100
AcDbEntity
  8
0
 62
    49
100
AcDbCircle
 10
22700.61742666991
 20
4067.799820588313
 30
0.0
 40
4.001107487786635
100
AcDbArc
 50
176.5902268738616
 51
269.9283092385032
  0
LINE
  5
C73
102
{ACAD_REACTORS
330
866
102
}
330
22
100
AcDbEntity
  8
0
 62
    49
100
AcDbLine
 10
22741.61242032616
 20
4020.260944327545
 30
0.0
 11
22741.61242032616
 21
4058.187196790714
 31
0.0
  0
ARC
  5
C74
102
{ACAD_REACTORS
330
866
102
}
330
22
100
AcDbEntity
  8
0
 62
    49
100
AcDbCircle
 10
22737.4699559516
 20
4058.128186114617
 30
0.0
 40
4.142884665834088
100
AcDbArc
 50
0.816140756765264
 51
88.0293400266793
  0
ARC
  5
C75
102
{ACAD_REACTORS
330
866
102
}
330
22
100
AcDbEntity
  8
0
 62
    49
100
AcDbCircle
 10
23728.9579564624
 20
5722.198483660999
 30
0.0
 40
6.594542117276186
100
AcDbArc
 50
39.85112320167862
 51
98.3246305905059
  0
ARC
  5
C76
102
{ACAD_REACTORS
330
866
102
}
330
22
100
AcDbEntity
  8
0
 62
    49
100
AcDbCircle
 10
23666.32167714009
 20
5740.448647487887
 30
0.0
 40
4.001107487786635
100
AcDbArc
 50
30.07169076149676
 51
123.4097731261384
  0
LINE
  5
C77
102
{ACAD_REACTORS
330
866
102
}
330
22
100
AcDbEntity
  8
0
 62
    49
100
AcDbLine
 10
23727.98904847741
 20
5728.715379683976
 30
0.0
 11
23695.14395037396
 21
5709.752253452393
 31
0.0
  0
ARC
  5
C78
102
{ACAD_REACTORS
330
866
102
}
330
22
100
AcDbEntity
  8
0
 62
    49
100
AcDbCircle
 10
23693.12382293127
 20
5713.369238173086
 30
0.0
 40
4.142884665834088
100
AcDbArc
 50
211.9706599733207
 51
299.1838592432348
  0
ARC
  5
C79
102
{ACAD_REACTORS
330
866
102
}
330
22
100
AcDbEntity
  8
0
 62
    49
100
AcDbCircle
 10
23742.82970496018
 20
5698.171910473027
 30
0.0
 40
6.594542117276186
100
AcDbArc
 50
321.6753694094941
 51
20.14887679832133
  0
ARC
  5
C7A
102
{ACAD_REACTORS
330
866
102
}
330
22
100
AcDbEntity
  8
0
 62
    49
100
AcDbCircle
 10
23727.31667079634
 20
5634.802219467927
 30
0.0
 40
4.001107487786635
100
AcDbArc
 50
296.5902268738616
 51
29.92830923850327
  0
LINE
  5
C7B
102
{ACAD_REACTORS
330
866
102
}
330
22
100
AcDbEntity
  8
0
 62
    49
100
AcDbLine
 10
23747.9890484774
 20
5694.074363532603
 30
0.0
 11
23715.14395037396
 21
5675.111237301016
 31
0.0
  0
ARC
  5
C7C
102
{ACAD_REACTORS
330
866
102
}
330
22
100
AcDbEntity
  8
0
 62
    49
100
AcDbCircle
 10
23717.26628730584
 20
5671.553263256424
 30
0.0
 40
4.142884665834088
100
AcDbArc
 50
120.8161407567652
 51
208.0293400266792
  0
ARC
  5
C7D
102
{ACAD_REACTORS
330
866
102
}
330
22
100
AcDbEntity
  8
0
 62
    49
100
AcDbCircle
 10
21780.39513569213
 20
5698.17191047302
 30
0.0
 40
6.594542117276186
100
AcDbArc
 50
159.8511232016786
 51
218.3246305905059
  0
ARC
  5
C7E
102
{ACAD_REACTORS
330
866
102
}
330
22
100
AcDbEntity
  8
0
 62
    49
100
AcDbCircle
 10
21795.90816985597
 20
5634.802219467922
 30
0.0
 40
4.001107487786635
100
AcDbArc
 50
150.0716907614967
 51
243.4097731261384
  0
LINE
  5
C7F
102
{ACAD_REACTORS
330
866
102
}
330
22
100
AcDbEntity
  8
0
 62
    49
100
AcDbLine
 10
21775.23579217491
 20
5694.074363532601
 30
0.0
 11
21808.08089027836
 21
5675.111237301017
 31
0.0
  0
ARC
  5
C80
102
{ACAD_REACTORS
330
866
102
}
330
22
100
AcDbEntity
  8
0
 62
    49
100
AcDbCircle
 10
21805.95855334648
 20
5671.553263256419
 30
0.0
 40
4.142884665834088
100
AcDbArc
 50
331.9706599733207
 51
59.18385924323473
  0
ARC
  5
C81
102
{ACAD_REACTORS
330
866
102
}
330
22
100
AcDbEntity
  8
0
 62
    49
100
AcDbCircle
 10
21794.26688418991
 20
5722.198483660993
 30
0.0
 40
6.594542117276186
100
AcDbArc
 50
81.67536940949409
 51
140.1488767983213
  0
ARC
  5
C82
102
{ACAD_REACTORS
330
866
102
}
330
22
100
AcDbEntity
  8
0
 62
    49
100
AcDbCircle
 10
21856.90316351222
 20
5740.44864748788
 30
0.0
 40
4.001107487786635
100
AcDbArc
 50
56.59022687386157
 51
149.9283092385032
  0
LINE
  5
C83
102
{ACAD_REACTORS
330
866
102
}
330
22
100
AcDbEntity
  8
0
 62
    49
100
AcDbLine
 10
21795.2357921749
 20
5728.715379683977
 30
0.0
 11
21828.08089027836
 21
5709.752253452393
 31
0.0
  0
ARC
  5
C84
102
{ACAD_REACTORS
330
866
102
}
330
22
100
AcDbEntity
  8
0
 62
    49
100
AcDbCircle
 10
21830.10101772104
 20
5713.369238173082
 30
0.0
 40
4.142884665834088
100
AcDbArc
 50
240.8161407567652
 51
328.0293400266792
  0
ARC
  5
C87
102
{ACAD_REACTORS
330
866
102
}
330
22
100
AcDbEntity
  8
0
  6
CENTER
 62
    49
100
AcDbCircle
 10
22761.61242032616
 20
5147.683562514711
 30
0.0
 40
1107.500000000004
100
AcDbArc
 50
21.11157913869957
 51
38.87111567994712
  0
ARC
  5
C88
102
{ACAD_REACTORS
330
866
102
}
330
22
100
AcDbEntity
  8
0
  6
CENTER
 62
    49
100
AcDbCircle
 10
22761.61242032616
 20
5147.683562514699
 30
0.0
 40
1107.500000000004
100
AcDbArc
 50
141.1115791386996
 51
158.8711156799471
  0
LWPOLYLINE
  5
C89
102
{ACAD_REACTORS
330
866
102
}
330
22
100
AcDbEntity
  8
0
  6
CENTER
 62
    49
 48
0.5
100
AcDbPolyline
 90
        2
 70
     0
 43
0.0
 10
23633.38644322812
 20
5651.002529309679
 10
23811.55409055197
 20
5753.867668452988
  0
LWPOLYLINE
  5
C8A
102
{ACAD_REACTORS
330
866
102
}
330
22
100
AcDbEntity
  8
0
  6
CENTER
 62
    49
 48
0.5
100
AcDbPolyline
 90
        2
 70
     0
 43
0.0
 10
21889.83839742419
 20
5651.002529309681
 10
21711.67075010034
 20
5753.867668452991
  0
LWPOLYLINE
  5
CD9
102
{ACAD_REACTORS
330
88C
102
}
330
22
100
AcDbEntity
  8
0
 62
    49
100
AcDbPolyline
 90
        2
 70
     0
 43
0.0
 10
16732.00261134696
 20
3268.152220325779
 10
16732.00261134696
 20
2968.152220325778
  0
LWPOLYLINE
  5
CDB
102
{ACAD_REACTORS
330
88C
102
}
330
22
100
AcDbEntity
  8
0
 62
    49
100
AcDbPolyline
 90
        2
 70
     0
 43
0.0
 10
16732.00261134696
 20
2768.152220325778
 10
16732.00261134696
 20
2168.152220325778
  0
LWPOLYLINE
  5
CDC
102
{ACAD_REACTORS
330
88C
102
}
330
22
100
AcDbEntity
  8
0
 62
    49
100
AcDbPolyline
 90
        2
 70
     0
 43
0.0
 10
16732.00261134696
 20
2068.152220325778
 10
16732.00261134696
 20
1218.152220325778
  0
LWPOLYLINE
  5
CDD
102
{ACAD_REACTORS
330
88C
102
}
330
22
100
AcDbEntity
  8
0
 62
    49
100
AcDbPolyline
 90
        2
 70
     0
 43
0.0
 10
18895.20261134695
 20
3268.152220325779
 10
18895.20261134695
 20
2968.152220325778
  0
LWPOLYLINE
  5
CDE
102
{ACAD_REACTORS
330
88C
102
}
330
22
100
AcDbEntity
  8
0
 62
    49
100
AcDbPolyline
 90
        2
 70
     0
 43
0.0
 10
18895.20261134695
 20
2768.152220325778
 10
18895.20261134695
 20
2168.152220325778
  0
LWPOLYLINE
  5
CDF
102
{ACAD_REACTORS
330
88C
102
}
330
22
100
AcDbEntity
  8
0
 62
    49
100
AcDbPolyline
 90
        2
 70
     0
 43
0.0
 10
18895.20261134695
 20
2068.152220325778
 10
18895.20261134695
 20
1218.152220325778
  0
LWPOLYLINE
  5
CE0
102
{ACAD_REACTORS
330
88C
102
}
330
22
100
AcDbEntity
  8
0
 62
    49
100
AcDbPolyline
 90
        2
 70
     0
 43
0.0
 10
16724.00261134695
 20
3559.152220325778
 10
17794.60261168223
 20
3559.152220325778
  0
LINE
  5
CE1
330
22
100
AcDbEntity
  8
0
100
AcDbLine
 10
18893.60263042044
 20
3563.152220325778
 30
0.0
 11
18893.60263042044
 21
3583.152220325779
 31
0.0
  0
LINE
  5
CE2
330
22
100
AcDbEntity
  8
0
100
AcDbLine
 10
18893.60263042044
 20
3268.152220325778
 30
0.0
 11
18893.60263042044
 21
3513.152220325777
 31
0.0
  0
LINE
  5
CE3
330
22
100
AcDbEntity
  8
0
100
AcDbLine
 10
18893.60263042044
 20
2768.152220325778
 30
0.0
 11
18893.60263042044
 21
2968.152220325778
 31
0.0
  0
LINE
  5
CE4
330
22
100
AcDbEntity
  8
0
100
AcDbLine
 10
18893.60263042044
 20
2068.152220325778
 30
0.0
 11
18893.60263042044
 21
2168.152220325778
 31
0.0
  0
LINE
  5
CE5
330
22
100
AcDbEntity
  8
0
100
AcDbLine
 10
16733.60259227347
 20
2068.152220325778
 30
0.0
 11
16733.60259227347
 21
2168.152220325778
 31
0.0
  0
LINE
  5
CE6
330
22
100
AcDbEntity
  8
0
100
AcDbLine
 10
16733.60259227347
 20
2768.152220325779
 30
0.0
 11
16733.60259227347
 21
2968.152220325778
 31
0.0
  0
LINE
  5
CE7
330
22
100
AcDbEntity
  8
0
100
AcDbLine
 10
16733.60259227347
 20
3268.152220325778
 30
0.0
 11
16733.60259227347
 21
3513.152220325778
 31
0.0
  0
LINE
  5
CE8
330
22
100
AcDbEntity
  8
0
100
AcDbLine
 10
16733.60259227347
 20
3563.152220325778
 30
0.0
 11
16733.60259227347
 21
3583.152220325779
 31
0.0
  0
LWPOLYLINE
  5
DEF
330
22
100
AcDbEntity
  8
0
100
AcDbPolyline
 90
        2
 70
     0
 43
0.0
 10
16833.60259227338
 20
3593.152220325873
 10
16833.60259227338
 20
3583.152220325779
  0
LWPOLYLINE
  5
DF0
330
22
100
AcDbEntity
  8
0
100
AcDbPolyline
 90
        2
 70
     0
 43
0.0
 10
18793.60263042044
 20
3593.152220325722
 10
18793.60263042038
 20
3583.152220325779
  0
ARC
  5
E1B
330
22
100
AcDbEntity
  8
0
100
AcDbCircle
 10
18135.72842594995
 20
2226.274622264357
 30
0.0
 40
1887.825747999618
100
AcDbArc
 50
109.6412931383922
 51
133.6102396305602
  0
LINE
  5
E2C
330
22
100
AcDbEntity
  8
0
100
AcDbLine
 10
18873.63019924234
 20
3773.152144329857
 30
0.0
 11
18573.63019924234
 21
3773.152144329857
 31
0.0
  0
LINE
  5
E2D
330
22
100
AcDbEntity
  8
0
100
AcDbLine
 10
18893.60263042044
 20
3583.152220325779
 30
0.0
 11
18878.54143280899
 21
3768.932120290623
 31
0.0
  0
LINE
  5
E2E
330
22
100
AcDbEntity
  8
0
  6
CENTER
 62
     1
100
AcDbLine
 10
18718.60261134695
 20
3644.402296619722
 30
0.0
 11
18718.60261134695
 21
3861.313776274073
 31
0.0
  0
ARC
  5
E2F
330
22
100
AcDbEntity
  8
0
100
AcDbCircle
 10
18873.60263199003
 20
3768.152220623802
 30
0.0
 40
4.999999701976775
100
AcDbArc
 50
8.973634126415932
 51
90.00001798609881
  0
ARC
  5
E30
330
22
100
AcDbEntity
  8
0
100
AcDbCircle
 10
17491.47679674396
 20
2226.274622264357
 30
0.0
 40
1887.825747999618
100
AcDbArc
 50
46.38976036943978
 51
70.35870686160778
  0
LINE
  5
E32
102
{ACAD_REACTORS
330
891
102
}
330
22
100
AcDbEntity
  8
0
 62
     5
100
AcDbLine
 10
18941.20261134695
 20
1172.152220325777
 30
0.0
 11
19043.60262706768
 21
1172.152220325779
 31
0.0
  0
LINE
  5
E33
102
{ACAD_REACTORS
330
891
102
}
330
22
100
AcDbEntity
  8
0
 62
     5
100
AcDbLine
 10
18899.20261134696
 20
1222.152220325778
 30
0.0
 11
19043.60262706768
 21
1222.152220325779
 31
0.0
  0
LINE
  5
E34
102
{ACAD_REACTORS
330
891
102
}
330
22
100
AcDbEntity
  8
0
  6
CENTER
 62
     1
 48
0.1
100
AcDbLine
 10
18969.60258708786
 20
1178.228142916417
 30
0.0
 11
18969.60258708786
 21
1216.348834258532
 31
0.0
  0
LINE
  5
E35
102
{ACAD_REACTORS
330
891
102
}
330
22
100
AcDbEntity
  8
0
  6
CENTER
 62
     1
 48
0.1
100
AcDbLine
 10
18950.0854545126
 20
1197.152220884572
 30
0.0
 11
18989.28747305982
 21
1197.152220884572
 31
0.0
  0
CIRCLE
  5
E36
102
{ACAD_REACTORS
330
891
102
}
330
22
100
AcDbEntity
  8
0
 62
     5
100
AcDbCircle
 10
18969.60258708786
 20
1197.152220884572
 30
0.0
 40
5.99999986588955
  0
LWPOLYLINE
  5
E37
102
{ACAD_REACTORS
330
891
102
}
330
22
100
AcDbEntity
  8
0
 62
     5
 48
25.0
100
AcDbPolyline
 90
        2
 70
     0
 43
0.0
 10
18899.20261134696
 20
1222.152220325778
 10
18899.20261134696
 20
1214.152220325778
  0
DIMENSION
  5
E39
330
22
100
AcDbEntity
  8
寸法線
100
AcDbDimension
  2
*D18
 10
16753.57502345157
 20
4024.349165961172
 30
0.0
 11
16903.57502345157
 21
4086.849165961172
 31
0.0
 70
    32
 71
     5
 42
300.0
  3
1-25
100
AcDbAlignedDimension
 13
17053.57502345157
 23
3773.152144329857
 33
0.0
 14
16753.57502345157
 24
3773.152144329857
 34
0.0
100
AcDbRotatedDimension
  0
DIMENSION
  5
E70
330
22
100
AcDbEntity
  8
寸法線
100
AcDbDimension
  2
*D19
 10
18063.60272406114
 20
4317.672789454201
 30
0.0
 11
17813.60250212412
 21
4380.172789454201
 31
0.0
 70
    32
  1
I.D%%c<>
 71
     5
 42
500.0004438740289
  3
1-25
100
AcDbAlignedDimension
 13
17563.60228018711
 23
4113.152009296498
 33
0.0
 14
18063.60272406114
 24
4113.152120559357
 34
0.0
100
AcDbRotatedDimension
  0
CIRCLE
  5
EA8
330
22
100
AcDbEntity
  8
0
  6
CENTER
 62
     1
100
AcDbCircle
 10
22761.61242032616
 20
5147.683562514709
 30
0.0
 40
905.0
  0
DIMENSION
  5
EA9
330
22
100
AcDbEntity
  8
寸法線
100
AcDbDimension
  2
*D20
 10
22761.61242032615
 20
5147.683562514714
 30
0.0
 11
23180.09103751762
 21
5551.078168412842
 31
0.0
 70
   164
 71
     5
 42
904.9999999999963
  3
1-25
100
AcDbRadialDimension
 15
23413.1791288595
 25
5775.764627609827
 35
0.0
 40
0.0
1001
ACAD
1000
DSTYLE
1002
{
1070
   288
1070
     1
1002
}
  0
LINE
  5
1149
330
22
100
AcDbEntity
  8
0
100
AcDbLine
 10
15115.13735727354
 20
7008.122550087705
 30
0.0
 11
15290.13735727354
 21
7008.122550087705
 31
0.0
  0
LINE
  5
114A
330
22
100
AcDbEntity
  8
0
100
AcDbLine
 10
15290.13735727354
 20
7008.122550087705
 30
0.0
 11
15418.13735727356
 21
7008.122550087705
 31
0.0
  0
LINE
  5
114B
330
22
100
AcDbEntity
  8
0
100
AcDbLine
 10
15115.13735727354
 20
7008.122550087705
 30
0.0
 11
15115.13735727354
 21
6838.45588342104
 31
0.0
  0
LINE
  5
114C
330
22
100
AcDbEntity
  8
0
100
AcDbLine
 10
15418.13735727356
 20
7008.122550087705
 30
0.0
 11
15593.13735727356
 21
7008.122550087705
 31
0.0
  0
LINE
  5
114D
330
22
100
AcDbEntity
  8
0
100
AcDbLine
 10
15593.13735727356
 20
7008.122550087705
 30
0.0
 11
15768.13735727356
 21
7008.122550087705
 31
0.0
  0
LINE
  5
114E
330
22
100
AcDbEntity
  8
0
100
AcDbLine
 10
15768.13735727356
 20
7008.122550087705
 30
0.0
 11
15943.13735727356
 21
7008.122550087705
 31
0.0
  0
LINE
  5
114F
330
22
100
AcDbEntity
  8
0
100
AcDbLine
 10
15943.13735727356
 20
7008.122550087705
 30
0.0
 11
16118.13735727356
 21
7008.122550087705
 31
0.0
  0
LINE
  5
1150
330
22
100
AcDbEntity
  8
0
100
AcDbLine
 10
16118.13735727356
 20
7008.122550087705
 30
0.0
 11
16293.13735727356
 21
7008.122550087705
 31
0.0
  0
LINE
  5
1151
330
22
100
AcDbEntity
  8
0
100
AcDbLine
 10
16293.13735727356
 20
7008.122550087705
 30
0.0
 11
16468.13735727356
 21
7008.122550087705
 31
0.0
  0
LINE
  5
1152
330
22
100
AcDbEntity
  8
0
100
AcDbLine
 10
16468.13735727356
 20
7008.122550087705
 30
0.0
 11
16643.13735727356
 21
7008.122550087705
 31
0.0
  0
LINE
  5
1153
330
22
100
AcDbEntity
  8
0
100
AcDbLine
 10
16643.13735727356
 20
7008.122550087705
 30
0.0
 11
16818.13735727356
 21
7008.122550087705
 31
0.0
  0
LINE
  5
1154
330
22
100
AcDbEntity
  8
0
100
AcDbLine
 10
15418.13735727356
 20
7008.122550087705
 30
0.0
 11
15418.13735727356
 21
6838.45588342104
 31
0.0
  0
LINE
  5
1155
330
22
100
AcDbEntity
  8
0
100
AcDbLine
 10
16818.13735727356
 20
7008.122550087705
 30
0.0
 11
16993.13735727356
 21
7008.122550087705
 31
0.0
  0
LINE
  5
1156
330
22
100
AcDbEntity
  8
0
100
AcDbLine
 10
16993.13735727356
 20
7008.122550087705
 30
0.0
 11
17168.13735727356
 21
7008.122550087705
 31
0.0
  0
LINE
  5
1157
330
22
100
AcDbEntity
  8
0
100
AcDbLine
 10
17168.13735727356
 20
7008.122550087705
 30
0.0
 11
17343.13735727356
 21
7008.122550087705
 31
0.0
  0
LINE
  5
1158
330
22
100
AcDbEntity
  8
0
100
AcDbLine
 10
16818.13735727356
 20
7008.122550087705
 30
0.0
 11
16818.13735727356
 21
6838.45588342104
 31
0.0
  0
LINE
  5
1159
330
22
100
AcDbEntity
  8
0
100
AcDbLine
 10
17343.13735727356
 20
7008.122550087705
 30
0.0
 11
17518.13735727356
 21
7008.122550087705
 31
0.0
  0
LINE
  5
115A
330
22
100
AcDbEntity
  8
0
100
AcDbLine
 10
17518.13735727356
 20
7008.122550087705
 30
0.0
 11
17693.13735727356
 21
7008.122550087705
 31
0.0
  0
LINE
  5
115B
330
22
100
AcDbEntity
  8
0
100
AcDbLine
 10
17343.13735727356
 20
7008.122550087705
 30
0.0
 11
17343.13735727356
 21
6838.45588342104
 31
0.0
  0
LINE
  5
115C
330
22
100
AcDbEntity
  8
0
100
AcDbLine
 10
17693.13735727356
 20
7008.122550087705
 30
0.0
 11
17693.13735727356
 21
6838.45588342104
 31
0.0
  0
LINE
  5
115D
330
22
100
AcDbEntity
  8
0
100
AcDbLine
 10
15115.13735727354
 20
6838.45588342104
 30
0.0
 11
15290.13735727354
 21
6838.45588342104
 31
0.0
  0
LINE
  5
115E
330
22
100
AcDbEntity
  8
0
100
AcDbLine
 10
15290.13735727354
 20
6838.45588342104
 30
0.0
 11
15418.13735727356
 21
6838.45588342104
 31
0.0
  0
LINE
  5
115F
330
22
100
AcDbEntity
  8
0
100
AcDbLine
 10
15418.13735727356
 20
6838.45588342104
 30
0.0
 11
15593.13735727356
 21
6838.45588342104
 31
0.0
  0
LINE
  5
1160
330
22
100
AcDbEntity
  8
0
100
AcDbLine
 10
15593.13735727356
 20
6838.45588342104
 30
0.0
 11
15768.13735727356
 21
6838.45588342104
 31
0.0
  0
LINE
  5
1161
330
22
100
AcDbEntity
  8
0
100
AcDbLine
 10
15768.13735727356
 20
6838.45588342104
 30
0.0
 11
15943.13735727356
 21
6838.45588342104
 31
0.0
  0
LINE
  5
1162
330
22
100
AcDbEntity
  8
0
100
AcDbLine
 10
15943.13735727356
 20
6838.45588342104
 30
0.0
 11
16118.13735727356
 21
6838.45588342104
 31
0.0
  0
LINE
  5
1163
330
22
100
AcDbEntity
  8
0
100
AcDbLine
 10
16118.13735727356
 20
6838.45588342104
 30
0.0
 11
16293.13735727356
 21
6838.45588342104
 31
0.0
  0
LINE
  5
1164
330
22
100
AcDbEntity
  8
0
100
AcDbLine
 10
16293.13735727356
 20
6838.45588342104
 30
0.0
 11
16468.13735727356
 21
6838.45588342104
 31
0.0
  0
LINE
  5
1165
330
22
100
AcDbEntity
  8
0
100
AcDbLine
 10
16468.13735727356
 20
6838.45588342104
 30
0.0
 11
16643.13735727356
 21
6838.45588342104
 31
0.0
  0
LINE
  5
1166
330
22
100
AcDbEntity
  8
0
100
AcDbLine
 10
16643.13735727356
 20
6838.45588342104
 30
0.0
 11
16818.13735727356
 21
6838.45588342104
 31
0.0
  0
LINE
  5
1167
330
22
100
AcDbEntity
  8
0
100
AcDbLine
 10
16818.13735727356
 20
6838.45588342104
 30
0.0
 11
16993.13735727356
 21
6838.45588342104
 31
0.0
  0
LINE
  5
1168
330
22
100
AcDbEntity
  8
0
100
AcDbLine
 10
16993.13735727356
 20
6838.45588342104
 30
0.0
 11
17168.13735727356
 21
6838.45588342104
 31
0.0
  0
LINE
  5
1169
330
22
100
AcDbEntity
  8
0
100
AcDbLine
 10
17168.13735727356
 20
6838.45588342104
 30
0.0
 11
17343.13735727356
 21
6838.45588342104
 31
0.0
  0
LINE
  5
116A
330
22
100
AcDbEntity
  8
0
100
AcDbLine
 10
17343.13735727356
 20
6838.45588342104
 30
0.0
 11
17518.13735727356
 21
6838.45588342104
 31
0.0
  0
LINE
  5
116B
330
22
100
AcDbEntity
  8
0
100
AcDbLine
 10
17518.13735727356
 20
6838.45588342104
 30
0.0
 11
17693.13735727356
 21
6838.45588342104
 31
0.0
  0
TEXT
  5
116C
330
22
100
AcDbEntity
  8
0
100
AcDbText
 10
15169.0357716711
 20
6885.789216754372
 30
0.0
 40
75.0
  1
記 号
 41
0.8
 72
     1
 11
15263.0357716711
 21
6923.289216754373
 31
0.0
100
AcDbText
 73
     2
  0
TEXT
  5
116D
330
22
100
AcDbEntity
  8
0
100
AcDbText
 10
15766.13735727356
 20
6885.789216754374
 30
0.0
 40
75.0
  1
来　　　　　　　　歴
 41
0.8
 72
     4
 11
16118.13735727356
 21
6923.289216754374
 31
0.0
100
AcDbText
  0
TEXT
  5
116E
330
22
100
AcDbEntity
  8
0
100
AcDbText
 10
16912.63735727356
 20
6885.789216754371
 30
0.0
 40
75.0
  1
年・月・日
 41
0.8
 72
     1
 11
17080.63735727356
 21
6923.289216754371
 31
0.0
100
AcDbText
 73
     2
  0
TEXT
  5
116F
330
22
100
AcDbEntity
  8
0
100
AcDbText
 10
17424.13735727356
 20
6885.789216754372
 30
0.0
 40
75.0
  1
記 入
 41
0.8
 72
     1
 11
17518.13735727356
 21
6923.289216754373
 31
0.0
100
AcDbText
 73
     2
  0
LWPOLYLINE
  5
1170
330
22
100
AcDbEntity
  8
0
100
AcDbPolyline
 90
        4
 70
     1
 43
0.0
 10
15115.13735727354
 20
7008.122550087707
 10
25190.13735727355
 20
7008.122550087707
 10
25190.13735727355
 20
8.122550087705349
 10
15115.13735727354
 20
8.122550087705349
  0
LWPOLYLINE
  5
1171
330
22
100
AcDbEntity
  8
0
100
AcDbPolyline
 90
        4
 70
     1
 43
0.0
 10
14865.13735727355
 20
7258.122550087707
 10
25440.13735727355
 20
7258.122550087707
 10
25440.13735727355
 20
-241.8774499122946
 10
14865.13735727355
 20
-241.8774499122946
  0
LINE
  5
1172
330
22
100
AcDbEntity
  8
0
100
AcDbLine
 10
21865.13735727354
 20
1195.789216754372
 30
0.0
 11
21865.13735727354
 21
1026.122550087705
 31
0.0
  0
LINE
  5
1173
330
22
100
AcDbEntity
  8
0
100
AcDbLine
 10
22215.13735727354
 20
1195.789216754372
 30
0.0
 11
22215.13735727354
 21
1026.122550087705
 31
0.0
  0
LINE
  5
1174
330
22
100
AcDbEntity
  8
0
100
AcDbLine
 10
22565.13735727355
 20
1195.789216754372
 30
0.0
 11
22565.13735727355
 21
1026.122550087705
 31
0.0
  0
LINE
  5
1175
330
22
100
AcDbEntity
  8
0
100
AcDbLine
 10
22915.13735727354
 20
1195.789216754372
 30
0.0
 11
22915.13735727354
 21
1026.122550087705
 31
0.0
  0
LINE
  5
1176
330
22
100
AcDbEntity
  8
0
100
AcDbLine
 10
23265.13735727354
 20
1195.789216754372
 30
0.0
 11
23265.13735727354
 21
1026.122550087705
 31
0.0
  0
LINE
  5
1177
330
22
100
AcDbEntity
  8
0
100
AcDbLine
 10
23265.13735727354
 20
1026.122550087705
 30
0.0
 11
23265.13735727354
 21
856.4558834210378
 31
0.0
  0
LINE
  5
1178
330
22
100
AcDbEntity
  8
0
100
AcDbLine
 10
23265.13735727354
 20
856.4558834210378
 30
0.0
 11
23265.13735727354
 21
686.7892167543718
 31
0.0
  0
LINE
  5
1179
330
22
100
AcDbEntity
  8
0
100
AcDbLine
 10
23265.13735727354
 20
686.7892167543718
 30
0.0
 11
23265.13735727354
 21
517.122550087706
 31
0.0
  0
LINE
  5
117A
330
22
100
AcDbEntity
  8
0
100
AcDbLine
 10
23265.13735727354
 20
517.122550087706
 30
0.0
 11
23265.13735727354
 21
347.4558834210387
 31
0.0
  0
LINE
  5
117B
330
22
100
AcDbEntity
  8
0
100
AcDbLine
 10
23440.13735727354
 20
1195.789216754372
 30
0.0
 11
23440.13735727354
 21
1026.122550087705
 31
0.0
  0
LINE
  5
117C
330
22
100
AcDbEntity
  8
0
100
AcDbLine
 10
25190.13735727354
 20
1195.789216754372
 30
0.0
 11
25190.13735727354
 21
1026.122550087705
 31
0.0
  0
LINE
  5
117D
330
22
100
AcDbEntity
  8
0
100
AcDbLine
 10
23440.13735727354
 20
1026.122550087705
 30
0.0
 11
23440.13735727354
 21
856.4558834210378
 31
0.0
  0
LINE
  5
117E
330
22
100
AcDbEntity
  8
0
100
AcDbLine
 10
25190.13735727354
 20
1026.122550087705
 30
0.0
 11
25190.13735727354
 21
856.4558834210378
 31
0.0
  0
LINE
  5
117F
330
22
100
AcDbEntity
  8
0
100
AcDbLine
 10
23440.13735727354
 20
856.4558834210378
 30
0.0
 11
23440.13735727354
 21
686.7892167543718
 31
0.0
  0
LINE
  5
1180
330
22
100
AcDbEntity
  8
0
100
AcDbLine
 10
25190.13735727354
 20
856.4558834210378
 30
0.0
 11
25190.13735727354
 21
686.7892167543718
 31
0.0
  0
LINE
  5
1181
330
22
100
AcDbEntity
  8
0
100
AcDbLine
 10
23440.13735727354
 20
686.7892167543718
 30
0.0
 11
23440.13735727354
 21
517.122550087706
 31
0.0
  0
LINE
  5
1182
330
22
100
AcDbEntity
  8
0
100
AcDbLine
 10
25190.13735727354
 20
686.7892167543718
 30
0.0
 11
25190.13735727354
 21
517.122550087706
 31
0.0
  0
LINE
  5
1183
330
22
100
AcDbEntity
  8
0
100
AcDbLine
 10
23440.13735727354
 20
517.122550087706
 30
0.0
 11
23440.13735727354
 21
347.4558834210387
 31
0.0
  0
LINE
  5
1184
330
22
100
AcDbEntity
  8
0
100
AcDbLine
 10
25190.13735727354
 20
517.122550087706
 30
0.0
 11
25190.13735727354
 21
347.4558834210387
 31
0.0
  0
LINE
  5
1185
330
22
100
AcDbEntity
  8
0
100
AcDbLine
 10
21865.13735727354
 20
1026.122550087705
 30
0.0
 11
22040.13735727354
 21
1026.122550087705
 31
0.0
  0
LINE
  5
1186
330
22
100
AcDbEntity
  8
0
100
AcDbLine
 10
22040.13735727354
 20
1026.122550087705
 30
0.0
 11
22215.13735727354
 21
1026.122550087705
 31
0.0
  0
LINE
  5
1187
330
22
100
AcDbEntity
  8
0
100
AcDbLine
 10
21865.13735727354
 20
1026.122550087705
 30
0.0
 11
21865.13735727354
 21
856.4558834210378
 31
0.0
  0
LINE
  5
1188
330
22
100
AcDbEntity
  8
0
100
AcDbLine
 10
21865.13735727354
 20
856.4558834210378
 30
0.0
 11
21865.13735727354
 21
686.7892167543718
 31
0.0
  0
LINE
  5
1189
330
22
100
AcDbEntity
  8
0
100
AcDbLine
 10
22215.13735727354
 20
1026.122550087705
 30
0.0
 11
22390.13735727354
 21
1026.122550087705
 31
0.0
  0
LINE
  5
118A
330
22
100
AcDbEntity
  8
0
100
AcDbLine
 10
22390.13735727354
 20
1026.122550087705
 30
0.0
 11
22565.13735727355
 21
1026.122550087705
 31
0.0
  0
LINE
  5
118B
330
22
100
AcDbEntity
  8
0
100
AcDbLine
 10
22215.13735727354
 20
1026.122550087705
 30
0.0
 11
22215.13735727354
 21
856.4558834210378
 31
0.0
  0
LINE
  5
118C
330
22
100
AcDbEntity
  8
0
100
AcDbLine
 10
22215.13735727354
 20
856.4558834210378
 30
0.0
 11
22215.13735727354
 21
686.7892167543718
 31
0.0
  0
LINE
  5
118D
330
22
100
AcDbEntity
  8
0
100
AcDbLine
 10
22565.13735727355
 20
1026.122550087705
 30
0.0
 11
22740.13735727354
 21
1026.122550087705
 31
0.0
  0
LINE
  5
118E
330
22
100
AcDbEntity
  8
0
100
AcDbLine
 10
22740.13735727354
 20
1026.122550087705
 30
0.0
 11
22915.13735727354
 21
1026.122550087705
 31
0.0
  0
LINE
  5
118F
330
22
100
AcDbEntity
  8
0
100
AcDbLine
 10
22565.13735727355
 20
1026.122550087705
 30
0.0
 11
22565.13735727355
 21
856.4558834210378
 31
0.0
  0
LINE
  5
1190
330
22
100
AcDbEntity
  8
0
100
AcDbLine
 10
22565.13735727355
 20
856.4558834210378
 30
0.0
 11
22565.13735727355
 21
686.7892167543718
 31
0.0
  0
LINE
  5
1191
330
22
100
AcDbEntity
  8
0
100
AcDbLine
 10
22915.13735727354
 20
1026.122550087705
 30
0.0
 11
23090.13735727354
 21
1026.122550087705
 31
0.0
  0
LINE
  5
1192
330
22
100
AcDbEntity
  8
0
100
AcDbLine
 10
23090.13735727354
 20
1026.122550087705
 30
0.0
 11
23265.13735727354
 21
1026.122550087705
 31
0.0
  0
LINE
  5
1193
330
22
100
AcDbEntity
  8
0
100
AcDbLine
 10
22915.13735727354
 20
1026.122550087705
 30
0.0
 11
22915.13735727354
 21
856.4558834210378
 31
0.0
  0
LINE
  5
1194
330
22
100
AcDbEntity
  8
0
100
AcDbLine
 10
22915.13735727354
 20
856.4558834210378
 30
0.0
 11
22915.13735727354
 21
686.7892167543718
 31
0.0
  0
LINE
  5
1195
330
22
100
AcDbEntity
  8
0
100
AcDbLine
 10
21865.13735727354
 20
686.7892167543718
 30
0.0
 11
22040.13735727354
 21
686.7892167543718
 31
0.0
  0
LINE
  5
1196
330
22
100
AcDbEntity
  8
0
100
AcDbLine
 10
21865.13735727354
 20
686.7892167543718
 30
0.0
 11
21865.13735727354
 21
517.122550087706
 31
0.0
  0
LINE
  5
1197
330
22
100
AcDbEntity
  8
0
100
AcDbLine
 10
21865.13735727354
 20
517.122550087706
 30
0.0
 11
21865.13735727354
 21
347.4558834210387
 31
0.0
  0
LINE
  5
1198
330
22
100
AcDbEntity
  8
0
100
AcDbLine
 10
22040.13735727354
 20
686.7892167543718
 30
0.0
 11
22215.13735727354
 21
686.7892167543718
 31
0.0
  0
LINE
  5
1199
330
22
100
AcDbEntity
  8
0
100
AcDbLine
 10
22215.13735727354
 20
686.7892167543718
 30
0.0
 11
22390.13735727354
 21
686.7892167543718
 31
0.0
  0
LINE
  5
119A
330
22
100
AcDbEntity
  8
0
100
AcDbLine
 10
22390.13735727354
 20
686.7892167543718
 30
0.0
 11
22565.13735727355
 21
686.7892167543718
 31
0.0
  0
LINE
  5
119B
330
22
100
AcDbEntity
  8
0
100
AcDbLine
 10
22040.13735727354
 20
686.7892167543718
 30
0.0
 11
22040.13735727354
 21
517.122550087706
 31
0.0
  0
LINE
  5
119C
330
22
100
AcDbEntity
  8
0
100
AcDbLine
 10
22040.13735727354
 20
517.122550087706
 30
0.0
 11
22040.13735727354
 21
347.4558834210387
 31
0.0
  0
LINE
  5
119D
330
22
100
AcDbEntity
  8
0
100
AcDbLine
 10
22565.13735727355
 20
686.7892167543718
 30
0.0
 11
22740.13735727354
 21
686.7892167543718
 31
0.0
  0
LINE
  5
119E
330
22
100
AcDbEntity
  8
0
100
AcDbLine
 10
22565.13735727355
 20
686.7892167543718
 30
0.0
 11
22565.13735727355
 21
517.122550087706
 31
0.0
  0
LINE
  5
119F
330
22
100
AcDbEntity
  8
0
100
AcDbLine
 10
22565.13735727355
 20
517.122550087706
 30
0.0
 11
22565.13735727355
 21
347.4558834210387
 31
0.0
  0
LINE
  5
11A0
330
22
100
AcDbEntity
  8
0
100
AcDbLine
 10
22740.13735727354
 20
686.7892167543718
 30
0.0
 11
22915.13735727354
 21
686.7892167543718
 31
0.0
  0
LINE
  5
11A1
330
22
100
AcDbEntity
  8
0
100
AcDbLine
 10
22915.13735727354
 20
686.7892167543718
 30
0.0
 11
23090.13735727354
 21
686.7892167543718
 31
0.0
  0
LINE
  5
11A2
330
22
100
AcDbEntity
  8
0
100
AcDbLine
 10
23090.13735727354
 20
686.7892167543718
 30
0.0
 11
23265.13735727354
 21
686.7892167543718
 31
0.0
  0
LINE
  5
11A3
330
22
100
AcDbEntity
  8
0
100
AcDbLine
 10
22740.13735727354
 20
686.7892167543718
 30
0.0
 11
22740.13735727354
 21
517.122550087706
 31
0.0
  0
LINE
  5
11A4
330
22
100
AcDbEntity
  8
0
100
AcDbLine
 10
22740.13735727354
 20
517.122550087706
 30
0.0
 11
22740.13735727354
 21
347.4558834210387
 31
0.0
  0
LINE
  5
11A5
330
22
100
AcDbEntity
  8
0
100
AcDbLine
 10
21865.13735727354
 20
347.4558834210387
 30
0.0
 11
22040.13735727354
 21
347.4558834210387
 31
0.0
  0
LINE
  5
11A6
330
22
100
AcDbEntity
  8
0
100
AcDbLine
 10
21865.13735727354
 20
8.12255008770569
 30
0.0
 11
22040.13735727354
 21
8.12255008770569
 31
0.0
  0
LINE
  5
11A7
330
22
100
AcDbEntity
  8
0
100
AcDbLine
 10
22040.13735727354
 20
347.4558834210387
 30
0.0
 11
22215.13735727354
 21
347.4558834210387
 31
0.0
  0
LINE
  5
11A8
330
22
100
AcDbEntity
  8
0
100
AcDbLine
 10
22040.13735727354
 20
8.12255008770569
 30
0.0
 11
22215.13735727354
 21
8.12255008770569
 31
0.0
  0
LINE
  5
11A9
330
22
100
AcDbEntity
  8
0
100
AcDbLine
 10
22215.13735727354
 20
347.4558834210387
 30
0.0
 11
22390.13735727354
 21
347.4558834210387
 31
0.0
  0
LINE
  5
11AA
330
22
100
AcDbEntity
  8
0
100
AcDbLine
 10
22215.13735727354
 20
8.12255008770569
 30
0.0
 11
22390.13735727354
 21
8.12255008770569
 31
0.0
  0
LINE
  5
11AB
330
22
100
AcDbEntity
  8
0
100
AcDbLine
 10
22390.13735727354
 20
347.4558834210387
 30
0.0
 11
22565.13735727355
 21
347.4558834210387
 31
0.0
  0
LINE
  5
11AC
330
22
100
AcDbEntity
  8
0
100
AcDbLine
 10
22390.13735727354
 20
8.12255008770569
 30
0.0
 11
22565.13735727355
 21
8.12255008770569
 31
0.0
  0
LINE
  5
11AD
330
22
100
AcDbEntity
  8
0
100
AcDbLine
 10
22565.13735727355
 20
347.4558834210387
 30
0.0
 11
22740.13735727354
 21
347.4558834210387
 31
0.0
  0
LINE
  5
11AE
330
22
100
AcDbEntity
  8
0
100
AcDbLine
 10
22565.13735727355
 20
8.12255008770569
 30
0.0
 11
22740.13735727354
 21
8.12255008770569
 31
0.0
  0
LINE
  5
11AF
330
22
100
AcDbEntity
  8
0
100
AcDbLine
 10
22740.13735727354
 20
347.4558834210387
 30
0.0
 11
22915.13735727354
 21
347.4558834210387
 31
0.0
  0
LINE
  5
11B0
330
22
100
AcDbEntity
  8
0
100
AcDbLine
 10
22740.13735727354
 20
8.12255008770569
 30
0.0
 11
22915.13735727354
 21
8.12255008770569
 31
0.0
  0
LINE
  5
11B1
330
22
100
AcDbEntity
  8
0
100
AcDbLine
 10
22915.13735727354
 20
347.4558834210387
 30
0.0
 11
23090.13735727354
 21
347.4558834210387
 31
0.0
  0
LINE
  5
11B2
330
22
100
AcDbEntity
  8
0
100
AcDbLine
 10
22915.13735727354
 20
8.12255008770569
 30
0.0
 11
23090.13735727354
 21
8.12255008770569
 31
0.0
  0
LINE
  5
11B3
330
22
100
AcDbEntity
  8
0
100
AcDbLine
 10
23090.13735727354
 20
347.4558834210387
 30
0.0
 11
23265.13735727354
 21
347.4558834210387
 31
0.0
  0
LINE
  5
11B4
330
22
100
AcDbEntity
  8
0
100
AcDbLine
 10
23090.13735727354
 20
8.12255008770569
 30
0.0
 11
23265.13735727354
 21
8.12255008770569
 31
0.0
  0
LINE
  5
11B5
330
22
100
AcDbEntity
  8
0
100
AcDbLine
 10
21865.13735727354
 20
347.4558834210387
 30
0.0
 11
21865.13735727354
 21
177.7892167543715
 31
0.0
  0
LINE
  5
11B6
330
22
100
AcDbEntity
  8
0
100
AcDbLine
 10
21865.13735727354
 20
177.7892167543715
 30
0.0
 11
21865.13735727354
 21
8.12255008770569
 31
0.0
  0
LINE
  5
11B7
330
22
100
AcDbEntity
  8
0
100
AcDbLine
 10
23265.13735727354
 20
347.4558834210387
 30
0.0
 11
23440.13735727354
 21
347.4558834210387
 31
0.0
  0
LINE
  5
11B8
330
22
100
AcDbEntity
  8
0
100
AcDbLine
 10
23265.13735727354
 20
8.12255008770569
 30
0.0
 11
23440.13735727354
 21
8.12255008770569
 31
0.0
  0
LINE
  5
11B9
330
22
100
AcDbEntity
  8
0
100
AcDbLine
 10
23265.13735727354
 20
347.4558834210387
 30
0.0
 11
23265.13735727354
 21
177.7892167543715
 31
0.0
  0
LINE
  5
11BA
330
22
100
AcDbEntity
  8
0
100
AcDbLine
 10
23265.13735727354
 20
177.7892167543715
 30
0.0
 11
23265.13735727354
 21
8.12255008770569
 31
0.0
  0
LINE
  5
11BB
330
22
100
AcDbEntity
  8
0
100
AcDbLine
 10
23440.13735727354
 20
347.4558834210387
 30
0.0
 11
23615.13735727355
 21
347.4558834210387
 31
0.0
  0
LINE
  5
11BC
330
22
100
AcDbEntity
  8
0
100
AcDbLine
 10
23440.13735727354
 20
8.12255008770569
 30
0.0
 11
23615.13735727355
 21
8.12255008770569
 31
0.0
  0
LINE
  5
11BD
330
22
100
AcDbEntity
  8
0
100
AcDbLine
 10
23615.13735727355
 20
347.4558834210387
 30
0.0
 11
23790.13735727354
 21
347.4558834210387
 31
0.0
  0
LINE
  5
11BE
330
22
100
AcDbEntity
  8
0
100
AcDbLine
 10
23615.13735727355
 20
8.12255008770569
 30
0.0
 11
23790.13735727354
 21
8.12255008770569
 31
0.0
  0
LINE
  5
11BF
330
22
100
AcDbEntity
  8
0
100
AcDbLine
 10
23790.13735727354
 20
347.4558834210387
 30
0.0
 11
23965.13735727354
 21
347.4558834210387
 31
0.0
  0
LINE
  5
11C0
330
22
100
AcDbEntity
  8
0
100
AcDbLine
 10
23790.13735727354
 20
8.12255008770569
 30
0.0
 11
23965.13735727354
 21
8.12255008770569
 31
0.0
  0
LINE
  5
11C1
330
22
100
AcDbEntity
  8
0
100
AcDbLine
 10
23965.13735727354
 20
347.4558834210387
 30
0.0
 11
24140.13735727354
 21
347.4558834210387
 31
0.0
  0
LINE
  5
11C2
330
22
100
AcDbEntity
  8
0
100
AcDbLine
 10
23965.13735727354
 20
8.12255008770569
 30
0.0
 11
24140.13735727354
 21
8.12255008770569
 31
0.0
  0
LINE
  5
11C3
330
22
100
AcDbEntity
  8
0
100
AcDbLine
 10
24140.13735727354
 20
347.4558834210387
 30
0.0
 11
24315.13735727354
 21
347.4558834210387
 31
0.0
  0
LINE
  5
11C4
330
22
100
AcDbEntity
  8
0
100
AcDbLine
 10
24140.13735727354
 20
8.12255008770569
 30
0.0
 11
24315.13735727354
 21
8.12255008770569
 31
0.0
  0
LINE
  5
11C5
330
22
100
AcDbEntity
  8
0
100
AcDbLine
 10
24315.13735727354
 20
347.4558834210387
 30
0.0
 11
24490.13735727354
 21
347.4558834210387
 31
0.0
  0
LINE
  5
11C6
330
22
100
AcDbEntity
  8
0
100
AcDbLine
 10
24315.13735727354
 20
8.12255008770569
 30
0.0
 11
24490.13735727354
 21
8.12255008770569
 31
0.0
  0
LINE
  5
11C7
330
22
100
AcDbEntity
  8
0
100
AcDbLine
 10
24490.13735727354
 20
347.4558834210387
 30
0.0
 11
24665.13735727354
 21
347.4558834210387
 31
0.0
  0
LINE
  5
11C8
330
22
100
AcDbEntity
  8
0
100
AcDbLine
 10
24490.13735727354
 20
8.12255008770569
 30
0.0
 11
24665.13735727354
 21
8.12255008770569
 31
0.0
  0
LINE
  5
11C9
330
22
100
AcDbEntity
  8
0
100
AcDbLine
 10
24665.13735727354
 20
347.4558834210387
 30
0.0
 11
24840.13735727355
 21
347.4558834210387
 31
0.0
  0
LINE
  5
11CA
330
22
100
AcDbEntity
  8
0
100
AcDbLine
 10
24665.13735727354
 20
8.12255008770569
 30
0.0
 11
24840.13735727355
 21
8.12255008770569
 31
0.0
  0
LINE
  5
11CB
330
22
100
AcDbEntity
  8
0
100
AcDbLine
 10
24840.13735727355
 20
347.4558834210387
 30
0.0
 11
25015.13735727354
 21
347.4558834210387
 31
0.0
  0
LINE
  5
11CC
330
22
100
AcDbEntity
  8
0
100
AcDbLine
 10
24840.13735727355
 20
8.12255008770569
 30
0.0
 11
25015.13735727354
 21
8.12255008770569
 31
0.0
  0
LINE
  5
11CD
330
22
100
AcDbEntity
  8
0
100
AcDbLine
 10
25015.13735727354
 20
347.4558834210387
 30
0.0
 11
25190.13735727354
 21
347.4558834210387
 31
0.0
  0
LINE
  5
11CE
330
22
100
AcDbEntity
  8
0
100
AcDbLine
 10
25015.13735727354
 20
8.12255008770569
 30
0.0
 11
25190.13735727354
 21
8.12255008770569
 31
0.0
  0
LINE
  5
11CF
330
22
100
AcDbEntity
  8
0
100
AcDbLine
 10
23440.13735727354
 20
347.4558834210387
 30
0.0
 11
23440.13735727354
 21
177.7892167543715
 31
0.0
  0
LINE
  5
11D0
330
22
100
AcDbEntity
  8
0
100
AcDbLine
 10
25190.13735727354
 20
347.4558834210387
 30
0.0
 11
25190.13735727354
 21
177.7892167543715
 31
0.0
  0
LINE
  5
11D1
330
22
100
AcDbEntity
  8
0
100
AcDbLine
 10
23440.13735727354
 20
177.7892167543715
 30
0.0
 11
23440.13735727354
 21
8.12255008770569
 31
0.0
  0
LINE
  5
11D2
330
22
100
AcDbEntity
  8
0
100
AcDbLine
 10
25190.13735727354
 20
177.7892167543715
 30
0.0
 11
25190.13735727354
 21
8.12255008770569
 31
0.0
  0
MTEXT
  5
11D3
330
22
100
AcDbEntity
  8
0
100
AcDbMText
 10
22040.13735727355
 20
1110.955883421038
 30
0.0
 40
75.0
 41
215.345047391213
 71
     5
 72
     5
  1
設　計
 73
     1
 44
1.0
1001
ACAD
1000
MTEXTBEGIN
1070
    73
1070
     1
1070
    44
1040
1.0
1070
    74
1070
     0
1000
MTEXTEND
  0
MTEXT
  5
11D4
330
22
100
AcDbEntity
  8
0
100
AcDbMText
 10
22390.13735727355
 20
1110.955883421037
 30
0.0
 40
75.0
 41
216.4007587334822
 71
     5
 72
     5
  1
製　図
 73
     1
 44
1.0
1001
ACAD
1000
MTEXTBEGIN
1070
    73
1070
     1
1070
    44
1040
1.0
1070
    74
1070
     0
1000
MTEXTEND
  0
MTEXT
  5
11D5
330
22
100
AcDbEntity
  8
0
100
AcDbMText
 10
22740.13735727355
 20
1110.955883421039
 30
0.0
 40
75.0
 41
216.533299436685
 71
     5
 72
     5
  1
検　図
 73
     1
 44
1.0
1001
ACAD
1000
MTEXTBEGIN
1070
    73
1070
     1
1070
    44
1040
1.0
1070
    74
1070
     0
1000
MTEXTEND
  0
MTEXT
  5
11D6
330
22
100
AcDbEntity
  8
0
100
AcDbMText
 10
23090.13735727355
 20
1110.955883421039
 30
0.0
 40
75.0
 41
213.2369123885269
 71
     5
 72
     5
  1
承　認
 73
     1
 44
1.0
1001
ACAD
1000
MTEXTBEGIN
1070
    73
1070
     1
1070
    44
1040
1.0
1070
    74
1070
     0
1000
MTEXTEND
  0
LINE
  5
11D7
330
22
100
AcDbEntity
  8
0
100
AcDbLine
 10
21865.13735727354
 20
1195.789216754372
 30
0.0
 11
22040.13735727354
 21
1195.789216754372
 31
0.0
  0
LINE
  5
11D8
330
22
100
AcDbEntity
  8
0
100
AcDbLine
 10
22040.13735727354
 20
1195.789216754372
 30
0.0
 11
22215.13735727354
 21
1195.789216754372
 31
0.0
  0
LINE
  5
11D9
330
22
100
AcDbEntity
  8
0
100
AcDbLine
 10
22215.13735727354
 20
1195.789216754372
 30
0.0
 11
22390.13735727354
 21
1195.789216754372
 31
0.0
  0
LINE
  5
11DA
330
22
100
AcDbEntity
  8
0
100
AcDbLine
 10
22390.13735727354
 20
1195.789216754372
 30
0.0
 11
22565.13735727355
 21
1195.789216754372
 31
0.0
  0
LINE
  5
11DB
330
22
100
AcDbEntity
  8
0
100
AcDbLine
 10
22565.13735727355
 20
1195.789216754372
 30
0.0
 11
22740.13735727354
 21
1195.789216754372
 31
0.0
  0
LINE
  5
11DC
330
22
100
AcDbEntity
  8
0
100
AcDbLine
 10
22740.13735727354
 20
1195.789216754372
 30
0.0
 11
22915.13735727354
 21
1195.789216754372
 31
0.0
  0
LINE
  5
11DD
330
22
100
AcDbEntity
  8
0
100
AcDbLine
 10
22915.13735727354
 20
1195.789216754372
 30
0.0
 11
23090.13735727354
 21
1195.789216754372
 31
0.0
  0
LINE
  5
11DE
330
22
100
AcDbEntity
  8
0
100
AcDbLine
 10
23090.13735727354
 20
1195.789216754372
 30
0.0
 11
23265.13735727354
 21
1195.789216754372
 31
0.0
  0
LINE
  5
11DF
330
22
100
AcDbEntity
  8
0
100
AcDbLine
 10
23265.13735727354
 20
1195.789216754372
 30
0.0
 11
23440.13735727354
 21
1195.789216754372
 31
0.0
  0
LINE
  5
11E0
330
22
100
AcDbEntity
  8
0
100
AcDbLine
 10
23440.13735727354
 20
1195.789216754372
 30
0.0
 11
23615.13735727355
 21
1195.789216754372
 31
0.0
  0
LINE
  5
11E1
330
22
100
AcDbEntity
  8
0
100
AcDbLine
 10
23615.13735727355
 20
1195.789216754372
 30
0.0
 11
23790.13735727354
 21
1195.789216754372
 31
0.0
  0
LINE
  5
11E2
330
22
100
AcDbEntity
  8
0
100
AcDbLine
 10
23790.13735727354
 20
1195.789216754372
 30
0.0
 11
23965.13735727354
 21
1195.789216754372
 31
0.0
  0
LINE
  5
11E3
330
22
100
AcDbEntity
  8
0
100
AcDbLine
 10
23965.13735727354
 20
1195.789216754372
 30
0.0
 11
24140.13735727354
 21
1195.789216754372
 31
0.0
  0
LINE
  5
11E4
330
22
100
AcDbEntity
  8
0
100
AcDbLine
 10
24140.13735727354
 20
1195.789216754372
 30
0.0
 11
24315.13735727354
 21
1195.789216754372
 31
0.0
  0
LINE
  5
11E5
330
22
100
AcDbEntity
  8
0
100
AcDbLine
 10
24315.13735727354
 20
1195.789216754372
 30
0.0
 11
24490.13735727354
 21
1195.789216754372
 31
0.0
  0
LINE
  5
11E6
330
22
100
AcDbEntity
  8
0
100
AcDbLine
 10
24490.13735727354
 20
1195.789216754372
 30
0.0
 11
24665.13735727354
 21
1195.789216754372
 31
0.0
  0
LINE
  5
11E7
330
22
100
AcDbEntity
  8
0
100
AcDbLine
 10
24665.13735727354
 20
1195.789216754372
 30
0.0
 11
24840.13735727355
 21
1195.789216754372
 31
0.0
  0
LINE
  5
11E8
330
22
100
AcDbEntity
  8
0
100
AcDbLine
 10
24840.13735727355
 20
1195.789216754372
 30
0.0
 11
25015.13735727354
 21
1195.789216754372
 31
0.0
  0
LINE
  5
11E9
330
22
100
AcDbEntity
  8
0
100
AcDbLine
 10
25015.13735727354
 20
1195.789216754372
 30
0.0
 11
25190.13735727354
 21
1195.789216754372
 31
0.0
  0
LINE
  5
11EA
330
22
100
AcDbEntity
  8
0
100
AcDbLine
 10
21865.13735727354
 20
1545.789216754372
 30
0.0
 11
22040.13735727354
 21
1545.789216754372
 31
0.0
  0
LINE
  5
11EB
330
22
100
AcDbEntity
  8
0
100
AcDbLine
 10
21865.13735727354
 20
1195.789216754372
 30
0.0
 11
22040.13735727354
 21
1195.789216754372
 31
0.0
  0
LINE
  5
11EC
330
22
100
AcDbEntity
  8
0
100
AcDbLine
 10
22040.13735727354
 20
1545.789216754372
 30
0.0
 11
22215.13735727354
 21
1545.789216754372
 31
0.0
  0
LINE
  5
11ED
330
22
100
AcDbEntity
  8
0
100
AcDbLine
 10
22040.13735727354
 20
1195.789216754372
 30
0.0
 11
22215.13735727354
 21
1195.789216754372
 31
0.0
  0
LINE
  5
11EE
330
22
100
AcDbEntity
  8
0
100
AcDbLine
 10
22215.13735727354
 20
1545.789216754372
 30
0.0
 11
22390.13735727354
 21
1545.789216754372
 31
0.0
  0
LINE
  5
11EF
330
22
100
AcDbEntity
  8
0
100
AcDbLine
 10
22215.13735727354
 20
1195.789216754372
 30
0.0
 11
22390.13735727354
 21
1195.789216754372
 31
0.0
  0
LINE
  5
11F0
330
22
100
AcDbEntity
  8
0
100
AcDbLine
 10
22390.13735727354
 20
1545.789216754372
 30
0.0
 11
22565.13735727355
 21
1545.789216754372
 31
0.0
  0
LINE
  5
11F1
330
22
100
AcDbEntity
  8
0
100
AcDbLine
 10
22390.13735727354
 20
1195.789216754372
 30
0.0
 11
22565.13735727355
 21
1195.789216754372
 31
0.0
  0
LINE
  5
11F2
330
22
100
AcDbEntity
  8
0
100
AcDbLine
 10
21865.13735727354
 20
1545.789216754372
 30
0.0
 11
21865.13735727354
 21
1370.789216754372
 31
0.0
  0
LINE
  5
11F3
330
22
100
AcDbEntity
  8
0
100
AcDbLine
 10
21865.13735727354
 20
1370.789216754372
 30
0.0
 11
21865.13735727354
 21
1195.789216754372
 31
0.0
  0
LINE
  5
11F4
330
22
100
AcDbEntity
  8
0
100
AcDbLine
 10
22565.13735727355
 20
1545.789216754372
 30
0.0
 11
22740.13735727354
 21
1545.789216754372
 31
0.0
  0
LINE
  5
11F5
330
22
100
AcDbEntity
  8
0
100
AcDbLine
 10
22565.13735727355
 20
1195.789216754372
 30
0.0
 11
22740.13735727354
 21
1195.789216754372
 31
0.0
  0
LINE
  5
11F6
330
22
100
AcDbEntity
  8
0
100
AcDbLine
 10
22740.13735727354
 20
1545.789216754372
 30
0.0
 11
22915.13735727354
 21
1545.789216754372
 31
0.0
  0
LINE
  5
11F7
330
22
100
AcDbEntity
  8
0
100
AcDbLine
 10
22740.13735727354
 20
1195.789216754372
 30
0.0
 11
22915.13735727354
 21
1195.789216754372
 31
0.0
  0
LINE
  5
11F8
330
22
100
AcDbEntity
  8
0
100
AcDbLine
 10
22915.13735727354
 20
1545.789216754372
 30
0.0
 11
23090.13735727354
 21
1545.789216754372
 31
0.0
  0
LINE
  5
11F9
330
22
100
AcDbEntity
  8
0
100
AcDbLine
 10
22915.13735727354
 20
1195.789216754372
 30
0.0
 11
23090.13735727354
 21
1195.789216754372
 31
0.0
  0
LINE
  5
11FA
330
22
100
AcDbEntity
  8
0
100
AcDbLine
 10
23090.13735727354
 20
1545.789216754372
 30
0.0
 11
23265.13735727354
 21
1545.789216754372
 31
0.0
  0
LINE
  5
11FB
330
22
100
AcDbEntity
  8
0
100
AcDbLine
 10
23090.13735727354
 20
1195.789216754372
 30
0.0
 11
23265.13735727354
 21
1195.789216754372
 31
0.0
  0
LINE
  5
11FC
330
22
100
AcDbEntity
  8
0
100
AcDbLine
 10
23265.13735727354
 20
1545.789216754372
 30
0.0
 11
23440.13735727354
 21
1545.789216754372
 31
0.0
  0
LINE
  5
11FD
330
22
100
AcDbEntity
  8
0
100
AcDbLine
 10
23265.13735727354
 20
1195.789216754372
 30
0.0
 11
23440.13735727354
 21
1195.789216754372
 31
0.0
  0
LINE
  5
11FE
330
22
100
AcDbEntity
  8
0
100
AcDbLine
 10
23440.13735727354
 20
1545.789216754372
 30
0.0
 11
23615.13735727355
 21
1545.789216754372
 31
0.0
  0
LINE
  5
11FF
330
22
100
AcDbEntity
  8
0
100
AcDbLine
 10
23440.13735727354
 20
1195.789216754372
 30
0.0
 11
23615.13735727355
 21
1195.789216754372
 31
0.0
  0
LINE
  5
1200
330
22
100
AcDbEntity
  8
0
100
AcDbLine
 10
23615.13735727355
 20
1545.789216754372
 30
0.0
 11
23790.13735727354
 21
1545.789216754372
 31
0.0
  0
LINE
  5
1201
330
22
100
AcDbEntity
  8
0
100
AcDbLine
 10
23615.13735727355
 20
1195.789216754372
 30
0.0
 11
23790.13735727354
 21
1195.789216754372
 31
0.0
  0
LINE
  5
1202
330
22
100
AcDbEntity
  8
0
100
AcDbLine
 10
23790.13735727354
 20
1545.789216754372
 30
0.0
 11
23965.13735727354
 21
1545.789216754372
 31
0.0
  0
LINE
  5
1203
330
22
100
AcDbEntity
  8
0
100
AcDbLine
 10
23790.13735727354
 20
1195.789216754372
 30
0.0
 11
23965.13735727354
 21
1195.789216754372
 31
0.0
  0
LINE
  5
1204
330
22
100
AcDbEntity
  8
0
100
AcDbLine
 10
23965.13735727354
 20
1545.789216754372
 30
0.0
 11
24140.13735727354
 21
1545.789216754372
 31
0.0
  0
LINE
  5
1205
330
22
100
AcDbEntity
  8
0
100
AcDbLine
 10
23965.13735727354
 20
1195.789216754372
 30
0.0
 11
24140.13735727354
 21
1195.789216754372
 31
0.0
  0
LINE
  5
1206
330
22
100
AcDbEntity
  8
0
100
AcDbLine
 10
24140.13735727354
 20
1545.789216754372
 30
0.0
 11
24315.13735727354
 21
1545.789216754372
 31
0.0
  0
LINE
  5
1207
330
22
100
AcDbEntity
  8
0
100
AcDbLine
 10
24140.13735727354
 20
1195.789216754372
 30
0.0
 11
24315.13735727354
 21
1195.789216754372
 31
0.0
  0
LINE
  5
1208
330
22
100
AcDbEntity
  8
0
100
AcDbLine
 10
24315.13735727354
 20
1545.789216754372
 30
0.0
 11
24490.13735727354
 21
1545.789216754372
 31
0.0
  0
LINE
  5
1209
330
22
100
AcDbEntity
  8
0
100
AcDbLine
 10
24315.13735727354
 20
1195.789216754372
 30
0.0
 11
24490.13735727354
 21
1195.789216754372
 31
0.0
  0
LINE
  5
120A
330
22
100
AcDbEntity
  8
0
100
AcDbLine
 10
24490.13735727354
 20
1545.789216754372
 30
0.0
 11
24665.13735727354
 21
1545.789216754372
 31
0.0
  0
LINE
  5
120B
330
22
100
AcDbEntity
  8
0
100
AcDbLine
 10
24490.13735727354
 20
1195.789216754372
 30
0.0
 11
24665.13735727354
 21
1195.789216754372
 31
0.0
  0
LINE
  5
120C
330
22
100
AcDbEntity
  8
0
100
AcDbLine
 10
24665.13735727354
 20
1545.789216754372
 30
0.0
 11
24840.13735727355
 21
1545.789216754372
 31
0.0
  0
LINE
  5
120D
330
22
100
AcDbEntity
  8
0
100
AcDbLine
 10
24665.13735727354
 20
1195.789216754372
 30
0.0
 11
24840.13735727355
 21
1195.789216754372
 31
0.0
  0
LINE
  5
120E
330
22
100
AcDbEntity
  8
0
100
AcDbLine
 10
24840.13735727355
 20
1545.789216754372
 30
0.0
 11
25015.13735727354
 21
1545.789216754372
 31
0.0
  0
LINE
  5
120F
330
22
100
AcDbEntity
  8
0
100
AcDbLine
 10
24840.13735727355
 20
1195.789216754372
 30
0.0
 11
25015.13735727354
 21
1195.789216754372
 31
0.0
  0
LINE
  5
1210
330
22
100
AcDbEntity
  8
0
100
AcDbLine
 10
25015.13735727354
 20
1545.789216754372
 30
0.0
 11
25190.13735727354
 21
1545.789216754372
 31
0.0
  0
LINE
  5
1211
330
22
100
AcDbEntity
  8
0
100
AcDbLine
 10
25015.13735727354
 20
1195.789216754372
 30
0.0
 11
25190.13735727354
 21
1195.789216754372
 31
0.0
  0
LINE
  5
1212
330
22
100
AcDbEntity
  8
0
100
AcDbLine
 10
22565.13735727355
 20
1545.789216754372
 30
0.0
 11
22565.13735727355
 21
1370.789216754372
 31
0.0
  0
LINE
  5
1213
330
22
100
AcDbEntity
  8
0
100
AcDbLine
 10
25190.13735727354
 20
1545.789216754372
 30
0.0
 11
25190.13735727354
 21
1370.789216754372
 31
0.0
  0
LINE
  5
1214
330
22
100
AcDbEntity
  8
0
100
AcDbLine
 10
22565.13735727355
 20
1370.789216754372
 30
0.0
 11
22565.13735727355
 21
1195.789216754372
 31
0.0
  0
LINE
  5
1215
330
22
100
AcDbEntity
  8
0
100
AcDbLine
 10
25190.13735727354
 20
1370.789216754372
 30
0.0
 11
25190.13735727354
 21
1195.789216754372
 31
0.0
  0
MTEXT
  5
1216
330
22
100
AcDbEntity
  8
0
100
AcDbMText
 10
22215.13735727361
 20
1370.789216754373
 30
0.0
 40
87.5
 41
404.31397995128
 71
     5
 72
     5
  1
納　入　先
 73
     1
 44
1.0
1001
ACAD
1000
MTEXTBEGIN
1070
    73
1070
     1
1070
    44
1040
1.0
1070
    74
1070
     0
1000
MTEXTEND
  0
OLE2FRAME
  5
1217
330
22
100
AcDbEntity
  8
0
100
AcDbOle2Frame
 70
     2
  1
OLE
1001
ACAD
1000
OLEBEGIN
1070
    70
1070
     1
1070
    71
1070
     1
1070
    40
1040
0.0
1070
    41
1040
14.51097576329994
1070
    42
1040
10.65217267122511
1070
    72
1070
     0
1070
     3
1000

1070
    90
1071
        0
1070
    43
1040
0.0
1070
     4
1000

1070
    91
1071
        0
1070
    44
1040
0.0
1000
OLEEND
  0
TEXT
  5
1218
330
22
100
AcDbEntity
  8
0
100
AcDbText
 10
22261.85202436355
 20
122.4957625060685
 30
0.0
 40
100.0
  1
北海道スイコー株式会社
 41
0.75
100
AcDbText
  0
MTEXT
  5
1219
330
22
100
AcDbEntity
  8
0
100
AcDbMText
 10
23352.63735727355
 20
771.6225500877044
 30
0.0
 40
75.0
 41
459.0903337585132
 71
     5
 72
     3
  1
名　　　称
 73
     1
 44
1.0
1001
ACAD
1000
MTEXTBEGIN
1070
    73
1070
     1
1070
    44
1040
1.0
1070
    74
1070
     0
1000
MTEXTEND
  0
MTEXT
  5
121A
330
22
100
AcDbEntity
  8
0
100
AcDbMText
 10
23352.63735727355
 20
177.7892167543714
 30
0.0
 40
75.0
 41
64.5153168748493
 71
     5
 72
     5
  1
図番
 73
     1
 44
1.0
1001
ACAD
1000
MTEXTBEGIN
1070
    73
1070
     1
1070
    44
1040
1.0
1070
    74
1070
     0
1000
MTEXTEND
  0
MTEXT
  5
121B
330
22
100
AcDbEntity
  8
0
100
AcDbMText
 10
21952.63735727355
 20
517.1225500877063
 30
0.0
 40
75.0
 41
56.16669837991139
 71
     5
 72
     5
  1
年月日
 73
     1
 44
1.0
1001
ACAD
1000
MTEXTBEGIN
1070
    73
1070
     1
1070
    44
1040
1.0
1070
    74
1070
     0
1000
MTEXTEND
  0
MTEXT
  5
121C
330
22
100
AcDbEntity
  8
0
100
AcDbMText
 10
22652.63735727355
 20
517.1225500877044
 30
0.0
 40
75.0
 41
62.90165563166283
 71
     5
 72
     5
  1
尺度
 73
     1
 44
1.0
1001
ACAD
1000
MTEXTBEGIN
1070
    73
1070
     1
1070
    44
1040
1.0
1070
    74
1070
     0
1000
MTEXTEND
  0
TEXT
  5
121D
330
22
100
AcDbEntity
  8
0
100
AcDbText
 10
24942.01666512433
 20
52.78921675437152
 30
0.0
 40
250.0
  1
△
 41
0.8
 72
     4
 11
25035.34999845766
 21
177.7892167543715
 31
0.0
100
AcDbText
  0
LEADER
  5
1354
330
22
100
AcDbEntity
  8
0
100
AcDbLeader
  3
1-25
 73
     0
 40
75.00000000000001
 41
474.0000000000001
 76
     3
 10
21858.34494610653
 20
5803.945796699254
 30
0.0
 10
21712.25666079895
 20
5972.941557996435
 30
0.0
 10
21678.31755337963
 20
5972.941557996435
 30
0.0
340
1355
1001
ACAD
1000
DSTYLE
1002
{
1070
   147
1040
1.0
1070
    77
1070
     1
1002
}
  0
MTEXT
  5
1355
102
{ACAD_REACTORS
330
1354
102
}
330
22
100
AcDbEntity
  8
0
 62
     4
100
AcDbMText
 10
21179.31755337963
 20
5997.941557996435
 30
0.0
 40
75.0
 41
0.0
 71
     7
 72
     1
  1
6-18×35ｱﾝｶｰ穴
 73
     1
 44
1.0
1001
ACAD
1000
MTEXTBEGIN
1070
    73
1070
     1
1070
    44
1040
1.0
1070
    74
1070
     0
1000
MTEXTEND
  0
TEXT
  5
1427
330
22
100
AcDbEntity
  8
0
100
AcDbText
 10
23607.35352074299
 20
819.4094608905924
 30
0.0
 40
150.0
  1
ＭＣ－８０００
 41
0.6
 11
23607.35352074299
 21
894.4094608905926
 31
0.0
100
AcDbText
 73
     2
  0
TEXT
  5
1428
330
22
100
AcDbEntity
  8
0
100
AcDbText
 10
23607.35352074299
 20
547.0520773423613
 30
0.0
 40
125.0
  1
製品図
 41
0.6
 11
23607.35352074299
 21
609.5520773423613
 31
0.0
100
AcDbText
 73
     2
  0
TEXT
  5
1429
330
22
100
AcDbEntity
  8
0
100
AcDbText
 10
22897.63735727355
 20
477.122550087706
 30
0.0
 40
75.0
  1
１／２５
 41
0.6
 72
     4
 11
23002.63735727355
 21
517.122550087706
 31
0.0
100
AcDbText
  0
LEADER
  5
1440
330
22
100
AcDbEntity
  8
0
100
AcDbLeader
  3
1-25
 73
     0
 74
     0
 40
87.50000000000003
 41
816.0000000000001
 76
     3
 10
23720.81916929889
 20
5701.288713073456
 30
0.0
 10
23751.5213329624
 20
6006.043894658663
 30
0.0
 10
23822.30028851585
 20
6006.043894658663
 30
0.0
340
1441
1001
ACAD
1000
DSTYLE
1002
{
1070
   147
1040
1.0
1070
    77
1070
     1
1002
}
  0
MTEXT
  5
1441
102
{ACAD_REACTORS
330
1440
102
}
330
22
100
AcDbEntity
  8
0
 62
     4
100
AcDbMText
 10
23847.30028851585
 20
6031.043894658663
 30
0.0
 40
75.0
 41
0.0
 71
     7
 72
     1
  1
金枠割：60°,180°,300°
 73
     1
 44
1.0
1001
ACAD
1000
MTEXTBEGIN
1070
    73
1070
     1
1070
    44
1040
1.0
1070
    74
1070
     0
1000
MTEXTEND
  0
DIMENSION
  5
1442
330
22
100
AcDbEntity
  8
寸法線
100
AcDbDimension
  2
*D21
 10
22525.11874251946
 20
5066.623459150228
 30
0.0
 11
22737.9630525455
 21
5139.577552178264
 31
0.0
 70
   163
 71
     5
 42
500.0000000000072
  3
1-25
100
AcDbDiametricDimension
 15
22998.10609813287
 25
5228.74366587919
 35
0.0
 40
0.0
1001
ACAD
1000
DSTYLE
1002
{
1070
   288
1070
     1
1002
}
  0
LINE
  5
158C
330
22
100
AcDbEntity
  8
0
  6
Continuous
100
AcDbLine
 10
18031.92021954168
 20
2390.25322737284
 30
0.0
 11
18348.48233659695
 21
2390.25322737284
 31
0.0
  0
TEXT
  5
158D
330
22
100
AcDbEntity
  8
0
  6
Continuous
100
AcDbText
 10
18065.62334158681
 20
2418.215446438181
 30
0.0
 40
85.00000238418579
  1
P
 41
0.6
100
AcDbText
  0
TEXT
  5
158E
330
22
100
AcDbEntity
  8
0
  6
Continuous
100
AcDbText
 10
18079.96727671346
 20
2418.229232044983
 30
0.0
 40
85.00000238418579
  1
L-1.6
 41
0.6
100
AcDbText
  0
LINE
  5
158F
330
22
100
AcDbEntity
  8
0
  6
Continuous
100
AcDbLine
 10
18031.92021954168
 20
1612.425607924648
 30
0.0
 11
18348.48233659695
 21
1612.425607924648
 31
0.0
  0
TEXT
  5
1590
330
22
100
AcDbEntity
  8
0
  6
Continuous
100
AcDbText
 10
18065.62334158681
 20
1640.38782698999
 30
0.0
 40
85.00000238418579
  1
P
 41
0.6
100
AcDbText
  0
TEXT
  5
1591
330
22
100
AcDbEntity
  8
0
  6
Continuous
100
AcDbText
 10
18079.96727671346
 20
1640.401612596792
 30
0.0
 40
85.00000238418579
  1
L-1.6
 41
0.6
100
AcDbText
  0
LINE
  5
15DB
102
{ACAD_REACTORS
330
891
102
}
330
22
100
AcDbEntity
  8
0
 62
     5
100
AcDbLine
 10
19046.60262706768
 20
1168.152208246115
 30
0.0
 11
19046.60262706768
 21
3928.152165340547
 31
0.0
  0
ARC
  5
15DC
102
{ACAD_REACTORS
330
891
102
}
330
22
100
AcDbEntity
  8
0
 62
     5
100
AcDbCircle
 10
18743.60281780254
 20
3928.152165340547
 30
0.0
 40
303.0
100
AcDbArc
 50
0.00001366037834
 51
89.99999567428899
  0
LINE
  5
15EF
102
{ACAD_REACTORS
330
88E
102
}
330
22
100
AcDbEntity
  8
0
 62
     5
100
AcDbLine
 10
19866.59151440711
 20
1168.152220325779
 30
0.0
 11
19866.59151440711
 21
4268.152151035382
 31
0.0
  0
LINE
  5
15F0
102
{ACAD_REACTORS
330
88E
102
}
330
22
100
AcDbEntity
  8
0
 62
     5
100
AcDbLine
 10
20272.59150546642
 20
1168.152220325779
 30
0.0
 11
20272.59150546642
 21
4268.152151035382
 31
0.0
  0
LINE
  5
1603
102
{ACAD_REACTORS
330
88D
102
}
330
22
100
AcDbEntity
  8
0
 62
     5
100
AcDbLine
 10
23701.61244252889
 20
5350.683558044361
 30
0.0
 11
24041.6124349293
 21
5350.683558044361
 31
0.0
  0
LINE
  5
1604
102
{ACAD_REACTORS
330
88D
102
}
330
22
100
AcDbEntity
  8
0
 62
     5
100
AcDbLine
 10
23701.61244252889
 20
4944.683566985058
 30
0.0
 11
24041.6124349293
 21
4944.683566985058
 31
0.0
  0
LINE
  5
1606
102
{ACAD_REACTORS
330
88D
102
}
330
22
100
AcDbEntity
  8
0
 62
     5
100
AcDbLine
 10
24004.6124356222
 20
4907.683567879127
 30
0.0
 11
24004.6124356222
 21
4944.683566985058
 31
0.0
  0
LINE
  5
1607
102
{ACAD_REACTORS
330
88D
102
}
330
22
100
AcDbEntity
  8
0
 62
     5
100
AcDbLine
 10
24004.6124356222
 20
5387.683557150292
 30
0.0
 11
24004.6124356222
 21
5350.683558044361
 31
0.0
  0
LEADER
  5
160C
330
22
100
AcDbEntity
  8
0
100
AcDbLeader
  3
1-25
 73
     0
 40
75.0
 41
299.934
 76
     3
 10
17582.26577226198
 20
1218.152220325778
 30
0.0
 10
17496.21300388779
 20
1383.311767032543
 30
0.0
 10
17458.34975982279
 20
1383.311767032543
 30
0.0
340
160D
1001
ACAD
1000
DSTYLE
1002
{
1070
   147
1040
1.0
1070
    77
1070
     1
1002
}
  0
MTEXT
  5
160D
102
{ACAD_REACTORS
330
160C
102
}
330
22
100
AcDbEntity
  8
0
 62
     4
100
AcDbMText
 10
17133.41575982279
 20
1408.311767032543
 30
0.0
 40
75.0
 41
0.0
 71
     7
 72
     1
  1
\A1;L-50×4{\H0.6978x;\St^ ;}
 73
     1
 44
1.0
1001
ACAD
1000
MTEXTBEGIN
1070
    73
1070
     1
1070
    44
1040
1.0
1070
    74
1070
     0
1000
MTEXTEND
  0
LEADER
  5
160E
330
22
100
AcDbEntity
  8
0
100
AcDbLeader
  3
1-25
 76
     2
 10
17748.60261168223
 20
1503.650535245107
 30
0.0
 10
17496.21300388779
 20
1383.311767032543
 30
0.0
1001
ACAD
1000
DSTYLE
1002
{
1070
   147
1040
1.0
1070
    77
1070
     1
1002
}
  0
LEADER
  5
160F
330
22
100
AcDbEntity
  8
0
100
AcDbLeader
  3
1-25
 73
     0
 40
75.0
 41
299.934
 76
     3
 10
17584.64808385535
 20
3513.152220325778
 30
0.0
 10
17458.54231752493
 20
3354.995441674417
 30
0.0
 10
17405.04288576028
 20
3354.995441674417
 30
0.0
340
1610
1001
ACAD
1000
DSTYLE
1002
{
1070
   147
1040
1.0
1070
    77
1070
     1
1002
}
  0
MTEXT
  5
1610
102
{ACAD_REACTORS
330
160F
102
}
330
22
100
AcDbEntity
  8
0
 62
     4
100
AcDbMText
 10
17080.10888576028
 20
3379.995441674417
 30
0.0
 40
75.0
 41
0.0
 71
     7
 72
     1
  1
\A1;L-50×4{\H0.6978x;\St^ ;}
 73
     1
 44
1.0
1001
ACAD
1000
MTEXTBEGIN
1070
    73
1070
     1
1070
    44
1040
1.0
1070
    74
1070
     0
1000
MTEXTEND
  0
ENDSEC
  0
SECTION
  2
OBJECTS
  0
DICTIONARY
  5
C
330
0
100
AcDbDictionary
281
     1
  3
ACAD_COLOR
350
1B
  3
ACAD_GROUP
350
D
  3
ACAD_LAYOUT
350
19
  3
ACAD_MATERIAL
350
1A
  3
ACAD_MLINESTYLE
350
16
  3
ACAD_PLOTSETTINGS
350
18
  3
ACAD_PLOTSTYLENAME
350
E
  3
ACAD_TABLESTYLE
350
1C
  3
AcadDim
350
1353
  3
ACDBHEADERROUNDTRIPXREC
350
165C
  3
AcDbVariableDictionary
350
6DD
  0
DICTIONARY
  5
6EB
330
2
100
AcDbDictionary
280
     1
281
     1
  3
ACAD_LAYERFILTERS
360
B5D
  3
ACAD_LAYERSTATES
360
AA0
  3
ACLYDICTIONARY
360
B5C
  0
DICTIONARY
  5
433
330
22
100
AcDbDictionary
280
     1
281
     1
  3
ACAD_SORTENTS
360
434
  0
DICTIONARY
  5
1B
102
{ACAD_REACTORS
330
C
102
}
330
C
100
AcDbDictionary
281
     1
  0
DICTIONARY
  5
D
102
{ACAD_REACTORS
330
C
102
}
330
C
100
AcDbDictionary
281
     1
  3
金枠正面図
350
88C
  3
金枠平面図
350
866
  3
梯子詳細図
350
88E
  3
梯子正面図
350
891
  3
梯子平面図
350
88D
  0
DICTIONARY
  5
19
102
{ACAD_REACTORS
330
C
102
}
330
C
100
AcDbDictionary
281
     1
  3
Model
350
25
  3
レイアウト1
350
21
  0
DICTIONARY
  5
1A
102
{ACAD_REACTORS
330
C
102
}
330
C
100
AcDbDictionary
281
     1
  0
DICTIONARY
  5
16
102
{ACAD_REACTORS
330
C
102
}
330
C
100
AcDbDictionary
281
     1
  3
Standard
350
17
  0
DICTIONARY
  5
18
102
{ACAD_REACTORS
330
C
102
}
330
C
100
AcDbDictionary
281
     1
  0
ACDBDICTIONARYWDFLT
  5
E
102
{ACAD_REACTORS
330
C
102
}
330
C
100
AcDbDictionary
281
     1
  3
Normal
350
F
100
AcDbDictionaryWithDefault
340
F
  0
DICTIONARY
  5
1C
102
{ACAD_REACTORS
330
C
102
}
330
C
100
AcDbDictionary
281
     1
  3
Standard
350
1D
  3
表
350
106D
  0
XRECORD
  5
1353
102
{ACAD_REACTORS
330
C
102
}
330
C
100
AcDbXrecord
280
     1
 90
   990106
  3

 60
     0
 61
     0
 62
     1
 63
     3
 64
     1
 65
     0
 66
     0
 67
     3
 68
     1
 69
     1
 70
     0
 71
     0
 72
     0
 40
0.0
170
     2
340
1610
  0
DICTIONARY
  5
165C
102
{ACAD_REACTORS
330
C
102
}
330
C
100
AcDbDictionary
281
     1
  0
DICTIONARY
  5
6DD
102
{ACAD_REACTORS
330
C
102
}
330
C
100
AcDbDictionary
281
     1
  3
CTABLESTYLE
350
6DE
  3
DIMASSOC
350
1653
  3
PROJECTNAME
350
1654
  0
DICTIONARY
  5
B5D
102
{ACAD_REACTORS
330
6EB
102
}
330
6EB
100
AcDbDictionary
281
     1
  0
DICTIONARY
  5
AA0
102
{ACAD_REACTORS
330
6EB
102
}
330
6EB
100
AcDbDictionary
281
     1
  0
DICTIONARY
  5
B5C
102
{ACAD_REACTORS
330
6EB
102
}
330
6EB
100
AcDbDictionary
281
     1
1001
ACAD
1000
<All
  0
SORTENTSTABLE
  5
434
102
{ACAD_REACTORS
330
433
102
}
330
433
100
AcDbSortentsTable
330
22
331
1CD
  5
1D9
331
2BB
  5
2DA
331
B74
  5
1D3
331
1E5
  5
1FA
331
214
  5
232
331
2C3
  5
2E2
331
7A7
  5
B89
331
C81
  5
DEF
331
1176
  5
117E
331
11B5
  5
11BD
331
11EC
  5
11F4
331
196
  5
196
331
21C
  5
2B6
331
2CB
  5
2F9
331
C4A
  5
C75
331
C89
  5
E1C
331
117E
  5
1186
331
11BD
  5
11C5
331
11F4
  5
11FC
331
C52
  5
C7D
331
CD9
  5
E2C
331
E30
  5
E8F
331
1590
  5
1606
331
11C5
  5
11CD
331
114F
  5
1157
331
1186
  5
118E
331
11FC
  5
1204
331
B8C
  5
BD5
331
C5A
  5
C85
331
15EF
  5
21A
331
118E
  5
1196
331
1204
  5
120C
331
1B6
  5
1B9
331
1ED
  5
203
331
6D2
  5
AED
331
CE1
  5
C0A
331
1F5
  5
20B
331
7BF
  5
B8A
331
C62
  5
C55
331
1157
  5
115F
331
1196
  5
119E
331
11CD
  5
11D5
331
120C
  5
1214
331
1C6
  5
1D0
331
C6A
  5
C87
331
E70
  5
114E
331
115F
  5
1167
331
119E
  5
11A6
331
11D5
  5
11DD
331
1214
  5
121C
331
2F3
  5
81D
331
BCC
  5
BE4
331
C72
  5
CDB
331
EA8
  5
114F
331
1167
  5
116F
331
11A6
  5
11AE
331
11DD
  5
11E5
331
121C
  5
1441
331
C3B
  5
C63
331
C7A
  5
CE3
331
1607
  5
306
331
116F
  5
1177
331
11AE
  5
11B6
331
11E5
  5
11ED
331
1354
  5
158C
331
1CE
  5
1DA
331
20D
  5
225
331
2BC
  5
2DB
331
1E6
  5
1FB
331
215
  5
233
331
2C4
  5
2E3
331
C43
  5
C6B
331
C82
  5
DF0
331
1177
  5
117F
331
11B6
  5
11BE
331
11ED
  5
11F5
331
B7D
  5
19F
331
197
  5
197
331
21D
  5
2B7
331
2CC
  5
2FA
331
751
  5
AF9
331
BE4
  5
C39
331
C4B
  5
C76
331
C8A
  5
E2A
331
117F
  5
1187
331
11BE
  5
11C6
331
11F5
  5
11FD
331
B85
  5
B94
331
BEC
  5
C4A
331
C53
  5
C7E
331
1591
  5
1607
331
11C6
  5
11CE
331
1187
  5
118F
331
11FD
  5
1205
331
B8D
  5
BD6
331
C5B
  5
C86
331
E39
  5
114D
331
118F
  5
1197
331
1205
  5
120D
331
1B7
  5
1BA
331
1EE
  5
204
331
1150
  5
1158
331
CE2
  5
C07
331
C63
  5
C58
331
1BF
  5
1C3
331
1F6
  5
20C
331
C0C
  5
C5C
331
15F0
  5
222
331
1158
  5
1160
331
1197
  5
119F
331
11CE
  5
11D6
331
120D
  5
1215
331
1C7
  5
1D1
331
2EC
  5
603
331
B26
  5
B90
331
C14
  5
C5F
331
C6B
  5
C88
331
1160
  5
1168
331
119F
  5
11A7
331
11D6
  5
11DE
331
1215
  5
121D
331
206
  5
21D
331
2F4
  5
81E
331
BCD
  5
BE6
331
C73
  5
CDC
331
EA9
  5
1150
331
1168
  5
1170
331
11A7
  5
11AF
331
11DE
  5
11E6
331
121D
  5
1442
331
BD5
  5
C0C
331
C3C
  5
C64
331
C7B
  5
CE4
331
11AF
  5
11B7
331
11E6
  5
11EE
331
1355
  5
158D
331
1CF
  5
1DC
331
7A1
  5
228
331
20E
  5
226
331
2BD
  5
2DC
331
1170
  5
1178
331
1E7
  5
1FC
331
216
  5
234
331
2C5
  5
2E4
331
7F0
  5
B8C
331
BDD
  5
C18
331
C44
  5
C6E
331
C83
  5
DF1
331
1178
  5
1180
331
11B7
  5
11BF
331
11EE
  5
11F6
331
2CD
  5
2FB
331
BE5
  5
C3D
331
C4C
  5
C77
331
1149
  5
1151
331
1180
  5
1188
331
11BF
  5
11C7
331
11F6
  5
11FE
331
B86
  5
BC8
331
BED
  5
C53
331
C54
  5
C7F
331
CDB
  5
E2D
331
E32
  5
EA8
331
11C7
  5
11CF
331
1188
  5
1190
331
11FE
  5
1206
331
B8E
  5
BD8
331
C5C
  5
C57
331
1206
  5
120E
331
198
  5
198
331
2DD
  5
2FC
331
1151
  5
1159
331
1190
  5
1198
331
1F7
  5
20D
331
2E5
  5
42F
331
CE3
  5
BFD
331
1159
  5
1161
331
1198
  5
11A0
331
11CF
  5
11D7
331
120E
  5
1216
331
2ED
  5
605
331
C15
  5
C5E
331
1161
  5
1169
331
11A0
  5
11A8
331
11D7
  5
11DF
331
1216
  5
1354
331
207
  5
21E
331
2B6
  5
2D5
331
2F5
  5
820
331
BCE
  5
BE7
331
C74
  5
CDD
331
1169
  5
1171
331
11A8
  5
11B0
331
11DF
  5
11E7
331
BD6
  5
C0D
331
C3D
  5
C65
331
C7C
  5
CE5
331
11E7
  5
11EF
331
1C8
  5
1D2
331
1D0
  5
1DD
331
7A2
  5
229
331
20F
  5
227
331
2BE
  5
2DD
331
1171
  5
1179
331
11B0
  5
11B8
331
2C6
  5
2E5
331
217
  5
235
331
B77
  5
B91
331
C45
  5
C6F
331
C84
  5
DF2
331
E1B
  5
E36
331
1179
  5
1181
331
11B8
  5
11C0
331
11EF
  5
11F7
331
B7F
  5
B92
331
BE6
  5
C45
331
C4D
  5
C78
331
11C0
  5
11C8
331
114A
  5
1152
331
1181
  5
1189
331
11F7
  5
11FF
331
BEE
  5
C56
331
C55
  5
C80
331
CDC
  5
E2E
331
E33
  5
1051
331
1189
  5
1191
331
11FF
  5
1207
331
B8F
  5
BD9
331
C5D
  5
C54
331
1207
  5
120F
331
199
  5
199
331
1E8
  5
1FD
331
1F0
  5
206
331
22F
  5
2CF
331
2DE
  5
2FD
331
76B
  5
B87
331
1152
  5
115A
331
1191
  5
1199
331
11C8
  5
11D0
331
CE4
  5
BEF
331
2E6
  5
5F6
331
C0E
  5
C5D
331
115A
  5
1162
331
1199
  5
11A1
331
11D0
  5
11D8
331
120F
  5
1217
331
200
  5
216
331
2EE
  5
606
331
78B
  5
B88
331
BC7
  5
BDA
331
1162
  5
116A
331
11A1
  5
11A9
331
11D8
  5
11E0
331
1217
  5
1355
331
2B7
  5
2D6
331
2F6
  5
82F
331
BCF
  5
BE8
331
C75
  5
CDE
331
116A
  5
1172
331
11A9
  5
11B1
331
11E0
  5
11E8
331
BD7
  5
C0E
331
C3E
  5
C68
331
C7D
  5
CE6
331
208
  5
21F
331
7A3
  5
22A
331
210
  5
22E
331
2BF
  5
2DE
331
744
  5
AF8
331
1172
  5
117A
331
11B1
  5
11B9
331
11E8
  5
11F0
331
192
  5
192
331
218
  5
236
331
2C7
  5
2E6
331
BDF
  5
C1A
331
C46
  5
C71
331
117A
  5
1182
331
11B9
  5
11C1
331
11F0
  5
11F8
331
1427
  5
158E
331
BE7
  5
C47
331
C4E
  5
C79
331
E2C
  5
E37
331
15DB
  5
1FE
331
158C
  5
15EF
331
11C1
  5
11C9
331
114B
  5
1153
331
1182
  5
118A
331
11F8
  5
1200
331
B88
  5
BD0
331
BEF
  5
C59
331
C56
  5
C81
331
CDD
  5
E2F
331
E34
  5
1149
331
118A
  5
1192
331
1200
  5
1208
331
C5E
  5
C4B
331
1B2
  5
1B5
331
B90
  5
1ED
331
1F1
  5
207
331
2DF
  5
2FE
331
1153
  5
115B
331
1192
  5
119A
331
11C9
  5
11D1
331
1208
  5
1210
331
1C2
  5
1C9
331
238
  5
2D3
331
2E7
  5
5FD
331
725
  5
AF2
331
CE5
  5
BDD
331
115B
  5
1163
331
119A
  5
11A2
331
11D1
  5
11D9
331
1210
  5
1218
331
201
  5
217
331
2EF
  5
607
331
C6E
  5
C89
331
1163
  5
116B
331
11A2
  5
11AA
331
11D9
  5
11E1
331
1218
  5
1427
331
2F7
  5
A8A
331
BD0
  5
BE9
331
C76
  5
CDF
331
1603
  5
430
331
116B
  5
1173
331
11AA
  5
11B2
331
11E1
  5
11E9
331
C3F
  5
C69
331
C7E
  5
CE7
331
1CA
  5
1D6
331
209
  5
220
331
2B8
  5
2D7
331
7A4
  5
22B
331
211
  5
22F
331
2C0
  5
2DF
331
A8A
  5
B8F
331
BD8
  5
C12
331
1173
  5
117B
331
11B2
  5
11BA
331
11E9
  5
11F1
331
B79
  5
1EE
331
193
  5
193
331
219
  5
237
331
2C8
  5
2E7
331
706
  5
AF0
331
BE0
  5
C1B
331
C47
  5
C72
331
117B
  5
1183
331
11BA
  5
11C2
331
11F1
  5
11F9
331
1428
  5
158F
331
B81
  5
1EC
331
BE8
  5
C48
331
C4F
  5
C7A
331
E2D
  5
E39
331
15DC
  5
2D0
331
158D
  5
15F0
331
1440
  5
1591
331
11C2
  5
11CA
331
114C
  5
1154
331
1183
  5
118B
331
11F9
  5
1201
331
B89
  5
BD1
331
C57
  5
C82
331
CDE
  5
E30
331
E35
  5
114A
331
118B
  5
1193
331
1201
  5
1209
331
C5F
  5
C5A
331
1B3
  5
1B6
331
1EA
  5
200
331
B91
  5
1F0
331
1F2
  5
208
331
231
  5
2D1
331
2E0
  5
2FF
331
1154
  5
115C
331
1193
  5
119B
331
11CA
  5
11D2
331
1209
  5
1211
331
1FA
  5
210
331
1C3
  5
1CE
331
239
  5
2D4
331
2E8
  5
5FE
331
CE6
  5
BDF
331
115C
  5
1164
331
119B
  5
11A3
331
11D2
  5
11DA
331
1211
  5
1219
331
202
  5
218
331
2F0
  5
608
331
7CC
  5
B8B
331
BC9
  5
BDB
331
C6F
  5
C8A
331
1164
  5
116C
331
11A3
  5
11AB
331
11DA
  5
11E2
331
1219
  5
1428
331
BD1
  5
BEA
331
C77
  5
CE0
331
1604
  5
604
331
116C
  5
1174
331
11AB
  5
11B3
331
11E2
  5
11EA
331
C7F
  5
CE8
331
1CB
  5
1D7
331
1D3
  5
1E6
331
20A
  5
221
331
2B9
  5
2D8
331
2F8
  5
AEB
331
7A5
  5
22C
331
212
  5
230
331
2C1
  5
2E0
331
BD9
  5
C13
331
C40
  5
C6A
331
1174
  5
117C
331
11B3
  5
11BB
331
11EA
  5
11F2
331
B7A
  5
1D4
331
21A
  5
238
331
2C9
  5
2E8
331
C48
  5
C73
331
C87
  5
E0F
331
117C
  5
1184
331
11BB
  5
11C3
331
11F2
  5
11FA
331
1429
  5
1590
331
B82
  5
1A0
331
C50
  5
C7B
331
E2E
  5
E70
331
158E
  5
1603
331
1441
  5
15DB
331
11C3
  5
11CB
331
114D
  5
1155
331
1184
  5
118C
331
11FA
  5
1202
331
B8A
  5
1CF
331
75E
  5
AFE
331
C58
  5
C83
331
CDF
  5
E32
331
E36
  5
114B
331
118C
  5
1194
331
1202
  5
120A
331
1B4
  5
1B7
331
1EB
  5
201
331
B92
  5
1C5
331
1F3
  5
209
331
2E1
  5
300
331
C60
  5
C5B
331
1155
  5
115D
331
1194
  5
119C
331
11CB
  5
11D3
331
120A
  5
1212
331
1FB
  5
211
331
2E9
  5
5FF
331
CE7
  5
BE0
331
115D
  5
1165
331
119C
  5
11A4
331
11D3
  5
11DB
331
1212
  5
121A
331
203
  5
219
331
2F1
  5
609
331
6F0
  5
AEE
331
737
  5
AF3
331
BCA
  5
BDC
331
1165
  5
116D
331
11A4
  5
11AC
331
11DB
  5
11E3
331
121A
  5
1429
331
C39
  5
C61
331
C78
  5
CE1
331
DEF
  5
E34
331
116D
  5
1175
331
11AC
  5
11B4
331
11E3
  5
11EB
331
1CC
  5
1D8
331
1D4
  5
1E9
331
20B
  5
223
331
2BA
  5
2D9
331
2F9
  5
AEC
331
7A6
  5
22D
331
213
  5
231
331
2C2
  5
2E1
331
BDA
  5
C15
331
C80
  5
DE4
331
1175
  5
117D
331
11B4
  5
11BC
331
11EB
  5
11F3
331
B7B
  5
1CD
331
21B
  5
239
331
2CA
  5
2F8
331
C49
  5
C74
331
C88
  5
E1B
331
117D
  5
1185
331
11BC
  5
11C4
331
11F3
  5
11FB
331
223
  5
2C8
331
7FD
  5
B8E
331
B83
  5
B93
331
BEA
  5
C49
331
C51
  5
C7C
331
E2F
  5
E86
331
158F
  5
1604
331
1442
  5
15DC
331
11C4
  5
11CC
331
114E
  5
1156
331
1185
  5
118D
331
11FB
  5
1203
331
B8B
  5
BD4
331
C59
  5
C84
331
E37
  5
114C
331
118D
  5
1195
331
1203
  5
120B
331
19D
  5
19E
331
1B5
  5
1B8
331
1EC
  5
202
331
718
  5
AF1
331
B93
  5
1C2
331
1F4
  5
20A
331
1BD
  5
1C0
331
233
  5
2D2
331
2E2
  5
301
331
C61
  5
C52
331
CE0
  5
E33
331
1156
  5
115E
331
1195
  5
119D
331
11CC
  5
11D4
331
120B
  5
1213
331
1FC
  5
215
331
CE8
  5
BE1
331
115E
  5
1166
331
119D
  5
11A5
331
11D4
  5
11DC
331
1213
  5
121B
331
204
  5
21B
331
2F2
  5
7F0
331
C1A
  5
C60
331
C71
  5
CDA
331
1166
  5
116E
331
11A5
  5
11AD
331
11DC
  5
11E4
331
121B
  5
1440
331
C3A
  5
C62
331
C79
  5
CE2
331
DF0
  5
E35
331
1606
  5
602
331
116E
  5
1176
331
11AD
  5
11B5
331
11E4
  5
11EC
  0
GROUP
  5
88C
102
{ACAD_REACTORS
330
D
102
}
330
D
100
AcDbGroup
300

 70
     0
 71
     1
340
1D0
340
1CF
340
1CE
340
1CD
340
1CC
340
1CA
340
1C8
340
1C6
340
1C2
340
1C7
340
1C3
340
1BF
340
1B7
340
1CB
340
19D
340
1D4
340
1BD
340
1D3
340
1B3
340
1B2
340
1B6
340
1B5
340
1B4
340
B83
340
B7F
340
B7D
340
B81
340
B82
340
B90
340
B7B
340
B8A
340
B8F
340
B8E
340
B8B
340
B8D
340
B8C
340
B93
340
B88
340
B86
340
B85
340
B89
340
B92
340
B91
340
B79
340
B7A
340
B74
340
B77
340
BEA
340
CDF
340
CDE
340
CDD
340
CDC
340
CDB
340
CD9
340
CE0
  0
GROUP
  5
866
102
{ACAD_REACTORS
330
D
102
}
330
D
100
AcDbGroup
300

 70
     0
 71
     1
340
C8A
340
C89
340
C88
340
C87
340
C84
340
C83
340
C82
340
C81
340
C80
340
C7F
340
C7E
340
C7D
340
C7C
340
C7B
340
C7A
340
C79
340
C78
340
C77
340
C76
340
C75
340
C74
340
C73
340
C72
340
C71
340
C6F
340
C6E
340
C6B
340
C6A
340
C5B
340
C5A
340
C59
340
C58
340
C57
340
C56
340
C55
340
C54
340
C53
340
C52
340
C51
340
C50
340
C4F
340
C4E
340
C4D
340
C4C
340
C4B
340
C4A
340
C49
340
C48
340
C47
340
C46
340
C45
340
C44
340
C43
340
C40
340
C3F
340
C3E
340
C3D
340
C3C
340
C3B
340
C3A
340
C39
340
C1A
340
C14
340
C15
340
C0E
340
C0C
340
C60
340
C5F
340
BEF
340
C63
340
C5C
340
BEE
340
C62
340
C5D
340
BED
340
C61
340
C5E
340
BEC
  0
GROUP
  5
88E
102
{ACAD_REACTORS
330
D
102
}
330
D
100
AcDbGroup
300

 70
     0
 71
     1
340
21D
340
21C
340
21A
340
219
340
218
340
217
340
215
340
214
340
213
340
212
340
211
340
210
340
7A5
340
7A4
340
7A3
340
7A2
340
7A1
340
20F
340
20B
340
20A
340
208
340
204
340
203
340
21B
340
216
340
7A6
340
207
340
206
340
20E
340
20D
340
202
340
209
340
15F0
340
15EF
340
199
340
198
  0
GROUP
  5
891
102
{ACAD_REACTORS
330
D
102
}
330
D
100
AcDbGroup
300

 70
     0
 71
     1
340
1E8
340
1E7
340
1E6
340
1EE
340
1ED
340
1EC
340
1EB
340
1FC
340
1FB
340
1F7
340
1F5
340
1F4
340
1F3
340
1F2
340
1F1
340
1FA
340
1F6
340
1F0
340
1E5
340
233
340
201
340
200
340
6D2
340
231
340
22F
340
1EA
340
E36
340
E35
340
E34
340
E33
340
E32
340
E37
340
15DC
340
15DB
  0
GROUP
  5
88D
102
{ACAD_REACTORS
330
D
102
}
330
D
100
AcDbGroup
300

 70
     0
 71
     1
340
2E7
340
2E6
340
2E5
340
2E1
340
2E0
340
2DF
340
2E2
340
2ED
340
2EC
340
2E9
340
2E8
340
1604
340
1606
340
1603
340
1607
  0
LAYOUT
  5
25
102
{ACAD_XDICTIONARY
360
165F
102
}
102
{ACAD_REACTORS
330
19
102
}
330
19
100
AcDbPlotSettings
  1

  2
FUJIFILM Apeos C3570.pc3
  4
A3
  6

 40
4.900083065032958
 41
4.857729434967041
 42
4.900054931640625
 43
4.90008544921875
 44
297.0106506347656
 45
419.9889831542968
 46
0.0
 47
0.0
 48
15115.13735727354
 49
8.122550087705349
140
25190.13735727355
141
7008.122550087707
142
1.0
143
24.55932356989086
 70
 11952
 72
     1
 73
     1
 74
     4
  7
monochrome.ctb
 75
     0
147
0.0407177338233361
148
-15115.13735727354
149
-8.122550087705349
100
AcDbLayout
  1
Model
 70
     1
 71
     0
 10
0.0
 20
0.0
 11
12.0
 21
9.0
 12
0.0
 22
0.0
 32
0.0
 14
0.0
 24
0.0
 34
0.0
 15
0.0
 25
0.0
 35
0.0
146
0.0
 13
0.0
 23
0.0
 33
0.0
 16
1.0
 26
0.0
 36
0.0
 17
0.0
 27
1.0
 37
0.0
 76
     0
330
22
1001
ACAD_PSEXT
1000
FUJIFILM Apeos C3570.pc3
1000
FF Apeos C3570
1000
192.168.8.53
1000

1070
     0
  0
LAYOUT
  5
21
102
{ACAD_XDICTIONARY
360
165D
102
}
102
{ACAD_REACTORS
330
19
102
}
330
19
100
AcDbPlotSettings
  1

  2
DocuCentre-II C2200
  4

  6

 40
0.0
 41
0.0
 42
0.0
 43
0.0
 44
0.0
 45
0.0
 46
0.0
 47
0.0
 48
0.0
 49
0.0
140
0.0
141
0.0
142
1.0
143
1.0
 70
   688
 72
     0
 73
     0
 74
     5
  7
monochrome.ctb
 75
    16
147
1.0
148
0.0
149
0.0
100
AcDbLayout
  1
レイアウト1
 70
     1
 71
     1
 10
-144.1413879394531
 20
-67.9833984375
 11
277.8586120605469
 21
231.0166015625
 12
0.0
 22
0.0
 32
0.0
 14
-144.1413879394531
 24
-67.9833984375
 34
0.0
 15
277.8586120605469
 25
231.0166015625
 35
0.0
146
0.0
 13
0.0
 23
0.0
 33
0.0
 16
1.0
 26
0.0
 36
0.0
 17
0.0
 27
1.0
 37
0.0
 76
     0
330
1E
  0
MLINESTYLE
  5
17
102
{ACAD_REACTORS
330
16
102
}
330
16
100
AcDbMlineStyle
  2
STANDARD
 70
     0
  3

 62
   256
 51
90.0
 52
90.0
 71
     2
 49
0.5
 62
   256
  6
BYLAYER
 49
-0.5
 62
   256
  6
BYLAYER
  0
ACDBPLACEHOLDER
  5
F
102
{ACAD_REACTORS
330
E
102
}
330
E
  0
TABLESTYLE
  5
1D
102
{ACAD_REACTORS
330
1C
102
}
330
1C
100
AcDbTableStyle
  3
Standard
 70
     0
 71
     0
 40
0.06
 41
0.06
280
     0
281
     0
  7
STANDARD
140
0.18
170
     2
 62
     0
 63
     7
283
     0
274
    -2
284
     1
 64
     0
275
    -2
285
     1
 65
     0
276
    -2
286
     1
 66
     0
277
    -2
287
     1
 67
     0
278
    -2
288
     1
 68
     0
279
    -2
289
     1
 69
     0
  7
STANDARD
140
0.25
170
     5
 62
     0
 63
     7
283
     0
274
    -2
284
     1
 64
     0
275
    -2
285
     1
 65
     0
276
    -2
286
     1
 66
     0
277
    -2
287
     1
 67
     0
278
    -2
288
     1
 68
     0
279
    -2
289
     1
 69
     0
  7
STANDARD
140
0.18
170
     5
 62
     0
 63
     7
283
     0
274
    -2
284
     1
 64
     0
275
    -2
285
     1
 65
     0
276
    -2
286
     1
 66
     0
277
    -2
287
     1
 67
     0
278
    -2
288
     1
 68
     0
279
    -2
289
     1
 69
     0
  0
TABLESTYLE
  5
106D
102
{ACAD_REACTORS
330
1C
102
}
330
1C
100
AcDbTableStyle
  3
Standard
 70
     0
 71
     0
 40
1.0
 41
1.0
280
     1
281
     1
  7
STANDARD
140
3.0
170
     5
 62
     0
 63
     7
283
     0
274
    -2
284
     1
 64
     0
275
    -2
285
     1
 65
     0
276
    -2
286
     1
 66
     0
277
    -2
287
     1
 67
     0
278
    -2
288
     1
 68
     0
279
    -2
289
     1
 69
     0
  7
STANDARD
140
6.0
170
     5
 62
     0
 63
     7
283
     0
274
    -2
284
     1
 64
     0
275
    -2
285
     1
 65
     0
276
    -2
286
     1
 66
     0
277
    -2
287
     1
 67
     0
278
    -2
288
     1
 68
     0
279
    -2
289
     1
 69
     0
  7
STANDARD
140
4.5
170
     5
 62
     0
 63
     7
283
     0
274
    -2
284
     1
 64
     0
275
    -2
285
     1
 65
     0
276
    -2
286
     1
 66
     0
277
    -2
287
     1
 67
     0
278
    -2
288
     1
 68
     0
279
    -2
289
     1
 69
     0
  0
DICTIONARYVAR
  5
6DE
102
{ACAD_REACTORS
330
6DD
102
}
330
6DD
100
DictionaryVariables
280
     0
  1
STANDARD
  0
DICTIONARYVAR
  5
1653
102
{ACAD_REACTORS
330
6DD
102
}
330
6DD
100
DictionaryVariables
280
     0
  1
1
  0
DICTIONARYVAR
  5
1654
102
{ACAD_REACTORS
330
6DD
102
}
330
6DD
100
DictionaryVariables
280
     0
  1

  0
DICTIONARY
  5
165F
330
25
100
AcDbDictionary
280
     1
281
     1
  3
ACAD_XREC_ROUNDTRIP
360
1660
  0
DICTIONARY
  5
165D
330
21
100
AcDbDictionary
280
     1
281
     1
  3
ACAD_XREC_ROUNDTRIP
360
165E
  0
XRECORD
  5
1660
102
{ACAD_REACTORS
330
165F
102
}
330
165F
100
AcDbXrecord
280
     1
102
SHADEPLOT
 70
     0
102
SHADEPLOTRESLEVEL
 70
     2
102
SHADEPLOTCUSTOMDPI
 70
   300
  0
XRECORD
  5
165E
102
{ACAD_REACTORS
330
165D
102
}
330
165D
100
AcDbXrecord
280
     1
102
SHADEPLOT
 70
     0
102
SHADEPLOTRESLEVEL
 70
     2
102
SHADEPLOTCUSTOMDPI
 70
   300
  0
ENDSEC
  0
EOF
