  0
SECTION
  2
HEADER
  9
$ACADVER
  1
AC1006
  9
$DWGCODEPAGE
  3
ansi_932
  9
$INSBASE
 10
0.0
 20
0.0
 30
0.0
  9
$EXTMIN
 10
19809.718626169
 20
-7273.551670560858
  9
$EXTMAX
 10
47687.95321643585
 20
2793.818542709043
  9
$LIMMIN
 10
-144.1413879394531
 20
-67.9833984375
  9
$LIMMAX
 10
277.8586120605469
 20
231.0166015625
  9
$ORTHOMODE
 70
     0
  9
$REGENMODE
 70
     1
  9
$FILLMODE
 70
     1
  9
$QTEXTMODE
 70
     0
  9
$MIRRTEXT
 70
     0
  9
$DRAGMODE
 70
     2
  9
$LTSCALE
 40
25.0
  9
$OSMODE
 70
    37
  9
$ATTMODE
 70
     1
  9
$TEXTSIZE
 40
75.0
  9
$TRACEWID
 40
0.05
  9
$TEXTSTYLE
  7
STANDARD
  9
$CLAYER
  8
0
  9
$CELTYPE
  6
BYLAYER
  9
$CECOLOR
 62
   256
  9
$DIMSCALE
 40
25.0
  9
$DIMASZ
 40
3.0
  9
$DIMEXO
 40
2.0
  9
$DIMDLI
 40
0.38
  9
$DIMRND
 40
0.0
  9
$DIMDLE
 40
0.0
  9
$DIMEXE
 40
3.0
  9
$DIMTP
 40
0.0
  9
$DIMTM
 40
0.0
  9
$DIMTXT
 40
3.0
  9
$DIMCEN
 40
0.09
  9
$DIMTSZ
 40
0.0
  9
$DIMTOL
 70
     0
  9
$DIMLIM
 70
     0
  9
$DIMTIH
 70
     0
  9
$DIMTOH
 70
     0
  9
$DIMSE1
 70
     0
  9
$DIMSE2
 70
     0
  9
$DIMTAD
 70
     1
  9
$DIMZIN
 70
     8
  9
$DIMBLK
  1
OPEN30
  9
$DIMASO
 70
     1
  9
$DIMSHO
 70
     0
  9
$DIMPOST
  1

  9
$DIMAPOST
  1

  9
$DIMALT
 70
     0
  9
$DIMALTD
 70
     3
  9
$DIMALTF
 40
0.03937007874016
  9
$DIMLFAC
 40
1.0
  9
$DIMTOFL
 70
     1
  9
$DIMTVP
 40
0.0
  9
$DIMTIX
 70
     0
  9
$DIMSOXD
 70
     0
  9
$DIMSAH
 70
     0
  9
$DIMBLK1
  1

  9
$DIMBLK2
  1

  9
$LUNITS
 70
     2
  9
$LUPREC
 70
     4
  9
$SKETCHINC
 40
0.1
  9
$FILLETRAD
 40
0.0
  9
$AUNITS
 70
     0
  9
$AUPREC
 70
     0
  9
$MENU
  1
.
  9
$ELEVATION
 40
0.0
  9
$THICKNESS
 40
0.0
  9
$LIMCHECK
 70
     0
  9
$CHAMFERA
 40
0.0
  9
$CHAMFERB
 40
0.0
  9
$SKPOLY
 70
     0
  9
$TDCREATE
 40
2454617.14625669
  9
$TDUPDATE
 40
2459716.332535637
  9
$TDINDWG
 40
0.5367067593
  9
$TDUSRTIMER
 40
0.5367067593
  9
$USRTIMER
 70
     1
  9
$ANGBASE
 50
0.0
  9
$ANGDIR
 70
     0
  9
$PDMODE
 70
     0
  9
$PDSIZE
 40
0.0
  9
$PLINEWID
 40
0.0
  9
$COORDS
 70
     1
  9
$SPLFRAME
 70
     0
  9
$SPLINETYPE
 70
     6
  9
$SPLINESEGS
 70
     8
  9
$ATTDIA
 70
     0
  9
$ATTREQ
 70
     1
  9
$HANDLING
 70
     1
  9
$HANDSEED
  5
4083
  9
$SURFTAB1
 70
     6
  9
$SURFTAB2
 70
     6
  9
$SURFTYPE
 70
     6
  9
$SURFU
 70
     6
  9
$SURFV
 70
     6
  9
$UCSNAME
  2

  9
$UCSORG
 10
0.0
 20
0.0
 30
0.0
  9
$UCSXDIR
 10
1.0
 20
0.0
 30
0.0
  9
$UCSYDIR
 10
0.0
 20
1.0
 30
0.0
  9
$USERI1
 70
     0
  9
$USERI2
 70
     0
  9
$USERI3
 70
     0
  9
$USERI4
 70
     0
  9
$USERI5
 70
     0
  9
$USERR1
 40
0.0
  9
$USERR2
 40
0.0
  9
$USERR3
 40
0.0
  9
$USERR4
 40
0.0
  9
$USERR5
 40
0.0
  9
$WORLDVIEW
 70
     1
  0
ENDSEC
  0
SECTION
  2
TABLES
  0
TABLE
  2
VPORT
 70
     1
  0
VPORT
  2
*ACTIVE
 70
     0
 10
0.0
 20
0.0
 11
1.0
 21
1.0
 12
48374.27664165998
 22
-4988.392732097229
 13
0.0
 23
0.0
 14
1.0
 24
1.0
 15
0.0
 25
0.0
 16
0.0
 26
0.0
 36
1.0
 17
0.0
 27
0.0
 37
0.0
 40
3017.861044551151
 41
2.786026200873363
 42
50.0
 43
0.0
 44
0.0
 50
0.0
 51
0.0
 71
     0
 72
  1000
 73
     1
 74
     1
 75
     0
 76
     0
 77
     0
 78
     0
  0
ENDTAB
  0
TABLE
  2
LTYPE
 70
     5
  0
LTYPE
  2
CONTINUOUS
 70
     0
  3
Solid line
 72
    65
 73
     0
 40
0.0
  0
LTYPE
  2
CENTER
 70
     0
  3
Center ____ _ ____ _ ____ _ ____ _ ____ _ ____
 72
    65
 73
     4
 40
12.0
 49
7.5
 49
-1.5
 49
1.5
 49
-1.5
  0
LTYPE
  2
PHANTOM
 70
     0
  3
Phantom ______  __  __  ______  __  __  ______
 72
    65
 73
     6
 40
63.5
 49
31.75
 49
-6.35
 49
6.35
 49
-6.35
 49
6.35
 49
-6.35
  0
LTYPE
  2
DASHED
 70
     0
  3
Dashed __ __ __ __ __ __ __ __ __ __ __ __ __ _
 72
    65
 73
     2
 40
4.5
 49
3.0
 49
-1.5
  0
LTYPE
  2
CENTER2
 70
     0
  3
___ _ ___ _ ___ _ ___ _ ___ _ ___ _ ___ _ ___ _
 72
    65
 73
     4
 40
1.125
 49
0.75
 49
-0.125
 49
0.125
 49
-0.125
  0
ENDTAB
  0
TABLE
  2
LAYER
 70
    15
  0
LAYER
  2
0
 70
     0
 62
     7
  6
CONTINUOUS
  0
LAYER
  2
2
 70
     0
 62
     7
  6
CONTINUOUS
  0
LAYER
  2
DEFPOINTS
 70
     0
 62
     7
  6
CONTINUOUS
  0
LAYER
  2
寸法線
 70
     0
 62
     9
  6
CONTINUOUS
  0
LAYER
  2
細線
 70
     0
 62
     7
  6
CONTINUOUS
  0
LAYER
  2
1
 70
     0
 62
     7
  6
CONTINUOUS
  0
LAYER
  2
4
 70
     0
 62
     7
  6
CONTINUOUS
  0
LAYER
  2
LY_1
 70
     0
 62
     7
  6
CONTINUOUS
  0
LAYER
  2
PV0001_8
 70
     0
 62
     7
  6
CONTINUOUS
  0
LAYER
  2
PV0001_7
 70
     0
 62
     7
  6
CONTINUOUS
  0
LAYER
  2
LEVEL001
 70
     0
 62
     7
  6
CONTINUOUS
  0
LAYER
  2
TP1791_20
 70
     0
 62
     7
  6
CONTINUOUS
  0
LAYER
  2
PV0001_12
 70
     0
 62
     7
  6
CONTINUOUS
  0
LAYER
  2
TP1791_15
 70
     0
 62
     7
  6
CONTINUOUS
  0
LAYER
  2
F00001_1
 70
     0
 62
     7
  6
CONTINUOUS
  0
ENDTAB
  0
TABLE
  2
STYLE
 70
     3
  0
STYLE
  2
STANDARD
 70
     0
 40
0.0
 41
1.0
 50
0.0
 71
     0
 42
75.0
  3
txt.shx
  4
extfont2.shx
  0
STYLE
  2
ＭＳゴシック
 70
     0
 40
0.0
 41
1.0
 50
0.0
 71
     0
 42
3.0
  3

  4

  0
STYLE
  2
STD
 70
     0
 40
0.0
 41
0.6
 50
0.0
 71
     0
 42
80.0
  3
monotxt.shx
  4
extfont2.shx
  0
ENDTAB
  0
TABLE
  2
VIEW
 70
     0
  0
ENDTAB
  0
TABLE
  2
UCS
 70
     0
  0
ENDTAB
  0
ENDSEC
  0
SECTION
  2
BLOCKS
  0
BLOCK
  8
0
  2
_OPEN30
 70
     0
 10
0.0
 20
0.0
 30
0.0
  0
LINE
  5
7FD
  8
0
  6
BYBLOCK
 62
     0
 10
-1.0
 20
0.26794919
 30
0.0
 11
0.0
 21
0.0
 31
0.0
  0
LINE
  5
7FE
  8
0
  6
BYBLOCK
 62
     0
 10
0.0
 20
0.0
 30
0.0
 11
-1.0
 21
-0.26794919
 31
0.0
  0
LINE
  5
7FF
  8
0
  6
BYBLOCK
 62
     0
 10
0.0
 20
0.0
 30
0.0
 11
-1.0
 21
0.0
 31
0.0
  0
ENDBLK
  8
0
  0
BLOCK
  8
0
  2
65Aバルブ平面図
 70
     0
 10
0.0
 20
0.0
 30
0.0
  0
LINE
  5
1564
  8
0
  6
CONTINUOUS
 10
-43.0
 20
41.0
 30
0.0
 11
-28.52123899999788
 21
41.0
 31
0.0
  0
LINE
  5
1565
  8
0
  6
CONTINUOUS
 10
-43.0
 20
29.0
 30
0.0
 11
-43.0
 21
41.0
 31
0.0
  0
LINE
  5
1566
  8
0
  6
CONTINUOUS
 10
-41.5
 20
22.5
 30
0.0
 11
-41.5
 21
26.40191699999923
 31
0.0
  0
LINE
  5
1567
  8
0
  6
CONTINUOUS
 10
-43.0
 20
29.0
 30
0.0
 11
-34.90667799999937
 21
29.0
 31
0.0
  0
LINE
  5
1568
  8
0
  6
CONTINUOUS
 10
-17.0
 20
6.363704999999754
 30
0.0
 11
-17.0
 21
9.814955000001646
 31
0.0
  0
LINE
  5
1569
  8
0
  6
CONTINUOUS
 10
-26.5
 20
6.133358999999473
 30
0.0
 11
-26.5
 21
15.29978299999857
 31
0.0
  0
LINE
  5
156A
  8
0
  6
CONTINUOUS
 10
-17.0
 20
9.814954000001308
 30
0.0
 11
-6.389382999997906
 21
15.94098999999915
 31
0.0
  0
LINE
  5
156B
  8
0
  6
CONTINUOUS
 10
-26.5
 20
15.29978599999959
 30
0.0
 11
-6.11962499999936
 21
27.06639200000063
 31
0.0
  0
ARC
  5
156C
  8
0
  6
CONTINUOUS
 10
-33.5
 20
22.5
 30
0.0
 40
8.0
 50
179.999982000092
 51
187.0636249999592
  0
ARC
  5
156D
  8
0
  6
CONTINUOUS
 10
-44.5
 20
26.40191699999923
 30
0.0
 40
3.0
 50
0.0000199998977924
 51
60.00027999987502
  0
LINE
  5
156E
  8
0
  6
CONTINUOUS
 10
43.0
 20
41.0
 30
0.0
 11
28.52123900000151
 21
41.0
 31
0.0
  0
LINE
  5
156F
  8
0
  6
CONTINUOUS
 10
43.0
 20
29.0
 30
0.0
 11
43.0
 21
41.0
 31
0.0
  0
LINE
  5
1570
  8
0
  6
CONTINUOUS
 10
41.5
 20
22.5
 30
0.0
 11
41.5
 21
26.40191699999923
 31
0.0
  0
LINE
  5
1571
  8
0
  6
CONTINUOUS
 10
43.0
 20
29.0
 30
0.0
 11
34.90667799999937
 21
29.0
 31
0.0
  0
LINE
  5
1572
  8
0
  6
CONTINUOUS
 10
17.0
 20
6.363704999999754
 30
0.0
 11
17.0
 21
9.814955000001646
 31
0.0
  0
LINE
  5
1573
  8
0
  6
CONTINUOUS
 10
26.5
 20
6.133358999999473
 30
0.0
 11
26.5
 21
15.29978299999857
 31
0.0
  0
LINE
  5
1574
  8
0
  6
CONTINUOUS
 10
17.0
 20
9.814954000001308
 30
0.0
 11
6.389383000001544
 21
15.94098999999915
 31
0.0
  0
LINE
  5
1575
  8
0
  6
CONTINUOUS
 10
26.5
 20
15.29978599999959
 30
0.0
 11
6.11962499999936
 21
27.06639200000063
 31
0.0
  0
ARC
  5
1576
  8
0
  6
CONTINUOUS
 10
33.5
 20
22.5
 30
0.0
 40
8.0
 50
352.9363750000408
 51
0.0000179999080132
  0
ARC
  5
1577
  8
0
  6
CONTINUOUS
 10
44.5
 20
26.40191699999923
 30
0.0
 40
3.0
 50
119.999720000125
 51
179.9999800001022
  0
LINE
  5
1578
  8
0
  6
CONTINUOUS
 10
-43.0
 20
-41.0
 30
0.0
 11
-28.52123900000151
 21
-41.0
 31
0.0
  0
LINE
  5
1579
  8
0
  6
CONTINUOUS
 10
-43.0
 20
-29.0
 30
0.0
 11
-43.0
 21
-41.0
 31
0.0
  0
LINE
  5
157A
  8
0
  6
CONTINUOUS
 10
-41.5
 20
-22.5
 30
0.0
 11
-41.5
 21
-26.40191699999923
 31
0.0
  0
LINE
  5
157B
  8
0
  6
CONTINUOUS
 10
-43.0
 20
-29.0
 30
0.0
 11
-34.90667799999937
 21
-29.0
 31
0.0
  0
LINE
  5
157C
  8
0
  6
CONTINUOUS
 10
-17.0
 20
-6.363704999999754
 30
0.0
 11
-17.0
 21
-9.814954999998008
 31
0.0
  0
LINE
  5
157D
  8
0
  6
CONTINUOUS
 10
-26.5
 20
-6.133358999999473
 30
0.0
 11
-26.5
 21
-15.29978299999857
 31
0.0
  0
LINE
  5
157E
  8
0
  6
CONTINUOUS
 10
-17.0
 20
-9.814954000001308
 30
0.0
 11
-6.389383000001544
 21
-15.94098999999915
 31
0.0
  0
LINE
  5
157F
  8
0
  6
CONTINUOUS
 10
-26.5
 20
-15.29978599999959
 30
0.0
 11
-6.11962499999936
 21
-27.06639200000063
 31
0.0
  0
ARC
  5
1580
  8
0
  6
CONTINUOUS
 10
-33.5
 20
-22.5
 30
0.0
 40
8.0
 50
172.9363750000408
 51
180.000017999908
  0
ARC
  5
1581
  8
0
  6
CONTINUOUS
 10
-44.5
 20
-26.40191699999923
 30
0.0
 40
3.0
 50
299.999720000125
 51
359.9999800001022
  0
LINE
  5
1582
  8
0
  6
CONTINUOUS
 10
43.0
 20
-41.0
 30
0.0
 11
28.52123900000151
 21
-41.0
 31
0.0
  0
LINE
  5
1583
  8
0
  6
CONTINUOUS
 10
43.0
 20
-29.0
 30
0.0
 11
43.0
 21
-41.0
 31
0.0
  0
LINE
  5
1584
  8
0
  6
CONTINUOUS
 10
41.5
 20
-22.5
 30
0.0
 11
41.5
 21
-26.40191699999923
 31
0.0
  0
LINE
  5
1585
  8
0
  6
CONTINUOUS
 10
43.0
 20
-29.0
 30
0.0
 11
34.90667799999937
 21
-29.0
 31
0.0
  0
LINE
  5
1586
  8
0
  6
CONTINUOUS
 10
17.0
 20
-6.363704999999754
 30
0.0
 11
17.0
 21
-9.814954999998008
 31
0.0
  0
LINE
  5
1587
  8
0
  6
CONTINUOUS
 10
26.5
 20
-6.133358999999473
 30
0.0
 11
26.5
 21
-15.29978299999857
 31
0.0
  0
LINE
  5
1588
  8
0
  6
CONTINUOUS
 10
17.0
 20
-9.814954000001308
 30
0.0
 11
6.389383000001544
 21
-15.94098999999915
 31
0.0
  0
LINE
  5
1589
  8
0
  6
CONTINUOUS
 10
26.5
 20
-15.29978599999959
 30
0.0
 11
6.11962499999936
 21
-27.06639200000063
 31
0.0
  0
ARC
  5
158A
  8
0
  6
CONTINUOUS
 10
33.5
 20
-22.5
 30
0.0
 40
8.0
 50
359.999982000092
 51
7.063624999959234
  0
ARC
  5
158B
  8
0
  6
CONTINUOUS
 10
44.5
 20
-26.40191699999923
 30
0.0
 40
3.0
 50
180.0000199998978
 51
240.000279999875
  0
CIRCLE
  5
158C
  8
0
  6
CONTINUOUS
 10
0.0
 20
0.0
 30
0.0
 40
32.0
  0
ARC
  5
158D
  8
0
  6
CONTINUOUS
 10
-39.94437399999879
 20
-12.97871400000076
 30
0.0
 40
8.0
 50
155.2494670000171
 51
240.7505330001607
  0
ARC
  5
158E
  8
0
  6
CONTINUOUS
 10
-24.68698099999892
 20
-33.97871400000076
 30
0.0
 40
8.0
 50
191.2494670000484
 51
276.7505330001021
  0
ARC
  5
158F
  8
0
  6
CONTINUOUS
 10
0.0
 20
-42.0
 30
0.0
 40
8.0
 50
227.2494669999631
 51
312.7505330000369
  0
ARC
  5
1590
  8
0
  6
CONTINUOUS
 10
-68.09669099999883
 20
0.0
 30
0.0
 40
23.0
 50
335.249467000017
 51
24.75053299998294
  0
ARC
  5
1591
  8
0
  6
CONTINUOUS
 10
-55.09138099999836
 20
-40.02623099999983
 30
0.0
 40
23.0
 50
11.24946700004833
 51
60.75053300016073
  0
ARC
  5
1592
  8
0
  6
CONTINUOUS
 10
-21.04303499999878
 20
-64.7638020000013
 30
0.0
 40
23.0
 50
47.2494669999631
 51
96.75053300010205
  0
LINE
  5
1593
  8
0
  6
CONTINUOUS
 10
-13.5436179999997
 20
-6.447511999998824
 30
0.0
 11
-30.18905000000086
 21
-6.043910000000324
 31
0.0
  0
ARC
  5
1594
  8
0
  6
CONTINUOUS
 10
-30.18905699999959
 20
-7.04420399999799
 30
0.0
 40
1.0
 50
88.61102100007285
 51
193.1341849999397
  0
LINE
  5
1595
  8
0
  6
CONTINUOUS
 10
-6.447511999998824
 20
-13.5436179999997
 30
0.0
 11
-6.043910000000324
 21
-30.18905000000086
 31
0.0
  0
ARC
  5
1596
  8
0
  6
CONTINUOUS
 10
-7.044204000001628
 20
-30.18905699999959
 30
0.0
 40
1.0
 50
256.8658150000543
 51
1.388978999929044
  0
ARC
  5
1597
  8
0
  6
CONTINUOUS
 10
-39.94437399999879
 20
12.97871400000076
 30
0.0
 40
8.0
 50
119.2494669998393
 51
204.7505329999829
  0
ARC
  5
1598
  8
0
  6
CONTINUOUS
 10
-24.68698099999892
 20
33.97871400000076
 30
0.0
 40
8.0
 50
83.24946699989796
 51
168.7505329999516
  0
ARC
  5
1599
  8
0
  6
CONTINUOUS
 10
0.0
 20
42.0
 30
0.0
 40
8.0
 50
47.2494669999631
 51
132.7505330000369
  0
ARC
  5
159A
  8
0
  6
CONTINUOUS
 10
-55.09138099999836
 20
40.02623099999983
 30
0.0
 40
23.0
 50
299.2494669998392
 51
348.7505329999517
  0
ARC
  5
159B
  8
0
  6
CONTINUOUS
 10
-21.04303499999878
 20
64.7638020000013
 30
0.0
 40
23.0
 50
263.2494669998979
 51
312.7505330000369
  0
LINE
  5
159C
  8
0
  6
CONTINUOUS
 10
-13.5436179999997
 20
6.447511999998824
 30
0.0
 11
-30.18905000000086
 21
6.043910000000324
 31
0.0
  0
ARC
  5
159D
  8
0
  6
CONTINUOUS
 10
-30.18905699999959
 20
7.044204000001628
 30
0.0
 40
1.0
 50
166.8658150000602
 51
271.3889789999271
  0
LINE
  5
159E
  8
0
  6
CONTINUOUS
 10
-6.447511999998824
 20
13.5436179999997
 30
0.0
 11
-6.043910000000324
 21
30.18905000000086
 31
0.0
  0
ARC
  5
159F
  8
0
  6
CONTINUOUS
 10
-7.04420399999799
 20
30.18905699999959
 30
0.0
 40
1.0
 50
358.611021000071
 51
103.1341849999457
  0
ARC
  5
15A0
  8
0
  6
CONTINUOUS
 10
39.94437399999879
 20
-12.97871400000076
 30
0.0
 40
8.0
 50
299.2494669998392
 51
24.75053299998294
  0
ARC
  5
15A1
  8
0
  6
CONTINUOUS
 10
24.68698099999892
 20
-33.97871400000076
 30
0.0
 40
8.0
 50
263.2494669998979
 51
348.7505329999517
  0
ARC
  5
15A2
  8
0
  6
CONTINUOUS
 10
68.09669099999883
 20
0.0
 30
0.0
 40
23.0
 50
155.2494670000171
 51
204.7505329999829
  0
ARC
  5
15A3
  8
0
  6
CONTINUOUS
 10
55.09138099999836
 20
-40.02623099999983
 30
0.0
 40
23.0
 50
119.2494669998393
 51
168.7505329999516
  0
ARC
  5
15A4
  8
0
  6
CONTINUOUS
 10
21.04303499999878
 20
-64.7638020000013
 30
0.0
 40
23.0
 50
83.24946699989796
 51
132.7505330000369
  0
LINE
  5
15A5
  8
0
  6
CONTINUOUS
 10
13.5436179999997
 20
-6.447511999998824
 30
0.0
 11
30.18905000000086
 21
-6.043910000000324
 31
0.0
  0
ARC
  5
15A6
  8
0
  6
CONTINUOUS
 10
30.18905699999959
 20
-7.04420399999799
 30
0.0
 40
1.0
 50
346.8658150000603
 51
91.38897899992715
  0
LINE
  5
15A7
  8
0
  6
CONTINUOUS
 10
6.447511999998824
 20
-13.5436179999997
 30
0.0
 11
6.043910000000324
 21
-30.18905000000086
 31
0.0
  0
ARC
  5
15A8
  8
0
  6
CONTINUOUS
 10
7.044204000001628
 20
-30.18905699999959
 30
0.0
 40
1.0
 50
178.611021000071
 51
283.1341849999457
  0
ARC
  5
15A9
  8
0
  6
CONTINUOUS
 10
39.94437399999879
 20
12.97871400000076
 30
0.0
 40
8.0
 50
335.249467000017
 51
60.75053300016073
  0
ARC
  5
15AA
  8
0
  6
CONTINUOUS
 10
24.68698099999892
 20
33.97871400000076
 30
0.0
 40
8.0
 50
11.24946700004833
 51
96.75053300010205
  0
ARC
  5
15AB
  8
0
  6
CONTINUOUS
 10
55.09138099999836
 20
40.02623099999983
 30
0.0
 40
23.0
 50
191.2494670000484
 51
240.7505330001607
  0
ARC
  5
15AC
  8
0
  6
CONTINUOUS
 10
21.04303499999878
 20
64.7638020000013
 30
0.0
 40
23.0
 50
227.2494669999631
 51
276.7505330001021
  0
LINE
  5
15AD
  8
0
  6
CONTINUOUS
 10
13.5436179999997
 20
6.447511999998824
 30
0.0
 11
30.18905000000086
 21
6.043910000000324
 31
0.0
  0
ARC
  5
15AE
  8
0
  6
CONTINUOUS
 10
30.18905699999959
 20
7.044204000001628
 30
0.0
 40
1.0
 50
268.6110210000729
 51
13.13418499993977
  0
LINE
  5
15AF
  8
0
  6
CONTINUOUS
 10
6.447511999998824
 20
13.5436179999997
 30
0.0
 11
6.043910000000324
 21
30.18905000000086
 31
0.0
  0
ARC
  5
15B0
  8
0
  6
CONTINUOUS
 10
7.044204000001628
 20
30.18905699999959
 30
0.0
 40
1.0
 50
76.86581500005431
 51
181.388978999929
  0
LINE
  5
15B1
  8
0
  6
CENTER
 62
     4
 10
-53.0
 20
0.0
 30
0.0
 11
53.0
 21
0.0
 31
0.0
  0
CIRCLE
  5
15B2
  8
0
  6
CONTINUOUS
 10
0.0
 20
0.0
 30
0.0
 40
15.0
  0
LINE
  5
15B3
  8
0
  6
CONTINUOUS
 10
0.0
 20
7.505552999999054
 30
0.0
 11
-6.5
 21
3.752777000001515
 31
0.0
  0
LINE
  5
15B4
  8
0
  6
CONTINUOUS
 10
-6.5
 20
3.752777000001515
 30
0.0
 11
-6.5
 21
-3.752777000001515
 31
0.0
  0
LINE
  5
15B5
  8
0
  6
CONTINUOUS
 10
-6.5
 20
-3.752777000001515
 30
0.0
 11
0.0
 21
-7.505552999999054
 31
0.0
  0
LINE
  5
15B6
  8
0
  6
CONTINUOUS
 10
0.0
 20
-7.505552999999054
 30
0.0
 11
6.5
 21
-3.752777000001515
 31
0.0
  0
LINE
  5
15B7
  8
0
  6
CONTINUOUS
 10
6.5
 20
-3.752777000001515
 30
0.0
 11
6.5
 21
3.752777000001515
 31
0.0
  0
LINE
  5
15B8
  8
0
  6
CONTINUOUS
 10
6.5
 20
3.752777000001515
 30
0.0
 11
0.0
 21
7.505552999999054
 31
0.0
  0
CIRCLE
  5
15B9
  8
0
  6
CONTINUOUS
 10
0.0
 20
0.0
 30
0.0
 40
6.25
  0
CIRCLE
  5
15BA
  8
0
  6
CONTINUOUS
 10
0.0
 20
0.0
 30
0.0
 40
3.2
  0
CIRCLE
  5
15BB
  8
0
  6
CONTINUOUS
 10
0.0
 20
0.0
 30
0.0
 40
4.0
  0
ENDBLK
  8
0
  0
BLOCK
  8
0
  2
65Aバルブ側面図
 70
     0
 10
0.0
 20
0.0
 30
0.0
  0
LINE
  5
12F7
  8
0
  6
CONTINUOUS
 10
-17.0
 20
151.2999999999997
 30
0.0
 11
17.0
 21
151.2999999999997
 31
0.0
  0
LINE
  5
12F8
  8
0
  6
CONTINUOUS
 10
-17.0
 20
131.2999999999997
 30
0.0
 11
17.0
 21
131.2999999999997
 31
0.0
  0
LINE
  5
12F9
  8
0
  6
CONTINUOUS
 10
6.75
 20
160.0
 30
0.0
 11
6.75
 21
151.2999999999997
 31
0.0
  0
LINE
  5
12FA
  8
0
  6
CONTINUOUS
 10
-6.75
 20
160.0
 30
0.0
 11
-6.75
 21
151.2999999999997
 31
0.0
  0
LINE
  5
12FB
  8
0
  6
CONTINUOUS
 10
-17.0
 20
151.2999999999997
 30
0.0
 11
-17.0
 21
131.2999999999997
 31
0.0
  0
LINE
  5
12FC
  8
0
  6
CONTINUOUS
 10
17.0
 20
151.2999999999997
 30
0.0
 11
17.0
 21
131.2999999999997
 31
0.0
  0
LINE
  5
12FD
  8
0
  6
CENTER
 62
     4
 10
0.0
 20
187.0
 30
0.0
 11
0.0
 21
-54.65212999999994
 31
0.0
  0
LINE
  5
12FE
  8
0
  6
CENTER
 62
     4
 10
-54.65213199999926
 20
0.0
 30
0.0
 11
54.65212999999858
 21
0.0
 31
0.0
  0
LINE
  5
12FF
  8
0
  6
CONTINUOUS
 10
-43.00000200000068
 20
24.82606499999974
 30
0.0
 11
-43.00000200000068
 21
-24.8260650000002
 31
0.0
  0
LINE
  5
1300
  8
0
  6
CONTINUOUS
 10
43.0
 20
24.82606499999974
 30
0.0
 11
43.0
 21
-24.8260650000002
 31
0.0
  0
LINE
  5
1301
  8
0
  6
CONTINUOUS
 10
-42.99998699999924
 20
-24.82607300000018
 30
0.0
 11
0.0000099999997474
 21
-49.65212999999994
 31
0.0
  0
LINE
  5
1302
  8
0
  6
CONTINUOUS
 10
4.500009999999747
 20
47.05403500000011
 30
0.0
 11
43.00000999999975
 21
24.82605400000011
 31
0.0
  0
LINE
  5
1303
  8
0
  6
CONTINUOUS
 10
0.0000099999997474
 20
-49.65211100000033
 30
0.0
 11
43.00000999999975
 21
-24.82605400000011
 31
0.0
  0
LINE
  5
1304
  8
0
  6
CONTINUOUS
 10
-42.99998699999924
 20
24.82607299999972
 30
0.0
 11
-4.247199999997974
 21
47.20000499999969
 31
0.0
  0
LINE
  5
1305
  8
0
  6
CONTINUOUS
 10
37.06440999999904
 20
62.51973700000008
 30
0.0
 11
36.76685999999972
 21
28.42470599999979
 31
0.0
  0
LINE
  5
1306
  8
0
  6
CONTINUOUS
 10
-39.00000200000068
 20
81.5
 30
0.0
 11
39.0
 21
81.5
 31
0.0
  0
LINE
  5
1307
  8
0
  6
CONTINUOUS
 10
-39.00000200000068
 20
77.0
 30
0.0
 11
39.0
 21
77.0
 31
0.0
  0
LINE
  5
1308
  8
0
  6
CONTINUOUS
 10
39.0
 20
84.84307899999976
 30
0.0
 11
39.0
 21
77.0
 31
0.0
  0
LINE
  5
1309
  8
0
  6
CONTINUOUS
 10
38.5
 20
77.0
 30
0.0
 11
38.5
 21
66.73205599999983
 31
0.0
  0
LINE
  5
130A
  8
0
  6
CONTINUOUS
 10
-37.30276700000104
 20
65.0
 30
0.0
 11
37.30275999999867
 21
65.0
 31
0.0
  0
LINE
  5
130B
  8
0
  6
CONTINUOUS
 10
-26.50000200000068
 20
87.5
 30
0.0
 11
26.5
 21
87.5
 31
0.0
  0
LINE
  5
130C
  8
0
  6
CONTINUOUS
 10
-26.50000200000068
 20
98.5
 30
0.0
 11
26.5
 21
98.5
 31
0.0
  0
LINE
  5
130D
  8
0
  6
CONTINUOUS
 10
-14.5
 20
119.0
 30
0.0
 11
14.5
 21
119.0
 31
0.0
  0
LINE
  5
130E
  8
0
  6
CONTINUOUS
 10
14.5
 20
131.2999999999997
 30
0.0
 11
14.5
 21
116.8303099999998
 31
0.0
  0
LINE
  5
130F
  8
0
  6
CONTINUOUS
 10
13.64999000000171
 20
131.2999999999997
 30
0.0
 11
13.64999000000171
 21
119.0
 31
0.0
  0
LINE
  5
1310
  8
0
  6
CONTINUOUS
 10
-13.65000000000146
 20
131.2999999999997
 30
0.0
 11
-13.65000000000146
 21
119.0
 31
0.0
  0
LINE
  5
1311
  8
0
  6
CONTINUOUS
 10
26.5
 20
98.5
 30
0.0
 11
26.5
 21
87.5
 31
0.0
  0
LINE
  5
1312
  8
0
  6
CONTINUOUS
 10
26.50003999999899
 20
87.50003100000004
 30
0.0
 11
39.0
 21
84.84307899999976
 31
0.0
  0
LINE
  5
1313
  8
0
  6
CONTINUOUS
 10
-39.00000200000068
 20
84.84300200000007
 30
0.0
 11
-39.00000200000068
 21
77.0
 31
0.0
  0
LINE
  5
1314
  8
0
  6
CONTINUOUS
 10
-14.5
 20
131.2999999999997
 30
0.0
 11
-14.5
 21
116.8303099999998
 31
0.0
  0
LINE
  5
1315
  8
0
  6
CONTINUOUS
 10
-26.50000200000068
 20
98.5
 30
0.0
 11
-26.50000200000068
 21
87.5
 31
0.0
  0
LINE
  5
1316
  8
0
  6
CONTINUOUS
 10
-26.4999710000011
 20
87.49996199999987
 30
0.0
 11
-38.99999399999797
 21
84.84300200000007
 31
0.0
  0
LINE
  5
1317
  8
0
  6
CONTINUOUS
 10
-37.06447800000024
 20
62.51980599999979
 30
0.0
 11
-36.766939000001
 21
28.42477599999984
 31
0.0
  0
LINE
  5
1318
  8
0
  6
CONTINUOUS
 10
-38.50000200000068
 20
77.0
 30
0.0
 11
-38.50000200000068
 21
66.73205599999983
 31
0.0
  0
LINE
  5
1319
  8
0
  6
CONTINUOUS
 10
-4.24721000000136
 20
47.19999699999971
 30
0.0
 11
4.24721000000136
 21
47.19999699999971
 31
0.0
  0
LINE
  5
131A
  8
0
  6
CONTINUOUS
 10
-2.5
 20
61.0
 30
0.0
 11
-2.5
 21
50.51814299999978
 31
0.0
  0
LINE
  5
131B
  8
0
  6
CONTINUOUS
 10
0.0
 20
151.2999999999997
 30
0.0
 11
0.0
 21
131.2999999999997
 31
0.0
  0
LINE
  5
131C
  8
0
  6
CONTINUOUS
 10
0.0
 20
98.5
 30
0.0
 11
0.0
 21
87.5
 31
0.0
  0
LINE
  5
131D
  8
0
  6
CONTINUOUS
 10
2.5
 20
61.0
 30
0.0
 11
2.5
 21
50.51814299999978
 31
0.0
  0
LINE
  5
131E
  8
0
  6
CONTINUOUS
 10
-39.00000899999941
 20
84.84301000000005
 30
0.0
 11
39.0
 21
84.84308599999986
 31
0.0
  0
CIRCLE
  5
131F
  8
0
  6
CONTINUOUS
 10
0.0
 20
0.0
 30
0.0
 40
37.600006
  0
CIRCLE
  5
1320
  8
0
  6
CONTINUOUS
 10
0.0
 20
0.0
 30
0.0
 40
36.100006
  0
ARC
  5
1321
  8
0
  6
CONTINUOUS
 10
35.5
 20
66.73205599999983
 30
0.0
 40
3.0
 50
322.645680000067
 51
0.0
  0
ARC
  5
1322
  8
0
  6
CONTINUOUS
 10
41.06427999999869
 20
62.48486299999968
 30
0.0
 40
4.0
 50
142.6456599998915
 51
179.4999400000095
  0
ARC
  5
1323
  8
0
  6
CONTINUOUS
 10
34.5
 20
116.8303099999998
 30
0.0
 40
20.0
 50
180.0
 51
246.4218299999828
  0
ARC
  5
1324
  8
0
  6
CONTINUOUS
 10
-34.50000200000068
 20
116.8303099999998
 30
0.0
 40
20.0
 50
293.5781600000327
 51
0.0
  0
ARC
  5
1325
  8
0
  6
CONTINUOUS
 10
-35.50000200000068
 20
66.73205599999983
 30
0.0
 40
3.0
 50
180.0
 51
217.3543400001085
  0
ARC
  5
1326
  8
0
  6
CONTINUOUS
 10
-41.06428700000106
 20
62.48486299999968
 30
0.0
 40
4.0
 50
0.5000609999958383
 51
37.35434199993992
  0
ARC
  5
1327
  8
0
  6
CONTINUOUS
 10
-6.5
 20
50.51814299999978
 30
0.0
 40
4.0
 50
299.9999600000318
 51
0.0
  0
ARC
  5
1328
  8
0
  6
CONTINUOUS
 10
-6.5
 20
61.0
 30
0.0
 40
4.0
 50
0.0
 51
90.00003699991512
  0
ARC
  5
1329
  8
0
  6
CONTINUOUS
 10
6.5
 20
50.51814299999978
 30
0.0
 40
4.0
 50
180.0
 51
240.0000200000953
  0
ARC
  5
132A
  8
0
  6
CONTINUOUS
 10
6.5
 20
61.0
 30
0.0
 40
4.0
 50
89.99998200009199
 51
180.0
  0
LINE
  5
132B
  8
0
  6
CONTINUOUS
 10
-31.8094749999982
 20
176.5
 30
0.0
 11
31.80947500000184
 21
176.5
 31
0.0
  0
ARC
  5
132C
  8
0
  6
CONTINUOUS
 10
-41.0
 20
180.0
 30
0.0
 40
7.0
 50
90.0
 51
145.6987590000096
  0
ARC
  5
132D
  8
0
  6
CONTINUOUS
 10
-41.0
 20
178.0
 30
0.0
 40
9.0
 50
0.0
 51
90.0
  0
ARC
  5
132E
  8
0
  6
CONTINUOUS
 10
-31.50000999999975
 20
173.519245
 30
0.0
 40
18.5
 50
145.6987590000096
 51
180.0596020000102
  0
LINE
  5
132F
  8
0
  6
CONTINUOUS
 10
-50.0
 20
173.5
 30
0.0
 11
-49.62644799999907
 21
169.2302749999999
 31
0.0
  0
ARC
  5
1330
  8
0
  6
CONTINUOUS
 10
-48.82949200000076
 20
169.2999999999997
 30
0.0
 40
0.8
 50
185.0000000000029
 51
270.0
  0
LINE
  5
1331
  8
0
  6
CONTINUOUS
 10
-48.82949200000076
 20
168.5
 30
0.0
 11
48.82949200000076
 21
168.5
 31
0.0
  0
ARC
  5
1332
  8
0
  6
CONTINUOUS
 10
-9.801035000000411
 20
161.0
 30
0.0
 40
1.0
 50
183.0000000000034
 51
270.0
  0
LINE
  5
1333
  8
0
  6
CONTINUOUS
 10
-9.801035000000411
 20
160.0
 30
0.0
 11
9.801035000000411
 21
160.0
 31
0.0
  0
LINE
  5
1334
  8
0
  6
CONTINUOUS
 10
-10.79966499999864
 20
160.9476639999998
 30
0.0
 11
-11.19022499999846
 21
168.4000000000001
 31
0.0
  0
ARC
  5
1335
  8
0
  6
CONTINUOUS
 10
-26.0
 20
178.0
 30
0.0
 40
6.0
 50
180.0
 51
194.4775119999656
  0
ARC
  5
1336
  8
0
  6
CONTINUOUS
 10
-11.31126899999799
 20
161.1559969999998
 30
0.0
 40
0.5
 50
3.000000000003379
 51
67.95690600008288
  0
LINE
  5
1337
  8
0
  6
CONTINUOUS
 10
-11.12361800000144
 20
161.6194479999999
 30
0.0
 11
-28.11677200000122
 21
168.5
 31
0.0
  0
ARC
  5
1338
  8
0
  6
CONTINUOUS
 10
41.0
 20
180.0
 30
0.0
 40
7.0
 50
34.30124099999035
 51
90.0
  0
ARC
  5
1339
  8
0
  6
CONTINUOUS
 10
41.0
 20
178.0
 30
0.0
 40
9.0
 50
90.0
 51
180.0
  0
ARC
  5
133A
  8
0
  6
CONTINUOUS
 10
31.50000999999975
 20
173.519245
 30
0.0
 40
18.5
 50
359.9403979999898
 51
34.30124099999035
  0
LINE
  5
133B
  8
0
  6
CONTINUOUS
 10
50.0
 20
173.5
 30
0.0
 11
49.62644799999907
 21
169.2302749999999
 31
0.0
  0
ARC
  5
133C
  8
0
  6
CONTINUOUS
 10
48.82949200000076
 20
169.2999999999997
 30
0.0
 40
0.8
 50
270.0
 51
354.9999999999972
  0
ARC
  5
133D
  8
0
  6
CONTINUOUS
 10
9.801035000000411
 20
161.0
 30
0.0
 40
1.0
 50
270.0
 51
356.9999999999966
  0
LINE
  5
133E
  8
0
  6
CONTINUOUS
 10
10.79966499999864
 20
160.9476639999998
 30
0.0
 11
11.19022499999846
 21
168.4000000000001
 31
0.0
  0
ARC
  5
133F
  8
0
  6
CONTINUOUS
 10
26.0
 20
178.0
 30
0.0
 40
6.0
 50
345.5224880000344
 51
0.0
  0
ARC
  5
1340
  8
0
  6
CONTINUOUS
 10
11.31126900000163
 20
161.1559969999998
 30
0.0
 40
0.5
 50
112.0430939999171
 51
176.9999999999966
  0
LINE
  5
1341
  8
0
  6
CONTINUOUS
 10
11.12361800000144
 20
161.6194479999999
 30
0.0
 11
28.11677200000122
 21
168.5
 31
0.0
  0
ENDBLK
  8
0
  0
BLOCK
  8
0
  2
ALﾌｨｯﾃｨﾝｸﾞ平面図
 70
     0
 10
0.0
 20
0.0
 30
0.0
  0
LINE
  5
1368
  8
0
 10
54.12658773652947
 20
8.000000000000455
 30
0.0
 11
54.12658773652947
 21
0.0000000000004547
 31
0.0
  0
LINE
  5
1369
  8
0
 10
54.12658773652947
 20
0.0000000000004547
 30
0.0
 11
-54.12658773652947
 21
0.0
 31
0.0
  0
LINE
  5
136A
  8
0
 10
-54.12658773652947
 20
0.0
 30
0.0
 11
-54.12658773652583
 21
8.0
 31
0.0
  0
LINE
  5
136B
  8
0
 10
-54.12658773652583
 20
8.0
 30
0.0
 11
54.12658773652947
 21
8.000000000000455
 31
0.0
  0
POLYLINE
  5
136C
  8
0
 66
     1
 10
0.0
 20
0.0
 30
0.0
  0
VERTEX
  5
4050
  8
0
 10
-43.5
 20
54.00000000000045
 30
0.0
  0
VERTEX
  5
4051
  8
0
 10
-43.5
 20
8.0
 30
0.0
  0
SEQEND
  5
407B
  8
0
  0
POLYLINE
  5
136D
  8
0
 66
     1
 10
0.0
 20
0.0
 30
0.0
  0
VERTEX
  5
4052
  8
0
 10
43.5
 20
54.0
 30
0.0
  0
VERTEX
  5
4053
  8
0
 10
43.5
 20
8.000000000000455
 30
0.0
  0
SEQEND
  5
407C
  8
0
  0
POLYLINE
  5
136E
  8
0
 66
     1
 10
0.0
 20
0.0
 30
0.0
  0
VERTEX
  5
4054
  8
0
 10
-43.5
 20
54.00000000000045
 30
0.0
  0
VERTEX
  5
4055
  8
0
 10
43.5
 20
54.00000000000045
 30
0.0
  0
SEQEND
  5
407D
  8
0
  0
ENDBLK
  8
0
  0
BLOCK
  8
0
  2
液面計平面図
 70
     0
 10
0.0
 20
0.0
 30
0.0
  0
LINE
  5
169C
  8
4
  6
CENTER
 10
0.0000000061918399
 20
12.68536112816355
 30
0.0
 11
-0.0000000266700226
 21
-54.624178065877
 31
0.0
  0
LINE
  5
169D
  8
4
  6
CONTINUOUS
 10
13.95543432118211
 20
-4.957636454589647
 30
0.0
 11
-14.9878162764835
 21
-4.957636443673891
 31
0.0
  0
LINE
  5
169E
  8
4
  6
CONTINUOUS
 10
-14.98781625898118
 20
0.0
 30
0.0
 11
-14.9878162764835
 21
-4.957636443673891
 31
0.0
  0
LINE
  5
169F
  8
4
  6
CONTINUOUS
 10
13.95543433794228
 20
0.0000000000004547
 30
0.0
 11
13.95543432118211
 21
-4.957636454589647
 31
0.0
  0
LINE
  5
16A0
  8
4
  6
CENTER
 10
13.95543432118211
 20
-29.95763645458965
 30
0.0
 11
-14.9878162764835
 21
-29.95763644367389
 31
0.0
  0
LINE
  5
16A1
  8
0
 10
8.999999983672751
 20
-29.95763645272064
 30
0.0
 11
8.999999983672751
 21
-4.957636452720635
 31
0.0
  0
LINE
  5
16A2
  8
0
 10
-9.000000016327249
 20
-29.95763644593217
 30
0.0
 11
-9.000000016327249
 21
-4.957636445932167
 31
0.0
  0
ARC
  5
16A3
  8
0
 10
-0.0000000163272489
 20
-29.95763645102306
 30
0.0
 40
9.0
 50
179.9999999675875
 51
0.0000000108128681
  0
POLYLINE
  5
16A4
  8
0
 66
     1
 10
0.0
 20
0.0
 30
0.0
  0
VERTEX
  5
4056
  8
0
 10
-14.98781625898118
 20
0.0
 30
0.0
  0
VERTEX
  5
4057
  8
0
 10
13.95543433794228
 20
0.0
 30
0.0
  0
SEQEND
  5
407E
  8
0
  0
ENDBLK
  8
0
  0
BLOCK
  8
0
  2
６５ＡエアーＬ_平面図
 70
     0
 10
0.0
 20
0.0
 30
0.0
  0
LINE
  5
1C7D
  8
0
  6
CENTER
 62
     1
 10
0.0
 20
89.99998608231544
 30
0.0
 11
0.0
 21
-90.00001659989357
 31
0.0
  0
LINE
  5
1C7E
  8
0
  6
CONTINUOUS
 62
     1
 10
45.25483467028971
 20
45.25481941149974
 30
0.0
 11
0.0
 21
63.99998569488525
 31
0.0
  0
LINE
  5
1C7F
  8
0
  6
CONTINUOUS
 62
     1
 10
-45.25483467028971
 20
45.25481941149974
 30
0.0
 11
0.0
 21
63.99998569488525
 31
0.0
  0
LINE
  5
1C80
  8
0
  6
CONTINUOUS
 62
     1
 10
-64.00000095367432
 20
-0.0000152587890625
 30
0.0
 11
-45.25483467028971
 21
45.25481941149974
 31
0.0
  0
LINE
  5
1C81
  8
0
  6
CONTINUOUS
 62
     1
 10
-45.25483467028971
 20
-45.25484992907786
 30
0.0
 11
-64.00000095367432
 21
-0.0000152587890625
 31
0.0
  0
LINE
  5
1C82
  8
0
  6
CONTINUOUS
 62
     1
 10
0.0
 20
-64.00001621246338
 30
0.0
 11
-45.25483467028971
 21
-45.25484992907786
 31
0.0
  0
LINE
  5
1C83
  8
0
  6
CONTINUOUS
 62
     1
 10
45.25483467028971
 20
-45.25484992907786
 30
0.0
 11
0.0
 21
-64.00001621246338
 31
0.0
  0
LINE
  5
1C84
  8
0
  6
CONTINUOUS
 10
0.0
 20
43.5
 30
0.0
 11
220.0
 21
43.5
 31
0.0
  0
LINE
  5
1C85
  8
0
  6
CONTINUOUS
 10
0.0
 20
-43.5
 30
0.0
 11
220.0
 21
-43.5
 31
0.0
  0
LINE
  5
1C86
  8
0
  6
CENTER
 10
220.0
 20
65.0
 30
0.0
 11
220.0
 21
-65.0
 31
0.0
  0
LINE
  5
1C87
  8
0
  6
CENTER
 10
-65.0
 20
0.0
 30
0.0
 11
285.0
 21
0.0
 31
0.0
  0
ARC
  5
1C88
  8
0
  6
CONTINUOUS
 10
0.0
 20
-0.0000152587890625
 30
0.0
 40
43.5
 50
89.99998199988354
 51
270.0
  0
ARC
  5
1C89
  8
0
  6
CONTINUOUS
 10
220.0
 20
0.0
 30
0.0
 40
43.5
 50
270.0000199998978
 51
89.99998199988354
  0
ARC
  5
1C8A
  8
0
  6
CONTINUOUS
 10
0.0
 20
0.0
 30
0.0
 40
50.229473
 50
60.00000200010633
 51
299.9999899999445
  0
ENDBLK
  8
0
  0
BLOCK
  8
0
  2
６５ＡエアーＬ_正面図
 70
     0
 10
0.0
 20
0.0
 30
0.0
  0
LINE
  5
1801
  8
0
  6
CENTER
 10
43.5
 20
243.000020745058
 30
0.0
 11
176.5
 21
243.000020745058
 31
0.0
  0
LINE
  5
1802
  8
0
  6
CENTER
 10
220.0
 20
199.500020745058
 30
0.0
 11
220.0
 21
113.2213137450581
 31
0.0
  0
LINE
  5
1803
  8
0
  6
CONTINUOUS
 10
176.5
 20
199.500020745058
 30
0.0
 11
176.5
 21
133.0000007450581
 31
0.0
  0
LINE
  5
1804
  8
0
  6
CONTINUOUS
 10
263.5
 20
199.500020745058
 30
0.0
 11
263.5
 21
133.0000007450581
 31
0.0
  0
LINE
  5
1805
  8
0
  6
CONTINUOUS
 10
43.5
 20
286.500020745058
 30
0.0
 11
176.5
 21
286.500020745058
 31
0.0
  0
LINE
  5
1806
  8
0
  6
CONTINUOUS
 10
43.5
 20
199.500020745058
 30
0.0
 11
176.5
 21
199.500020745058
 31
0.0
  0
LINE
  5
1807
  8
0
  6
CENTER
 10
0.0
 20
199.500020745058
 30
0.0
 11
0.0
 21
17.39178574505786
 31
0.0
  0
LINE
  5
1808
  8
0
  6
CONTINUOUS
 10
-43.5
 20
199.500020745058
 30
0.0
 11
-43.5
 21
62.00000074505806
 31
0.0
  0
LINE
  5
1809
  8
0
  6
CONTINUOUS
 10
43.5
 20
199.500020745058
 30
0.0
 11
43.5
 21
62.00000074505806
 31
0.0
  0
LINE
  5
180A
  8
0
  6
CONTINUOUS
 10
176.5
 20
133.0000007450581
 30
0.0
 11
263.5
 21
133.0000007450581
 31
0.0
  0
LINE
  5
180B
  8
0
  6
CONTINUOUS
 10
-50.22952300000179
 20
50.00000074505806
 30
0.0
 11
50.22944599999755
 21
50.00000074505806
 31
0.0
  0
LINE
  5
180C
  8
0
  6
CONTINUOUS
 10
-25.11465499999758
 20
62.00000074505806
 30
0.0
 11
-25.11465499999758
 21
50.00000074505806
 31
0.0
  0
LINE
  5
180D
  8
0
  6
CONTINUOUS
 10
25.11471599999641
 20
62.00000074505806
 30
0.0
 11
25.11471599999641
 21
50.00000074505806
 31
0.0
  0
LINE
  5
180E
  8
0
  6
CONTINUOUS
 10
-50.22952300000179
 20
62.00000074505806
 30
0.0
 11
50.22944599999755
 21
62.00000074505806
 31
0.0
  0
LINE
  5
180F
  8
0
  6
CONTINUOUS
 10
-50.22952300000179
 20
62.00000074505806
 30
0.0
 11
-50.22952300000179
 21
50.00000074505806
 31
0.0
  0
LINE
  5
1810
  8
0
  6
CONTINUOUS
 10
50.22944599999755
 20
62.00000074505806
 30
0.0
 11
50.22944599999755
 21
50.00000074505806
 31
0.0
  0
LINE
  5
1811
  8
0
  6
CONTINUOUS
 10
43.5
 20
124.7500007450581
 30
0.0
 11
-43.5
 21
124.7500007450581
 31
0.0
  0
LINE
  5
1812
  8
0
  6
CONTINUOUS
 10
110.0
 20
199.500020745058
 30
0.0
 11
110.0
 21
286.500020745058
 31
0.0
  0
ARC
  5
1813
  8
0
  6
CONTINUOUS
 10
43.5
 20
199.500020745058
 30
0.0
 40
87.0
 50
89.99998199988354
 51
179.999959999996
  0
ARC
  5
1814
  8
0
  6
CONTINUOUS
 10
176.5
 20
199.500020745058
 30
0.0
 40
87.0
 50
0.0
 51
89.99998199988354
  0
ARC
  5
1815
  8
0
  6
CENTER
 10
43.5
 20
199.500020745058
 30
0.0
 40
43.5
 50
89.99998199988354
 51
179.999959999996
  0
ARC
  5
1816
  8
0
  6
CENTER
 10
176.5
 20
199.500020745058
 30
0.0
 40
43.5
 50
0.0
 51
89.99998199988354
  0
LINE
  5
1817
  8
0
  6
CONTINUOUS
 62
     1
 10
-64.00000095367432
 20
30.00000044703484
 30
0.0
 11
64.00000095367432
 21
30.00000044703484
 31
0.0
  0
LINE
  5
1818
  8
0
  6
CONTINUOUS
 62
     1
 10
-64.00000095367432
 20
30.00000044703484
 30
0.0
 11
-64.00000095367432
 21
0.0
 31
0.0
  0
LINE
  5
1819
  8
0
  6
CONTINUOUS
 62
     1
 10
-45.00000067055225
 20
50.00000074505806
 30
0.0
 11
-45.00000067055225
 21
30.00000044703484
 31
0.0
  0
LINE
  5
181A
  8
0
  6
CONTINUOUS
 62
     1
 10
45.00000067055225
 20
50.00000074505806
 30
0.0
 11
45.00000067055225
 21
30.00000044703484
 31
0.0
  0
LINE
  5
181B
  8
0
  6
CONTINUOUS
 62
     1
 10
64.00000095367432
 20
30.00000044703484
 30
0.0
 11
64.00000095367432
 21
0.0
 31
0.0
  0
LINE
  5
181C
  8
0
  6
CONTINUOUS
 62
     1
 10
-45.00000067055225
 20
50.00000074505806
 30
0.0
 11
45.00000067055225
 21
50.00000074505806
 31
0.0
  0
LINE
  5
181D
  8
0
  6
CENTER
 62
     1
 10
0.0
 20
80.0000011920929
 30
0.0
 11
0.0
 21
-20.00000029802322
 31
0.0
  0
LINE
  5
181E
  8
0
  6
CONTINUOUS
 62
     1
 10
-64.00000095367432
 20
15.00000022351742
 30
0.0
 11
64.00000095367432
 21
15.00000022351742
 31
0.0
  0
ENDBLK
  8
0
  0
BLOCK
  8
0
  2
N-BALOON
 70
     2
 10
0.0
 20
0.0
 30
0.0
  0
CIRCLE
  5
18FA
  8
0
 10
0.0
 20
0.0
 30
0.0
 40
100.0
  0
TEXT
  5
18FB
  8
0
 10
-68.09434061104548
 20
-25.1687701231931
 30
0.0
 40
50.0
  1
N-
  0
ATTDEF
  5
18FC
  8
0
 10
42.33635101502296
 20
-24.74502399850462
 30
0.0
 40
50.0
  1

  3
?
  2
NO.
 70
     0
  0
ENDBLK
  8
0
  0
BLOCK
  8
0
  2
BALOON
 70
     2
 10
0.0
 20
0.0
 30
0.0
  0
CIRCLE
  5
1904
  8
0
 10
0.0
 20
0.0
 30
0.0
 40
100.0
  0
ATTDEF
  5
1905
  8
0
 10
-17.05424478689383
 20
-24.74502399850462
 30
0.0
 40
50.0
  1

  3
?
  2
NO.
 70
     0
  0
ENDBLK
  8
0
  0
BLOCK
  8
0
  2
_DOTSMALL
 70
     0
 10
0.0
 20
0.0
 30
0.0
  0
POLYLINE
  5
1C01
  8
0
  6
BYBLOCK
 62
     0
 66
     1
 10
0.0
 20
0.0
 30
0.0
 70
     1
 40
0.5
 41
0.5
  0
VERTEX
  5
4058
  8
0
  6
BYBLOCK
 62
     0
 10
-0.0625
 20
0.0
 30
0.0
 42
1.0
  0
VERTEX
  5
4059
  8
0
  6
BYBLOCK
 62
     0
 10
0.0625
 20
0.0
 30
0.0
 42
1.0
  0
SEQEND
  5
407F
  8
0
  6
BYBLOCK
 62
     0
  0
ENDBLK
  8
0
  0
BLOCK
  8
0
  2
出口
 70
     0
 10
0.0
 20
0.0
 30
0.0
  0
INSERT
  5
1C57
  8
0
  2
65Aバルブ平面図
 10
0.0
 20
-118.00000000002
 30
0.0
  0
INSERT
  5
1C58
  8
0
  2
ALﾌｨｯﾃｨﾝｸﾞ平面図
 10
0.0000000000145519
 20
0.0
 30
0.0
 50
180.0
  0
LINE
  5
1C59
  8
細線
 10
-39.0
 20
-56.50000000001182
 30
0.0
 11
39.00000000000728
 21
-56.50000000001182
 31
0.0
  0
LINE
  5
1C5A
  8
細線
 10
-38.99999999997817
 20
-74.50000000000819
 30
0.0
 11
-12.27658049972524
 21
-74.50000000001
 31
0.0
  0
LINE
  5
1C5B
  8
細線
 10
12.27658049975435
 20
-74.50000000001
 30
0.0
 11
39.00000000000728
 21
-74.50000000001182
 31
0.0
  0
LINE
  5
1C5C
  8
細線
 10
39.00000000000728
 20
-56.50000000001182
 30
0.0
 11
40.00000000001455
 21
-57.0773502692
 31
0.0
  0
LINE
  5
1C5D
  8
細線
 10
39.00000000000728
 20
-74.50000000001182
 30
0.0
 11
40.00000000000728
 21
-73.92264973082183
 31
0.0
  0
LINE
  5
1C5E
  8
細線
 10
-38.99999999999272
 20
-56.50000000001
 30
0.0
 11
-39.99999999999272
 21
-57.07735026920091
 31
0.0
  0
LINE
  5
1C5F
  8
細線
 10
-38.99999999999272
 20
-74.50000000001
 30
0.0
 11
-39.99999999999272
 21
-73.92264973082001
 31
0.0
  0
LINE
  5
1C60
  8
細線
 10
40.00000000000728
 20
-73.92264973082183
 30
0.0
 11
40.00000000001455
 21
-57.0773502692
 31
0.0
  0
LINE
  5
1C61
  8
細線
 10
-39.99999999999272
 20
-73.92264973082001
 30
0.0
 11
-39.99999999999272
 21
-57.07735026920091
 31
0.0
  0
LINE
  5
1C62
  8
細線
 10
16.56854249494063
 20
-72.01988337010243
 30
0.0
 11
16.56854249493335
 21
-58.98011662991939
 31
0.0
  0
LINE
  5
1C63
  8
細線
 10
-16.5685424949188
 20
-72.01988337010243
 30
0.0
 11
-16.56854249492608
 21
-58.98011662992121
 31
0.0
  0
ARC
  5
1C64
  8
細線
 10
0.0000000000145519
 20
-17.91645559738117
 30
0.0
 40
56.58354440262278
 50
252.973404820569
 51
259.5384173568511
  0
ARC
  5
1C65
  8
細線
 10
0.0000000000145519
 20
-17.91645559738117
 30
0.0
 40
56.58354440262278
 50
280.4615826431489
 51
287.026595179431
  0
ARC
  5
1C66
  8
細線
 10
28.28427124747395
 20
-45.58819864121779
 30
0.0
 40
28.91180135878851
 50
246.0948937239196
 51
293.9051062760804
  0
ARC
  5
1C67
  8
細線
 10
-28.28427124744485
 20
-45.58819864121415
 30
0.0
 40
28.91180135878851
 50
246.0948937239196
 51
293.9051062760804
  0
ARC
  5
1C68
  8
細線
 10
0.0000000000145519
 20
-113.0835444026279
 30
0.0
 40
56.58354440262278
 50
72.973404820569
 51
107.026595179431
  0
ARC
  5
1C69
  8
細線
 10
28.28427124747395
 20
-85.4118013588004
 30
0.0
 40
28.91180135878851
 50
66.09489372391961
 51
113.9051062760804
  0
ARC
  5
1C6A
  8
細線
 10
-28.28427124745212
 20
-85.41180135879313
 30
0.0
 40
28.91180135878851
 50
66.09489372391961
 51
113.9051062760804
  0
LINE
  5
1C6B
  8
細線
 10
39.00000000002183
 20
-56.50000000001637
 30
0.0
 11
38.29344347595907
 21
-56.5000000000191
 31
0.0
  0
ARC
  5
1C6C
  8
細線
 10
-38.29344347594451
 20
-74.9000000000151
 30
0.0
 40
0.4
 50
1.789899999995269
 51
90.0
  0
LINE
  5
1C6D
  8
細線
 10
-36.34862360261468
 20
-77.0000000000191
 30
0.0
 11
-37.89363864318875
 21
-74.88750617308779
 31
0.0
  0
LINE
  5
1C6E
  8
細線
 10
37.82762360261404
 20
-77.00000000002092
 30
0.0
 11
28.5212401078752
 21
-77.0000000000191
 31
0.0
  0
LINE
  5
1C6F
  8
細線
 10
-28.52124010785337
 20
-77.00000000001728
 30
0.0
 11
-37.82762360261404
 21
-77.00000000001819
 31
0.0
  0
ARC
  5
1C70
  8
細線
 10
38.29344347595907
 20
-74.90000000001146
 30
0.0
 40
0.4
 50
90.0
 51
178.2101000000047
  0
LINE
  5
1C71
  8
細線
 10
37.82762360261404
 20
-77.00000000002092
 30
0.0
 11
37.8936386432033
 21
-74.88750617309142
 31
0.0
  0
LINE
  5
1C72
  8
細線
 10
-37.82762360261404
 20
-77.00000000001819
 30
0.0
 11
-37.89363864318875
 21
-74.88750617308779
 31
0.0
  0
LINE
  5
1C73
  8
細線
 10
36.34862360262923
 20
-77.00000000002092
 30
0.0
 11
37.8936386432033
 21
-74.88750617309142
 31
0.0
  0
ARC
  5
1C74
  8
細線
 10
-38.29344347593724
 20
-56.10000000000036
 30
0.0
 40
0.4
 50
270.0
 51
358.2101000000047
  0
LINE
  5
1C75
  8
細線
 10
-36.3486236026074
 20
-54.00000000000455
 30
0.0
 11
-37.89363864318875
 21
-56.1124938269304
 31
0.0
  0
LINE
  5
1C76
  8
細線
 10
37.82762360262132
 20
-54.00000000000455
 30
0.0
 11
-37.82762360260676
 21
-54.00000000000637
 31
0.0
  0
ARC
  5
1C77
  8
細線
 10
38.29344347595907
 20
-56.10000000000764
 30
0.0
 40
0.4
 50
181.7898999999953
 51
270.0
  0
LINE
  5
1C78
  8
細線
 10
37.82762360262132
 20
-54.00000000000455
 30
0.0
 11
37.89363864319603
 21
-56.1124938269395
 31
0.0
  0
LINE
  5
1C79
  8
細線
 10
-37.82762360260676
 20
-54.00000000000637
 30
0.0
 11
-37.89363864318875
 21
-56.1124938269304
 31
0.0
  0
LINE
  5
1C7A
  8
細線
 10
36.34862360262923
 20
-54.00000000000637
 30
0.0
 11
37.89363864321058
 21
-56.11249382692858
 31
0.0
  0
POLYLINE
  5
1C7B
  8
0
  6
CENTER
 66
     1
 10
0.0
 20
0.0
 30
0.0
  0
VERTEX
  5
405A
  8
0
  6
CENTER
 10
0.000000000007276
 20
-202.6525829684078
 30
0.0
  0
VERTEX
  5
405B
  8
0
  6
CENTER
 10
0.0
 20
28.83099031290567
 30
0.0
  0
SEQEND
  5
4080
  8
0
  6
CENTER
  0
ENDBLK
  8
0
  0
BLOCK
  8
0
  2
２５Ａ融着Ｆ_平面図
 70
     0
 10
0.0
 20
0.0
 30
0.0
  0
POINT
  5
1F24
  8
0
  6
CONTINUOUS
 62
     7
 10
31.81980562754669
 20
31.81980562754666
 30
0.0
  0
LINE
  5
1F25
  8
0
  6
CENTER
 62
     5
 10
-75.00000111758706
 20
0.0
 30
0.0
 11
75.00000111758706
 21
0.0
 31
0.0
  0
LINE
  5
1F26
  8
0
  6
CENTER
 62
     5
 10
0.0
 20
75.00000111758709
 30
0.0
 11
0.0
 21
-75.00000111758709
 31
0.0
  0
LINE
  5
1F27
  8
0
  6
CENTER
 62
     5
 10
22.1909612785243
 20
22.19096127852436
 30
0.0
 11
41.48872717037699
 21
41.48872717037693
 31
0.0
  0
LINE
  5
1F28
  8
0
  6
CENTER
 62
     5
 10
-22.1909612785243
 20
22.19096127852436
 30
0.0
 11
-41.48872717037696
 21
41.48872717037693
 31
0.0
  0
LINE
  5
1F29
  8
0
  6
CENTER
 62
     5
 10
-22.1909612785243
 20
-22.19096127852436
 30
0.0
 11
-41.48872717037702
 21
-41.48872717037693
 31
0.0
  0
LINE
  5
1F2A
  8
0
  6
CENTER
 62
     5
 10
22.1909612785243
 20
-22.19096127852436
 30
0.0
 11
41.48872717037699
 21
-41.48872717037693
 31
0.0
  0
CIRCLE
  5
1F2B
  8
0
  6
CONTINUOUS
 62
     5
 10
0.0
 20
0.0
 30
0.0
 40
62.50000093132256
  0
CIRCLE
  5
1F2C
  8
0
  6
CONTINUOUS
 62
     5
 10
0.0
 20
0.0
 30
0.0
 40
21.00000031292438
  0
CIRCLE
  5
1F2D
  8
0
  6
CENTER
 62
     5
 10
0.0
 20
0.0
 30
0.0
 40
45.00000067055225
  0
CIRCLE
  5
1F2E
  8
0
  6
CONTINUOUS
 62
     5
 10
31.81980562754669
 20
31.81980562754666
 30
0.0
 40
9.50000014156103
  0
CIRCLE
  5
1F2F
  8
0
  6
CONTINUOUS
 62
     5
 10
-31.81980562754669
 20
31.81980562754666
 30
0.0
 40
9.50000014156103
  0
CIRCLE
  5
1F30
  8
0
  6
CONTINUOUS
 62
     5
 10
-31.81980562754669
 20
-31.81980562754666
 30
0.0
 40
9.50000014156103
  0
CIRCLE
  5
1F31
  8
0
  6
CONTINUOUS
 62
     5
 10
31.81980562754669
 20
-31.81980562754666
 30
0.0
 40
9.50000014156103
  0
ENDBLK
  8
0
  0
BLOCK
  8
0
  2
２５Ａ融着Ｆ_正面図
 70
     0
 10
0.0
 20
0.0
 30
0.0
  0
POINT
  5
1F35
  8
0
  6
CONTINUOUS
 62
     7
 10
0.0
 20
0.0
 30
0.0
  0
POINT
  5
1F36
  8
0
  6
CONTINUOUS
 62
     7
 10
0.0
 20
0.0
 30
0.0
  0
LINE
  5
1F37
  8
0
  6
CONTINUOUS
 62
     5
 10
-62.49999330192793
 20
82.00000122189522
 30
0.0
 11
62.50000856071716
 21
82.00000122189522
 31
0.0
  0
LINE
  5
1F38
  8
0
  6
CONTINUOUS
 62
     5
 10
-62.50000093132257
 20
65.00000096857548
 30
0.0
 11
-62.50000093132257
 21
82.00000885128986
 31
0.0
  0
LINE
  5
1F39
  8
0
  6
CONTINUOUS
 62
     5
 10
62.50000093132252
 20
65.00000096857548
 30
0.0
 11
62.50000093132252
 21
81.99999359250057
 31
0.0
  0
LINE
  5
1F3A
  8
0
  6
CENTER
 62
     5
 10
-0.0000000000000568
 20
102.0000015199184
 30
0.0
 11
0.0
 21
-5.899999706447147
 31
0.0
  0
LINE
  5
1F3B
  8
0
  6
CONTINUOUS
 62
     5
 10
-62.49999330192793
 20
65.00000096857548
 30
0.0
 11
62.50000856071716
 21
65.00000096857548
 31
0.0
  0
LINE
  5
1F3C
  8
0
  6
CONTINUOUS
 62
     5
 10
-21.50000032037499
 20
65.00000096857548
 30
0.0
 11
-21.50000032037497
 21
10.00000014901161
 31
0.0
  0
LINE
  5
1F3D
  8
0
  6
CONTINUOUS
 62
     5
 10
-35.00000052154064
 20
10.00000014901161
 30
0.0
 11
-35.00000052154064
 21
0.0
 31
0.0
  0
LINE
  5
1F3E
  8
0
  6
CONTINUOUS
 62
     5
 10
35.00000052154064
 20
10.00000014901161
 30
0.0
 11
35.00000052154064
 21
0.0
 31
0.0
  0
LINE
  5
1F3F
  8
0
  6
CONTINUOUS
 62
     5
 10
21.50000032037491
 20
65.00000096857548
 30
0.0
 11
21.50000032037497
 21
10.00000014901161
 31
0.0
  0
LINE
  5
1F40
  8
0
  6
CONTINUOUS
 62
     5
 10
-35.00000052154064
 20
10.00000014901161
 30
0.0
 11
35.00000052154064
 21
10.00000014901161
 31
0.0
  0
ENDBLK
  8
0
  0
BLOCK
  8
0
  2
５０Ａフィッティング_ＴＳ_平面図
 70
     0
 10
0.0
 20
0.0
 30
0.0
  0
POINT
  5
1F44
  8
0
  6
CONTINUOUS
 10
-42.42640750339547
 20
42.42640750339558
 30
0.0
  0
LINE
  5
1F45
  8
0
  6
CENTER
 10
-90.00000134110451
 20
0.0
 30
0.0
 11
90.00000134110451
 21
0.0
 31
0.0
  0
LINE
  5
1F46
  8
0
  6
CENTER
 10
0.0
 20
90.00000134110451
 30
0.0
 11
0.0
 21
-90.00000134110451
 31
0.0
  0
LINE
  5
1F47
  8
0
  6
CENTER
 10
-53.06685234290444
 20
53.0668523429045
 30
0.0
 11
-31.96804475754743
 21
31.96804475754755
 31
0.0
  0
LINE
  5
1F48
  8
0
  6
CENTER
 10
-53.06685234290444
 20
-53.0668523429045
 30
0.0
 11
-31.96804475754743
 21
-31.96804475754755
 31
0.0
  0
LINE
  5
1F49
  8
0
  6
CENTER
 10
53.06685234290444
 20
-53.0668523429045
 30
0.0
 11
31.96804475754743
 21
-31.96804475754755
 31
0.0
  0
LINE
  5
1F4A
  8
0
  6
CENTER
 10
53.06685234290444
 20
53.0668523429045
 30
0.0
 11
31.96804475754743
 21
31.96804475754755
 31
0.0
  0
CIRCLE
  5
1F4B
  8
0
  6
CONTINUOUS
 10
0.0
 20
0.0
 30
0.0
 40
77.50000115483998
  0
CIRCLE
  5
1F4C
  8
0
  6
CONTINUOUS
 10
0.0
 20
0.0
 30
0.0
 40
36.50000054389238
  0
CIRCLE
  5
1F4D
  8
0
  6
CENTER
 10
0.0
 20
0.0
 30
0.0
 40
60.00000089406966
  0
CIRCLE
  5
1F4E
  8
0
  6
CONTINUOUS
 10
-42.42640750339547
 20
42.42640750339558
 30
0.0
 40
9.50000014156103
  0
CIRCLE
  5
1F4F
  8
0
  6
CONTINUOUS
 10
-42.42640750339547
 20
-42.42640750339558
 30
0.0
 40
9.50000014156103
  0
CIRCLE
  5
1F50
  8
0
  6
CONTINUOUS
 10
42.42640750339547
 20
-42.42640750339558
 30
0.0
 40
9.50000014156103
  0
CIRCLE
  5
1F51
  8
0
  6
CONTINUOUS
 10
42.42640750339547
 20
42.42640750339558
 30
0.0
 40
9.50000014156103
  0
ENDBLK
  8
0
  0
BLOCK
  8
0
  2
５０Ａフィッティング_ＴＳ_正面図
 70
     0
 10
0.0
 20
0.0
 30
0.0
  0
LINE
  5
1F55
  8
0
  6
CONTINUOUS
 10
-58.00000086426735
 20
30.00000044703484
 30
0.0
 11
58.00000086426735
 21
30.00000044703486
 31
0.0
  0
LINE
  5
1F56
  8
0
  6
CONTINUOUS
 10
58.00000086426735
 20
30.00000044703486
 30
0.0
 11
58.00000086426735
 21
0.0000000000000568
 31
0.0
  0
LINE
  5
1F57
  8
0
  6
CONTINUOUS
 10
-58.00000086426735
 20
30.00000044703484
 30
0.0
 11
-58.00000086426735
 21
0.0
 31
0.0
  0
LINE
  5
1F58
  8
0
  6
CONTINUOUS
 10
-77.50000115483999
 20
130.0000019371509
 30
0.0
 11
-77.50000115483999
 21
110.0000016391277
 31
0.0
  0
LINE
  5
1F59
  8
0
  6
CONTINUOUS
 10
-36.50000054389238
 20
110.0000016391277
 30
0.0
 11
-36.50000054389238
 21
59.00000087916854
 31
0.0
  0
LINE
  5
1F5A
  8
0
  6
CONTINUOUS
 10
36.50000054389238
 20
49.00000073015693
 30
0.0
 11
36.50000054389238
 21
30.00000044703486
 31
0.0
  0
LINE
  5
1F5B
  8
0
  6
CONTINUOUS
 10
77.50000115483988
 20
130.000001937151
 30
0.0
 11
77.50000115483988
 21
110.0000016391278
 31
0.0
  0
LINE
  5
1F5C
  8
0
  6
CONTINUOUS
 10
-77.50000115483999
 20
130.0000019371509
 30
0.0
 11
77.50000115483988
 21
130.000001937151
 31
0.0
  0
LINE
  5
1F5D
  8
0
  6
CONTINUOUS
 10
-77.50000115483999
 20
110.0000016391277
 30
0.0
 11
77.50000115483988
 21
110.0000016391278
 31
0.0
  0
LINE
  5
1F5E
  8
0
  6
CENTER
 10
-0.0000000000001137
 20
155.6126426996684
 30
0.0
 11
0.0
 21
-23.32381473964173
 31
0.0
  0
LINE
  5
1F5F
  8
0
  6
CONTINUOUS
 10
-43.00000064074993
 20
59.00000087916854
 30
0.0
 11
-43.00000064074993
 21
49.0000007301569
 31
0.0
  0
LINE
  5
1F60
  8
0
  6
CONTINUOUS
 10
43.00000064074993
 20
59.00000087916854
 30
0.0
 11
43.00000064074993
 21
49.00000073015693
 31
0.0
  0
LINE
  5
1F61
  8
0
  6
CONTINUOUS
 10
36.50000054389238
 20
110.0000016391278
 30
0.0
 11
36.50000054389238
 21
59.00000087916854
 31
0.0
  0
LINE
  5
1F62
  8
0
  6
CONTINUOUS
 10
-36.50000054389238
 20
49.0000007301569
 30
0.0
 11
-36.50000054389238
 21
30.00000044703484
 31
0.0
  0
LINE
  5
1F63
  8
0
  6
CONTINUOUS
 10
-43.00000064074993
 20
59.00000087916854
 30
0.0
 11
43.00000064074993
 21
59.00000087916854
 31
0.0
  0
LINE
  5
1F64
  8
0
  6
CONTINUOUS
 10
-43.00000064074993
 20
49.0000007301569
 30
0.0
 11
43.00000064074993
 21
49.00000073015693
 31
0.0
  0
POLYLINE
  5
1F65
  8
0
  6
CONTINUOUS
 66
     1
 10
0.0
 20
0.0
 30
0.0
  0
VERTEX
  5
405C
  8
0
  6
CONTINUOUS
 10
-58.00000086426735
 20
15.00000022351742
 30
0.0
  0
VERTEX
  5
405D
  8
0
  6
CONTINUOUS
 10
58.00000086426735
 20
15.00000022351745
 30
0.0
  0
SEQEND
  5
4081
  8
0
  6
CONTINUOUS
  0
ENDBLK
  8
0
  0
BLOCK
  8
0
  2
６５Ａフィッティング_ＴＳ_平面図
 70
     0
 10
0.0
 20
0.0
 30
0.0
  0
LINE
  5
1F69
  8
0
  6
CENTER
 10
-100.0000014901161
 20
0.0
 30
0.0
 11
100.0000014901161
 21
0.0
 31
0.0
  0
LINE
  5
1F6A
  8
0
  6
CENTER
 10
0.0
 20
100.0000014901161
 30
0.0
 11
0.0
 21
-100.0000014901161
 31
0.0
  0
LINE
  5
1F6B
  8
0
  6
CENTER
 10
40.40043959854802
 20
40.40043959854802
 30
0.0
 11
58.19513593880555
 21
58.19513593880555
 31
0.0
  0
LINE
  5
1F6C
  8
0
  6
CENTER
 10
-40.40043959854799
 20
40.40043959854802
 30
0.0
 11
-58.19513593880552
 21
58.19513593880555
 31
0.0
  0
LINE
  5
1F6D
  8
0
  6
CENTER
 10
-40.40043959854799
 20
-40.40043959854802
 30
0.0
 11
-58.19513593880552
 21
-58.19513593880555
 31
0.0
  0
LINE
  5
1F6E
  8
0
  6
CENTER
 10
40.40043959854802
 20
-40.40043959854802
 30
0.0
 11
58.19513593880555
 21
-58.19513593880555
 31
0.0
  0
CIRCLE
  5
1F6F
  8
0
  6
CONTINUOUS
 10
0.0
 20
0.0
 30
0.0
 40
87.50000130385159
  0
CIRCLE
  5
1F70
  8
0
  6
CONTINUOUS
 10
0.0
 20
0.0
 30
0.0
 40
45.00000067055225
  0
CIRCLE
  5
1F71
  8
0
  6
CENTER
 10
0.0
 20
0.0
 30
0.0
 40
70.00000104308127
  0
CIRCLE
  5
1F72
  8
0
  6
CONTINUOUS
 10
49.49747542062815
 20
49.49747542062818
 30
0.0
 40
9.50000014156103
  0
CIRCLE
  5
1F73
  8
0
  6
CONTINUOUS
 10
-49.49747542062815
 20
49.49747542062818
 30
0.0
 40
9.50000014156103
  0
CIRCLE
  5
1F74
  8
0
  6
CONTINUOUS
 10
-49.49747542062815
 20
-49.49747542062815
 30
0.0
 40
9.50000014156103
  0
CIRCLE
  5
1F75
  8
0
  6
CONTINUOUS
 10
49.49747542062815
 20
-49.49747542062818
 30
0.0
 40
9.50000014156103
  0
ENDBLK
  8
0
  0
BLOCK
  8
0
  2
６５Ａフィッティング_ＴＳ_正面図
 70
     0
 10
0.0
 20
0.0
 30
0.0
  0
LINE
  5
1F79
  8
0
  6
CONTINUOUS
 10
-64.00000095367432
 20
30.00000044703484
 30
0.0
 11
64.00000095367426
 21
30.00000044703489
 31
0.0
  0
LINE
  5
1F7A
  8
0
  6
CONTINUOUS
 10
-64.00000095367432
 20
30.00000044703484
 30
0.0
 11
-64.00000095367432
 21
0.0
 31
0.0
  0
LINE
  5
1F7B
  8
0
  6
CONTINUOUS
 10
64.00000095367426
 20
30.00000044703489
 30
0.0
 11
64.00000095367432
 21
0.0000000000000568
 31
0.0
  0
LINE
  5
1F7C
  8
0
  6
CONTINUOUS
 10
-87.50000130385166
 20
140.0000020861625
 30
0.0
 11
-87.50000130385163
 21
118.000001758337
 31
0.0
  0
LINE
  5
1F7D
  8
0
  6
CONTINUOUS
 10
-45.00000067055228
 20
118.000001758337
 30
0.0
 11
-45.00000067055225
 21
62.00000092387202
 31
0.0
  0
LINE
  5
1F7E
  8
0
  6
CONTINUOUS
 10
45.0000006705522
 20
118.000001758337
 30
0.0
 11
45.0000006705522
 21
62.00000092387202
 31
0.0
  0
LINE
  5
1F7F
  8
0
  6
CONTINUOUS
 10
87.50000130385155
 20
140.0000020861626
 30
0.0
 11
87.50000130385155
 21
118.000001758337
 31
0.0
  0
LINE
  5
1F80
  8
0
  6
CONTINUOUS
 10
-87.50000130385166
 20
140.0000020861625
 30
0.0
 11
87.50000130385155
 21
140.0000020861626
 31
0.0
  0
LINE
  5
1F81
  8
0
  6
CONTINUOUS
 10
-87.50000130385163
 20
118.000001758337
 30
0.0
 11
87.50000130385155
 21
118.000001758337
 31
0.0
  0
LINE
  5
1F82
  8
0
  6
CENTER
 10
-0.0000000000000568
 20
155.00000230968
 30
0.0
 11
0.0
 21
-20.0000002980232
 31
0.0
  0
LINE
  5
1F83
  8
0
  6
CONTINUOUS
 10
-54.0000008046627
 20
62.00000092387197
 30
0.0
 11
-54.0000008046627
 21
52.00000077486035
 31
0.0
  0
LINE
  5
1F84
  8
0
  6
CONTINUOUS
 10
54.00000080466265
 20
62.00000092387202
 30
0.0
 11
54.00000080466265
 21
52.00000077486041
 31
0.0
  0
LINE
  5
1F85
  8
0
  6
CONTINUOUS
 10
-45.00000067055225
 20
52.00000077486041
 30
0.0
 11
-45.00000067055225
 21
30.00000044703484
 31
0.0
  0
LINE
  5
1F86
  8
0
  6
CONTINUOUS
 10
45.0000006705522
 20
52.00000077486041
 30
0.0
 11
45.00000067055225
 21
30.00000044703486
 31
0.0
  0
LINE
  5
1F87
  8
0
  6
CONTINUOUS
 10
-54.0000008046627
 20
62.00000092387197
 30
0.0
 11
54.00000080466265
 21
62.00000092387202
 31
0.0
  0
LINE
  5
1F88
  8
0
  6
CONTINUOUS
 10
-54.0000008046627
 20
52.00000077486035
 30
0.0
 11
54.00000080466265
 21
52.00000077486041
 31
0.0
  0
POLYLINE
  5
1F89
  8
0
  6
CONTINUOUS
 66
     1
 10
0.0
 20
0.0
 30
0.0
  0
VERTEX
  5
405E
  8
0
  6
CONTINUOUS
 10
-64.00000095367432
 20
15.00000022351742
 30
0.0
  0
VERTEX
  5
405F
  8
0
  6
CONTINUOUS
 10
64.00000095367426
 20
15.00000022351747
 30
0.0
  0
SEQEND
  5
4082
  8
0
  6
CONTINUOUS
  0
ENDBLK
  8
0
  0
BLOCK
  8
0
  2
４０ＡエアーＵ_平面図
 70
     0
 10
0.0
 20
0.0
 30
0.0
  0
POINT
  5
1F8D
  8
0
  6
CONTINUOUS
 10
220.0
 20
0.0
 30
0.0
  0
LINE
  5
1F8E
  8
0
  6
CONTINUOUS
 10
220.0
 20
-24.00003099999998
 30
0.0
 11
0.0000000000002274
 21
-24.0
 31
0.0
  0
LINE
  5
1F8F
  8
0
  6
CONTINUOUS
 10
220.0
 20
23.99996900000002
 30
0.0
 11
-0.0000000000002274
 21
24.0
 31
0.0
  0
LINE
  5
1F90
  8
0
  6
CENTER
 10
280.20001
 20
-0.0000305175780113
 30
0.0
 11
-73.26666999999998
 21
-0.0000000000001705
 31
0.0
  0
LINE
  5
1F91
  8
0
  6
CENTER
 10
220.0
 20
40.0
 30
0.0
 11
220.0
 21
-40.0
 31
0.0
  0
LINE
  5
1F92
  8
0
  6
CENTER
 10
0.0
 20
75.0
 30
0.0
 11
0.0
 21
-75.0
 31
0.0
  0
ARC
  5
1F93
  8
0
  6
CONTINUOUS
 10
220.0
 20
0.0
 30
0.0
 40
24.0
 50
270.0
 51
89.99996799999417
  0
ARC
  5
1F94
  8
0
  6
CONTINUOUS
 10
0.0
 20
0.0
 30
0.0
 40
29.5
 50
54.44515900000124
 51
305.5548199999976
  0
ARC
  5
1F95
  8
0
  6
CONTINUOUS
 10
0.0
 20
0.0000305175780113
 30
0.0
 40
24.0
 50
89.99999599999438
 51
269.999949999995
  0
ARC
  5
1F96
  8
0
  6
CONTINUOUS
 10
0.0
 20
0.0
 30
0.0
 40
50.0
 50
28.6854010000027
 51
331.3145799999958
  0
ARC
  5
1F97
  8
0
  6
CONTINUOUS
 10
0.0
 20
0.0
 30
0.0
 40
31.5
 50
49.63240599999909
 51
310.3675699999975
  0
ENDBLK
  8
0
  0
BLOCK
  8
0
  2
４０ＡエアーＵ_側面図
 70
     0
 10
0.0
 20
0.0
 30
0.0
  0
LINE
  5
1F9B
  8
0
  6
CONTINUOUS
 10
29.5
 20
110.0
 30
0.0
 11
29.5
 21
44.0
 31
0.0
  0
LINE
  5
1F9C
  8
0
  6
CONTINUOUS
 10
-29.5
 20
110.0
 30
0.0
 11
-29.5
 21
44.0
 31
0.0
  0
LINE
  5
1F9D
  8
0
  6
CONTINUOUS
 10
-29.5
 20
110.0
 30
0.0
 11
29.5
 21
110.0
 31
0.0
  0
LINE
  5
1F9E
  8
0
  6
CONTINUOUS
 10
24.0
 20
450.0
 30
0.0
 11
24.0
 21
110.0
 31
0.0
  0
LINE
  5
1F9F
  8
0
  6
CONTINUOUS
 10
-24.0
 20
450.0
 30
0.0
 11
-24.0
 21
110.0
 31
0.0
  0
LINE
  5
1FA0
  8
0
  6
CENTER
 10
0.0
 20
517.2629400000001
 30
0.0
 11
0.0
 21
-44.01276400000006
 31
0.0
  0
LINE
  5
1FA1
  8
0
  6
CONTINUOUS
 10
-50.0
 20
24.0
 30
0.0
 11
50.0
 21
24.0
 31
0.0
  0
LINE
  5
1FA2
  8
0
  6
CONTINUOUS
 10
50.0
 20
24.0
 30
0.0
 11
50.0
 21
0.0
 31
0.0
  0
LINE
  5
1FA3
  8
0
  6
CONTINUOUS
 10
-50.0
 20
24.0
 30
0.0
 11
-50.0
 21
0.0
 31
0.0
  0
LINE
  5
1FA4
  8
0
  6
CONTINUOUS
 10
31.5
 20
44.0
 30
0.0
 11
31.5
 21
24.0
 31
0.0
  0
LINE
  5
1FA5
  8
0
  6
CONTINUOUS
 10
-31.5
 20
44.0
 30
0.0
 11
-31.5
 21
24.0
 31
0.0
  0
LINE
  5
1FA6
  8
0
  6
CONTINUOUS
 10
-31.5
 20
44.0
 30
0.0
 11
31.5
 21
44.0
 31
0.0
  0
LINE
  5
1FA7
  8
0
  6
CONTINUOUS
 10
-24.0
 20
314.0
 30
0.0
 11
24.0
 21
314.0
 31
0.0
  0
ARC
  5
1FA8
  8
0
  6
CONTINUOUS
 10
0.0
 20
450.0
 30
0.0
 40
24.0
 50
0.0
 51
179.999959999996
  0
LINE
  5
1FA9
  8
0
  6
CONTINUOUS
 10
-50.0
 20
12.0
 30
0.0
 11
50.0
 21
12.0
 31
0.0
  0
ENDBLK
  8
0
  0
BLOCK
  8
0
  2
*D46
 70
     1
 10
0.0
 20
0.0
 30
0.0
  0
LINE
  5
3EA6
  8
寸法線
 62
     0
 10
39464.80368181087
 20
-4529.429839339931
 30
0.0
 11
38867.77452126683
 21
-4529.42983933993
 31
0.0
  0
LINE
  5
3EA7
  8
寸法線
 62
     0
 10
39516.40366273739
 20
-2114.429839339931
 30
0.0
 11
38867.77452126683
 21
-2114.429839339931
 31
0.0
  0
LINE
  5
3EA8
  8
寸法線
 62
     0
 10
38942.77452126683
 20
-4454.429839339931
 30
0.0
 11
38942.77452126683
 21
-2189.429839339931
 31
0.0
  0
INSERT
  5
3EA9
  8
寸法線
 62
     0
  2
_OPEN30
 10
38942.77452126683
 20
-4529.429839339931
 30
0.0
 41
75.0
 42
75.0
 43
75.0
 50
270.0
  0
INSERT
  5
3EAA
  8
寸法線
 62
     0
  2
_OPEN30
 10
38942.77452126683
 20
-2114.429839339931
 30
0.0
 41
75.0
 42
75.0
 43
75.0
 50
90.0
  0
TEXT
  5
3EAB
  8
寸法線
  6
CONTINUOUS
 62
     0
 10
38900.27452126683
 20
-3446.929839339922
 30
0.0
 40
75.0
  1
2415
 50
90.0
  0
POINT
  5
3EAC
  8
DEFPOINTS
 62
     0
 10
39514.80368181087
 20
-4529.429839339931
 30
0.0
  0
POINT
  5
3EAD
  8
DEFPOINTS
 62
     0
 10
39566.40366273739
 20
-2114.429839339931
 30
0.0
  0
POINT
  5
3EAE
  8
DEFPOINTS
 62
     0
 10
38942.77452126683
 20
-2114.429839339931
 30
0.0
  0
ENDBLK
  8
0
  0
BLOCK
  8
0
  2
*D47
 70
     1
 10
0.0
 20
0.0
 30
0.0
  0
LINE
  5
3EAF
  8
寸法線
 62
     0
 10
39464.80368181087
 20
-4529.429839339931
 30
0.0
 11
38555.43821843767
 21
-4529.42983933993
 31
0.0
  0
LINE
  5
3EB0
  8
寸法線
 62
     0
 10
40596.40368181088
 20
-1524.429839339917
 30
0.0
 11
38555.43821843767
 21
-1524.429839339916
 31
0.0
  0
LINE
  5
3EB1
  8
寸法線
 62
     0
 10
38630.43821843767
 20
-4454.42983933993
 30
0.0
 11
38630.43821843767
 21
-1599.429839339916
 31
0.0
  0
INSERT
  5
3EB2
  8
寸法線
 62
     0
  2
_OPEN30
 10
38630.43821843767
 20
-4529.42983933993
 30
0.0
 41
75.0
 42
75.0
 43
75.0
 50
270.0
  0
INSERT
  5
3EB3
  8
寸法線
 62
     0
  2
_OPEN30
 10
38630.43821843767
 20
-1524.429839339916
 30
0.0
 41
75.0
 42
75.0
 43
75.0
 50
90.0
  0
TEXT
  5
3EB4
  8
寸法線
  6
CONTINUOUS
 62
     0
 10
38587.93821843767
 20
-3151.929839339915
 30
0.0
 40
75.0
  1
3005
 50
90.0
  0
POINT
  5
3EB5
  8
DEFPOINTS
 62
     0
 10
39514.80368181087
 20
-4529.429839339931
 30
0.0
  0
POINT
  5
3EB6
  8
DEFPOINTS
 62
     0
 10
40646.40368181088
 20
-1524.429839339917
 30
0.0
  0
POINT
  5
3EB7
  8
DEFPOINTS
 62
     0
 10
38630.43821843767
 20
-1524.429839339916
 30
0.0
  0
ENDBLK
  8
0
  0
BLOCK
  8
0
  2
*D48
 70
     1
 10
0.0
 20
0.0
 30
0.0
  0
LINE
  5
3EB8
  8
寸法線
 62
     0
 10
39516.40370925979
 20
-2114.429448486333
 30
0.0
 11
38867.77452126683
 21
-2114.429448486333
 31
0.0
  0
LINE
  5
3EB9
  8
寸法線
 62
     0
 10
40596.40368181088
 20
-1524.429839339917
 30
0.0
 11
38867.77452126683
 21
-1524.429839339916
 31
0.0
  0
LINE
  5
3EBA
  8
寸法線
 62
     0
 10
38942.77452126683
 20
-2039.429448486333
 30
0.0
 11
38942.77452126683
 21
-1599.429839339916
 31
0.0
  0
INSERT
  5
3EBB
  8
寸法線
 62
     0
  2
_OPEN30
 10
38942.77452126683
 20
-2114.429448486333
 30
0.0
 41
75.0
 42
75.0
 43
75.0
 50
270.0
  0
INSERT
  5
3EBC
  8
寸法線
 62
     0
  2
_OPEN30
 10
38942.77452126683
 20
-1524.429839339916
 30
0.0
 41
75.0
 42
75.0
 43
75.0
 50
90.0
  0
TEXT
  5
3EBD
  8
寸法線
  6
CONTINUOUS
 62
     0
 10
38900.27452126683
 20
-1913.179643913121
 30
0.0
 40
75.0
  1
590
 50
90.0
  0
POINT
  5
3EBE
  8
DEFPOINTS
 62
     0
 10
39566.40370925979
 20
-2114.429448486333
 30
0.0
  0
POINT
  5
3EBF
  8
DEFPOINTS
 62
     0
 10
40646.40368181088
 20
-1524.429839339917
 30
0.0
  0
POINT
  5
3EC0
  8
DEFPOINTS
 62
     0
 10
38942.77452126683
 20
-1524.429839339916
 30
0.0
  0
ENDBLK
  8
0
  0
BLOCK
  8
0
  2
*D49
 70
     1
 10
0.0
 20
0.0
 30
0.0
  0
LINE
  5
3EC1
  8
寸法線
 62
     0
 10
39566.40366273739
 20
-4579.429839339931
 30
0.0
 11
39566.40366273739
 21
-5253.248596385367
 31
0.0
  0
LINE
  5
3EC2
  8
寸法線
 62
     0
 10
41726.40370088437
 20
-4579.429839339931
 30
0.0
 11
41726.40370088437
 21
-5253.248596385367
 31
0.0
  0
LINE
  5
3EC3
  8
寸法線
 62
     0
 10
39641.40366273739
 20
-5178.248596385367
 30
0.0
 11
41651.40370088437
 21
-5178.248596385367
 31
0.0
  0
INSERT
  5
3EC4
  8
寸法線
 62
     0
  2
_OPEN30
 10
39566.40366273739
 20
-5178.248596385367
 30
0.0
 41
75.0
 42
75.0
 43
75.0
 50
180.0
  0
INSERT
  5
3EC5
  8
寸法線
 62
     0
  2
_OPEN30
 10
41726.40370088437
 20
-5178.248596385367
 30
0.0
 41
75.0
 42
75.0
 43
75.0
  0
TEXT
  5
3EC6
  8
寸法線
  6
CONTINUOUS
 62
     0
 10
40408.90368181088
 20
-5135.748596385367
 30
0.0
 40
75.0
  1
O.Dφ2160
  0
POINT
  5
3EC7
  8
DEFPOINTS
 62
     0
 10
39566.40366273739
 20
-4529.429839339931
 30
0.0
  0
POINT
  5
3EC8
  8
DEFPOINTS
 62
     0
 10
41726.40370088437
 20
-4529.429839339931
 30
0.0
  0
POINT
  5
3EC9
  8
DEFPOINTS
 62
     0
 10
41726.40370088437
 20
-5178.248596385367
 30
0.0
  0
ENDBLK
  8
0
  0
BLOCK
  8
0
  2
*D50
 70
     1
 10
0.0
 20
0.0
 30
0.0
  0
LINE
  5
3F09
  8
0
 62
     0
 10
44801.9177649551
 20
-441.067713521541
 30
0.0
 11
45168.22743148694
 21
-769.5204927841442
 31
0.0
  0
LINE
  5
3F0A
  8
0
 62
     0
 10
45674.50908441714
 20
-1223.479618594254
 30
0.0
 11
45741.51695024614
 21
-1283.562444069121
 31
0.0
  0
TEXT
  5
3F0B
  8
0
  6
CONTINUOUS
 62
     0
 10
44873.93582336062
 20
-437.1435239875391
 30
0.0
 40
90.0
  1
\U+2205500
 50
318.1189034963588
  0
LINE
  5
3F0C
  8
0
 62
     0
 10
45607.50121858814
 20
-1163.396793119387
 30
0.0
 11
45235.23529731594
 21
-829.6033182590108
 31
0.0
  0
INSERT
  5
3F0D
  8
0
 62
     0
  2
_OPEN30
 10
45607.50121858814
 20
-1163.396793119387
 30
0.0
 41
90.0
 42
90.0
 43
90.0
 50
138.1189034963588
  0
INSERT
  5
3F0E
  8
0
 62
     0
  2
_OPEN30
 10
45235.23529731594
 20
-829.6033182590108
 30
0.0
 41
90.0
 42
90.0
 43
90.0
 50
318.1189034963588
  0
POINT
  5
3F0F
  8
DEFPOINTS
 62
     0
 10
45235.23529731594
 20
-829.6033182590108
 30
0.0
  0
POINT
  5
3F10
  8
DEFPOINTS
 62
     0
 10
45607.50121858814
 20
-1163.396793119387
 30
0.0
  0
ENDBLK
  8
0
  0
BLOCK
  8
0
  2
*D51
 70
     1
 10
0.0
 20
0.0
 30
0.0
  0
LINE
  5
3F6F
  8
0
 62
     0
 10
40696.40368181088
 20
-4429.429839339928
 30
0.0
 11
40926.46129867976
 21
-4429.429839339928
 31
0.0
  0
LINE
  5
3F70
  8
0
 62
     0
 10
40696.40368181088
 20
-2194.429839339935
 30
0.0
 11
40926.46129867976
 21
-2194.429839339935
 31
0.0
  0
LINE
  5
3F71
  8
0
 62
     0
 10
40851.46129867976
 20
-4354.429839339928
 30
0.0
 11
40851.46129867976
 21
-2269.429839339935
 31
0.0
  0
INSERT
  5
3F72
  8
0
 62
     0
  2
_OPEN30
 10
40851.46129867976
 20
-4429.429839339928
 30
0.0
 41
75.0
 42
75.0
 43
75.0
 50
270.0
  0
INSERT
  5
3F73
  8
0
 62
     0
  2
_OPEN30
 10
40851.46129867976
 20
-2194.429839339935
 30
0.0
 41
75.0
 42
75.0
 43
75.0
 50
90.0
  0
TEXT
  5
3F74
  8
0
  6
CONTINUOUS
 62
     0
 10
40808.96129867976
 20
-3484.341193146829
 30
0.0
 40
75.0
  1
2235
 50
90.0
  0
POINT
  5
3F75
  8
DEFPOINTS
 62
     0
 10
40646.40368181088
 20
-4429.429839339928
 30
0.0
  0
POINT
  5
3F76
  8
DEFPOINTS
 62
     0
 10
40646.40368181088
 20
-2194.429839339935
 30
0.0
  0
POINT
  5
3F77
  8
DEFPOINTS
 62
     0
 10
40851.46129867976
 20
-2194.429839339935
 30
0.0
  0
ENDBLK
  8
0
  0
BLOCK
  8
0
  2
*D52
 70
     1
 10
0.0
 20
0.0
 30
0.0
  0
LINE
  5
3F11
  8
0
 62
     0
 10
45271.36825546865
 20
92.7295426431017
 30
0.0
 11
45271.36825546865
 21
295.5846332341068
 31
0.0
  0
LINE
  5
3F12
  8
0
 62
     0
 10
45571.36777108353
 20
92.73049912542501
 30
0.0
 11
45571.36777108353
 21
295.5846332341068
 31
0.0
  0
LINE
  5
3F13
  8
0
 62
     0
 10
45346.36825546865
 20
220.5846332341068
 30
0.0
 11
45496.36777108353
 21
220.5846332341068
 31
0.0
  0
INSERT
  5
3F14
  8
0
 62
     0
  2
_OPEN30
 10
45271.36825546865
 20
220.5846332341068
 30
0.0
 41
75.0
 42
75.0
 43
75.0
 50
180.0
  0
INSERT
  5
3F15
  8
0
 62
     0
  2
_OPEN30
 10
45571.36777108353
 20
220.5846332341068
 30
0.0
 41
75.0
 42
75.0
 43
75.0
  0
TEXT
  5
3F16
  8
0
  6
CONTINUOUS
 62
     0
 10
45333.86801327609
 20
263.0846332341068
 30
0.0
 40
75.0
  1
300
  0
POINT
  5
3F17
  8
DEFPOINTS
 62
     0
 10
45271.36825546865
 20
42.72954264310169
 30
0.0
  0
POINT
  5
3F18
  8
DEFPOINTS
 62
     0
 10
45571.36777108353
 20
42.73049912542501
 30
0.0
  0
POINT
  5
3F19
  8
DEFPOINTS
 62
     0
 10
45571.36777108353
 20
220.5846332341068
 30
0.0
  0
ENDBLK
  8
0
  0
BLOCK
  8
0
  2
*D53
 70
     1
 10
0.0
 20
0.0
 30
0.0
  0
LINE
  5
3F1A
  8
0
 62
     0
 10
45261.3688669595
 20
121.5803154090814
 30
0.0
 11
45261.3688669595
 21
454.8798184618834
 31
0.0
  0
LINE
  5
3F1B
  8
0
 62
     0
 10
45581.36828734565
 20
121.5818923379321
 30
0.0
 11
45581.36828734565
 21
454.8798184618834
 31
0.0
  0
LINE
  5
3F1C
  8
0
 62
     0
 10
45336.3688669595
 20
379.8798184618834
 30
0.0
 11
45506.36828734565
 21
379.8798184618834
 31
0.0
  0
INSERT
  5
3F1D
  8
0
 62
     0
  2
_OPEN30
 10
45261.3688669595
 20
379.8798184618834
 30
0.0
 41
75.0
 42
75.0
 43
75.0
 50
180.0
  0
INSERT
  5
3F1E
  8
0
 62
     0
  2
_OPEN30
 10
45581.36828734565
 20
379.8798184618834
 30
0.0
 41
75.0
 42
75.0
 43
75.0
  0
TEXT
  5
3F1F
  8
0
  6
CONTINUOUS
 62
     0
 10
45327.61857715258
 20
422.3798184618834
 30
0.0
 40
75.0
  1
320
  0
POINT
  5
3F20
  8
DEFPOINTS
 62
     0
 10
45261.3688669595
 20
71.58031540908138
 30
0.0
  0
POINT
  5
3F21
  8
DEFPOINTS
 62
     0
 10
45581.36828734565
 20
71.58189233793206
 30
0.0
  0
POINT
  5
3F22
  8
DEFPOINTS
 62
     0
 10
45581.36828734565
 20
379.8798184618834
 30
0.0
  0
ENDBLK
  8
0
  0
BLOCK
  8
0
  2
*D54
 70
     1
 10
0.0
 20
0.0
 30
0.0
  0
LINE
  5
3EDE
  8
0
 62
     0
 10
40396.40359645717
 20
-1534.429925170605
 30
0.0
 11
40396.40359645717
 21
-1274.32990063398
 31
0.0
  0
LINE
  5
3EDF
  8
0
 62
     0
 10
40896.40376716459
 20
-1534.429925170605
 30
0.0
 11
40896.40376716459
 21
-1274.32990063398
 31
0.0
  0
LINE
  5
3EE0
  8
0
 62
     0
 10
40471.40359645717
 20
-1349.32990063398
 30
0.0
 11
40821.40376716459
 21
-1349.32990063398
 31
0.0
  0
INSERT
  5
3EE1
  8
0
 62
     0
  2
_OPEN30
 10
40396.40359645717
 20
-1349.32990063398
 30
0.0
 41
75.0
 42
75.0
 43
75.0
 50
180.0
  0
INSERT
  5
3EE2
  8
0
 62
     0
  2
_OPEN30
 10
40896.40376716459
 20
-1349.32990063398
 30
0.0
 41
75.0
 42
75.0
 43
75.0
  0
TEXT
  5
3EE3
  8
0
  6
CONTINUOUS
 62
     0
 10
40425.8186038952
 20
-1306.82990063398
 30
0.0
 40
75.0
  1
I.D\U+2205500
  0
POINT
  5
3EE4
  8
DEFPOINTS
 62
     0
 10
40396.40359645717
 20
-1584.429925170605
 30
0.0
  0
POINT
  5
3EE5
  8
DEFPOINTS
 62
     0
 10
40896.40376716459
 20
-1584.429925170605
 30
0.0
  0
POINT
  5
3EE6
  8
DEFPOINTS
 62
     0
 10
40896.40376716459
 20
-1349.32990063398
 30
0.0
  0
ENDBLK
  8
0
  0
BLOCK
  8
0
  2
*D55
 70
     1
 10
0.0
 20
0.0
 30
0.0
  0
LINE
  5
3EE7
  8
0
 62
     0
 10
40801.46129867976
 20
-4429.429839339929
 30
0.0
 11
40776.46129867976
 21
-4429.429839339929
 31
0.0
  0
LINE
  5
3EE8
  8
0
 62
     0
 10
40828.25621767976
 20
-4529.429839339931
 30
0.0
 11
40776.46129867976
 21
-4529.429839339931
 31
0.0
  0
LINE
  5
3EE9
  8
0
 62
     0
 10
40851.46129867976
 20
-4354.429839339929
 30
0.0
 11
40851.46129867976
 21
-4279.429839339929
 31
0.0
  0
LINE
  5
3EEA
  8
0
 62
     0
 10
40851.46129867976
 20
-4604.429839339931
 30
0.0
 11
40851.46129867976
 21
-4914.429839339931
 31
0.0
  0
LINE
  5
3EEB
  8
0
 62
     0
 10
40851.46129867976
 20
-4429.429839339929
 30
0.0
 11
40851.46129867976
 21
-4529.429839339931
 31
0.0
  0
INSERT
  5
3EEC
  8
0
 62
     0
  2
_OPEN30
 10
40851.46129867976
 20
-4429.429839339929
 30
0.0
 41
75.0
 42
75.0
 43
75.0
 50
270.0
  0
INSERT
  5
3EED
  8
0
 62
     0
  2
_OPEN30
 10
40851.46129867976
 20
-4529.429839339931
 30
0.0
 41
75.0
 42
75.0
 43
75.0
 50
90.0
  0
TEXT
  5
3EEE
  8
0
  6
CONTINUOUS
 62
     0
 10
40808.96129867976
 20
-4871.929839339922
 30
0.0
 40
75.0
  1
100
 50
90.0
  0
POINT
  5
3EEF
  8
DEFPOINTS
 62
     0
 10
40851.46129867976
 20
-4429.429839339929
 30
0.0
  0
POINT
  5
3EF0
  8
DEFPOINTS
 62
     0
 10
40878.25621767976
 20
-4529.429839339931
 30
0.0
  0
POINT
  5
3EF1
  8
DEFPOINTS
 62
     0
 10
40851.46129867976
 20
-4529.429839339931
 30
0.0
  0
ENDBLK
  8
0
  0
BLOCK
  8
0
  2
*D56
 70
     1
 10
0.0
 20
0.0
 30
0.0
  0
LINE
  5
3F25
  8
0
 62
     0
 10
40272.03866020108
 20
-4399.429839339931
 30
0.0
 11
40131.06009494548
 21
-4399.429839339931
 31
0.0
  0
LINE
  5
3F26
  8
0
 62
     0
 10
40596.40368181088
 20
-4529.429839339931
 30
0.0
 11
40131.06009494548
 21
-4529.429839339931
 31
0.0
  0
LINE
  5
3F27
  8
0
 62
     0
 10
40206.06009494548
 20
-4324.429839339931
 30
0.0
 11
40206.06009494548
 21
-4249.429839339931
 31
0.0
  0
LINE
  5
3F28
  8
0
 62
     0
 10
40206.06009494548
 20
-4604.429839339931
 30
0.0
 11
40206.06009494548
 21
-4926.929839339931
 31
0.0
  0
LINE
  5
3F29
  8
0
 62
     0
 10
40206.06009494548
 20
-4399.429839339931
 30
0.0
 11
40206.06009494548
 21
-4529.429839339931
 31
0.0
  0
INSERT
  5
3F2A
  8
0
 62
     0
  2
_OPEN30
 10
40206.06009494548
 20
-4399.429839339931
 30
0.0
 41
75.0
 42
75.0
 43
75.0
 50
270.0
  0
INSERT
  5
3F2B
  8
0
 62
     0
  2
_OPEN30
 10
40206.06009494548
 20
-4529.429839339931
 30
0.0
 41
75.0
 42
75.0
 43
75.0
 50
90.0
  0
TEXT
  5
3F2C
  8
0
  6
CONTINUOUS
 62
     0
 10
40163.56009494548
 20
-4884.429839339922
 30
0.0
 40
75.0
  1
130
 50
90.0
  0
POINT
  5
3F2D
  8
DEFPOINTS
 62
     0
 10
40322.03866020108
 20
-4399.429839339931
 30
0.0
  0
POINT
  5
3F2E
  8
DEFPOINTS
 62
     0
 10
40646.40368181088
 20
-4529.429839339931
 30
0.0
  0
POINT
  5
3F2F
  8
DEFPOINTS
 62
     0
 10
40206.06009494548
 20
-4529.429839339931
 30
0.0
  0
ENDBLK
  8
0
  0
BLOCK
  8
0
  2
*X57
 70
     1
 10
0.0
 20
0.0
 30
0.0
  0
TEXT
  5
3FE7
  8
0
  6
CONTINUOUS
 10
40492.16167369133
 20
-210.8706634794898
 30
0.0
 40
60.0
  1
融着フランジ（ＰＥ）は、ＪＩＳ１０
  0
TEXT
  5
3FE8
  8
0
  6
CONTINUOUS
 10
41342.16167369133
 20
-173.8706634794898
 30
0.0
 40
42.0
  1
Ｋ
  0
TEXT
  5
3FE9
  8
0
  6
CONTINUOUS
 10
41377.16167369133
 20
-210.8706634794898
 30
0.0
 40
60.0
  1
相当とする。
  0
ENDBLK
  8
0
  0
BLOCK
  8
0
  2
*X58
 70
     1
 10
0.0
 20
0.0
 30
0.0
  0
TEXT
  5
3FEB
  8
0
  6
CONTINUOUS
 10
45355.39686541748
 20
-3512.865777411665
 30
0.0
 40
42.0
  1
\U+2205
  0
TEXT
  5
3FEC
  8
0
  6
CONTINUOUS
 10
45397.39686541748
 20
-3526.865777411665
 30
0.0
 40
60.0
  1
13×
  0
TEXT
  5
3FED
  8
0
  6
CONTINUOUS
 10
45547.39686541748
 20
-3512.865777411665
 30
0.0
 40
42.0
  1
\U+2205
  0
TEXT
  5
3FEE
  8
0
  6
CONTINUOUS
 10
45589.39686541748
 20
-3526.865777411665
 30
0.0
 40
60.0
  1
9
  0
ENDBLK
  8
0
  0
BLOCK
  8
0
  2
*X59
 70
     1
 10
0.0
 20
0.0
 30
0.0
  0
INSERT
  5
4030
  8
0
  2
_OPEN30
 10
40639.40368181088
 20
-4414.429839339926
 30
0.0
 41
75.0
 42
75.0
 43
75.0
 50
287.2399200513831
  0
LINE
  5
4031
  8
0
 10
40617.17566515889
 20
-4342.79943186015
 30
0.0
 11
40330.60082871201
 21
-3419.303978823359
 31
0.0
  0
ENDBLK
  8
0
  0
BLOCK
  8
0
  2
*X60
 70
     1
 10
0.0
 20
0.0
 30
0.0
  0
INSERT
  5
4033
  8
0
  2
_OPEN30
 10
40639.40368181088
 20
-2194.429839339931
 30
0.0
 41
75.0
 42
75.0
 43
75.0
 50
73.36381978667315
  0
LINE
  5
4034
  8
0
 10
40617.93167257598
 20
-2266.290487955265
 30
0.0
 11
40331.2520658432
 21
-3225.724803544331
 31
0.0
  0
ENDBLK
  8
0
  0
BLOCK
  8
0
  2
*X61
 70
     1
 10
0.0
 20
0.0
 30
0.0
  0
INSERT
  5
4036
  8
0
  2
_OPEN30
 10
40361.34874920109
 20
-4309.629836339931
 30
0.0
 41
75.0
 42
75.0
 43
75.0
 50
308.9542379421485
  0
LINE
  5
4037
  8
0
 10
40314.1962878253
 20
-4251.306210027738
 30
0.0
 11
40108.90116006208
 21
-3997.373414877347
 31
0.0
  0
ENDBLK
  8
0
  0
BLOCK
  8
0
  2
*X62
 70
     1
 10
0.0
 20
0.0
 30
0.0
  0
INSERT
  5
4048
  8
0
  2
_OPEN30
 10
41727.90381184631
 20
-1637.92989459077
 30
0.0
 41
75.00000000000001
 42
75.00000000000001
 43
75.0
 50
255.4233729685267
  0
LINE
  5
4049
  8
0
 10
41746.77940494067
 20
-1565.344000745369
 30
0.0
 11
41865.24401170619
 21
-1109.789606871259
 31
0.0
  0
ENDBLK
  8
0
  0
BLOCK
  8
0
  2
*X63
 70
     1
 10
0.0
 20
0.0
 30
0.0
  0
INSERT
  5
404B
  8
0
  2
_DOTSMALL
 10
41055.96886834347
 20
-1890.199430258668
 30
0.0
 41
75.0
 42
75.0
 43
75.0
 50
258.4367697904171
  0
LINE
  5
404C
  8
0
 10
41055.96886834347
 20
-1890.199430258668
 30
0.0
 11
41215.64213343841
 21
-1109.789606871259
 31
0.0
  0
ENDBLK
  8
0
  0
BLOCK
  8
0
  2
*X64
 70
     1
 10
0.0
 20
0.0
 30
0.0
  0
INSERT
  5
404E
  8
0
  2
_OPEN30
 10
40346.20850769563
 20
-1584.429925170605
 30
0.0
 41
75.0
 42
75.0
 43
75.0
 50
313.4145229568515
  0
LINE
  5
404F
  8
0
 10
40294.66313348868
 20
-1529.94988847949
 30
0.0
 11
39872.64550137347
 21
-1083.905283397688
 31
0.0
  0
ENDBLK
  8
0
  0
ENDSEC
  0
SECTION
  2
ENTITIES
  0
LINE
  5
521
  8
0
  6
CONTINUOUS
 10
37362.95321643585
 20
1141.273561757509
 30
0.0
 11
37537.95321643585
 21
1141.273561757509
 31
0.0
  0
LINE
  5
522
  8
0
  6
CONTINUOUS
 10
37537.95321643585
 20
1141.273561757509
 30
0.0
 11
37665.95321643591
 21
1141.273561757509
 31
0.0
  0
LINE
  5
523
  8
0
  6
CONTINUOUS
 10
37362.95321643585
 20
1141.273561757509
 30
0.0
 11
37362.95321643585
 21
971.6068950908375
 31
0.0
  0
LINE
  5
524
  8
0
  6
CONTINUOUS
 10
37665.95321643591
 20
1141.273561757509
 30
0.0
 11
37840.95321643591
 21
1141.273561757509
 31
0.0
  0
LINE
  5
525
  8
0
  6
CONTINUOUS
 10
37840.95321643591
 20
1141.273561757509
 30
0.0
 11
38015.95321643591
 21
1141.273561757509
 31
0.0
  0
LINE
  5
526
  8
0
  6
CONTINUOUS
 10
38015.95321643591
 20
1141.273561757509
 30
0.0
 11
38190.95321643591
 21
1141.273561757509
 31
0.0
  0
LINE
  5
527
  8
0
  6
CONTINUOUS
 10
38190.95321643591
 20
1141.273561757509
 30
0.0
 11
38365.95321643591
 21
1141.273561757509
 31
0.0
  0
LINE
  5
528
  8
0
  6
CONTINUOUS
 10
38365.95321643591
 20
1141.273561757509
 30
0.0
 11
38540.95321643591
 21
1141.273561757509
 31
0.0
  0
LINE
  5
529
  8
0
  6
CONTINUOUS
 10
38540.95321643591
 20
1141.273561757509
 30
0.0
 11
38715.95321643591
 21
1141.273561757509
 31
0.0
  0
LINE
  5
52A
  8
0
  6
CONTINUOUS
 10
38715.95321643591
 20
1141.273561757509
 30
0.0
 11
38890.95321643591
 21
1141.273561757509
 31
0.0
  0
LINE
  5
52B
  8
0
  6
CONTINUOUS
 10
38890.95321643591
 20
1141.273561757509
 30
0.0
 11
39065.95321643591
 21
1141.273561757509
 31
0.0
  0
LINE
  5
52C
  8
0
  6
CONTINUOUS
 10
37665.95321643591
 20
1141.273561757509
 30
0.0
 11
37665.95321643591
 21
971.6068950908375
 31
0.0
  0
LINE
  5
52D
  8
0
  6
CONTINUOUS
 10
39065.95321643591
 20
1141.273561757509
 30
0.0
 11
39240.95321643591
 21
1141.273561757509
 31
0.0
  0
LINE
  5
52E
  8
0
  6
CONTINUOUS
 10
39240.95321643591
 20
1141.273561757509
 30
0.0
 11
39415.95321643591
 21
1141.273561757509
 31
0.0
  0
LINE
  5
52F
  8
0
  6
CONTINUOUS
 10
39415.95321643591
 20
1141.273561757509
 30
0.0
 11
39590.95321643591
 21
1141.273561757509
 31
0.0
  0
LINE
  5
530
  8
0
  6
CONTINUOUS
 10
39065.95321643591
 20
1141.273561757509
 30
0.0
 11
39065.95321643591
 21
971.6068950908375
 31
0.0
  0
LINE
  5
531
  8
0
  6
CONTINUOUS
 10
39590.95321643591
 20
1141.273561757509
 30
0.0
 11
39765.95321643591
 21
1141.273561757509
 31
0.0
  0
LINE
  5
532
  8
0
  6
CONTINUOUS
 10
39765.95321643591
 20
1141.273561757509
 30
0.0
 11
39940.95321643591
 21
1141.273561757509
 31
0.0
  0
LINE
  5
533
  8
0
  6
CONTINUOUS
 10
39590.95321643591
 20
1141.273561757509
 30
0.0
 11
39590.95321643591
 21
971.6068950908375
 31
0.0
  0
LINE
  5
534
  8
0
  6
CONTINUOUS
 10
39940.95321643591
 20
1141.273561757509
 30
0.0
 11
39940.95321643591
 21
971.6068950908375
 31
0.0
  0
LINE
  5
535
  8
0
  6
CONTINUOUS
 10
37362.95321643585
 20
971.6068950908375
 30
0.0
 11
37537.95321643585
 21
971.6068950908375
 31
0.0
  0
LINE
  5
536
  8
0
  6
CONTINUOUS
 10
37537.95321643585
 20
971.6068950908375
 30
0.0
 11
37665.95321643591
 21
971.6068950908375
 31
0.0
  0
LINE
  5
537
  8
0
  6
CONTINUOUS
 10
37665.95321643591
 20
971.6068950908375
 30
0.0
 11
37840.95321643591
 21
971.6068950908375
 31
0.0
  0
LINE
  5
538
  8
0
  6
CONTINUOUS
 10
37840.95321643591
 20
971.6068950908375
 30
0.0
 11
38015.95321643591
 21
971.6068950908375
 31
0.0
  0
LINE
  5
539
  8
0
  6
CONTINUOUS
 10
38015.95321643591
 20
971.6068950908375
 30
0.0
 11
38190.95321643591
 21
971.6068950908375
 31
0.0
  0
LINE
  5
53A
  8
0
  6
CONTINUOUS
 10
38190.95321643591
 20
971.6068950908375
 30
0.0
 11
38365.95321643591
 21
971.6068950908375
 31
0.0
  0
LINE
  5
53B
  8
0
  6
CONTINUOUS
 10
38365.95321643591
 20
971.6068950908375
 30
0.0
 11
38540.95321643591
 21
971.6068950908375
 31
0.0
  0
LINE
  5
53C
  8
0
  6
CONTINUOUS
 10
38540.95321643591
 20
971.6068950908375
 30
0.0
 11
38715.95321643591
 21
971.6068950908375
 31
0.0
  0
LINE
  5
53D
  8
0
  6
CONTINUOUS
 10
38715.95321643591
 20
971.6068950908375
 30
0.0
 11
38890.95321643591
 21
971.6068950908375
 31
0.0
  0
LINE
  5
53E
  8
0
  6
CONTINUOUS
 10
38890.95321643591
 20
971.6068950908375
 30
0.0
 11
39065.95321643591
 21
971.6068950908375
 31
0.0
  0
LINE
  5
53F
  8
0
  6
CONTINUOUS
 10
39065.95321643591
 20
971.6068950908375
 30
0.0
 11
39240.95321643591
 21
971.6068950908375
 31
0.0
  0
LINE
  5
540
  8
0
  6
CONTINUOUS
 10
39240.95321643591
 20
971.6068950908375
 30
0.0
 11
39415.95321643591
 21
971.6068950908375
 31
0.0
  0
LINE
  5
541
  8
0
  6
CONTINUOUS
 10
39415.95321643591
 20
971.6068950908375
 30
0.0
 11
39590.95321643591
 21
971.6068950908375
 31
0.0
  0
LINE
  5
542
  8
0
  6
CONTINUOUS
 10
39590.95321643591
 20
971.6068950908375
 30
0.0
 11
39765.95321643591
 21
971.6068950908375
 31
0.0
  0
LINE
  5
543
  8
0
  6
CONTINUOUS
 10
39765.95321643591
 20
971.6068950908375
 30
0.0
 11
39940.95321643591
 21
971.6068950908375
 31
0.0
  0
TEXT
  5
544
  8
0
  6
CONTINUOUS
 10
37393.71781265883
 20
1017.679601497445
 30
0.0
 40
80.0
  1
記 号
  0
TEXT
  5
545
  8
0
  6
CONTINUOUS
 10
37889.23136299592
 20
1015.081207603327
 30
0.0
 40
80.0
  1
来　　　　　　　　歴
  0
TEXT
  5
546
  8
0
  6
CONTINUOUS
 10
39095.05077882051
 20
1016.498176795641
 30
0.0
 40
80.0
  1
年・月・日
  0
TEXT
  5
547
  8
0
  6
CONTINUOUS
 10
39654.55631542037
 20
1021.149691655125
 30
0.0
 40
80.0
  1
記 入
  0
POLYLINE
  5
548
  8
0
  6
CONTINUOUS
 66
     1
 10
0.0
 20
0.0
 30
0.0
 70
     1
  0
VERTEX
  5
3FDE
  8
0
  6
CONTINUOUS
 10
37362.95321643585
 20
1141.273561757524
 30
0.0
  0
VERTEX
  5
3FDF
  8
0
  6
CONTINUOUS
 10
47437.95321643585
 20
1141.273561757524
 30
0.0
  0
VERTEX
  5
3FE0
  8
0
  6
CONTINUOUS
 10
47437.95321643585
 20
-5858.726438242476
 30
0.0
  0
VERTEX
  5
3FE1
  8
0
  6
CONTINUOUS
 10
37362.95321643585
 20
-5858.726438242476
 30
0.0
  0
SEQEND
  5
4070
  8
0
  6
CONTINUOUS
  0
POLYLINE
  5
549
  8
0
  6
CONTINUOUS
 66
     1
 10
0.0
 20
0.0
 30
0.0
 70
     1
  0
VERTEX
  5
3FE2
  8
0
  6
CONTINUOUS
 10
37112.95321643585
 20
1391.273561757524
 30
0.0
  0
VERTEX
  5
3FE3
  8
0
  6
CONTINUOUS
 10
47687.95321643585
 20
1391.273561757524
 30
0.0
  0
VERTEX
  5
3FE4
  8
0
  6
CONTINUOUS
 10
47687.95321643585
 20
-6108.726438242476
 30
0.0
  0
VERTEX
  5
3FE5
  8
0
  6
CONTINUOUS
 10
37112.95321643585
 20
-6108.726438242476
 30
0.0
  0
SEQEND
  5
4071
  8
0
  6
CONTINUOUS
  0
LINE
  5
54A
  8
0
  6
CONTINUOUS
 10
44112.95321643585
 20
-4671.059771575836
 30
0.0
 11
44112.95321643585
 21
-4840.726438242485
 31
0.0
  0
LINE
  5
54B
  8
0
  6
CONTINUOUS
 10
44462.95321643585
 20
-4671.059771575836
 30
0.0
 11
44462.95321643585
 21
-4840.726438242485
 31
0.0
  0
LINE
  5
54C
  8
0
  6
CONTINUOUS
 10
44812.95321643585
 20
-4671.059771575836
 30
0.0
 11
44812.95321643585
 21
-4840.726438242485
 31
0.0
  0
LINE
  5
54D
  8
0
  6
CONTINUOUS
 10
45162.95321643585
 20
-4671.059771575836
 30
0.0
 11
45162.95321643585
 21
-4840.726438242485
 31
0.0
  0
LINE
  5
54E
  8
0
  6
CONTINUOUS
 10
45512.95321643585
 20
-4671.059771575836
 30
0.0
 11
45512.95321643585
 21
-4840.726438242485
 31
0.0
  0
LINE
  5
54F
  8
0
  6
CONTINUOUS
 10
45512.95321643585
 20
-4840.726438242485
 30
0.0
 11
45512.95321643585
 21
-5010.393104909156
 31
0.0
  0
LINE
  5
550
  8
0
  6
CONTINUOUS
 10
45512.95321643585
 20
-5010.393104909156
 30
0.0
 11
45512.95321643585
 21
-5180.059771575828
 31
0.0
  0
LINE
  5
551
  8
0
  6
CONTINUOUS
 10
45512.95321643585
 20
-5180.059771575828
 30
0.0
 11
45512.95321643585
 21
-5349.726438242499
 31
0.0
  0
LINE
  5
552
  8
0
  6
CONTINUOUS
 10
45512.95321643585
 20
-5349.726438242499
 30
0.0
 11
45512.95321643585
 21
-5519.393104909148
 31
0.0
  0
LINE
  5
553
  8
0
  6
CONTINUOUS
 10
45687.95321643585
 20
-4671.059771575836
 30
0.0
 11
45687.95321643585
 21
-4840.726438242485
 31
0.0
  0
LINE
  5
554
  8
0
  6
CONTINUOUS
 10
47437.95321643585
 20
-4671.059771575836
 30
0.0
 11
47437.95321643585
 21
-4840.726438242485
 31
0.0
  0
LINE
  5
555
  8
0
  6
CONTINUOUS
 10
45687.95321643585
 20
-4840.726438242485
 30
0.0
 11
45687.95321643585
 21
-5010.393104909156
 31
0.0
  0
LINE
  5
556
  8
0
  6
CONTINUOUS
 10
47437.95321643585
 20
-4840.726438242485
 30
0.0
 11
47437.95321643585
 21
-5010.393104909156
 31
0.0
  0
LINE
  5
557
  8
0
  6
CONTINUOUS
 10
45687.95321643585
 20
-5010.393104909156
 30
0.0
 11
45687.95321643585
 21
-5180.059771575828
 31
0.0
  0
LINE
  5
558
  8
0
  6
CONTINUOUS
 10
47437.95321643585
 20
-5010.393104909156
 30
0.0
 11
47437.95321643585
 21
-5180.059771575828
 31
0.0
  0
LINE
  5
559
  8
0
  6
CONTINUOUS
 10
45687.95321643585
 20
-5180.059771575828
 30
0.0
 11
45687.95321643585
 21
-5349.726438242499
 31
0.0
  0
LINE
  5
55A
  8
0
  6
CONTINUOUS
 10
47437.95321643585
 20
-5180.059771575828
 30
0.0
 11
47437.95321643585
 21
-5349.726438242499
 31
0.0
  0
LINE
  5
55B
  8
0
  6
CONTINUOUS
 10
45687.95321643585
 20
-5349.726438242499
 30
0.0
 11
45687.95321643585
 21
-5519.393104909148
 31
0.0
  0
LINE
  5
55C
  8
0
  6
CONTINUOUS
 10
47437.95321643585
 20
-5349.726438242499
 30
0.0
 11
47437.95321643585
 21
-5519.393104909148
 31
0.0
  0
LINE
  5
55D
  8
0
  6
CONTINUOUS
 10
44112.95321643585
 20
-4840.726438242485
 30
0.0
 11
44287.95321643585
 21
-4840.726438242485
 31
0.0
  0
LINE
  5
55E
  8
0
  6
CONTINUOUS
 10
44287.95321643585
 20
-4840.726438242485
 30
0.0
 11
44462.95321643585
 21
-4840.726438242485
 31
0.0
  0
LINE
  5
55F
  8
0
  6
CONTINUOUS
 10
44112.95321643585
 20
-4840.726438242485
 30
0.0
 11
44112.95321643585
 21
-5010.393104909156
 31
0.0
  0
LINE
  5
560
  8
0
  6
CONTINUOUS
 10
44112.95321643585
 20
-5010.393104909156
 30
0.0
 11
44112.95321643585
 21
-5180.059771575828
 31
0.0
  0
LINE
  5
561
  8
0
  6
CONTINUOUS
 10
44462.95321643585
 20
-4840.726438242485
 30
0.0
 11
44637.95321643585
 21
-4840.726438242485
 31
0.0
  0
LINE
  5
562
  8
0
  6
CONTINUOUS
 10
44637.95321643585
 20
-4840.726438242485
 30
0.0
 11
44812.95321643585
 21
-4840.726438242485
 31
0.0
  0
LINE
  5
563
  8
0
  6
CONTINUOUS
 10
44462.95321643585
 20
-4840.726438242485
 30
0.0
 11
44462.95321643585
 21
-5010.393104909156
 31
0.0
  0
LINE
  5
564
  8
0
  6
CONTINUOUS
 10
44462.95321643585
 20
-5010.393104909156
 30
0.0
 11
44462.95321643585
 21
-5180.059771575828
 31
0.0
  0
LINE
  5
565
  8
0
  6
CONTINUOUS
 10
44812.95321643585
 20
-4840.726438242485
 30
0.0
 11
44987.95321643585
 21
-4840.726438242485
 31
0.0
  0
LINE
  5
566
  8
0
  6
CONTINUOUS
 10
44987.95321643585
 20
-4840.726438242485
 30
0.0
 11
45162.95321643585
 21
-4840.726438242485
 31
0.0
  0
LINE
  5
567
  8
0
  6
CONTINUOUS
 10
44812.95321643585
 20
-4840.726438242485
 30
0.0
 11
44812.95321643585
 21
-5010.393104909156
 31
0.0
  0
LINE
  5
568
  8
0
  6
CONTINUOUS
 10
44812.95321643585
 20
-5010.393104909156
 30
0.0
 11
44812.95321643585
 21
-5180.059771575828
 31
0.0
  0
LINE
  5
569
  8
0
  6
CONTINUOUS
 10
45162.95321643585
 20
-4840.726438242485
 30
0.0
 11
45337.95321643585
 21
-4840.726438242485
 31
0.0
  0
LINE
  5
56A
  8
0
  6
CONTINUOUS
 10
45337.95321643585
 20
-4840.726438242485
 30
0.0
 11
45512.95321643585
 21
-4840.726438242485
 31
0.0
  0
LINE
  5
56B
  8
0
  6
CONTINUOUS
 10
45162.95321643585
 20
-4840.726438242485
 30
0.0
 11
45162.95321643585
 21
-5010.393104909156
 31
0.0
  0
LINE
  5
56C
  8
0
  6
CONTINUOUS
 10
45162.95321643585
 20
-5010.393104909156
 30
0.0
 11
45162.95321643585
 21
-5180.059771575828
 31
0.0
  0
LINE
  5
56D
  8
0
  6
CONTINUOUS
 10
44112.95321643585
 20
-5180.059771575828
 30
0.0
 11
44287.95321643585
 21
-5180.059771575828
 31
0.0
  0
LINE
  5
56E
  8
0
  6
CONTINUOUS
 10
44112.95321643585
 20
-5180.059771575828
 30
0.0
 11
44112.95321643585
 21
-5349.726438242499
 31
0.0
  0
LINE
  5
56F
  8
0
  6
CONTINUOUS
 10
44112.95321643585
 20
-5349.726438242499
 30
0.0
 11
44112.95321643585
 21
-5519.393104909148
 31
0.0
  0
LINE
  5
570
  8
0
  6
CONTINUOUS
 10
44287.95321643585
 20
-5180.059771575828
 30
0.0
 11
44462.95321643585
 21
-5180.059771575828
 31
0.0
  0
LINE
  5
571
  8
0
  6
CONTINUOUS
 10
44462.95321643585
 20
-5180.059771575828
 30
0.0
 11
44637.95321643585
 21
-5180.059771575828
 31
0.0
  0
LINE
  5
572
  8
0
  6
CONTINUOUS
 10
44637.95321643585
 20
-5180.059771575828
 30
0.0
 11
44812.95321643585
 21
-5180.059771575828
 31
0.0
  0
LINE
  5
573
  8
0
  6
CONTINUOUS
 10
44287.95321643585
 20
-5180.059771575828
 30
0.0
 11
44287.95321643585
 21
-5349.726438242499
 31
0.0
  0
LINE
  5
574
  8
0
  6
CONTINUOUS
 10
44287.95321643585
 20
-5349.726438242499
 30
0.0
 11
44287.95321643585
 21
-5519.393104909148
 31
0.0
  0
LINE
  5
575
  8
0
  6
CONTINUOUS
 10
44812.95321643585
 20
-5180.059771575828
 30
0.0
 11
44987.95321643585
 21
-5180.059771575828
 31
0.0
  0
LINE
  5
576
  8
0
  6
CONTINUOUS
 10
44812.95321643585
 20
-5180.059771575828
 30
0.0
 11
44812.95321643585
 21
-5349.726438242499
 31
0.0
  0
LINE
  5
577
  8
0
  6
CONTINUOUS
 10
44812.95321643585
 20
-5349.726438242499
 30
0.0
 11
44812.95321643585
 21
-5519.393104909148
 31
0.0
  0
LINE
  5
578
  8
0
  6
CONTINUOUS
 10
44987.95321643585
 20
-5180.059771575828
 30
0.0
 11
45162.95321643585
 21
-5180.059771575828
 31
0.0
  0
LINE
  5
579
  8
0
  6
CONTINUOUS
 10
45162.95321643585
 20
-5180.059771575828
 30
0.0
 11
45337.95321643585
 21
-5180.059771575828
 31
0.0
  0
LINE
  5
57A
  8
0
  6
CONTINUOUS
 10
45337.95321643585
 20
-5180.059771575828
 30
0.0
 11
45512.95321643585
 21
-5180.059771575828
 31
0.0
  0
LINE
  5
57B
  8
0
  6
CONTINUOUS
 10
44987.95321643585
 20
-5180.059771575828
 30
0.0
 11
44987.95321643585
 21
-5349.726438242499
 31
0.0
  0
LINE
  5
57C
  8
0
  6
CONTINUOUS
 10
44987.95321643585
 20
-5349.726438242499
 30
0.0
 11
44987.95321643585
 21
-5519.393104909148
 31
0.0
  0
LINE
  5
57D
  8
0
  6
CONTINUOUS
 10
44112.95321643585
 20
-5519.393104909148
 30
0.0
 11
44287.95321643585
 21
-5519.393104909148
 31
0.0
  0
LINE
  5
57E
  8
0
  6
CONTINUOUS
 10
44112.95321643585
 20
-5858.726438242491
 30
0.0
 11
44287.95321643585
 21
-5858.726438242491
 31
0.0
  0
LINE
  5
57F
  8
0
  6
CONTINUOUS
 10
44287.95321643585
 20
-5519.393104909148
 30
0.0
 11
44462.95321643585
 21
-5519.393104909148
 31
0.0
  0
LINE
  5
580
  8
0
  6
CONTINUOUS
 10
44287.95321643585
 20
-5858.726438242491
 30
0.0
 11
44462.95321643585
 21
-5858.726438242491
 31
0.0
  0
LINE
  5
581
  8
0
  6
CONTINUOUS
 10
44462.95321643585
 20
-5519.393104909148
 30
0.0
 11
44637.95321643585
 21
-5519.393104909148
 31
0.0
  0
LINE
  5
582
  8
0
  6
CONTINUOUS
 10
44462.95321643585
 20
-5858.726438242491
 30
0.0
 11
44637.95321643585
 21
-5858.726438242491
 31
0.0
  0
LINE
  5
583
  8
0
  6
CONTINUOUS
 10
44637.95321643585
 20
-5519.393104909148
 30
0.0
 11
44812.95321643585
 21
-5519.393104909148
 31
0.0
  0
LINE
  5
584
  8
0
  6
CONTINUOUS
 10
44637.95321643585
 20
-5858.726438242491
 30
0.0
 11
44812.95321643585
 21
-5858.726438242491
 31
0.0
  0
LINE
  5
585
  8
0
  6
CONTINUOUS
 10
44812.95321643585
 20
-5519.393104909148
 30
0.0
 11
44987.95321643585
 21
-5519.393104909148
 31
0.0
  0
LINE
  5
586
  8
0
  6
CONTINUOUS
 10
44812.95321643585
 20
-5858.726438242491
 30
0.0
 11
44987.95321643585
 21
-5858.726438242491
 31
0.0
  0
LINE
  5
587
  8
0
  6
CONTINUOUS
 10
44987.95321643585
 20
-5519.393104909148
 30
0.0
 11
45162.95321643585
 21
-5519.393104909148
 31
0.0
  0
LINE
  5
588
  8
0
  6
CONTINUOUS
 10
44987.95321643585
 20
-5858.726438242491
 30
0.0
 11
45162.95321643585
 21
-5858.726438242491
 31
0.0
  0
LINE
  5
589
  8
0
  6
CONTINUOUS
 10
45162.95321643585
 20
-5519.393104909148
 30
0.0
 11
45337.95321643585
 21
-5519.393104909148
 31
0.0
  0
LINE
  5
58A
  8
0
  6
CONTINUOUS
 10
45162.95321643585
 20
-5858.726438242491
 30
0.0
 11
45337.95321643585
 21
-5858.726438242491
 31
0.0
  0
LINE
  5
58B
  8
0
  6
CONTINUOUS
 10
45337.95321643585
 20
-5519.393104909148
 30
0.0
 11
45512.95321643585
 21
-5519.393104909148
 31
0.0
  0
LINE
  5
58C
  8
0
  6
CONTINUOUS
 10
45337.95321643585
 20
-5858.726438242491
 30
0.0
 11
45512.95321643585
 21
-5858.726438242491
 31
0.0
  0
LINE
  5
58D
  8
0
  6
CONTINUOUS
 10
44112.95321643585
 20
-5519.393104909148
 30
0.0
 11
44112.95321643585
 21
-5689.059771575819
 31
0.0
  0
LINE
  5
58E
  8
0
  6
CONTINUOUS
 10
44112.95321643585
 20
-5689.059771575819
 30
0.0
 11
44112.95321643585
 21
-5858.726438242491
 31
0.0
  0
LINE
  5
58F
  8
0
  6
CONTINUOUS
 10
45512.95321643585
 20
-5519.393104909148
 30
0.0
 11
45687.95321643585
 21
-5519.393104909148
 31
0.0
  0
LINE
  5
590
  8
0
  6
CONTINUOUS
 10
45512.95321643585
 20
-5858.726438242491
 30
0.0
 11
45687.95321643585
 21
-5858.726438242491
 31
0.0
  0
LINE
  5
591
  8
0
  6
CONTINUOUS
 10
45512.95321643585
 20
-5519.393104909148
 30
0.0
 11
45512.95321643585
 21
-5689.059771575819
 31
0.0
  0
LINE
  5
592
  8
0
  6
CONTINUOUS
 10
45512.95321643585
 20
-5689.059771575819
 30
0.0
 11
45512.95321643585
 21
-5858.726438242491
 31
0.0
  0
LINE
  5
593
  8
0
  6
CONTINUOUS
 10
45687.95321643585
 20
-5519.393104909148
 30
0.0
 11
45862.95321643585
 21
-5519.393104909148
 31
0.0
  0
LINE
  5
594
  8
0
  6
CONTINUOUS
 10
45687.95321643585
 20
-5858.726438242491
 30
0.0
 11
45862.95321643585
 21
-5858.726438242491
 31
0.0
  0
LINE
  5
595
  8
0
  6
CONTINUOUS
 10
45862.95321643585
 20
-5519.393104909148
 30
0.0
 11
46037.95321643585
 21
-5519.393104909148
 31
0.0
  0
LINE
  5
596
  8
0
  6
CONTINUOUS
 10
45862.95321643585
 20
-5858.726438242491
 30
0.0
 11
46037.95321643585
 21
-5858.726438242491
 31
0.0
  0
LINE
  5
597
  8
0
  6
CONTINUOUS
 10
46037.95321643585
 20
-5519.393104909148
 30
0.0
 11
46212.95321643585
 21
-5519.393104909148
 31
0.0
  0
LINE
  5
598
  8
0
  6
CONTINUOUS
 10
46037.95321643585
 20
-5858.726438242491
 30
0.0
 11
46212.95321643585
 21
-5858.726438242491
 31
0.0
  0
LINE
  5
599
  8
0
  6
CONTINUOUS
 10
46212.95321643585
 20
-5519.393104909148
 30
0.0
 11
46387.95321643585
 21
-5519.393104909148
 31
0.0
  0
LINE
  5
59A
  8
0
  6
CONTINUOUS
 10
46212.95321643585
 20
-5858.726438242491
 30
0.0
 11
46387.95321643585
 21
-5858.726438242491
 31
0.0
  0
LINE
  5
59B
  8
0
  6
CONTINUOUS
 10
46387.95321643585
 20
-5519.393104909148
 30
0.0
 11
46562.95321643585
 21
-5519.393104909148
 31
0.0
  0
LINE
  5
59C
  8
0
  6
CONTINUOUS
 10
46387.95321643585
 20
-5858.726438242491
 30
0.0
 11
46562.95321643585
 21
-5858.726438242491
 31
0.0
  0
LINE
  5
59D
  8
0
  6
CONTINUOUS
 10
46562.95321643585
 20
-5519.393104909148
 30
0.0
 11
46737.95321643585
 21
-5519.393104909148
 31
0.0
  0
LINE
  5
59E
  8
0
  6
CONTINUOUS
 10
46562.95321643585
 20
-5858.726438242491
 30
0.0
 11
46737.95321643585
 21
-5858.726438242491
 31
0.0
  0
LINE
  5
59F
  8
0
  6
CONTINUOUS
 10
46737.95321643585
 20
-5519.393104909148
 30
0.0
 11
46912.95321643585
 21
-5519.393104909148
 31
0.0
  0
LINE
  5
5A0
  8
0
  6
CONTINUOUS
 10
46737.95321643585
 20
-5858.726438242491
 30
0.0
 11
46912.95321643585
 21
-5858.726438242491
 31
0.0
  0
LINE
  5
5A1
  8
0
  6
CONTINUOUS
 10
46912.95321643585
 20
-5519.393104909148
 30
0.0
 11
47087.95321643585
 21
-5519.393104909148
 31
0.0
  0
LINE
  5
5A2
  8
0
  6
CONTINUOUS
 10
46912.95321643585
 20
-5858.726438242491
 30
0.0
 11
47087.95321643585
 21
-5858.726438242491
 31
0.0
  0
LINE
  5
5A3
  8
0
  6
CONTINUOUS
 10
47087.95321643585
 20
-5519.393104909148
 30
0.0
 11
47262.95321643585
 21
-5519.393104909148
 31
0.0
  0
LINE
  5
5A4
  8
0
  6
CONTINUOUS
 10
47087.95321643585
 20
-5858.726438242491
 30
0.0
 11
47262.95321643585
 21
-5858.726438242491
 31
0.0
  0
LINE
  5
5A5
  8
0
  6
CONTINUOUS
 10
47262.95321643585
 20
-5519.393104909148
 30
0.0
 11
47437.95321643585
 21
-5519.393104909148
 31
0.0
  0
LINE
  5
5A6
  8
0
  6
CONTINUOUS
 10
47262.95321643585
 20
-5858.726438242491
 30
0.0
 11
47437.95321643585
 21
-5858.726438242491
 31
0.0
  0
LINE
  5
5A7
  8
0
  6
CONTINUOUS
 10
45687.95321643585
 20
-5519.393104909148
 30
0.0
 11
45687.95321643585
 21
-5689.059771575819
 31
0.0
  0
LINE
  5
5A8
  8
0
  6
CONTINUOUS
 10
47437.95321643585
 20
-5519.393104909148
 30
0.0
 11
47437.95321643585
 21
-5689.059771575819
 31
0.0
  0
LINE
  5
5A9
  8
0
  6
CONTINUOUS
 10
45687.95321643585
 20
-5689.059771575819
 30
0.0
 11
45687.95321643585
 21
-5858.726438242491
 31
0.0
  0
LINE
  5
5AA
  8
0
  6
CONTINUOUS
 10
47437.95321643585
 20
-5689.059771575819
 30
0.0
 11
47437.95321643585
 21
-5858.726438242491
 31
0.0
  0
TEXT
  5
5AE
  8
0
  6
CONTINUOUS
 10
45553.86359080253
 20
-5655.944481662242
 30
0.0
 40
87.5
  1
図
  0
TEXT
  5
5AF
  8
0
  6
CONTINUOUS
 10
45549.77279827441
 20
-5813.348304140643
 30
0.0
 40
87.5
  1
番
  0
TEXT
  5
5B0
  8
0
  6
CONTINUOUS
 10
45549.77279827441
 20
-4928.226438242476
 30
0.0
 40
87.5
  1
名
  0
TEXT
  5
5B1
  8
0
  6
CONTINUOUS
 10
45549.21914957766
 20
-5346.432462382392
 30
0.0
 40
87.5
  1
称
  0
TEXT
  5
5B2
  8
0
  6
CONTINUOUS
 10
44166.13719292986
 20
-5250.735001034627
 30
0.0
 40
62.5
  1
年
  0
TEXT
  5
5B3
  8
0
  6
CONTINUOUS
 10
44194.7743733502
 20
-5319.217875450297
 30
0.0
 40
62.5
  1
・
  0
TEXT
  5
5B4
  8
0
  6
CONTINUOUS
 10
44162.04599222075
 20
-5375.437905677711
 30
0.0
 40
62.5
  1
月
  0
TEXT
  5
5B5
  8
0
  6
CONTINUOUS
 10
44190.68317264109
 20
-5431.657935905154
 30
0.0
 40
62.5
  1
・
  0
TEXT
  5
5B6
  8
0
  6
CONTINUOUS
 10
44174.31918616686
 20
-5488.884542116954
 30
0.0
 40
62.5
  1
日
  0
TEXT
  5
5B7
  8
0
  6
CONTINUOUS
 10
44852.62215297087
 20
-5300.243973929173
 30
0.0
 40
75.0
  1
尺
  0
TEXT
  5
5B8
  8
0
  6
CONTINUOUS
 10
44852.47544748033
 20
-5450.859589855099
 30
0.0
 40
75.0
  1
度
  0
TEXT
  5
5B9
  8
0
  6
CONTINUOUS
 10
44149.77320645587
 20
-4791.023533599422
 30
0.0
 40
75.0
  1
設　計
  0
TEXT
  5
5BA
  8
0
  6
CONTINUOUS
 10
44495.68159756553
 20
-4791.023533599451
 30
0.0
 40
75.0
  1
製　図
  0
TEXT
  5
5BB
  8
0
  6
CONTINUOUS
 10
44845.68159756553
 20
-4786.935918870004
 30
0.0
 40
75.0
  1
検　図
  0
TEXT
  5
5BC
  8
0
  6
CONTINUOUS
 10
45203.8635908023
 20
-4791.023533599422
 30
0.0
 40
75.0
  1
承　認
  0
LINE
  5
5BD
  8
0
 10
44112.95321643585
 20
-4671.059771575836
 30
0.0
 11
44287.95321643585
 21
-4671.059771575836
 31
0.0
  0
LINE
  5
5BE
  8
0
 10
44287.95321643585
 20
-4671.059771575836
 30
0.0
 11
44462.95321643585
 21
-4671.059771575836
 31
0.0
  0
LINE
  5
5BF
  8
0
 10
44462.95321643585
 20
-4671.059771575836
 30
0.0
 11
44637.95321643585
 21
-4671.059771575836
 31
0.0
  0
LINE
  5
5C0
  8
0
 10
44637.95321643585
 20
-4671.059771575836
 30
0.0
 11
44812.95321643585
 21
-4671.059771575836
 31
0.0
  0
LINE
  5
5C1
  8
0
 10
44812.95321643585
 20
-4671.059771575836
 30
0.0
 11
44987.95321643585
 21
-4671.059771575836
 31
0.0
  0
LINE
  5
5C2
  8
0
 10
44987.95321643585
 20
-4671.059771575836
 30
0.0
 11
45162.95321643585
 21
-4671.059771575836
 31
0.0
  0
LINE
  5
5C3
  8
0
 10
45162.95321643585
 20
-4671.059771575836
 30
0.0
 11
45337.95321643585
 21
-4671.059771575836
 31
0.0
  0
LINE
  5
5C4
  8
0
 10
45337.95321643585
 20
-4671.059771575836
 30
0.0
 11
45512.95321643585
 21
-4671.059771575836
 31
0.0
  0
LINE
  5
5C5
  8
0
 10
45512.95321643585
 20
-4671.059771575836
 30
0.0
 11
45687.95321643585
 21
-4671.059771575836
 31
0.0
  0
LINE
  5
5C6
  8
0
 10
45687.95321643585
 20
-4671.059771575836
 30
0.0
 11
45862.95321643585
 21
-4671.059771575836
 31
0.0
  0
LINE
  5
5C7
  8
0
 10
45862.95321643585
 20
-4671.059771575836
 30
0.0
 11
46037.95321643585
 21
-4671.059771575836
 31
0.0
  0
LINE
  5
5C8
  8
0
 10
46037.95321643585
 20
-4671.059771575836
 30
0.0
 11
46212.95321643585
 21
-4671.059771575836
 31
0.0
  0
LINE
  5
5C9
  8
0
 10
46212.95321643585
 20
-4671.059771575836
 30
0.0
 11
46387.95321643585
 21
-4671.059771575836
 31
0.0
  0
LINE
  5
5CA
  8
0
 10
46387.95321643585
 20
-4671.059771575836
 30
0.0
 11
46562.95321643585
 21
-4671.059771575836
 31
0.0
  0
LINE
  5
5CB
  8
0
 10
46562.95321643585
 20
-4671.059771575836
 30
0.0
 11
46737.95321643585
 21
-4671.059771575836
 31
0.0
  0
LINE
  5
5CC
  8
0
 10
46737.95321643585
 20
-4671.059771575836
 30
0.0
 11
46912.95321643585
 21
-4671.059771575836
 31
0.0
  0
LINE
  5
5CD
  8
0
 10
46912.95321643585
 20
-4671.059771575836
 30
0.0
 11
47087.95321643585
 21
-4671.059771575836
 31
0.0
  0
LINE
  5
5CE
  8
0
 10
47087.95321643585
 20
-4671.059771575836
 30
0.0
 11
47262.95321643585
 21
-4671.059771575836
 31
0.0
  0
LINE
  5
5CF
  8
0
 10
47262.95321643585
 20
-4671.059771575836
 30
0.0
 11
47437.95321643585
 21
-4671.059771575836
 31
0.0
  0
LINE
  5
5D0
  8
0
 10
44112.95321643585
 20
-4321.059771575836
 30
0.0
 11
44287.95321643585
 21
-4321.059771575836
 31
0.0
  0
LINE
  5
5D1
  8
0
 10
44112.95321643585
 20
-4671.059771575836
 30
0.0
 11
44287.95321643585
 21
-4671.059771575836
 31
0.0
  0
LINE
  5
5D2
  8
0
 10
44287.95321643585
 20
-4321.059771575836
 30
0.0
 11
44462.95321643585
 21
-4321.059771575836
 31
0.0
  0
LINE
  5
5D3
  8
0
 10
44287.95321643585
 20
-4671.059771575836
 30
0.0
 11
44462.95321643585
 21
-4671.059771575836
 31
0.0
  0
LINE
  5
5D4
  8
0
 10
44462.95321643585
 20
-4321.059771575836
 30
0.0
 11
44637.95321643585
 21
-4321.059771575836
 31
0.0
  0
LINE
  5
5D5
  8
0
 10
44462.95321643585
 20
-4671.059771575836
 30
0.0
 11
44637.95321643585
 21
-4671.059771575836
 31
0.0
  0
LINE
  5
5D6
  8
0
 10
44637.95321643585
 20
-4321.059771575836
 30
0.0
 11
44812.95321643585
 21
-4321.059771575836
 31
0.0
  0
LINE
  5
5D7
  8
0
 10
44637.95321643585
 20
-4671.059771575836
 30
0.0
 11
44812.95321643585
 21
-4671.059771575836
 31
0.0
  0
LINE
  5
5D8
  8
0
 10
44112.95321643585
 20
-4321.059771575836
 30
0.0
 11
44112.95321643585
 21
-4496.059771575836
 31
0.0
  0
LINE
  5
5D9
  8
0
 10
44112.95321643585
 20
-4496.059771575836
 30
0.0
 11
44112.95321643585
 21
-4671.059771575836
 31
0.0
  0
LINE
  5
5DA
  8
0
 10
44812.95321643585
 20
-4321.059771575836
 30
0.0
 11
44987.95321643585
 21
-4321.059771575836
 31
0.0
  0
LINE
  5
5DB
  8
0
 10
44812.95321643585
 20
-4671.059771575836
 30
0.0
 11
44987.95321643585
 21
-4671.059771575836
 31
0.0
  0
LINE
  5
5DC
  8
0
 10
44987.95321643585
 20
-4321.059771575836
 30
0.0
 11
45162.95321643585
 21
-4321.059771575836
 31
0.0
  0
LINE
  5
5DD
  8
0
 10
44987.95321643585
 20
-4671.059771575836
 30
0.0
 11
45162.95321643585
 21
-4671.059771575836
 31
0.0
  0
LINE
  5
5DE
  8
0
 10
45162.95321643585
 20
-4321.059771575836
 30
0.0
 11
45337.95321643585
 21
-4321.059771575836
 31
0.0
  0
LINE
  5
5DF
  8
0
 10
45162.95321643585
 20
-4671.059771575836
 30
0.0
 11
45337.95321643585
 21
-4671.059771575836
 31
0.0
  0
LINE
  5
5E0
  8
0
 10
45337.95321643585
 20
-4321.059771575836
 30
0.0
 11
45512.95321643585
 21
-4321.059771575836
 31
0.0
  0
LINE
  5
5E1
  8
0
 10
45337.95321643585
 20
-4671.059771575836
 30
0.0
 11
45512.95321643585
 21
-4671.059771575836
 31
0.0
  0
LINE
  5
5E2
  8
0
 10
45512.95321643585
 20
-4321.059771575836
 30
0.0
 11
45687.95321643585
 21
-4321.059771575836
 31
0.0
  0
LINE
  5
5E3
  8
0
 10
45512.95321643585
 20
-4671.059771575836
 30
0.0
 11
45687.95321643585
 21
-4671.059771575836
 31
0.0
  0
LINE
  5
5E4
  8
0
 10
45687.95321643585
 20
-4321.059771575836
 30
0.0
 11
45862.95321643585
 21
-4321.059771575836
 31
0.0
  0
LINE
  5
5E5
  8
0
 10
45687.95321643585
 20
-4671.059771575836
 30
0.0
 11
45862.95321643585
 21
-4671.059771575836
 31
0.0
  0
LINE
  5
5E6
  8
0
 10
45862.95321643585
 20
-4321.059771575836
 30
0.0
 11
46037.95321643585
 21
-4321.059771575836
 31
0.0
  0
LINE
  5
5E7
  8
0
 10
45862.95321643585
 20
-4671.059771575836
 30
0.0
 11
46037.95321643585
 21
-4671.059771575836
 31
0.0
  0
LINE
  5
5E8
  8
0
 10
46037.95321643585
 20
-4321.059771575836
 30
0.0
 11
46212.95321643585
 21
-4321.059771575836
 31
0.0
  0
LINE
  5
5E9
  8
0
 10
46037.95321643585
 20
-4671.059771575836
 30
0.0
 11
46212.95321643585
 21
-4671.059771575836
 31
0.0
  0
LINE
  5
5EA
  8
0
 10
46212.95321643585
 20
-4321.059771575836
 30
0.0
 11
46387.95321643585
 21
-4321.059771575836
 31
0.0
  0
LINE
  5
5EB
  8
0
 10
46212.95321643585
 20
-4671.059771575836
 30
0.0
 11
46387.95321643585
 21
-4671.059771575836
 31
0.0
  0
LINE
  5
5EC
  8
0
 10
46387.95321643585
 20
-4321.059771575836
 30
0.0
 11
46562.95321643585
 21
-4321.059771575836
 31
0.0
  0
LINE
  5
5ED
  8
0
 10
46387.95321643585
 20
-4671.059771575836
 30
0.0
 11
46562.95321643585
 21
-4671.059771575836
 31
0.0
  0
LINE
  5
5EE
  8
0
 10
46562.95321643585
 20
-4321.059771575836
 30
0.0
 11
46737.95321643585
 21
-4321.059771575836
 31
0.0
  0
LINE
  5
5EF
  8
0
 10
46562.95321643585
 20
-4671.059771575836
 30
0.0
 11
46737.95321643585
 21
-4671.059771575836
 31
0.0
  0
LINE
  5
5F0
  8
0
 10
46737.95321643585
 20
-4321.059771575836
 30
0.0
 11
46912.95321643585
 21
-4321.059771575836
 31
0.0
  0
LINE
  5
5F1
  8
0
 10
46737.95321643585
 20
-4671.059771575836
 30
0.0
 11
46912.95321643585
 21
-4671.059771575836
 31
0.0
  0
LINE
  5
5F2
  8
0
 10
46912.95321643585
 20
-4321.059771575836
 30
0.0
 11
47087.95321643585
 21
-4321.059771575836
 31
0.0
  0
LINE
  5
5F3
  8
0
 10
46912.95321643585
 20
-4671.059771575836
 30
0.0
 11
47087.95321643585
 21
-4671.059771575836
 31
0.0
  0
LINE
  5
5F4
  8
0
 10
47087.95321643585
 20
-4321.059771575836
 30
0.0
 11
47262.95321643585
 21
-4321.059771575836
 31
0.0
  0
LINE
  5
5F5
  8
0
 10
47087.95321643585
 20
-4671.059771575836
 30
0.0
 11
47262.95321643585
 21
-4671.059771575836
 31
0.0
  0
LINE
  5
5F6
  8
0
 10
47262.95321643585
 20
-4321.059771575836
 30
0.0
 11
47437.95321643585
 21
-4321.059771575836
 31
0.0
  0
LINE
  5
5F7
  8
0
 10
47262.95321643585
 20
-4671.059771575836
 30
0.0
 11
47437.95321643585
 21
-4671.059771575836
 31
0.0
  0
LINE
  5
5F8
  8
0
 10
44812.95321643585
 20
-4321.059771575836
 30
0.0
 11
44812.95321643585
 21
-4496.059771575836
 31
0.0
  0
LINE
  5
5F9
  8
0
 10
47437.95321643585
 20
-4321.059771575836
 30
0.0
 11
47437.95321643585
 21
-4496.059771575836
 31
0.0
  0
LINE
  5
5FA
  8
0
 10
44812.95321643585
 20
-4496.059771575836
 30
0.0
 11
44812.95321643585
 21
-4671.059771575836
 31
0.0
  0
LINE
  5
5FB
  8
0
 10
47437.95321643585
 20
-4496.059771575836
 30
0.0
 11
47437.95321643585
 21
-4671.059771575836
 31
0.0
  0
TEXT
  5
5FC
  8
0
  6
CONTINUOUS
 10
44210.53424980724
 20
-4544.285924342548
 30
0.0
 40
87.5
  1
納　入　先
  0
TEXT
  5
619
  8
0
 10
45067.48870888288
 20
-5394.423178662885
 30
0.0
 40
75.0
  1
１／２５
  0
TEXT
  5
61A
  8
0
 10
45811.80012676097
 20
-5019.511042095053
 30
0.0
 40
141.6666666666667
  1
ＷＴ－８０００
  0
TEXT
  5
61B
  8
0
 10
45822.49166467965
 20
-5304.106209474742
 30
0.0
 40
116.6666666666667
  1
製品図
  0
TEXT
  5
9CF
  8
0
 10
44527.7175044722
 20
-5740.143287642298
 30
0.0
 40
100.0
  1
北海道スイコー株式会社
 41
0.75
  0
LINE
  5
C15
  8
0
 10
40284.3078890303
 20
973.7868280390358
 30
0.0
 11
40424.3078890303
 21
973.7868280390358
 31
0.0
  0
LINE
  5
C16
  8
0
 10
40424.3078890303
 20
973.7868280390358
 30
0.0
 11
40564.3078890303
 21
973.7868280390358
 31
0.0
  0
LINE
  5
C17
  8
0
 10
40564.3078890303
 20
973.7868280390358
 30
0.0
 11
40704.3078890303
 21
973.7868280390358
 31
0.0
  0
LINE
  5
C18
  8
0
 10
40704.3078890303
 20
973.7868280390358
 30
0.0
 11
40844.3078890303
 21
973.7868280390358
 31
0.0
  0
LINE
  5
C19
  8
0
 10
40844.3078890303
 20
973.7868280390358
 30
0.0
 11
40984.3078890303
 21
973.7868280390358
 31
0.0
  0
LINE
  5
C1A
  8
0
 10
40984.3078890303
 20
973.7868280390358
 30
0.0
 11
41124.3078890303
 21
973.7868280390358
 31
0.0
  0
LINE
  5
C1B
  8
0
 10
41124.3078890303
 20
973.7868280390358
 30
0.0
 11
41264.3078890303
 21
973.7868280390358
 31
0.0
  0
LINE
  5
C1C
  8
0
 10
41264.3078890303
 20
973.7868280390358
 30
0.0
 11
41404.3078890303
 21
973.7868280390358
 31
0.0
  0
LINE
  5
C1D
  8
0
 10
41404.3078890303
 20
973.7868280390358
 30
0.0
 11
41544.3078890303
 21
973.7868280390358
 31
0.0
  0
LINE
  5
C1E
  8
0
 10
41544.3078890303
 20
973.7868280390358
 30
0.0
 11
41684.3078890303
 21
973.7868280390358
 31
0.0
  0
LINE
  5
C1F
  8
0
 10
41684.3078890303
 20
973.7868280390358
 30
0.0
 11
41824.3078890303
 21
973.7868280390358
 31
0.0
  0
LINE
  5
C20
  8
0
 10
41824.3078890303
 20
973.7868280390358
 30
0.0
 11
41964.3078890303
 21
973.7868280390358
 31
0.0
  0
LINE
  5
C21
  8
0
 10
41964.3078890303
 20
973.7868280390358
 30
0.0
 11
42104.3078890303
 21
973.7868280390358
 31
0.0
  0
LINE
  5
C22
  8
0
 10
42104.3078890303
 20
973.7868280390358
 30
0.0
 11
42244.3078890303
 21
973.7868280390358
 31
0.0
  0
LINE
  5
C23
  8
0
 10
42244.3078890303
 20
973.7868280390358
 30
0.0
 11
42384.3078890303
 21
973.7868280390358
 31
0.0
  0
LINE
  5
C24
  8
0
 10
42384.3078890303
 20
973.7868280390358
 30
0.0
 11
42524.3078890303
 21
973.7868280390358
 31
0.0
  0
LINE
  5
C25
  8
0
 10
42524.3078890303
 20
973.7868280390358
 30
0.0
 11
42664.3078890303
 21
973.7868280390358
 31
0.0
  0
LINE
  5
C26
  8
0
 10
40284.3078890303
 20
973.7868280390358
 30
0.0
 11
40284.3078890303
 21
838.053494705702
 31
0.0
  0
LINE
  5
C27
  8
0
 10
42664.3078890303
 20
973.7868280390358
 30
0.0
 11
42664.3078890303
 21
838.053494705702
 31
0.0
  0
LINE
  5
C28
  8
0
 10
40284.3078890303
 20
838.053494705702
 30
0.0
 11
40424.3078890303
 21
838.053494705702
 31
0.0
  0
LINE
  5
C29
  8
0
 10
40424.3078890303
 20
838.053494705702
 30
0.0
 11
40564.3078890303
 21
838.053494705702
 31
0.0
  0
LINE
  5
C2A
  8
0
 10
40564.3078890303
 20
838.053494705702
 30
0.0
 11
40704.3078890303
 21
838.053494705702
 31
0.0
  0
LINE
  5
C2B
  8
0
 10
40704.3078890303
 20
838.053494705702
 30
0.0
 11
40844.3078890303
 21
838.053494705702
 31
0.0
  0
LINE
  5
C2C
  8
0
 10
40844.3078890303
 20
838.053494705702
 30
0.0
 11
40984.3078890303
 21
838.053494705702
 31
0.0
  0
LINE
  5
C2D
  8
0
 10
40984.3078890303
 20
838.053494705702
 30
0.0
 11
41124.3078890303
 21
838.053494705702
 31
0.0
  0
LINE
  5
C2E
  8
0
 10
41124.3078890303
 20
838.053494705702
 30
0.0
 11
41264.3078890303
 21
838.053494705702
 31
0.0
  0
LINE
  5
C2F
  8
0
 10
41264.3078890303
 20
838.053494705702
 30
0.0
 11
41404.3078890303
 21
838.053494705702
 31
0.0
  0
LINE
  5
C30
  8
0
 10
41404.3078890303
 20
838.053494705702
 30
0.0
 11
41544.3078890303
 21
838.053494705702
 31
0.0
  0
LINE
  5
C31
  8
0
 10
41544.3078890303
 20
838.053494705702
 30
0.0
 11
41684.3078890303
 21
838.053494705702
 31
0.0
  0
LINE
  5
C32
  8
0
 10
41684.3078890303
 20
838.053494705702
 30
0.0
 11
41824.3078890303
 21
838.053494705702
 31
0.0
  0
LINE
  5
C33
  8
0
 10
41824.3078890303
 20
838.053494705702
 30
0.0
 11
41964.3078890303
 21
838.053494705702
 31
0.0
  0
LINE
  5
C34
  8
0
 10
41964.3078890303
 20
838.053494705702
 30
0.0
 11
42104.3078890303
 21
838.053494705702
 31
0.0
  0
LINE
  5
C35
  8
0
 10
42104.3078890303
 20
838.053494705702
 30
0.0
 11
42244.3078890303
 21
838.053494705702
 31
0.0
  0
LINE
  5
C36
  8
0
 10
42244.3078890303
 20
838.053494705702
 30
0.0
 11
42384.3078890303
 21
838.053494705702
 31
0.0
  0
LINE
  5
C37
  8
0
 10
42384.3078890303
 20
838.053494705702
 30
0.0
 11
42524.3078890303
 21
838.053494705702
 31
0.0
  0
LINE
  5
C38
  8
0
 10
42524.3078890303
 20
838.053494705702
 30
0.0
 11
42664.3078890303
 21
838.053494705702
 31
0.0
  0
LINE
  5
C39
  8
0
 10
40284.3078890303
 20
838.053494705702
 30
0.0
 11
40284.3078890303
 21
702.3201613723681
 31
0.0
  0
LINE
  5
C3A
  8
0
 10
42664.3078890303
 20
838.053494705702
 30
0.0
 11
42664.3078890303
 21
702.3201613723681
 31
0.0
  0
LINE
  5
C3B
  8
0
 10
40284.3078890303
 20
702.3201613723681
 30
0.0
 11
40424.3078890303
 21
702.3201613723681
 31
0.0
  0
LINE
  5
C3C
  8
0
 10
40424.3078890303
 20
702.3201613723681
 30
0.0
 11
40564.3078890303
 21
702.3201613723681
 31
0.0
  0
LINE
  5
C3D
  8
0
 10
40564.3078890303
 20
702.3201613723681
 30
0.0
 11
40704.3078890303
 21
702.3201613723681
 31
0.0
  0
LINE
  5
C3E
  8
0
 10
40704.3078890303
 20
702.3201613723681
 30
0.0
 11
40844.3078890303
 21
702.3201613723681
 31
0.0
  0
LINE
  5
C3F
  8
0
 10
40844.3078890303
 20
702.3201613723681
 30
0.0
 11
40984.3078890303
 21
702.3201613723681
 31
0.0
  0
LINE
  5
C40
  8
0
 10
40984.3078890303
 20
702.3201613723681
 30
0.0
 11
41124.3078890303
 21
702.3201613723681
 31
0.0
  0
LINE
  5
C41
  8
0
 10
41124.3078890303
 20
702.3201613723681
 30
0.0
 11
41264.3078890303
 21
702.3201613723681
 31
0.0
  0
LINE
  5
C42
  8
0
 10
41264.3078890303
 20
702.3201613723681
 30
0.0
 11
41404.3078890303
 21
702.3201613723681
 31
0.0
  0
LINE
  5
C43
  8
0
 10
40284.3078890303
 20
702.3201613723681
 30
0.0
 11
40284.3078890303
 21
566.5868280390355
 31
0.0
  0
LINE
  5
C44
  8
0
 10
41404.3078890303
 20
702.3201613723681
 30
0.0
 11
41544.3078890303
 21
702.3201613723681
 31
0.0
  0
LINE
  5
C45
  8
0
 10
41544.3078890303
 20
702.3201613723681
 30
0.0
 11
41684.3078890303
 21
702.3201613723681
 31
0.0
  0
LINE
  5
C46
  8
0
 10
41684.3078890303
 20
702.3201613723681
 30
0.0
 11
41824.3078890303
 21
702.3201613723681
 31
0.0
  0
LINE
  5
C47
  8
0
 10
41824.3078890303
 20
702.3201613723681
 30
0.0
 11
41964.3078890303
 21
702.3201613723681
 31
0.0
  0
LINE
  5
C48
  8
0
 10
41964.3078890303
 20
702.3201613723681
 30
0.0
 11
42104.3078890303
 21
702.3201613723681
 31
0.0
  0
LINE
  5
C49
  8
0
 10
42104.3078890303
 20
702.3201613723681
 30
0.0
 11
42244.3078890303
 21
702.3201613723681
 31
0.0
  0
LINE
  5
C4A
  8
0
 10
42244.3078890303
 20
702.3201613723681
 30
0.0
 11
42384.3078890303
 21
702.3201613723681
 31
0.0
  0
LINE
  5
C4B
  8
0
 10
42384.3078890303
 20
702.3201613723681
 30
0.0
 11
42524.3078890303
 21
702.3201613723681
 31
0.0
  0
LINE
  5
C4C
  8
0
 10
42524.3078890303
 20
702.3201613723681
 30
0.0
 11
42664.3078890303
 21
702.3201613723681
 31
0.0
  0
LINE
  5
C4D
  8
0
 10
41404.3078890303
 20
702.3201613723681
 30
0.0
 11
41404.3078890303
 21
566.5868280390355
 31
0.0
  0
LINE
  5
C4E
  8
0
 10
42664.3078890303
 20
702.3201613723681
 30
0.0
 11
42664.3078890303
 21
566.5868280390355
 31
0.0
  0
LINE
  5
C4F
  8
0
 10
40284.3078890303
 20
566.5868280390355
 30
0.0
 11
40424.3078890303
 21
566.5868280390355
 31
0.0
  0
LINE
  5
C50
  8
0
 10
40424.3078890303
 20
566.5868280390355
 30
0.0
 11
40564.3078890303
 21
566.5868280390355
 31
0.0
  0
LINE
  5
C51
  8
0
 10
40564.3078890303
 20
566.5868280390355
 30
0.0
 11
40704.3078890303
 21
566.5868280390355
 31
0.0
  0
LINE
  5
C52
  8
0
 10
40704.3078890303
 20
566.5868280390355
 30
0.0
 11
40844.3078890303
 21
566.5868280390355
 31
0.0
  0
LINE
  5
C53
  8
0
 10
40844.3078890303
 20
566.5868280390355
 30
0.0
 11
40984.3078890303
 21
566.5868280390355
 31
0.0
  0
LINE
  5
C54
  8
0
 10
40984.3078890303
 20
566.5868280390355
 30
0.0
 11
41124.3078890303
 21
566.5868280390355
 31
0.0
  0
LINE
  5
C55
  8
0
 10
40284.3078890303
 20
566.5868280390355
 30
0.0
 11
40284.3078890303
 21
430.8534947057028
 31
0.0
  0
LINE
  5
C56
  8
0
 10
41124.3078890303
 20
566.5868280390355
 30
0.0
 11
41264.3078890303
 21
566.5868280390355
 31
0.0
  0
LINE
  5
C57
  8
0
 10
41264.3078890303
 20
566.5868280390355
 30
0.0
 11
41404.3078890303
 21
566.5868280390355
 31
0.0
  0
LINE
  5
C58
  8
0
 10
41404.3078890303
 20
566.5868280390355
 30
0.0
 11
41544.3078890303
 21
566.5868280390355
 31
0.0
  0
LINE
  5
C59
  8
0
 10
41544.3078890303
 20
566.5868280390355
 30
0.0
 11
41684.3078890303
 21
566.5868280390355
 31
0.0
  0
LINE
  5
C5A
  8
0
 10
41684.3078890303
 20
566.5868280390355
 30
0.0
 11
41824.3078890303
 21
566.5868280390355
 31
0.0
  0
LINE
  5
C5B
  8
0
 10
41824.3078890303
 20
566.5868280390355
 30
0.0
 11
41964.3078890303
 21
566.5868280390355
 31
0.0
  0
LINE
  5
C5C
  8
0
 10
41964.3078890303
 20
566.5868280390355
 30
0.0
 11
42104.3078890303
 21
566.5868280390355
 31
0.0
  0
LINE
  5
C5D
  8
0
 10
42104.3078890303
 20
566.5868280390355
 30
0.0
 11
42244.3078890303
 21
566.5868280390355
 31
0.0
  0
LINE
  5
C5E
  8
0
 10
42244.3078890303
 20
566.5868280390355
 30
0.0
 11
42384.3078890303
 21
566.5868280390355
 31
0.0
  0
LINE
  5
C5F
  8
0
 10
42384.3078890303
 20
566.5868280390355
 30
0.0
 11
42524.3078890303
 21
566.5868280390355
 31
0.0
  0
LINE
  5
C60
  8
0
 10
42524.3078890303
 20
566.5868280390355
 30
0.0
 11
42664.3078890303
 21
566.5868280390355
 31
0.0
  0
LINE
  5
C61
  8
0
 10
41124.3078890303
 20
566.5868280390355
 30
0.0
 11
41124.3078890303
 21
430.8534947057028
 31
0.0
  0
LINE
  5
C62
  8
0
 10
42664.3078890303
 20
566.5868280390355
 30
0.0
 11
42664.3078890303
 21
430.8534947057028
 31
0.0
  0
LINE
  5
C63
  8
0
 10
40284.3078890303
 20
430.8534947057028
 30
0.0
 11
40424.3078890303
 21
430.8534947057028
 31
0.0
  0
LINE
  5
C64
  8
0
 10
40424.3078890303
 20
430.8534947057028
 30
0.0
 11
40564.3078890303
 21
430.8534947057028
 31
0.0
  0
LINE
  5
C65
  8
0
 10
40564.3078890303
 20
430.8534947057028
 30
0.0
 11
40704.3078890303
 21
430.8534947057028
 31
0.0
  0
LINE
  5
C66
  8
0
 10
40284.3078890303
 20
430.8534947057028
 30
0.0
 11
40284.3078890303
 21
295.120161372369
 31
0.0
  0
LINE
  5
C67
  8
0
 10
40284.3078890303
 20
295.120161372369
 30
0.0
 11
40284.3078890303
 21
159.3868280390352
 31
0.0
  0
LINE
  5
C68
  8
0
 10
40284.3078890303
 20
159.3868280390352
 30
0.0
 11
40284.3078890303
 21
23.65349470570254
 31
0.0
  0
LINE
  5
C69
  8
0
 10
40284.3078890303
 20
23.65349470570254
 30
0.0
 11
40284.3078890303
 21
-112.0798386276301
 31
0.0
  0
LINE
  5
C6A
  8
0
 10
40704.3078890303
 20
430.8534947057028
 30
0.0
 11
40844.3078890303
 21
430.8534947057028
 31
0.0
  0
LINE
  5
C6B
  8
0
 10
40844.3078890303
 20
430.8534947057028
 30
0.0
 11
40984.3078890303
 21
430.8534947057028
 31
0.0
  0
LINE
  5
C6C
  8
0
 10
40984.3078890303
 20
430.8534947057028
 30
0.0
 11
41124.3078890303
 21
430.8534947057028
 31
0.0
  0
LINE
  5
C6D
  8
0
 10
40704.3078890303
 20
430.8534947057028
 30
0.0
 11
40704.3078890303
 21
295.120161372369
 31
0.0
  0
LINE
  5
C6E
  8
0
 10
40704.3078890303
 20
295.120161372369
 30
0.0
 11
40704.3078890303
 21
159.3868280390352
 31
0.0
  0
LINE
  5
C6F
  8
0
 10
41124.3078890303
 20
430.8534947057028
 30
0.0
 11
41264.3078890303
 21
430.8534947057028
 31
0.0
  0
LINE
  5
C70
  8
0
 10
41264.3078890303
 20
430.8534947057028
 30
0.0
 11
41404.3078890303
 21
430.8534947057028
 31
0.0
  0
LINE
  5
C71
  8
0
 10
41124.3078890303
 20
430.8534947057028
 30
0.0
 11
41124.3078890303
 21
295.120161372369
 31
0.0
  0
LINE
  5
C72
  8
0
 10
41404.3078890303
 20
430.8534947057028
 30
0.0
 11
41544.3078890303
 21
430.8534947057028
 31
0.0
  0
LINE
  5
C73
  8
0
 10
41544.3078890303
 20
430.8534947057028
 30
0.0
 11
41684.3078890303
 21
430.8534947057028
 31
0.0
  0
LINE
  5
C74
  8
0
 10
41684.3078890303
 20
430.8534947057028
 30
0.0
 11
41824.3078890303
 21
430.8534947057028
 31
0.0
  0
LINE
  5
C75
  8
0
 10
41824.3078890303
 20
430.8534947057028
 30
0.0
 11
41964.3078890303
 21
430.8534947057028
 31
0.0
  0
LINE
  5
C76
  8
0
 10
41964.3078890303
 20
430.8534947057028
 30
0.0
 11
42104.3078890303
 21
430.8534947057028
 31
0.0
  0
LINE
  5
C77
  8
0
 10
42104.3078890303
 20
430.8534947057028
 30
0.0
 11
42244.3078890303
 21
430.8534947057028
 31
0.0
  0
LINE
  5
C78
  8
0
 10
42244.3078890303
 20
430.8534947057028
 30
0.0
 11
42384.3078890303
 21
430.8534947057028
 31
0.0
  0
LINE
  5
C79
  8
0
 10
42384.3078890303
 20
430.8534947057028
 30
0.0
 11
42524.3078890303
 21
430.8534947057028
 31
0.0
  0
LINE
  5
C7A
  8
0
 10
42524.3078890303
 20
430.8534947057028
 30
0.0
 11
42664.3078890303
 21
430.8534947057028
 31
0.0
  0
LINE
  5
C7B
  8
0
 10
41404.3078890303
 20
430.8534947057028
 30
0.0
 11
41404.3078890303
 21
295.120161372369
 31
0.0
  0
LINE
  5
C7C
  8
0
 10
42664.3078890303
 20
430.8534947057028
 30
0.0
 11
42664.3078890303
 21
295.120161372369
 31
0.0
  0
LINE
  5
C7D
  8
0
 10
41124.3078890303
 20
295.120161372369
 30
0.0
 11
41264.3078890303
 21
295.120161372369
 31
0.0
  0
LINE
  5
C7E
  8
0
 10
41264.3078890303
 20
295.120161372369
 30
0.0
 11
41404.3078890303
 21
295.120161372369
 31
0.0
  0
LINE
  5
C7F
  8
0
 10
41124.3078890303
 20
295.120161372369
 30
0.0
 11
41124.3078890303
 21
159.3868280390352
 31
0.0
  0
LINE
  5
C80
  8
0
 10
41404.3078890303
 20
295.120161372369
 30
0.0
 11
41544.3078890303
 21
295.120161372369
 31
0.0
  0
LINE
  5
C81
  8
0
 10
41544.3078890303
 20
295.120161372369
 30
0.0
 11
41684.3078890303
 21
295.120161372369
 31
0.0
  0
LINE
  5
C82
  8
0
 10
41684.3078890303
 20
295.120161372369
 30
0.0
 11
41824.3078890303
 21
295.120161372369
 31
0.0
  0
LINE
  5
C83
  8
0
 10
41824.3078890303
 20
295.120161372369
 30
0.0
 11
41964.3078890303
 21
295.120161372369
 31
0.0
  0
LINE
  5
C84
  8
0
 10
41964.3078890303
 20
295.120161372369
 30
0.0
 11
42104.3078890303
 21
295.120161372369
 31
0.0
  0
LINE
  5
C85
  8
0
 10
42104.3078890303
 20
295.120161372369
 30
0.0
 11
42244.3078890303
 21
295.120161372369
 31
0.0
  0
LINE
  5
C86
  8
0
 10
42244.3078890303
 20
295.120161372369
 30
0.0
 11
42384.3078890303
 21
295.120161372369
 31
0.0
  0
LINE
  5
C87
  8
0
 10
42384.3078890303
 20
295.120161372369
 30
0.0
 11
42524.3078890303
 21
295.120161372369
 31
0.0
  0
LINE
  5
C88
  8
0
 10
42524.3078890303
 20
295.120161372369
 30
0.0
 11
42664.3078890303
 21
295.120161372369
 31
0.0
  0
LINE
  5
C89
  8
0
 10
41404.3078890303
 20
295.120161372369
 30
0.0
 11
41404.3078890303
 21
159.3868280390352
 31
0.0
  0
LINE
  5
C8A
  8
0
 10
42664.3078890303
 20
295.120161372369
 30
0.0
 11
42664.3078890303
 21
159.3868280390352
 31
0.0
  0
LINE
  5
C8B
  8
0
 10
40704.3078890303
 20
159.3868280390352
 30
0.0
 11
40844.3078890303
 21
159.3868280390352
 31
0.0
  0
LINE
  5
C8C
  8
0
 10
40844.3078890303
 20
159.3868280390352
 30
0.0
 11
40984.3078890303
 21
159.3868280390352
 31
0.0
  0
LINE
  5
C8D
  8
0
 10
40984.3078890303
 20
159.3868280390352
 30
0.0
 11
41124.3078890303
 21
159.3868280390352
 31
0.0
  0
LINE
  5
C8E
  8
0
 10
40704.3078890303
 20
159.3868280390352
 30
0.0
 11
40704.3078890303
 21
23.65349470570254
 31
0.0
  0
LINE
  5
C8F
  8
0
 10
40704.3078890303
 20
23.65349470570254
 30
0.0
 11
40704.3078890303
 21
-112.0798386276301
 31
0.0
  0
LINE
  5
C90
  8
0
 10
41124.3078890303
 20
159.3868280390352
 30
0.0
 11
41264.3078890303
 21
159.3868280390352
 31
0.0
  0
LINE
  5
C91
  8
0
 10
41264.3078890303
 20
159.3868280390352
 30
0.0
 11
41404.3078890303
 21
159.3868280390352
 31
0.0
  0
LINE
  5
C92
  8
0
 10
41124.3078890303
 20
159.3868280390352
 30
0.0
 11
41124.3078890303
 21
23.65349470570254
 31
0.0
  0
LINE
  5
C93
  8
0
 10
41404.3078890303
 20
159.3868280390352
 30
0.0
 11
41544.3078890303
 21
159.3868280390352
 31
0.0
  0
LINE
  5
C94
  8
0
 10
41544.3078890303
 20
159.3868280390352
 30
0.0
 11
41684.3078890303
 21
159.3868280390352
 31
0.0
  0
LINE
  5
C95
  8
0
 10
41684.3078890303
 20
159.3868280390352
 30
0.0
 11
41824.3078890303
 21
159.3868280390352
 31
0.0
  0
LINE
  5
C96
  8
0
 10
41824.3078890303
 20
159.3868280390352
 30
0.0
 11
41964.3078890303
 21
159.3868280390352
 31
0.0
  0
LINE
  5
C97
  8
0
 10
41964.3078890303
 20
159.3868280390352
 30
0.0
 11
42104.3078890303
 21
159.3868280390352
 31
0.0
  0
LINE
  5
C98
  8
0
 10
42104.3078890303
 20
159.3868280390352
 30
0.0
 11
42244.3078890303
 21
159.3868280390352
 31
0.0
  0
LINE
  5
C99
  8
0
 10
42244.3078890303
 20
159.3868280390352
 30
0.0
 11
42384.3078890303
 21
159.3868280390352
 31
0.0
  0
LINE
  5
C9A
  8
0
 10
42384.3078890303
 20
159.3868280390352
 30
0.0
 11
42524.3078890303
 21
159.3868280390352
 31
0.0
  0
LINE
  5
C9B
  8
0
 10
42524.3078890303
 20
159.3868280390352
 30
0.0
 11
42664.3078890303
 21
159.3868280390352
 31
0.0
  0
LINE
  5
C9C
  8
0
 10
41404.3078890303
 20
159.3868280390352
 30
0.0
 11
41404.3078890303
 21
23.65349470570254
 31
0.0
  0
LINE
  5
C9D
  8
0
 10
42664.3078890303
 20
159.3868280390352
 30
0.0
 11
42664.3078890303
 21
23.65349470570254
 31
0.0
  0
LINE
  5
C9E
  8
0
 10
41124.3078890303
 20
23.65349470570254
 30
0.0
 11
41264.3078890303
 21
23.65349470570254
 31
0.0
  0
LINE
  5
C9F
  8
0
 10
41264.3078890303
 20
23.65349470570254
 30
0.0
 11
41404.3078890303
 21
23.65349470570254
 31
0.0
  0
LINE
  5
CA0
  8
0
 10
41124.3078890303
 20
23.65349470570254
 30
0.0
 11
41124.3078890303
 21
-112.0798386276301
 31
0.0
  0
LINE
  5
CA1
  8
0
 10
41404.3078890303
 20
23.65349470570254
 30
0.0
 11
41544.3078890303
 21
23.65349470570254
 31
0.0
  0
LINE
  5
CA2
  8
0
 10
41544.3078890303
 20
23.65349470570254
 30
0.0
 11
41684.3078890303
 21
23.65349470570254
 31
0.0
  0
LINE
  5
CA3
  8
0
 10
41684.3078890303
 20
23.65349470570254
 30
0.0
 11
41824.3078890303
 21
23.65349470570254
 31
0.0
  0
LINE
  5
CA4
  8
0
 10
41824.3078890303
 20
23.65349470570254
 30
0.0
 11
41964.3078890303
 21
23.65349470570254
 31
0.0
  0
LINE
  5
CA5
  8
0
 10
41964.3078890303
 20
23.65349470570254
 30
0.0
 11
42104.3078890303
 21
23.65349470570254
 31
0.0
  0
LINE
  5
CA6
  8
0
 10
42104.3078890303
 20
23.65349470570254
 30
0.0
 11
42244.3078890303
 21
23.65349470570254
 31
0.0
  0
LINE
  5
CA7
  8
0
 10
42244.3078890303
 20
23.65349470570254
 30
0.0
 11
42384.3078890303
 21
23.65349470570254
 31
0.0
  0
LINE
  5
CA8
  8
0
 10
42384.3078890303
 20
23.65349470570254
 30
0.0
 11
42524.3078890303
 21
23.65349470570254
 31
0.0
  0
LINE
  5
CA9
  8
0
 10
42524.3078890303
 20
23.65349470570254
 30
0.0
 11
42664.3078890303
 21
23.65349470570254
 31
0.0
  0
LINE
  5
CAA
  8
0
 10
41404.3078890303
 20
23.65349470570254
 30
0.0
 11
41404.3078890303
 21
-112.0798386276301
 31
0.0
  0
LINE
  5
CAB
  8
0
 10
42664.3078890303
 20
23.65349470570254
 30
0.0
 11
42664.3078890303
 21
-112.0798386276301
 31
0.0
  0
LINE
  5
CAC
  8
0
 10
40284.3078890303
 20
-112.0798386276301
 30
0.0
 11
40424.3078890303
 21
-112.0798386276301
 31
0.0
  0
LINE
  5
CAD
  8
0
 10
40284.3078890303
 20
-247.8131719609639
 30
0.0
 11
40424.3078890303
 21
-247.8131719609639
 31
0.0
  0
LINE
  5
CAE
  8
0
 10
40424.3078890303
 20
-112.0798386276301
 30
0.0
 11
40564.3078890303
 21
-112.0798386276301
 31
0.0
  0
LINE
  5
CAF
  8
0
 10
40424.3078890303
 20
-247.8131719609639
 30
0.0
 11
40564.3078890303
 21
-247.8131719609639
 31
0.0
  0
LINE
  5
CB0
  8
0
 10
40564.3078890303
 20
-112.0798386276301
 30
0.0
 11
40704.3078890303
 21
-112.0798386276301
 31
0.0
  0
LINE
  5
CB1
  8
0
 10
40564.3078890303
 20
-247.8131719609639
 30
0.0
 11
40704.3078890303
 21
-247.8131719609639
 31
0.0
  0
LINE
  5
CB2
  8
0
 10
40704.3078890303
 20
-112.0798386276301
 30
0.0
 11
40844.3078890303
 21
-112.0798386276301
 31
0.0
  0
LINE
  5
CB3
  8
0
 10
40704.3078890303
 20
-247.8131719609639
 30
0.0
 11
40844.3078890303
 21
-247.8131719609639
 31
0.0
  0
LINE
  5
CB4
  8
0
 10
40844.3078890303
 20
-112.0798386276301
 30
0.0
 11
40984.3078890303
 21
-112.0798386276301
 31
0.0
  0
LINE
  5
CB5
  8
0
 10
40844.3078890303
 20
-247.8131719609639
 30
0.0
 11
40984.3078890303
 21
-247.8131719609639
 31
0.0
  0
LINE
  5
CB6
  8
0
 10
40984.3078890303
 20
-112.0798386276301
 30
0.0
 11
41124.3078890303
 21
-112.0798386276301
 31
0.0
  0
LINE
  5
CB7
  8
0
 10
40984.3078890303
 20
-247.8131719609639
 30
0.0
 11
41124.3078890303
 21
-247.8131719609639
 31
0.0
  0
LINE
  5
CB8
  8
0
 10
41124.3078890303
 20
-112.0798386276301
 30
0.0
 11
41264.3078890303
 21
-112.0798386276301
 31
0.0
  0
LINE
  5
CB9
  8
0
 10
41124.3078890303
 20
-247.8131719609639
 30
0.0
 11
41264.3078890303
 21
-247.8131719609639
 31
0.0
  0
LINE
  5
CBA
  8
0
 10
41264.3078890303
 20
-112.0798386276301
 30
0.0
 11
41404.3078890303
 21
-112.0798386276301
 31
0.0
  0
LINE
  5
CBB
  8
0
 10
41264.3078890303
 20
-247.8131719609639
 30
0.0
 11
41404.3078890303
 21
-247.8131719609639
 31
0.0
  0
LINE
  5
CBC
  8
0
 10
41404.3078890303
 20
-112.0798386276301
 30
0.0
 11
41544.3078890303
 21
-112.0798386276301
 31
0.0
  0
LINE
  5
CBD
  8
0
 10
41404.3078890303
 20
-247.8131719609639
 30
0.0
 11
41544.3078890303
 21
-247.8131719609639
 31
0.0
  0
LINE
  5
CBE
  8
0
 10
41544.3078890303
 20
-112.0798386276301
 30
0.0
 11
41684.3078890303
 21
-112.0798386276301
 31
0.0
  0
LINE
  5
CBF
  8
0
 10
41544.3078890303
 20
-247.8131719609639
 30
0.0
 11
41684.3078890303
 21
-247.8131719609639
 31
0.0
  0
LINE
  5
CC0
  8
0
 10
41684.3078890303
 20
-112.0798386276301
 30
0.0
 11
41824.3078890303
 21
-112.0798386276301
 31
0.0
  0
LINE
  5
CC1
  8
0
 10
41684.3078890303
 20
-247.8131719609639
 30
0.0
 11
41824.3078890303
 21
-247.8131719609639
 31
0.0
  0
LINE
  5
CC2
  8
0
 10
41824.3078890303
 20
-112.0798386276301
 30
0.0
 11
41964.3078890303
 21
-112.0798386276301
 31
0.0
  0
LINE
  5
CC3
  8
0
 10
41824.3078890303
 20
-247.8131719609639
 30
0.0
 11
41964.3078890303
 21
-247.8131719609639
 31
0.0
  0
LINE
  5
CC4
  8
0
 10
41964.3078890303
 20
-112.0798386276301
 30
0.0
 11
42104.3078890303
 21
-112.0798386276301
 31
0.0
  0
LINE
  5
CC5
  8
0
 10
41964.3078890303
 20
-247.8131719609639
 30
0.0
 11
42104.3078890303
 21
-247.8131719609639
 31
0.0
  0
LINE
  5
CC6
  8
0
 10
42104.3078890303
 20
-112.0798386276301
 30
0.0
 11
42244.3078890303
 21
-112.0798386276301
 31
0.0
  0
LINE
  5
CC7
  8
0
 10
42104.3078890303
 20
-247.8131719609639
 30
0.0
 11
42244.3078890303
 21
-247.8131719609639
 31
0.0
  0
LINE
  5
CC8
  8
0
 10
42244.3078890303
 20
-112.0798386276301
 30
0.0
 11
42384.3078890303
 21
-112.0798386276301
 31
0.0
  0
LINE
  5
CC9
  8
0
 10
42244.3078890303
 20
-247.8131719609639
 30
0.0
 11
42384.3078890303
 21
-247.8131719609639
 31
0.0
  0
LINE
  5
CCA
  8
0
 10
42384.3078890303
 20
-112.0798386276301
 30
0.0
 11
42524.3078890303
 21
-112.0798386276301
 31
0.0
  0
LINE
  5
CCB
  8
0
 10
42384.3078890303
 20
-247.8131719609639
 30
0.0
 11
42524.3078890303
 21
-247.8131719609639
 31
0.0
  0
LINE
  5
CCC
  8
0
 10
42524.3078890303
 20
-112.0798386276301
 30
0.0
 11
42664.3078890303
 21
-112.0798386276301
 31
0.0
  0
LINE
  5
CCD
  8
0
 10
42524.3078890303
 20
-247.8131719609639
 30
0.0
 11
42664.3078890303
 21
-247.8131719609639
 31
0.0
  0
LINE
  5
CCE
  8
0
 10
40284.3078890303
 20
-112.0798386276301
 30
0.0
 11
40284.3078890303
 21
-247.8131719609639
 31
0.0
  0
LINE
  5
CCF
  8
0
 10
42664.3078890303
 20
-112.0798386276301
 30
0.0
 11
42664.3078890303
 21
-247.8131719609639
 31
0.0
  0
TEXT
  5
CD0
  8
0
 10
40439.86754711505
 20
873.6893895140342
 30
0.0
 40
64.0
  1
タンク本体寸法差：\U+00B1１．５％
  0
TEXT
  5
CD1
  8
0
 10
40435.4186136271
 20
743.1881997637258
 30
0.0
 40
64.0
  1
付属品取付位置は平面図による。
  0
TEXT
  5
CD2
  8
0
 10
40344.68169154962
 20
470.6022146767423
 30
0.0
 40
64.0
  1
フィッティング材質
  0
TEXT
  5
CD3
  8
0
 10
41279.697440437
 20
459.7371775558252
 30
0.0
 40
64.0
  1
Ｐ　Ｅ　・　Ａ　Ｌ　・　ＳＵＳ
  0
TEXT
  5
CD4
  8
0
 10
40349.81962175871
 20
341.7200723233514
 30
0.0
 40
64.0
  1
ガ
  0
TEXT
  5
CD5
  8
0
 10
40353.71809891606
 20
235.0534056566851
 30
0.0
 40
64.0
  1
ス
  0
TEXT
  5
CD6
  8
0
 10
40353.06835272319
 20
128.3867389900188
 30
0.0
 40
64.0
  1
ケ
  0
TEXT
  5
CD7
  8
0
 10
40379.06162966551
 20
30.8610539089982
 30
0.0
 40
64.0
  1
ッ
  0
TEXT
  5
CD8
  8
0
 10
40347.89200711346
 20
-85.4904740692889
 30
0.0
 40
64.0
  1
ト
  0
TEXT
  5
CD9
  8
0
 10
40505.61649512789
 20
345.6185494807123
 30
0.0
 40
64.0
  1
材
  0
TEXT
  5
CDA
  8
0
 10
40502.69263725981
 20
237.0026442353656
 30
0.0
 40
64.0
  1
質
  0
TEXT
  5
CDB
  8
0
 10
40719.72802915784
 20
273.4684577435501
 30
0.0
 40
40.0
  1
フィッティング用
  0
TEXT
  5
CDC
  8
0
 10
40764.02413638329
 20
-4.893546454253055
 30
0.0
 40
50.0
  1
フランジ用
  0
TEXT
  5
CDD
  8
0
 10
40429.05227925052
 20
602.0142939189741
 30
0.0
 40
64.0
  1
フランジ規格：ＪＩＳ
  0
TEXT
  5
CDE
  8
0
 10
41673.42792880458
 20
598.7494813153721
 30
0.0
 40
64.0
  1
製作数：　　１　基
  0
TEXT
  5
CDF
  8
0
 10
41191.541787804
 20
334.1597989754591
 30
0.0
 40
64.0
  1
天板
  0
TEXT
  5
CE0
  8
0
 10
41188.19748369895
 20
197.5633185472343
 30
0.0
 40
64.0
  1
側面
  0
TEXT
  5
CE1
  8
0
 10
41194.43136062362
 20
62.46868800194693
 30
0.0
 40
64.0
  1
天板
  0
TEXT
  5
CE2
  8
0
 10
41191.0867299736
 20
-72.61453615795699
 30
0.0
 40
64.0
  1
側面
  0
TEXT
  5
CE3
  8
0
 10
41663.41493537066
 20
325.8892461774876
 30
0.0
 40
64.0
  1
ＩＩＲ　・　ＦＫＭ
  0
TEXT
  5
CE4
  8
0
 10
41667.6352029923
 20
189.0847803676506
 30
0.0
 40
64.0
  1
ＩＩＲ　・　ＦＫＭ
  0
TEXT
  5
CE5
  8
0
 10
41588.82485973494
 20
-80.1390294746734
 30
0.0
 40
64.0
  1
ＥＰＤＭ　・　ＦＫＭ
  0
TEXT
  5
CE6
  8
0
 10
41590.35145762506
 20
55.44763658675311
 30
0.0
 40
64.0
  1
ＥＰＤＭ　・　ＦＫＭ
  0
LINE
  5
CE9
  8
0
 10
42144.20340645344
 20
504.1894738431079
 30
0.0
 11
42606.69333960598
 21
504.1894738431079
 31
0.0
  0
LINE
  5
CEC
  8
0
 10
42148.92263484004
 20
480.6129796073224
 30
0.0
 11
42611.41256799258
 21
480.6129796073224
 31
0.0
  0
LINE
  5
CEE
  8
0
 10
42030.94061899485
 20
373.7773811285165
 30
0.0
 11
42587.81609951452
 21
373.7773811285165
 31
0.0
  0
LINE
  5
CF0
  8
0
 10
42035.6601739265
 20
339.7446913581603
 30
0.0
 11
42592.53565444617
 21
339.7446913581603
 31
0.0
  0
LINE
  5
CF2
  8
0
 10
42030.98209021029
 20
204.8936016767634
 30
0.0
 11
42587.85757072996
 21
204.8936016767634
 31
0.0
  0
LINE
  5
CF3
  8
0
 10
41476.22392749143
 20
100.9151005020844
 30
0.0
 11
42028.38050616955
 21
100.9151005020844
 31
0.0
  0
LINE
  5
CF4
  8
0
 10
42028.38050616955
 20
100.9151005020844
 30
0.0
 11
42585.25598668921
 21
100.9151005020844
 31
0.0
  0
LINE
  5
CF5
  8
0
 10
41478.82551153218
 20
64.52267046354382
 30
0.0
 11
42030.98209021029
 21
64.52267046354382
 31
0.0
  0
LINE
  5
CF6
  8
0
 10
42030.98209021029
 20
64.52267046354382
 30
0.0
 11
42587.85757072996
 21
64.52267046354382
 31
0.0
  0
LINE
  5
CF7
  8
0
 10
41469.97352958473
 20
-32.48351879815755
 30
0.0
 11
42022.13010826285
 21
-32.48351879815755
 31
0.0
  0
LINE
  5
CF8
  8
0
 10
42022.13010826285
 20
-32.48351879815755
 30
0.0
 11
42579.00558878251
 21
-32.48351879815755
 31
0.0
  0
LINE
  5
CF9
  8
0
 10
41472.54735730012
 20
-68.48937454998531
 30
0.0
 11
42024.70393597824
 21
-68.48937454998531
 31
0.0
  0
LINE
  5
CFA
  8
0
 10
42024.70393597824
 20
-68.48937454998531
 30
0.0
 11
42581.5794164979
 21
-68.48937454998531
 31
0.0
  0
LINE
  5
CFC
  8
0
 10
42032.4260722145
 20
234.9888636271367
 30
0.0
 11
42589.30155273416
 21
234.9888636271367
 31
0.0
  0
LINE
  5
CFD
  8
0
 10
40430.38008151407
 20
-168.5367761913353
 30
0.0
 11
42482.28697398829
 21
-168.5367761913353
 31
0.0
  0
LINE
  5
CFE
  8
0
 10
40433.9362339401
 20
-193.4090211794951
 30
0.0
 11
42485.84312641431
 21
-193.4090211794951
 31
0.0
  0
LINE
  5
D4D
  8
0
 10
44112.95321643585
 20
-3421.059771575836
 30
0.0
 11
44287.95321643585
 21
-3421.059771575836
 31
0.0
  0
LINE
  5
D4E
  8
0
 10
44112.95321643585
 20
-3421.059771575836
 30
0.0
 11
44112.95321643585
 21
-3571.059771575836
 31
0.0
  0
LINE
  5
D4F
  8
0
 10
44287.95321643585
 20
-3421.059771575836
 30
0.0
 11
44462.95321643585
 21
-3421.059771575836
 31
0.0
  0
LINE
  5
D50
  8
0
 10
44462.95321643585
 20
-3421.059771575836
 30
0.0
 11
44637.95321643585
 21
-3421.059771575836
 31
0.0
  0
LINE
  5
D51
  8
0
 10
44462.95321643585
 20
-3421.059771575836
 30
0.0
 11
44462.95321643585
 21
-3571.059771575836
 31
0.0
  0
LINE
  5
D52
  8
0
 10
44637.95321643585
 20
-3421.059771575836
 30
0.0
 11
44812.95321643585
 21
-3421.059771575836
 31
0.0
  0
LINE
  5
D53
  8
0
 10
44812.95321643585
 20
-3421.059771575836
 30
0.0
 11
44987.95321643585
 21
-3421.059771575836
 31
0.0
  0
LINE
  5
D54
  8
0
 10
44987.95321643585
 20
-3421.059771575836
 30
0.0
 11
45162.95321643585
 21
-3421.059771575836
 31
0.0
  0
LINE
  5
D55
  8
0
 10
45162.95321643585
 20
-3421.059771575836
 30
0.0
 11
45337.95321643585
 21
-3421.059771575836
 31
0.0
  0
LINE
  5
D56
  8
0
 10
45337.95321643585
 20
-3421.059771575836
 30
0.0
 11
45512.95321643585
 21
-3421.059771575836
 31
0.0
  0
LINE
  5
D57
  8
0
 10
45337.95321643585
 20
-3421.059771575836
 30
0.0
 11
45337.95321643585
 21
-3571.059771575836
 31
0.0
  0
LINE
  5
D58
  8
0
 10
45512.95321643585
 20
-3421.059771575836
 30
0.0
 11
45687.95321643585
 21
-3421.059771575836
 31
0.0
  0
LINE
  5
D59
  8
0
 10
45687.95321643585
 20
-3421.059771575836
 30
0.0
 11
45862.95321643585
 21
-3421.059771575836
 31
0.0
  0
LINE
  5
D5A
  8
0
 10
45687.95321643585
 20
-3421.059771575836
 30
0.0
 11
45687.95321643585
 21
-3571.059771575836
 31
0.0
  0
LINE
  5
D5B
  8
0
 10
45862.95321643585
 20
-3421.059771575836
 30
0.0
 11
46037.95321643585
 21
-3421.059771575836
 31
0.0
  0
LINE
  5
D5C
  8
0
 10
46037.95321643585
 20
-3421.059771575836
 30
0.0
 11
46212.95321643585
 21
-3421.059771575836
 31
0.0
  0
LINE
  5
D5D
  8
0
 10
46037.95321643585
 20
-3421.059771575836
 30
0.0
 11
46037.95321643585
 21
-3571.059771575836
 31
0.0
  0
LINE
  5
D5E
  8
0
 10
46212.95321643585
 20
-3421.059771575836
 30
0.0
 11
46387.95321643585
 21
-3421.059771575836
 31
0.0
  0
LINE
  5
D5F
  8
0
 10
46387.95321643585
 20
-3421.059771575836
 30
0.0
 11
46562.95321643585
 21
-3421.059771575836
 31
0.0
  0
LINE
  5
D60
  8
0
 10
46387.95321643585
 20
-3421.059771575836
 30
0.0
 11
46387.95321643585
 21
-3571.059771575836
 31
0.0
  0
LINE
  5
D61
  8
0
 10
46562.95321643585
 20
-3421.059771575836
 30
0.0
 11
46737.95321643585
 21
-3421.059771575836
 31
0.0
  0
LINE
  5
D62
  8
0
 10
46737.95321643585
 20
-3421.059771575836
 30
0.0
 11
46912.95321643585
 21
-3421.059771575836
 31
0.0
  0
LINE
  5
D63
  8
0
 10
46912.95321643585
 20
-3421.059771575836
 30
0.0
 11
47087.95321643585
 21
-3421.059771575836
 31
0.0
  0
LINE
  5
D64
  8
0
 10
47087.95321643585
 20
-3421.059771575836
 30
0.0
 11
47262.95321643585
 21
-3421.059771575836
 31
0.0
  0
LINE
  5
D65
  8
0
 10
47262.95321643585
 20
-3421.059771575836
 30
0.0
 11
47437.95321643585
 21
-3421.059771575836
 31
0.0
  0
LINE
  5
D66
  8
0
 10
47437.95321643585
 20
-3421.059771575836
 30
0.0
 11
47437.95321643585
 21
-3571.059771575836
 31
0.0
  0
LINE
  5
D67
  8
0
 10
44112.95321643585
 20
-3571.059771575836
 30
0.0
 11
44287.95321643585
 21
-3571.059771575836
 31
0.0
  0
LINE
  5
D68
  8
0
 10
44112.95321643585
 20
-3571.059771575836
 30
0.0
 11
44112.95321643585
 21
-3721.059771575836
 31
0.0
  0
LINE
  5
D69
  8
0
 10
44287.95321643585
 20
-3571.059771575836
 30
0.0
 11
44462.95321643585
 21
-3571.059771575836
 31
0.0
  0
LINE
  5
D6A
  8
0
 10
44462.95321643585
 20
-3571.059771575836
 30
0.0
 11
44637.95321643585
 21
-3571.059771575836
 31
0.0
  0
LINE
  5
D6B
  8
0
 10
44462.95321643585
 20
-3571.059771575836
 30
0.0
 11
44462.95321643585
 21
-3721.059771575836
 31
0.0
  0
LINE
  5
D6C
  8
0
 10
44637.95321643585
 20
-3571.059771575836
 30
0.0
 11
44812.95321643585
 21
-3571.059771575836
 31
0.0
  0
LINE
  5
D6D
  8
0
 10
44812.95321643585
 20
-3571.059771575836
 30
0.0
 11
44987.95321643585
 21
-3571.059771575836
 31
0.0
  0
LINE
  5
D6E
  8
0
 10
44987.95321643585
 20
-3571.059771575836
 30
0.0
 11
45162.95321643585
 21
-3571.059771575836
 31
0.0
  0
LINE
  5
D6F
  8
0
 10
45162.95321643585
 20
-3571.059771575836
 30
0.0
 11
45337.95321643585
 21
-3571.059771575836
 31
0.0
  0
LINE
  5
D70
  8
0
 10
45337.95321643585
 20
-3571.059771575836
 30
0.0
 11
45512.95321643585
 21
-3571.059771575836
 31
0.0
  0
LINE
  5
D71
  8
0
 10
45337.95321643585
 20
-3571.059771575836
 30
0.0
 11
45337.95321643585
 21
-3721.059771575836
 31
0.0
  0
LINE
  5
D72
  8
0
 10
45512.95321643585
 20
-3571.059771575836
 30
0.0
 11
45687.95321643585
 21
-3571.059771575836
 31
0.0
  0
LINE
  5
D73
  8
0
 10
45687.95321643585
 20
-3571.059771575836
 30
0.0
 11
45862.95321643585
 21
-3571.059771575836
 31
0.0
  0
LINE
  5
D74
  8
0
 10
45687.95321643585
 20
-3571.059771575836
 30
0.0
 11
45687.95321643585
 21
-3721.059771575836
 31
0.0
  0
LINE
  5
D75
  8
0
 10
45862.95321643585
 20
-3571.059771575836
 30
0.0
 11
46037.95321643585
 21
-3571.059771575836
 31
0.0
  0
LINE
  5
D76
  8
0
 10
46037.95321643585
 20
-3571.059771575836
 30
0.0
 11
46212.95321643585
 21
-3571.059771575836
 31
0.0
  0
LINE
  5
D77
  8
0
 10
46037.95321643585
 20
-3571.059771575836
 30
0.0
 11
46037.95321643585
 21
-3721.059771575836
 31
0.0
  0
LINE
  5
D78
  8
0
 10
46212.95321643585
 20
-3571.059771575836
 30
0.0
 11
46387.95321643585
 21
-3571.059771575836
 31
0.0
  0
LINE
  5
D79
  8
0
 10
46387.95321643585
 20
-3571.059771575836
 30
0.0
 11
46562.95321643585
 21
-3571.059771575836
 31
0.0
  0
LINE
  5
D7A
  8
0
 10
46387.95321643585
 20
-3571.059771575836
 30
0.0
 11
46387.95321643585
 21
-3721.059771575836
 31
0.0
  0
LINE
  5
D7B
  8
0
 10
46562.95321643585
 20
-3571.059771575836
 30
0.0
 11
46737.95321643585
 21
-3571.059771575836
 31
0.0
  0
LINE
  5
D7C
  8
0
 10
46737.95321643585
 20
-3571.059771575836
 30
0.0
 11
46912.95321643585
 21
-3571.059771575836
 31
0.0
  0
LINE
  5
D7D
  8
0
 10
46912.95321643585
 20
-3571.059771575836
 30
0.0
 11
47087.95321643585
 21
-3571.059771575836
 31
0.0
  0
LINE
  5
D7E
  8
0
 10
47087.95321643585
 20
-3571.059771575836
 30
0.0
 11
47262.95321643585
 21
-3571.059771575836
 31
0.0
  0
LINE
  5
D7F
  8
0
 10
47262.95321643585
 20
-3571.059771575836
 30
0.0
 11
47437.95321643585
 21
-3571.059771575836
 31
0.0
  0
LINE
  5
D80
  8
0
 10
47437.95321643585
 20
-3571.059771575836
 30
0.0
 11
47437.95321643585
 21
-3721.059771575836
 31
0.0
  0
LINE
  5
D81
  8
0
 10
44112.95321643585
 20
-3721.059771575836
 30
0.0
 11
44287.95321643585
 21
-3721.059771575836
 31
0.0
  0
LINE
  5
D82
  8
0
 10
44112.95321643585
 20
-3721.059771575836
 30
0.0
 11
44112.95321643585
 21
-3871.059771575836
 31
0.0
  0
LINE
  5
D83
  8
0
 10
44287.95321643585
 20
-3721.059771575836
 30
0.0
 11
44462.95321643585
 21
-3721.059771575836
 31
0.0
  0
LINE
  5
D84
  8
0
 10
44462.95321643585
 20
-3721.059771575836
 30
0.0
 11
44637.95321643585
 21
-3721.059771575836
 31
0.0
  0
LINE
  5
D85
  8
0
 10
44462.95321643585
 20
-3721.059771575836
 30
0.0
 11
44462.95321643585
 21
-3871.059771575836
 31
0.0
  0
LINE
  5
D86
  8
0
 10
44637.95321643585
 20
-3721.059771575836
 30
0.0
 11
44812.95321643585
 21
-3721.059771575836
 31
0.0
  0
LINE
  5
D87
  8
0
 10
44812.95321643585
 20
-3721.059771575836
 30
0.0
 11
44987.95321643585
 21
-3721.059771575836
 31
0.0
  0
LINE
  5
D88
  8
0
 10
44987.95321643585
 20
-3721.059771575836
 30
0.0
 11
45162.95321643585
 21
-3721.059771575836
 31
0.0
  0
LINE
  5
D89
  8
0
 10
45162.95321643585
 20
-3721.059771575836
 30
0.0
 11
45337.95321643585
 21
-3721.059771575836
 31
0.0
  0
LINE
  5
D8A
  8
0
 10
45337.95321643585
 20
-3721.059771575836
 30
0.0
 11
45512.95321643585
 21
-3721.059771575836
 31
0.0
  0
LINE
  5
D8B
  8
0
 10
45337.95321643585
 20
-3721.059771575836
 30
0.0
 11
45337.95321643585
 21
-3871.059771575836
 31
0.0
  0
LINE
  5
D8C
  8
0
 10
45512.95321643585
 20
-3721.059771575836
 30
0.0
 11
45687.95321643585
 21
-3721.059771575836
 31
0.0
  0
LINE
  5
D8D
  8
0
 10
45687.95321643585
 20
-3721.059771575836
 30
0.0
 11
45862.95321643585
 21
-3721.059771575836
 31
0.0
  0
LINE
  5
D8E
  8
0
 10
45687.95321643585
 20
-3721.059771575836
 30
0.0
 11
45687.95321643585
 21
-3871.059771575836
 31
0.0
  0
LINE
  5
D8F
  8
0
 10
45862.95321643585
 20
-3721.059771575836
 30
0.0
 11
46037.95321643585
 21
-3721.059771575836
 31
0.0
  0
LINE
  5
D90
  8
0
 10
46037.95321643585
 20
-3721.059771575836
 30
0.0
 11
46212.95321643585
 21
-3721.059771575836
 31
0.0
  0
LINE
  5
D91
  8
0
 10
46037.95321643585
 20
-3721.059771575836
 30
0.0
 11
46037.95321643585
 21
-3871.059771575836
 31
0.0
  0
LINE
  5
D92
  8
0
 10
46212.95321643585
 20
-3721.059771575836
 30
0.0
 11
46387.95321643585
 21
-3721.059771575836
 31
0.0
  0
LINE
  5
D93
  8
0
 10
46387.95321643585
 20
-3721.059771575836
 30
0.0
 11
46562.95321643585
 21
-3721.059771575836
 31
0.0
  0
LINE
  5
D94
  8
0
 10
46387.95321643585
 20
-3721.059771575836
 30
0.0
 11
46387.95321643585
 21
-3871.059771575836
 31
0.0
  0
LINE
  5
D95
  8
0
 10
46562.95321643585
 20
-3721.059771575836
 30
0.0
 11
46737.95321643585
 21
-3721.059771575836
 31
0.0
  0
LINE
  5
D96
  8
0
 10
46737.95321643585
 20
-3721.059771575836
 30
0.0
 11
46912.95321643585
 21
-3721.059771575836
 31
0.0
  0
LINE
  5
D97
  8
0
 10
46912.95321643585
 20
-3721.059771575836
 30
0.0
 11
47087.95321643585
 21
-3721.059771575836
 31
0.0
  0
LINE
  5
D98
  8
0
 10
47087.95321643585
 20
-3721.059771575836
 30
0.0
 11
47262.95321643585
 21
-3721.059771575836
 31
0.0
  0
LINE
  5
D99
  8
0
 10
47262.95321643585
 20
-3721.059771575836
 30
0.0
 11
47437.95321643585
 21
-3721.059771575836
 31
0.0
  0
LINE
  5
D9A
  8
0
 10
47437.95321643585
 20
-3721.059771575836
 30
0.0
 11
47437.95321643585
 21
-3871.059771575836
 31
0.0
  0
LINE
  5
D9B
  8
0
 10
44112.95321643585
 20
-3871.059771575836
 30
0.0
 11
44287.95321643585
 21
-3871.059771575836
 31
0.0
  0
LINE
  5
D9D
  8
0
 10
44287.95321643585
 20
-3871.059771575836
 30
0.0
 11
44462.95321643585
 21
-3871.059771575836
 31
0.0
  0
LINE
  5
D9E
  8
0
 10
44462.95321643585
 20
-3871.059771575836
 30
0.0
 11
44637.95321643585
 21
-3871.059771575836
 31
0.0
  0
LINE
  5
DA0
  8
0
 10
44637.95321643585
 20
-3871.059771575836
 30
0.0
 11
44812.95321643585
 21
-3871.059771575836
 31
0.0
  0
LINE
  5
DA1
  8
0
 10
44812.95321643585
 20
-3871.059771575836
 30
0.0
 11
44987.95321643585
 21
-3871.059771575836
 31
0.0
  0
LINE
  5
DA2
  8
0
 10
44987.95321643585
 20
-3871.059771575836
 30
0.0
 11
45162.95321643585
 21
-3871.059771575836
 31
0.0
  0
LINE
  5
DA3
  8
0
 10
45162.95321643585
 20
-3871.059771575836
 30
0.0
 11
45337.95321643585
 21
-3871.059771575836
 31
0.0
  0
LINE
  5
DA4
  8
0
 10
45337.95321643585
 20
-3871.059771575836
 30
0.0
 11
45512.95321643585
 21
-3871.059771575836
 31
0.0
  0
LINE
  5
DA6
  8
0
 10
45512.95321643585
 20
-3871.059771575836
 30
0.0
 11
45687.95321643585
 21
-3871.059771575836
 31
0.0
  0
LINE
  5
DA7
  8
0
 10
45687.95321643585
 20
-3871.059771575836
 30
0.0
 11
45862.95321643585
 21
-3871.059771575836
 31
0.0
  0
LINE
  5
DA9
  8
0
 10
45862.95321643585
 20
-3871.059771575836
 30
0.0
 11
46037.95321643585
 21
-3871.059771575836
 31
0.0
  0
LINE
  5
DAA
  8
0
 10
46037.95321643585
 20
-3871.059771575836
 30
0.0
 11
46212.95321643585
 21
-3871.059771575836
 31
0.0
  0
LINE
  5
DAC
  8
0
 10
46212.95321643585
 20
-3871.059771575836
 30
0.0
 11
46387.95321643585
 21
-3871.059771575836
 31
0.0
  0
LINE
  5
DAD
  8
0
 10
46387.95321643585
 20
-3871.059771575836
 30
0.0
 11
46562.95321643585
 21
-3871.059771575836
 31
0.0
  0
LINE
  5
DAF
  8
0
 10
46562.95321643585
 20
-3871.059771575836
 30
0.0
 11
46737.95321643585
 21
-3871.059771575836
 31
0.0
  0
LINE
  5
DB0
  8
0
 10
46737.95321643585
 20
-3871.059771575836
 30
0.0
 11
46912.95321643585
 21
-3871.059771575836
 31
0.0
  0
LINE
  5
DB1
  8
0
 10
46912.95321643585
 20
-3871.059771575836
 30
0.0
 11
47087.95321643585
 21
-3871.059771575836
 31
0.0
  0
LINE
  5
DB2
  8
0
 10
47087.95321643585
 20
-3871.059771575836
 30
0.0
 11
47262.95321643585
 21
-3871.059771575836
 31
0.0
  0
LINE
  5
DB3
  8
0
 10
47262.95321643585
 20
-3871.059771575836
 30
0.0
 11
47437.95321643585
 21
-3871.059771575836
 31
0.0
  0
LINE
  5
DB5
  8
0
 10
44112.95321643585
 20
-3871.059771575836
 30
0.0
 11
44287.95321643585
 21
-3871.059771575836
 31
0.0
  0
LINE
  5
DB6
  8
0
 10
44112.95321643585
 20
-3871.059771575836
 30
0.0
 11
44112.95321643585
 21
-4021.059771575836
 31
0.0
  0
LINE
  5
DB7
  8
0
 10
44287.95321643585
 20
-3871.059771575836
 30
0.0
 11
44462.95321643585
 21
-3871.059771575836
 31
0.0
  0
LINE
  5
DB8
  8
0
 10
44462.95321643585
 20
-3871.059771575836
 30
0.0
 11
44637.95321643585
 21
-3871.059771575836
 31
0.0
  0
LINE
  5
DB9
  8
0
 10
44462.95321643585
 20
-3871.059771575836
 30
0.0
 11
44462.95321643585
 21
-4021.059771575836
 31
0.0
  0
LINE
  5
DBA
  8
0
 10
44637.95321643585
 20
-3871.059771575836
 30
0.0
 11
44812.95321643585
 21
-3871.059771575836
 31
0.0
  0
LINE
  5
DBB
  8
0
 10
44812.95321643585
 20
-3871.059771575836
 30
0.0
 11
44987.95321643585
 21
-3871.059771575836
 31
0.0
  0
LINE
  5
DBC
  8
0
 10
44987.95321643585
 20
-3871.059771575836
 30
0.0
 11
45162.95321643585
 21
-3871.059771575836
 31
0.0
  0
LINE
  5
DBD
  8
0
 10
45162.95321643585
 20
-3871.059771575836
 30
0.0
 11
45337.95321643585
 21
-3871.059771575836
 31
0.0
  0
LINE
  5
DBE
  8
0
 10
45337.95321643585
 20
-3871.059771575836
 30
0.0
 11
45512.95321643585
 21
-3871.059771575836
 31
0.0
  0
LINE
  5
DBF
  8
0
 10
45337.95321643585
 20
-3871.059771575836
 30
0.0
 11
45337.95321643585
 21
-4021.059771575836
 31
0.0
  0
LINE
  5
DC0
  8
0
 10
45512.95321643585
 20
-3871.059771575836
 30
0.0
 11
45687.95321643585
 21
-3871.059771575836
 31
0.0
  0
LINE
  5
DC1
  8
0
 10
45687.95321643585
 20
-3871.059771575836
 30
0.0
 11
45862.95321643585
 21
-3871.059771575836
 31
0.0
  0
LINE
  5
DC2
  8
0
 10
45687.95321643585
 20
-3871.059771575836
 30
0.0
 11
45687.95321643585
 21
-4021.059771575836
 31
0.0
  0
LINE
  5
DC3
  8
0
 10
45862.95321643585
 20
-3871.059771575836
 30
0.0
 11
46037.95321643585
 21
-3871.059771575836
 31
0.0
  0
LINE
  5
DC4
  8
0
 10
46037.95321643585
 20
-3871.059771575836
 30
0.0
 11
46212.95321643585
 21
-3871.059771575836
 31
0.0
  0
LINE
  5
DC5
  8
0
 10
46037.95321643585
 20
-3871.059771575836
 30
0.0
 11
46037.95321643585
 21
-4021.059771575836
 31
0.0
  0
LINE
  5
DC6
  8
0
 10
46212.95321643585
 20
-3871.059771575836
 30
0.0
 11
46387.95321643585
 21
-3871.059771575836
 31
0.0
  0
LINE
  5
DC7
  8
0
 10
46387.95321643585
 20
-3871.059771575836
 30
0.0
 11
46562.95321643585
 21
-3871.059771575836
 31
0.0
  0
LINE
  5
DC8
  8
0
 10
46387.95321643585
 20
-3871.059771575836
 30
0.0
 11
46387.95321643585
 21
-4021.059771575836
 31
0.0
  0
LINE
  5
DC9
  8
0
 10
46562.95321643585
 20
-3871.059771575836
 30
0.0
 11
46737.95321643585
 21
-3871.059771575836
 31
0.0
  0
LINE
  5
DCA
  8
0
 10
46737.95321643585
 20
-3871.059771575836
 30
0.0
 11
46912.95321643585
 21
-3871.059771575836
 31
0.0
  0
LINE
  5
DCB
  8
0
 10
46912.95321643585
 20
-3871.059771575836
 30
0.0
 11
47087.95321643585
 21
-3871.059771575836
 31
0.0
  0
LINE
  5
DCC
  8
0
 10
47087.95321643585
 20
-3871.059771575836
 30
0.0
 11
47262.95321643585
 21
-3871.059771575836
 31
0.0
  0
LINE
  5
DCD
  8
0
 10
47262.95321643585
 20
-3871.059771575836
 30
0.0
 11
47437.95321643585
 21
-3871.059771575836
 31
0.0
  0
LINE
  5
DCE
  8
0
 10
47437.95321643585
 20
-3871.059771575836
 30
0.0
 11
47437.95321643585
 21
-4021.059771575836
 31
0.0
  0
LINE
  5
DCF
  8
0
 10
44112.95321643585
 20
-4021.059771575836
 30
0.0
 11
44287.95321643585
 21
-4021.059771575836
 31
0.0
  0
LINE
  5
DD0
  8
0
 10
44112.95321643585
 20
-4021.059771575836
 30
0.0
 11
44112.95321643585
 21
-4171.059771575836
 31
0.0
  0
LINE
  5
DD1
  8
0
 10
44287.95321643585
 20
-4021.059771575836
 30
0.0
 11
44462.95321643585
 21
-4021.059771575836
 31
0.0
  0
LINE
  5
DD2
  8
0
 10
44462.95321643585
 20
-4021.059771575836
 30
0.0
 11
44637.95321643585
 21
-4021.059771575836
 31
0.0
  0
LINE
  5
DD3
  8
0
 10
44462.95321643585
 20
-4021.059771575836
 30
0.0
 11
44462.95321643585
 21
-4171.059771575836
 31
0.0
  0
LINE
  5
DD4
  8
0
 10
44637.95321643585
 20
-4021.059771575836
 30
0.0
 11
44812.95321643585
 21
-4021.059771575836
 31
0.0
  0
LINE
  5
DD5
  8
0
 10
44812.95321643585
 20
-4021.059771575836
 30
0.0
 11
44987.95321643585
 21
-4021.059771575836
 31
0.0
  0
LINE
  5
DD6
  8
0
 10
44987.95321643585
 20
-4021.059771575836
 30
0.0
 11
45162.95321643585
 21
-4021.059771575836
 31
0.0
  0
LINE
  5
DD7
  8
0
 10
45162.95321643585
 20
-4021.059771575836
 30
0.0
 11
45337.95321643585
 21
-4021.059771575836
 31
0.0
  0
LINE
  5
DD8
  8
0
 10
45337.95321643585
 20
-4021.059771575836
 30
0.0
 11
45512.95321643585
 21
-4021.059771575836
 31
0.0
  0
LINE
  5
DD9
  8
0
 10
45337.95321643585
 20
-4021.059771575836
 30
0.0
 11
45337.95321643585
 21
-4171.059771575836
 31
0.0
  0
LINE
  5
DDA
  8
0
 10
45512.95321643585
 20
-4021.059771575836
 30
0.0
 11
45687.95321643585
 21
-4021.059771575836
 31
0.0
  0
LINE
  5
DDB
  8
0
 10
45687.95321643585
 20
-4021.059771575836
 30
0.0
 11
45862.95321643585
 21
-4021.059771575836
 31
0.0
  0
LINE
  5
DDC
  8
0
 10
45687.95321643585
 20
-4021.059771575836
 30
0.0
 11
45687.95321643585
 21
-4171.059771575836
 31
0.0
  0
LINE
  5
DDD
  8
0
 10
45862.95321643585
 20
-4021.059771575836
 30
0.0
 11
46037.95321643585
 21
-4021.059771575836
 31
0.0
  0
LINE
  5
DDE
  8
0
 10
46037.95321643585
 20
-4021.059771575836
 30
0.0
 11
46212.95321643585
 21
-4021.059771575836
 31
0.0
  0
LINE
  5
DDF
  8
0
 10
46037.95321643585
 20
-4021.059771575836
 30
0.0
 11
46037.95321643585
 21
-4171.059771575836
 31
0.0
  0
LINE
  5
DE0
  8
0
 10
46212.95321643585
 20
-4021.059771575836
 30
0.0
 11
46387.95321643585
 21
-4021.059771575836
 31
0.0
  0
LINE
  5
DE1
  8
0
 10
46387.95321643585
 20
-4021.059771575836
 30
0.0
 11
46562.95321643585
 21
-4021.059771575836
 31
0.0
  0
LINE
  5
DE2
  8
0
 10
46387.95321643585
 20
-4021.059771575836
 30
0.0
 11
46387.95321643585
 21
-4171.059771575836
 31
0.0
  0
LINE
  5
DE3
  8
0
 10
46562.95321643585
 20
-4021.059771575836
 30
0.0
 11
46737.95321643585
 21
-4021.059771575836
 31
0.0
  0
LINE
  5
DE4
  8
0
 10
46737.95321643585
 20
-4021.059771575836
 30
0.0
 11
46912.95321643585
 21
-4021.059771575836
 31
0.0
  0
LINE
  5
DE5
  8
0
 10
46912.95321643585
 20
-4021.059771575836
 30
0.0
 11
47087.95321643585
 21
-4021.059771575836
 31
0.0
  0
LINE
  5
DE6
  8
0
 10
47087.95321643585
 20
-4021.059771575836
 30
0.0
 11
47262.95321643585
 21
-4021.059771575836
 31
0.0
  0
LINE
  5
DE7
  8
0
 10
47262.95321643585
 20
-4021.059771575836
 30
0.0
 11
47437.95321643585
 21
-4021.059771575836
 31
0.0
  0
LINE
  5
DE8
  8
0
 10
47437.95321643585
 20
-4021.059771575836
 30
0.0
 11
47437.95321643585
 21
-4171.059771575836
 31
0.0
  0
LINE
  5
DE9
  8
0
 10
44112.95321643585
 20
-4171.059771575836
 30
0.0
 11
44287.95321643585
 21
-4171.059771575836
 31
0.0
  0
LINE
  5
DEA
  8
0
 10
44112.95321643585
 20
-4321.059771575836
 30
0.0
 11
44287.95321643585
 21
-4321.059771575836
 31
0.0
  0
LINE
  5
DEB
  8
0
 10
44112.95321643585
 20
-4171.059771575836
 30
0.0
 11
44112.95321643585
 21
-4321.059771575836
 31
0.0
  0
LINE
  5
DEC
  8
0
 10
44287.95321643585
 20
-4171.059771575836
 30
0.0
 11
44462.95321643585
 21
-4171.059771575836
 31
0.0
  0
LINE
  5
DED
  8
0
 10
44287.95321643585
 20
-4321.059771575836
 30
0.0
 11
44462.95321643585
 21
-4321.059771575836
 31
0.0
  0
LINE
  5
DEE
  8
0
 10
44462.95321643585
 20
-4171.059771575836
 30
0.0
 11
44637.95321643585
 21
-4171.059771575836
 31
0.0
  0
LINE
  5
DEF
  8
0
 10
44462.95321643585
 20
-4321.059771575836
 30
0.0
 11
44637.95321643585
 21
-4321.059771575836
 31
0.0
  0
LINE
  5
DF0
  8
0
 10
44462.95321643585
 20
-4171.059771575836
 30
0.0
 11
44462.95321643585
 21
-4321.059771575836
 31
0.0
  0
LINE
  5
DF1
  8
0
 10
44637.95321643585
 20
-4171.059771575836
 30
0.0
 11
44812.95321643585
 21
-4171.059771575836
 31
0.0
  0
LINE
  5
DF2
  8
0
 10
44637.95321643585
 20
-4321.059771575836
 30
0.0
 11
44812.95321643585
 21
-4321.059771575836
 31
0.0
  0
LINE
  5
DF3
  8
0
 10
44812.95321643585
 20
-4171.059771575836
 30
0.0
 11
44987.95321643585
 21
-4171.059771575836
 31
0.0
  0
LINE
  5
DF4
  8
0
 10
44812.95321643585
 20
-4321.059771575836
 30
0.0
 11
44987.95321643585
 21
-4321.059771575836
 31
0.0
  0
LINE
  5
DF5
  8
0
 10
44987.95321643585
 20
-4171.059771575836
 30
0.0
 11
45162.95321643585
 21
-4171.059771575836
 31
0.0
  0
LINE
  5
DF6
  8
0
 10
44987.95321643585
 20
-4321.059771575836
 30
0.0
 11
45162.95321643585
 21
-4321.059771575836
 31
0.0
  0
LINE
  5
DF7
  8
0
 10
45162.95321643585
 20
-4171.059771575836
 30
0.0
 11
45337.95321643585
 21
-4171.059771575836
 31
0.0
  0
LINE
  5
DF8
  8
0
 10
45162.95321643585
 20
-4321.059771575836
 30
0.0
 11
45337.95321643585
 21
-4321.059771575836
 31
0.0
  0
LINE
  5
DF9
  8
0
 10
45337.95321643585
 20
-4171.059771575836
 30
0.0
 11
45512.95321643585
 21
-4171.059771575836
 31
0.0
  0
LINE
  5
DFA
  8
0
 10
45337.95321643585
 20
-4321.059771575836
 30
0.0
 11
45512.95321643585
 21
-4321.059771575836
 31
0.0
  0
LINE
  5
DFB
  8
0
 10
45337.95321643585
 20
-4171.059771575836
 30
0.0
 11
45337.95321643585
 21
-4321.059771575836
 31
0.0
  0
LINE
  5
DFC
  8
0
 10
45512.95321643585
 20
-4171.059771575836
 30
0.0
 11
45687.95321643585
 21
-4171.059771575836
 31
0.0
  0
LINE
  5
DFD
  8
0
 10
45512.95321643585
 20
-4321.059771575836
 30
0.0
 11
45687.95321643585
 21
-4321.059771575836
 31
0.0
  0
LINE
  5
DFE
  8
0
 10
45687.95321643585
 20
-4171.059771575836
 30
0.0
 11
45862.95321643585
 21
-4171.059771575836
 31
0.0
  0
LINE
  5
DFF
  8
0
 10
45687.95321643585
 20
-4321.059771575836
 30
0.0
 11
45862.95321643585
 21
-4321.059771575836
 31
0.0
  0
LINE
  5
E00
  8
0
 10
45687.95321643585
 20
-4171.059771575836
 30
0.0
 11
45687.95321643585
 21
-4321.059771575836
 31
0.0
  0
LINE
  5
E01
  8
0
 10
45862.95321643585
 20
-4171.059771575836
 30
0.0
 11
46037.95321643585
 21
-4171.059771575836
 31
0.0
  0
LINE
  5
E02
  8
0
 10
45862.95321643585
 20
-4321.059771575836
 30
0.0
 11
46037.95321643585
 21
-4321.059771575836
 31
0.0
  0
LINE
  5
E03
  8
0
 10
46037.95321643585
 20
-4171.059771575836
 30
0.0
 11
46212.95321643585
 21
-4171.059771575836
 31
0.0
  0
LINE
  5
E04
  8
0
 10
46037.95321643585
 20
-4321.059771575836
 30
0.0
 11
46212.95321643585
 21
-4321.059771575836
 31
0.0
  0
LINE
  5
E05
  8
0
 10
46037.95321643585
 20
-4171.059771575836
 30
0.0
 11
46037.95321643585
 21
-4321.059771575836
 31
0.0
  0
LINE
  5
E06
  8
0
 10
46212.95321643585
 20
-4171.059771575836
 30
0.0
 11
46387.95321643585
 21
-4171.059771575836
 31
0.0
  0
LINE
  5
E07
  8
0
 10
46212.95321643585
 20
-4321.059771575836
 30
0.0
 11
46387.95321643585
 21
-4321.059771575836
 31
0.0
  0
LINE
  5
E08
  8
0
 10
46387.95321643585
 20
-4171.059771575836
 30
0.0
 11
46562.95321643585
 21
-4171.059771575836
 31
0.0
  0
LINE
  5
E09
  8
0
 10
46387.95321643585
 20
-4321.059771575836
 30
0.0
 11
46562.95321643585
 21
-4321.059771575836
 31
0.0
  0
LINE
  5
E0A
  8
0
 10
46387.95321643585
 20
-4171.059771575836
 30
0.0
 11
46387.95321643585
 21
-4321.059771575836
 31
0.0
  0
LINE
  5
E0B
  8
0
 10
46562.95321643585
 20
-4171.059771575836
 30
0.0
 11
46737.95321643585
 21
-4171.059771575836
 31
0.0
  0
LINE
  5
E0C
  8
0
 10
46562.95321643585
 20
-4321.059771575836
 30
0.0
 11
46737.95321643585
 21
-4321.059771575836
 31
0.0
  0
LINE
  5
E0D
  8
0
 10
46737.95321643585
 20
-4171.059771575836
 30
0.0
 11
46912.95321643585
 21
-4171.059771575836
 31
0.0
  0
LINE
  5
E0E
  8
0
 10
46737.95321643585
 20
-4321.059771575836
 30
0.0
 11
46912.95321643585
 21
-4321.059771575836
 31
0.0
  0
LINE
  5
E0F
  8
0
 10
46912.95321643585
 20
-4171.059771575836
 30
0.0
 11
47087.95321643585
 21
-4171.059771575836
 31
0.0
  0
LINE
  5
E10
  8
0
 10
46912.95321643585
 20
-4321.059771575836
 30
0.0
 11
47087.95321643585
 21
-4321.059771575836
 31
0.0
  0
LINE
  5
E11
  8
0
 10
47087.95321643585
 20
-4171.059771575836
 30
0.0
 11
47262.95321643585
 21
-4171.059771575836
 31
0.0
  0
LINE
  5
E12
  8
0
 10
47087.95321643585
 20
-4321.059771575836
 30
0.0
 11
47262.95321643585
 21
-4321.059771575836
 31
0.0
  0
LINE
  5
E13
  8
0
 10
47262.95321643585
 20
-4171.059771575836
 30
0.0
 11
47437.95321643585
 21
-4171.059771575836
 31
0.0
  0
LINE
  5
E14
  8
0
 10
47262.95321643585
 20
-4321.059771575836
 30
0.0
 11
47437.95321643585
 21
-4321.059771575836
 31
0.0
  0
LINE
  5
E15
  8
0
 10
47437.95321643585
 20
-4171.059771575836
 30
0.0
 11
47437.95321643585
 21
-4321.059771575836
 31
0.0
  0
TEXT
  5
E16
  8
0
  6
CONTINUOUS
 10
44159.19882402383
 20
-4282.774164138129
 30
0.0
 40
75.0
  1
品　番
  0
TEXT
  5
E17
  8
0
  6
CONTINUOUS
 10
44668.64263344114
 20
-4279.533142611239
 30
0.0
 40
75.0
  1
名　　　称
  0
TEXT
  5
E18
  8
0
  6
CONTINUOUS
 10
45383.48744639358
 20
-4280.214223267307
 30
0.0
 40
75.0
  1
サイズ
  0
TEXT
  5
E19
  8
0
  6
CONTINUOUS
 10
45728.24456447968
 20
-4281.10228123155
 30
0.0
 40
75.0
  1
材　質
  0
TEXT
  5
E1A
  8
0
  6
CONTINUOUS
 10
46081.17106207809
 20
-4281.846221245476
 30
0.0
 40
75.0
  1
個　数
  0
TEXT
  5
E1B
  8
0
  6
CONTINUOUS
 10
46674.48595337593
 20
-4281.708680575364
 30
0.0
 40
75.0
  1
摘　　　要
  0
TEXT
  5
E1C
  8
0
  6
CONTINUOUS
 10
44274.91913416516
 20
-4136.667394176184
 30
0.0
 40
75.0
  1
１
  0
TEXT
  5
E1D
  8
0
  6
CONTINUOUS
 10
44689.39667391358
 20
-4130.728082305373
 30
0.0
 40
75.0
  1
タ　ン　ク
  0
TEXT
  5
E1E
  8
0
  6
CONTINUOUS
 10
45732.36043257499
 20
-4134.011045032879
 30
0.0
 40
75.0
  1
Ｐ　Ｅ
  0
TEXT
  5
E1F
  8
0
  6
CONTINUOUS
 10
46199.39487854112
 20
-4135.486819502083
 30
0.0
 40
75.0
  1
１
  0
TEXT
  5
E20
  8
0
  6
CONTINUOUS
 10
46434.5464253244
 20
-4127.9562140872
 30
0.0
 40
75.0
  1
（茶）　ｔ＝１２．５
  0
TEXT
  5
E21
  8
0
  6
CONTINUOUS
 10
44264.60173841193
 20
-3982.653125049284
 30
0.0
 40
75.0
  1
２
  0
TEXT
  5
E22
  8
0
  6
CONTINUOUS
 10
44681.6804208206
 20
-3976.209966225462
 30
0.0
 40
75.0
  1
マンホール
  0
TEXT
  5
E23
  8
0
  6
CONTINUOUS
 10
45733.38421245269
 20
-3978.304278317315
 30
0.0
 40
75.0
  1
Ｐ　Ｅ
  0
TEXT
  5
E24
  8
0
  6
CONTINUOUS
 10
46438.16996390908
 20
-3978.168080138275
 30
0.0
 40
75.0
  1
捻込式
  0
TEXT
  5
E26
  8
0
  6
CONTINUOUS
 10
44177.3402182085
 20
-3828.403444903961
 30
0.0
 40
75.0
  1
Ｎ－１
  0
TEXT
  5
E27
  8
0
  6
CONTINUOUS
 10
44175.74551780056
 20
-3680.29866135621
 30
0.0
 40
75.0
  1
Ｎ－２
  0
TEXT
  5
E28
  8
0
  6
CONTINUOUS
 10
44173.73936751601
 20
-3532.386218423926
 30
0.0
 40
75.0
  1
Ｎ－３
  0
TEXT
  5
E2B
  8
0
  6
CONTINUOUS
 10
46199.39487854112
 20
-3984.542899292428
 30
0.0
 40
75.0
  1
１
  0
TEXT
  5
E2D
  8
0
  6
CONTINUOUS
 10
46199.39487854112
 20
-3834.267938708537
 30
0.0
 40
75.0
  1
１
  0
TEXT
  5
E2E
  8
0
  6
CONTINUOUS
 10
46199.39487854112
 20
-3683.784432061802
 30
0.0
 40
75.0
  1
１
  0
TEXT
  5
E2F
  8
0
  6
CONTINUOUS
 10
46199.39487854112
 20
-3535.311231476138
 30
0.0
 40
75.0
  1
１
  0
TEXT
  5
E34
  8
0
 10
45399.91224828383
 20
-3836.760841931039
 30
0.0
 40
75.0
  1
６５
  0
TEXT
  5
E35
  8
0
 10
45586.82904097888
 20
-3801.580800340787
 30
0.0
 40
50.0
  1
Ａ
  0
TEXT
  5
E36
  8
0
 10
45399.91224828383
 20
-3688.475382269065
 30
0.0
 40
75.0
  1
６５
  0
TEXT
  5
E37
  8
0
 10
45586.82904097888
 20
-3653.295340678836
 30
0.0
 40
50.0
  1
Ａ
  0
TEXT
  5
E3E
  8
0
 10
45392.8344045563
 20
-4129.553584252779
 30
0.0
 40
75.0
  1
８ｍ
  0
TEXT
  5
E3F
  8
0
 10
45579.75119725135
 20
-4094.373542662527
 30
0.0
 40
50.0
  1
３
  0
TEXT
  5
E40
  8
0
 10
45365.51296696153
 20
-3977.590840097912
 30
0.0
 40
75.0
  1
φ500
  0
INSERT
  5
E42
  8
0
  2
*X57
 10
0.0
 20
0.0
 30
0.0
  0
TEXT
  5
E43
  8
0
  6
CONTINUOUS
 10
44689.39667391358
 20
-3837.04720316999
 30
0.0
 40
75.0
  1
液　出　口
  0
TEXT
  5
E44
  8
0
  6
CONTINUOUS
 10
44689.39667391358
 20
-3680.448550367029
 30
0.0
 40
75.0
  1
エアー抜き
  0
TEXT
  5
E45
  8
0
  6
CONTINUOUS
 10
44689.39667391358
 20
-3533.605302690557
 30
0.0
 40
75.0
  1
ゲ　ー　ジ
  0
TEXT
  5
E46
  8
0
 10
45731.68655193396
 20
-3837.839718614794
 30
0.0
 40
75.0
  1
AL/SS
 41
0.7
  0
TEXT
  5
E48
  8
0
 10
45704.1220956141
 20
-3684.829069371233
 30
0.0
 40
75.0
  1
PE/PVC
 41
0.7
  0
TEXT
  5
E4A
  8
0
 10
46425.21124340848
 20
-3680.766778009718
 30
0.0
 40
75.0
  1
L型ベント管付
  0
TEXT
  5
E4B
  8
0
 10
46423.64510531107
 20
-3532.486997265494
 30
0.0
 40
75.0
  1
ﾁｭｰﾌﾞ式液面計
  0
INSERT
  5
1C4E
  8
0
  2
*X58
 10
0.0
 20
0.0
 30
0.0
  0
LINE
  5
1CD6
  8
0
 10
37362.95321643585
 20
971.6068950908375
 30
0.0
 11
37362.95321643585
 21
801.940228424166
 31
0.0
  0
TEXT
  5
1D12
  8
0
 10
44116.58731029693
 20
-3322.180452815606
 30
0.0
 40
75.0
  1
※KITZ　Tボール　６５Ａ仕様
  0
TEXT
  5
1D22
  8
0
 10
46428.32402959523
 20
-3823.756802498791
 30
0.0
 40
60.0
  1
ﾌｨｯﾃｨﾝｸﾞ・六角ﾆｯﾌﾟﾙ・Tボール付
 41
0.7
  0
LINE
  5
30F0
  8
0
  6
CENTER
 10
41551.40381184631
 20
-1972.966344574568
 30
0.0
 11
41551.40368181088
 21
-1834.014723685463
 31
0.0
  0
DIMENSION
  5
31AE
  8
寸法線
  2
*D46
 10
38942.77452126683
 20
-2114.429839339931
 30
0.0
 11
38862.77452126683
 21
-3321.929839339924
 31
0.0
 70
    32
 13
39514.80368181087
 23
-4529.429839339931
 33
0.0
 14
39566.40366273739
 24
-2114.429839339931
 34
0.0
 50
90.0
  0
DIMENSION
  5
31AF
  8
寸法線
  2
*D47
 10
38630.43821843767
 20
-1524.429839339916
 30
0.0
 11
38550.43821843767
 21
-3026.929839339917
 31
0.0
 70
    32
 13
39514.80368181087
 23
-4529.429839339931
 33
0.0
 14
40646.40368181088
 24
-1524.429839339917
 34
0.0
 50
90.0
  0
DIMENSION
  5
31B0
  8
寸法線
  2
*D48
 10
38942.77452126683
 20
-1524.429839339916
 30
0.0
 11
38862.77452126683
 21
-1819.429643913118
 31
0.0
 70
    32
 13
39566.40370925979
 23
-2114.429448486333
 33
0.0
 14
40646.40368181088
 24
-1524.429839339917
 34
0.0
 50
90.0
  0
DIMENSION
  5
31B1
  8
寸法線
  2
*D49
 10
41726.40370088437
 20
-5178.248596385367
 30
0.0
 11
40646.40368181088
 21
-5098.248596385367
 31
0.0
 70
    32
  1
O.Dφ<>
 13
39566.40366273739
 23
-4529.429839339931
 33
0.0
 14
41726.40370088437
 24
-4529.429839339931
 34
0.0
  0
LINE
  5
31C1
  8
0
  6
CENTER
 10
40646.40368181088
 20
-1494.763777938564
 30
0.0
 11
40646.40368181088
 21
-4690.775726524074
 31
0.0
  0
LINE
  5
31C2
  8
0
 10
39566.40366273739
 20
-2114.429839339931
 30
0.0
 11
41726.40370088437
 21
-2114.429839339931
 31
0.0
  0
LINE
  5
31C3
  8
0
 10
39666.40366273731
 20
-2104.429839339935
 30
0.0
 11
41626.40370088437
 21
-2104.429839339989
 31
0.0
  0
LINE
  5
31C4
  8
0
 10
39566.40366273739
 20
-3629.429839339931
 30
0.0
 11
39566.40366273739
 21
-3529.429839339931
 31
0.0
  0
LINE
  5
31C5
  8
0
 10
39566.40366273739
 20
-2929.429839339931
 30
0.0
 11
39566.40366273739
 21
-2729.429839339931
 31
0.0
  0
LINE
  5
31C6
  8
0
 10
39566.40366273739
 20
-2429.429839339931
 30
0.0
 11
39566.40366273739
 21
-2184.429839339931
 31
0.0
  0
LINE
  5
31C7
  8
0
 10
39566.40366273739
 20
-2134.429839339931
 30
0.0
 11
39566.40366273739
 21
-2114.429839339931
 31
0.0
  0
LINE
  5
31C8
  8
0
 10
39586.37609391549
 20
-1924.429915335853
 30
0.0
 11
39886.37609391549
 21
-1924.429915335853
 31
0.0
  0
LINE
  5
31C9
  8
0
 10
39566.40366273739
 20
-2114.429839339931
 30
0.0
 11
39581.46486034884
 21
-1928.649939375087
 31
0.0
  0
LINE
  5
31CA
  8
0
 10
40306.40369611599
 20
-1584.429925170605
 30
0.0
 11
40986.40366750577
 21
-1584.429925170605
 31
0.0
  0
LINE
  5
31CB
  8
0
 10
40306.40369611599
 20
-1619.429963317578
 30
0.0
 11
40986.40366750577
 21
-1619.429963317578
 31
0.0
  0
LINE
  5
31CC
  8
0
 10
40306.40369611599
 20
-1619.429963317581
 30
0.0
 11
40306.40369611599
 21
-1584.429925170609
 31
0.0
  0
LINE
  5
31CD
  8
0
 10
40356.40369611599
 20
-1619.429963317581
 30
0.0
 11
40356.40369611599
 21
-1664.29480859346
 31
0.0
  0
LINE
  5
31CE
  8
0
 10
41726.40370088437
 20
-3629.429839339931
 30
0.0
 11
41726.40370088437
 21
-3529.429839339931
 31
0.0
  0
LINE
  5
31CF
  8
0
 10
41726.40370088437
 20
-2929.429839339931
 30
0.0
 11
41726.40370088437
 21
-2729.429839339931
 31
0.0
  0
LINE
  5
31D0
  8
0
 10
41726.40370088437
 20
-2429.429839339931
 30
0.0
 11
41726.40370088437
 21
-2184.429839339931
 31
0.0
  0
LINE
  5
31D1
  8
0
 10
41726.40370088437
 20
-2134.429839339931
 30
0.0
 11
41726.40370088437
 21
-2114.429839339931
 31
0.0
  0
LINE
  5
31D2
  8
0
 10
40936.40366750577
 20
-1619.429963317581
 30
0.0
 11
40936.40366750577
 21
-1664.29480859346
 31
0.0
  0
LINE
  5
31D3
  8
0
 10
40986.40366750577
 20
-1619.429963317581
 30
0.0
 11
40986.40366750577
 21
-1584.429925170609
 31
0.0
  0
LINE
  5
31D4
  8
0
 10
40501.14743667462
 20
-1899.429915633877
 30
0.0
 11
40791.65992694714
 21
-1899.429915633877
 31
0.0
  0
LINE
  5
31D5
  8
0
  6
CONTINUOUS
 10
40496.15435700374
 20
-1904.166897513094
 30
0.0
 11
40486.97178942982
 21
-2078.638305018792
 31
0.0
  0
LINE
  5
31D6
  8
0
 10
40796.65300661802
 20
-1904.166897513094
 30
0.0
 11
40805.69706741341
 21
-2076.006636653225
 31
0.0
  0
ARC
  5
31D8
  8
0
 10
39586.40366116781
 20
-1929.429839041908
 30
0.0
 40
4.999999701976775
 50
89.99998201405752
 51
171.0263658735882
  0
ARC
  5
31D9
  8
0
 10
40326.40370088437
 20
-1664.29480859346
 30
0.0
 40
29.99999821186065
 50
284.6158783191604
 51
0.0
  0
ARC
  5
31DA
  8
0
 10
40966.40366273739
 20
-1664.29480859346
 30
0.0
 40
29.99999821186065
 50
179.9999640276982
 51
255.3840788785212
  0
ARC
  5
31DB
  8
0
  6
CONTINUOUS
 10
40458.49580771363
 20
-2075.820117695182
 30
0.0
 40
28.61509591966451
 50
268.8895301697065
 51
359.6265117090551
  0
ARC
  5
31DC
  8
0
 10
40835.65559889583
 20
-2074.429841128074
 30
0.0
 40
29.99999821186065
 50
183.0128460754696
 51
270.0000179859425
  0
ARC
  5
31DD
  8
0
  6
CONTINUOUS
 10
40501.14743667462
 20
-1904.429839339931
 30
0.0
 40
4.999999701976775
 50
89.99998201405752
 51
176.9867850942917
  0
ARC
  5
31DE
  8
0
 10
40791.65992694714
 20
-1904.429839339931
 30
0.0
 40
4.999999701976775
 50
3.013232721182822
 51
89.99998201405752
  0
ARC
  5
31DF
  8
0
 10
40646.40368181088
 20
-2075.262826171582
 30
0.0
 40
550.832986831665
 50
63.00850192371117
 51
116.9915235760099
  0
POLYLINE
  5
31EA
  8
0
 66
     1
 10
0.0
 20
0.0
 30
0.0
  0
VERTEX
  5
3FEF
  8
0
 10
39666.40366273731
 20
-2104.429839339837
 30
0.0
  0
VERTEX
  5
3FF0
  8
0
 10
39666.40366273731
 20
-2114.429839339931
 30
0.0
  0
SEQEND
  5
4072
  8
0
  0
POLYLINE
  5
31EB
  8
0
 66
     1
 10
0.0
 20
0.0
 30
0.0
  0
VERTEX
  5
3FF1
  8
0
 10
41626.40370088437
 20
-2104.429839339986
 30
0.0
  0
VERTEX
  5
3FF2
  8
0
 10
41626.40370088431
 20
-2114.429839339931
 30
0.0
  0
SEQEND
  5
4073
  8
0
  0
ARC
  5
31EC
  8
0
 10
40968.52949641387
 20
-3471.307437401354
 30
0.0
 40
1887.825747999619
 50
109.64129313851
 51
133.6102396308037
  0
LINE
  5
31ED
  8
0
 10
41706.43126970626
 20
-1924.429915335853
 30
0.0
 11
41406.43126970626
 21
-1924.429915335853
 31
0.0
  0
LINE
  5
31EE
  8
0
 10
41726.40370088437
 20
-2114.429839339931
 30
0.0
 11
41711.34250327291
 21
-1928.649939375087
 31
0.0
  0
ARC
  5
31F0
  8
0
 10
41706.40370245395
 20
-1929.429839041908
 30
0.0
 40
4.999999701976775
 50
8.973634126411852
 51
90.00001798594248
  0
ARC
  5
31F1
  8
0
 10
40324.27786720789
 20
-3471.307437401354
 30
0.0
 40
1887.825747999619
 50
46.38976036919632
 51
70.35870686149
  0
LINE
  5
38AA
  8
0
 10
40472.41756159687
 20
-4529.429839339931
 30
0.0
 11
40472.41756159687
 21
-4529.429839339931
 31
0.0
  0
LINE
  5
3910
  8
0
  6
CENTER
 10
40646.40368181088
 20
-1494.763777938564
 30
0.0
 11
40646.40368181088
 21
-4690.775726524074
 31
0.0
  0
LINE
  5
3911
  8
0
 10
39596.40368181088
 20
-4529.429839339931
 30
0.0
 11
41696.40368181088
 21
-4529.429839339931
 31
0.0
  0
LINE
  5
3912
  8
0
 10
39566.40366273739
 20
-4499.429841128071
 30
0.0
 11
39566.40366273739
 21
-2114.429839339931
 31
0.0
  0
LINE
  5
3913
  8
0
 10
41726.40370088437
 20
-4499.429841128071
 30
0.0
 11
41726.40370088437
 21
-2114.429839339931
 31
0.0
  0
ARC
  5
3914
  8
0
 10
39596.40368181088
 20
-4499.429841128071
 30
0.0
 40
29.99999821186065
 50
179.99998133058
 51
270.0000179859425
  0
ARC
  5
3915
  8
0
 10
41696.40368181088
 20
-4499.429841128071
 30
0.0
 40
29.99999821186065
 50
269.9999633444291
 51
0.0
  0
LINE
  5
39BB
  8
2
  6
CONTINUOUS
 10
45271.36863942177
 20
-246.5000556892021
 30
0.0
 11
45271.36863942177
 21
42.7302909904854
 31
0.0
  0
LINE
  5
39BC
  8
2
  6
CONTINUOUS
 10
45571.36863942177
 20
-246.5000556892021
 30
0.0
 11
45571.36863942177
 21
42.7302909904854
 31
0.0
  0
LINE
  5
39BD
  8
2
  6
CONTINUOUS
 10
45581.36830187034
 20
71.5819342452894
 30
0.0
 11
45571.36844439813
 21
42.72983991027718
 31
0.0
  0
LINE
  5
39BE
  8
2
  6
CONTINUOUS
 10
45581.36830755879
 20
71.5825352872314
 30
0.0
 11
45571.36839504123
 21
-246.4995261796478
 31
0.0
  0
LINE
  5
39BF
  8
2
  6
CONTINUOUS
 10
45261.36847020736
 20
71.58146013966393
 30
0.0
 11
45271.36825546865
 21
42.72954264310169
 31
0.0
  0
LINE
  5
39C0
  8
2
  6
CONTINUOUS
 10
45261.36883073692
 20
71.58146761070816
 30
0.0
 11
45271.36860113094
 21
-246.500598324242
 31
0.0
  0
LINE
  5
39C1
  8
2
  6
CONTINUOUS
 10
44671.36806721718
 20
-1146.5000556892
 30
0.0
 11
44382.13791127235
 21
-1146.5000556892
 31
0.0
  0
LINE
  5
39C2
  8
2
  6
CONTINUOUS
 10
44671.36806721718
 20
-846.5000556892003
 30
0.0
 11
44545.3682790884
 21
-846.5000556892003
 31
0.0
  0
LINE
  5
39C3
  8
2
  6
CONTINUOUS
 10
44497.3682790884
 20
-846.5000556892003
 30
0.0
 11
44382.13791127235
 21
-846.5000556892003
 31
0.0
  0
LINE
  5
39C4
  8
2
  6
CONTINUOUS
 10
44353.28582017143
 20
-836.500115644739
 30
0.0
 11
44382.13791619596
 21
-846.4999682422815
 31
0.0
  0
LINE
  5
39C5
  8
2
  6
CONTINUOUS
 10
44353.28602800545
 20
-836.4999902602078
 30
0.0
 11
44497.36827985924
 21
-841.0296379189506
 31
0.0
  0
LINE
  5
39C6
  8
2
  6
CONTINUOUS
 10
44545.36827964661
 20
-842.5386585225217
 30
0.0
 11
44671.36809170638
 21
-846.4998317159946
 31
0.0
  0
LINE
  5
39C7
  8
2
  6
CONTINUOUS
 10
44353.28592101856
 20
-1156.499958876945
 30
0.0
 11
44382.13801704309
 21
-1146.500106279403
 31
0.0
  0
LINE
  5
39C8
  8
2
  6
CONTINUOUS
 10
44353.28599308606
 20
-1156.499736846209
 30
0.0
 11
44671.36824742766
 21
-1146.499889397073
 31
0.0
  0
LINE
  5
39C9
  8
2
  6
CONTINUOUS
 10
45571.36787648231
 20
-1746.500246424067
 30
0.0
 11
45571.36787648231
 21
-2035.730402368891
 31
0.0
  0
LINE
  5
39CA
  8
2
  6
CONTINUOUS
 10
45271.36787648231
 20
-1746.500246424067
 30
0.0
 11
45271.36787648231
 21
-2035.730402368891
 31
0.0
  0
LINE
  5
39CB
  8
2
  6
CONTINUOUS
 10
45261.36845358414
 20
-2064.582556475753
 30
0.0
 11
45271.36830780657
 21
-2035.730461014398
 31
0.0
  0
LINE
  5
39CC
  8
2
  6
CONTINUOUS
 10
45261.36802382198
 20
-2064.582215487276
 30
0.0
 11
45271.36788896503
 21
-1746.500152531036
 31
0.0
  0
LINE
  5
39CD
  8
2
  6
CONTINUOUS
 10
45581.36811933914
 20
-2064.582124784635
 30
0.0
 11
45571.36826836649
 21
-2035.730028196939
 31
0.0
  0
LINE
  5
39CE
  8
2
  6
CONTINUOUS
 10
45581.3677761261
 20
-2064.582222653232
 30
0.0
 11
45571.36795236423
 21
-1746.499967566954
 31
0.0
  0
LINE
  5
39CF
  8
2
  6
CONTINUOUS
 10
46171.36825795204
 20
-846.5008186286516
 30
0.0
 11
46460.59860463173
 21
-846.5008186286516
 31
0.0
  0
LINE
  5
39D0
  8
2
  6
CONTINUOUS
 10
46171.36825795204
 20
-1146.500818628653
 30
0.0
 11
46460.59860463173
 21
-1146.500818628653
 31
0.0
  0
LINE
  5
39D1
  8
2
  6
CONTINUOUS
 10
46489.45022070232
 20
-1156.500142401073
 30
0.0
 11
46460.59812580414
 21
-1146.500286553749
 31
0.0
  0
LINE
  5
39D2
  8
2
  6
CONTINUOUS
 10
46489.45109794076
 20
-1156.500101482324
 30
0.0
 11
46171.3690357292
 21
-1146.500212652022
 31
0.0
  0
LINE
  5
39D3
  8
2
  6
CONTINUOUS
 10
46489.44980977318
 20
-836.5005650115847
 30
0.0
 11
46460.59771262231
 21
-846.5004143593462
 31
0.0
  0
LINE
  5
39D4
  8
2
  6
CONTINUOUS
 10
46489.4499548507
 20
-836.5006668891995
 30
0.0
 11
46171.36788966043
 21
-846.5004609704731
 31
0.0
  0
LINE
  5
39E3
  8
2
  6
CENTER
 10
46671.36825795204
 20
-996.5000556892003
 30
0.0
 11
44171.36825795204
 21
-996.5000556892003
 31
0.0
  0
LINE
  5
39E4
  8
2
  6
CENTER
 10
45421.36825795205
 20
-2147.898815077318
 30
0.0
 11
45421.36825795204
 21
127.7223616273011
 31
0.0
  0
ARC
  5
39F5
  8
2
 10
45421.36825795205
 20
-996.500055689188
 30
0.0
 40
1080.000019073474
 50
55.6719288539363
 51
34.3280711462647
  0
ARC
  5
39F6
  8
2
 10
45421.36825795204
 20
-996.5000556892003
 30
0.0
 40
1080.000019073486
 50
34.32807114626502
 51
55.6719288539365
  0
CIRCLE
  5
39F7
  8
2
  6
CONTINUOUS
 10
45421.36825795204
 20
-996.5000556892003
 30
0.0
 40
339.9999856948853
  0
CIRCLE
  5
39F8
  8
2
  6
CONTINUOUS
 10
45421.36825795204
 20
-996.5000556892003
 30
0.0
 40
250.0
  0
ARC
  5
39F9
  8
2
  6
CONTINUOUS
 10
45421.368257952
 20
-996.5000556892148
 30
0.0
 40
980.0000190735259
 50
9.208864873940593
 51
33.2242565135405
  0
ARC
  5
39FA
  8
2
  6
CONTINUOUS
 10
45421.36825795204
 20
-996.5000556892003
 30
0.0
 40
980.0000190734863
 50
33.22425651354102
 51
56.77574348660327
  0
ARC
  5
39FB
  8
2
  6
CONTINUOUS
 10
45421.36825795204
 20
-996.5000556892003
 30
0.0
 40
980.0000190734863
 50
59.17580291073708
 51
80.79111116350626
  0
ARC
  5
39FC
  8
2
  6
CONTINUOUS
 10
45421.36825795204
 20
-996.5000556892003
 30
0.0
 40
1050.0
 50
81.78681614072832
 51
98.21317520778344
  0
ARC
  5
39FD
  8
2
  6
CONTINUOUS
 10
45421.36825795204
 20
-996.5000556892003
 30
0.0
 40
1050.0
 50
171.7868118149991
 51
188.2131708820542
  0
ARC
  5
39FE
  8
2
  6
CONTINUOUS
 10
45421.36825795204
 20
-996.5000556892003
 30
0.0
 40
1050.0
 50
261.7868247922166
 51
278.2131838592717
  0
ARC
  5
39FF
  8
2
  6
CONTINUOUS
 10
45421.36825795204
 20
-996.5000556892003
 30
0.0
 40
1050.0
 50
351.7868204664209
 51
8.213179533579137
  0
ARC
  5
3A00
  8
2
  6
CONTINUOUS
 10
45421.36825795204
 20
-996.5000556892003
 30
0.0
 40
980.0000190734863
 50
99.20888018516868
 51
170.7911341586631
  0
ARC
  5
3A01
  8
2
  6
CONTINUOUS
 10
45421.36825795204
 20
-996.5000556892003
 30
0.0
 40
980.0000190734863
 50
189.2088658413369
 51
260.7910720038614
  0
ARC
  5
3A02
  8
2
  6
CONTINUOUS
 10
45421.36825795204
 20
-996.5000556892003
 30
0.0
 40
980.0000190734863
 50
279.2088683457135
 51
350.7910745080239
  0
ARC
  5
3A03
  8
2
  6
CENTER
 10
45421.36825795204
 20
-996.5000556892003
 30
0.0
 40
900.0
 50
181.5279327021692
 51
166.7385163902785
  0
DIMENSION
  5
3A42
  8
0
  2
*D50
 10
45607.50121858814
 20
-1163.396793119387
 30
0.0
 11
45015.65701247971
 21
-503.7776335311537
 31
0.0
 70
    35
 15
45235.23529731594
 25
-829.6033182590108
 35
0.0
 40
0.0
  0
POLYLINE
  5
3A4F
  8
0
  6
CENTER
 66
     1
 10
0.0
 20
0.0
 30
0.0
  0
VERTEX
  5
3FF3
  8
0
  6
CENTER
 10
46581.91166084619
 20
-996.5000556892003
 30
0.0
  0
VERTEX
  5
3FF4
  8
0
  6
CENTER
 10
46493.89706615336
 20
-996.5000556892003
 30
0.0
  0
SEQEND
  5
4074
  8
0
  6
CENTER
  0
INSERT
  5
3A80
  8
0
  2
６５ＡエアーＬ_平面図
 10
46329.56758342669
 20
-996.5000556892003
 30
0.0
  0
INSERT
  5
3A81
  8
0
 66
     1
  2
N-BALOON
 10
46877.3958017666
 20
-999.6869943716986
 30
0.0
  0
ATTRIB
  5
3A82
  8
0
 10
46919.73215278162
 20
-1024.432018370203
 30
0.0
 40
50.0
  1
2
  2
NO.
 70
     0
  0
SEQEND
  5
3A83
  8
0
  0
TEXT
  5
3A84
  8
0
 10
47060.91524064733
 20
-1030.010971430547
 30
0.0
 40
75.0
  1
９０°
  0
INSERT
  5
3A86
  8
0
  2
液面計平面図
 10
45421.36825795205
 20
-2076.500074762662
 30
0.0
  0
INSERT
  5
3A87
  8
0
 66
     1
  2
N-BALOON
 10
45421.36825795205
 20
-2277.959367842122
 30
0.0
  0
ATTRIB
  5
3A88
  8
0
 10
45463.70460896707
 20
-2302.704391840627
 30
0.0
 40
50.0
  1
3
  2
NO.
 70
     0
  0
SEQEND
  5
3A89
  8
0
  0
TEXT
  5
3A8A
  8
0
 10
45306.89698449901
 20
-2529.611268514571
 30
0.0
 40
75.0
  1
１８０°
  0
INSERT
  5
3A8E
  8
0
  2
ALﾌｨｯﾃｨﾝｸﾞ平面図
 10
45233.82822275972
 20
-2060.092447726083
 30
0.0
 50
169.9999999999871
  0
LINE
  5
3A8F
  8
細線
 10
45185.60959835405
 20
-2108.961806842271
 30
0.0
 11
45262.42460308901
 21
-2122.506364700293
 31
0.0
  0
LINE
  5
3A90
  8
細線
 10
45182.48393115606
 20
-2126.688346396491
 30
0.0
 11
45208.80136186691
 21
-2131.328819493741
 31
0.0
  0
LINE
  5
3A91
  8
細線
 10
45232.98150518016
 20
-2135.592431157263
 30
0.0
 11
45259.29893589101
 21
-2140.232904254513
 31
0.0
  0
LINE
  5
3A92
  8
細線
 10
45262.42460308901
 20
-2122.506364700293
 30
0.0
 11
45263.30915501991
 21
-2123.248591899262
 31
0.0
  0
LINE
  5
3A93
  8
細線
 10
45259.29893589101
 20
-2140.232904254513
 30
0.0
 11
45260.38399946614
 21
-2139.837973410878
 31
0.0
  0
LINE
  5
3A94
  8
細線
 10
45185.60959835406
 20
-2108.961806842271
 30
0.0
 11
45184.52453477892
 21
-2109.356737685907
 31
0.0
  0
LINE
  5
3A95
  8
細線
 10
45182.48393115605
 20
-2126.688346396491
 30
0.0
 11
45181.59937922516
 21
-2125.946119197522
 31
0.0
  0
LINE
  5
3A96
  8
細線
 10
45260.38399946614
 20
-2139.837973410878
 30
0.0
 11
45263.30915501991
 21
-2123.248591899262
 31
0.0
  0
LINE
  5
3A97
  8
細線
 10
45181.59937922516
 20
-2125.946119197522
 30
0.0
 11
45184.52453477892
 21
-2109.356737685907
 31
0.0
  0
LINE
  5
3A98
  8
細線
 10
45237.63893036183
 20
-2133.895284450836
 30
0.0
 11
45239.90326209346
 21
-2121.053621067632
 31
0.0
  0
LINE
  5
3A99
  8
細線
 10
45205.0052721516
 20
-2128.141090029153
 30
0.0
 11
45207.26960388322
 21
-2115.29942664595
 31
0.0
  0
ARC
  5
3A9A
  8
細線
 10
45230.71706289494
 20
-2077.736712105017
 30
0.0
 40
56.58354440247924
 50
242.9734048203954
 51
270.4615826432471
  0
ARC
  5
3A9B
  8
細線
 10
45230.71706289499
 20
-2077.736712104883
 30
0.0
 40
56.58354440262278
 50
270.4615826431958
 51
277.0265951794955
  0
ARC
  5
3A9C
  8
細線
 10
45253.76648475535
 20
-2109.899571352574
 30
0.0
 40
28.91180135878851
 50
236.0948937240843
 51
283.9051062762236
  0
ARC
  5
3A9D
  8
細線
 10
45198.05734552976
 20
-2100.076547035053
 30
0.0
 40
28.91180135878851
 50
236.0948937240843
 51
283.9051062762236
  0
ARC
  5
3A9E
  8
細線
 10
45214.19147135009
 20
-2171.457998991891
 30
0.0
 40
56.58354440262278
 50
62.97340482040887
 51
97.02659517949557
  0
ARC
  5
3A9F
  8
細線
 10
45246.85118871531
 20
-2149.118164061727
 30
0.0
 40
28.91180135878851
 50
56.09489372408432
 51
103.9051062762236
  0
ARC
  5
3AA0
  8
細線
 10
45191.14204948971
 20
-2139.295139744202
 30
0.0
 40
28.91180135878851
 50
56.09489372408432
 51
103.9051062762236
  0
LINE
  5
3AA1
  8
細線
 10
45262.42460308902
 20
-2122.506364700301
 30
0.0
 11
45261.72878074618
 21
-2122.383672447481
 31
0.0
  0
ARC
  5
3AA2
  8
細線
 10
45183.11029422781
 20
-2127.204961750521
 30
0.0
 40
0.4
 50
351.7899000000324
 51
79.9999999999448
  0
ARC
  5
3AA3
  8
細線
 10
45258.53365427711
 20
-2140.504135102899
 30
0.0
 40
0.4
 50
79.9999999999448
 51
168.2101000000086
  0
ARC
  5
3AA4
  8
細線
 10
45186.37487996795
 20
-2108.690575993878
 30
0.0
 40
0.4
 50
259.9999999999448
 51
348.2101000000086
  0
LINE
  5
3AA5
  8
細線
 10
45188.65481483052
 20
-2106.96019413945
 30
0.0
 11
45186.76644133666
 21
-2108.772305392133
 31
0.0
  0
LINE
  5
3AA6
  8
細線
 10
45261.70415816758
 20
-2119.84076429281
 30
0.0
 11
45187.19828416382
 21
-2106.703368484683
 31
0.0
  0
ARC
  5
3AA7
  8
細線
 10
45261.79824001726
 20
-2121.989749346265
 30
0.0
 40
0.4
 50
171.7899000000324
 51
259.9999999999448
  0
LINE
  5
3AA8
  8
細線
 10
45261.70415816758
 20
-2119.84076429281
 30
0.0
 11
45261.40233958798
 21
-2121.93262798326
 31
0.0
  0
LINE
  5
3AA9
  8
細線
 10
45187.19828416382
 20
-2106.703368484683
 30
0.0
 11
45186.76644133666
 21
-2108.772305392133
 31
0.0
  0
LINE
  5
3AAA
  8
細線
 10
45260.24762750088
 20
-2119.583938638044
 30
0.0
 11
45261.40233958799
 21
-2121.932627983252
 31
0.0
  0
POLYLINE
  5
3AAB
  8
0
  6
CENTER
 66
     1
 10
0.0
 20
0.0
 30
0.0
  0
VERTEX
  5
3FF5
  8
0
  6
CENTER
 10
45198.63797102775
 20
-2259.66628260132
 30
0.0
  0
VERTEX
  5
3FF6
  8
0
  6
CENTER
 10
45238.83467168788
 20
-2031.699464938911
 30
0.0
  0
SEQEND
  5
4075
  8
0
  6
CENTER
  0
INSERT
  5
3AAC
  8
0
 66
     1
  2
N-BALOON
 10
45109.21492754675
 20
-2530.423375831735
 30
0.0
  0
ATTRIB
  5
3AAD
  8
0
 10
45151.55127856178
 20
-2555.16839983024
 30
0.0
 40
50.0
  1
1
  2
NO.
 70
     0
  0
SEQEND
  5
3AAE
  8
0
  0
TEXT
  5
3AAF
  8
0
 10
44890.4388357406
 20
-2731.367935553943
 30
0.0
 40
75.0
  1
１９０°
  0
POLYLINE
  5
3AB0
  8
LY_1
  6
CONTINUOUS
 62
     3
 66
     1
 10
0.0
 20
0.0
 30
0.0
  0
VERTEX
  5
3FF7
  8
LY_1
  6
CONTINUOUS
 62
     3
 10
45193.62895520186
 20
-2280.288253234075
 30
0.0
  0
VERTEX
  5
3FF8
  8
LY_1
  6
CONTINUOUS
 62
     3
 10
45193.62668968242
 20
-2280.284539409413
 30
0.0
  0
VERTEX
  5
3FF9
  8
LY_1
  6
CONTINUOUS
 62
     3
 10
45193.62394387003
 20
-2280.281182606714
 30
0.0
  0
VERTEX
  5
3FFA
  8
LY_1
  6
CONTINUOUS
 62
     3
 10
45193.62077095153
 20
-2280.278243991024
 30
0.0
  0
VERTEX
  5
3FFB
  8
LY_1
  6
CONTINUOUS
 62
     3
 10
45193.61722874756
 20
-2280.275781482729
 30
0.0
  0
VERTEX
  5
3FFC
  8
LY_1
  6
CONTINUOUS
 62
     3
 10
45193.61338637315
 20
-2280.273840777738
 30
0.0
  0
VERTEX
  5
3FFD
  8
LY_1
  6
CONTINUOUS
 62
     3
 10
45193.60931467976
 20
-2280.272457723915
 30
0.0
  0
VERTEX
  5
3FFE
  8
LY_1
  6
CONTINUOUS
 62
     3
 10
45193.60509199055
 20
-2280.271660347689
 30
0.0
  0
VERTEX
  5
3FFF
  8
LY_1
  6
CONTINUOUS
 62
     3
 10
45193.60079726379
 20
-2280.271461556129
 30
0.0
  0
VERTEX
  5
4000
  8
LY_1
  6
CONTINUOUS
 62
     3
 10
45193.59651281656
 20
-2280.271866725097
 30
0.0
  0
VERTEX
  5
4001
  8
LY_1
  6
CONTINUOUS
 62
     3
 10
45193.5923182993
 20
-2280.272867559748
 30
0.0
  0
VERTEX
  5
4002
  8
LY_1
  6
CONTINUOUS
 62
     3
 10
45193.58829411415
 20
-2280.274445743484
 30
0.0
  0
VERTEX
  5
4003
  8
LY_1
  6
CONTINUOUS
 62
     3
 10
45193.58451567973
 20
-2280.276570911303
 30
0.0
  0
VERTEX
  5
4004
  8
LY_1
  6
CONTINUOUS
 62
     3
 10
45193.58105522706
 20
-2280.279201981883
 30
0.0
  0
VERTEX
  5
4005
  8
LY_1
  6
CONTINUOUS
 62
     3
 10
45193.57797699219
 20
-2280.282291387013
 30
0.0
  0
VERTEX
  5
4006
  8
LY_1
  6
CONTINUOUS
 62
     3
 10
45193.57534040125
 20
-2280.285778525265
 30
0.0
  0
VERTEX
  5
4007
  8
LY_1
  6
CONTINUOUS
 62
     3
 10
45193.57319456844
 20
-2280.289597930665
 30
0.0
  0
VERTEX
  5
4008
  8
LY_1
  6
CONTINUOUS
 62
     3
 10
45193.5715804393
 20
-2280.293678635151
 30
0.0
  0
VERTEX
  5
4009
  8
LY_1
  6
CONTINUOUS
 62
     3
 10
45193.57052899469
 20
-2280.297942836509
 30
0.0
  0
VERTEX
  5
400A
  8
LY_1
  6
CONTINUOUS
 62
     3
 10
45193.57052899469
 20
-2280.297942836509
 30
0.0
  0
SEQEND
  5
4076
  8
LY_1
  6
CONTINUOUS
 62
     3
  0
POLYLINE
  5
3AB1
  8
LY_1
  6
CONTINUOUS
 62
     3
 66
     1
 10
0.0
 20
0.0
 30
0.0
  0
VERTEX
  5
400B
  8
LY_1
  6
CONTINUOUS
 62
     3
 10
45196.94717983205
 20
-2282.902301155869
 30
0.0
  0
VERTEX
  5
400C
  8
LY_1
  6
CONTINUOUS
 62
     3
 10
45196.94960567088
 20
-2282.906240241924
 30
0.0
  0
VERTEX
  5
400D
  8
LY_1
  6
CONTINUOUS
 62
     3
 10
45196.95257163558
 20
-2282.909770915148
 30
0.0
  0
VERTEX
  5
400E
  8
LY_1
  6
CONTINUOUS
 62
     3
 10
45196.95601382059
 20
-2282.912817935381
 30
0.0
  0
VERTEX
  5
400F
  8
LY_1
  6
CONTINUOUS
 62
     3
 10
45196.95985719967
 20
-2282.915317302164
 30
0.0
  0
VERTEX
  5
4010
  8
LY_1
  6
CONTINUOUS
 62
     3
 10
45196.96402188201
 20
-2282.917215326912
 30
0.0
  0
VERTEX
  5
4011
  8
LY_1
  6
CONTINUOUS
 62
     3
 10
45196.96841766727
 20
-2282.918470719242
 30
0.0
  0
VERTEX
  5
4012
  8
LY_1
  6
CONTINUOUS
 62
     3
 10
45196.97294978079
 20
-2282.919056613546
 30
0.0
  0
VERTEX
  5
4013
  8
LY_1
  6
CONTINUOUS
 62
     3
 10
45196.97752281275
 20
-2282.918961263642
 30
0.0
  0
VERTEX
  5
4014
  8
LY_1
  6
CONTINUOUS
 62
     3
 10
45196.98203793752
 20
-2282.918186536985
 30
0.0
  0
VERTEX
  5
4015
  8
LY_1
  6
CONTINUOUS
 62
     3
 10
45196.98639998083
 20
-2282.916748145459
 30
0.0
  0
VERTEX
  5
4016
  8
LY_1
  6
CONTINUOUS
 62
     3
 10
45196.99051295967
 20
-2282.914677905139
 30
0.0
  0
VERTEX
  5
4017
  8
LY_1
  6
CONTINUOUS
 62
     3
 10
45196.99429195708
 20
-2282.912019737612
 30
0.0
  0
VERTEX
  5
4018
  8
LY_1
  6
CONTINUOUS
 62
     3
 10
45196.99765391152
 20
-2282.908830076756
 30
0.0
  0
VERTEX
  5
4019
  8
LY_1
  6
CONTINUOUS
 62
     3
 10
45197.00052781228
 20
-2282.905177635601
 30
0.0
  0
VERTEX
  5
401A
  8
LY_1
  6
CONTINUOUS
 62
     3
 10
45197.00285226601
 20
-2282.901139930947
 30
0.0
  0
VERTEX
  5
401B
  8
LY_1
  6
CONTINUOUS
 62
     3
 10
45197.00457648151
 20
-2282.896803457044
 30
0.0
  0
VERTEX
  5
401C
  8
LY_1
  6
CONTINUOUS
 62
     3
 10
45197.00516121146
 20
-2282.894725424349
 30
0.0
  0
VERTEX
  5
401D
  8
LY_1
  6
CONTINUOUS
 62
     3
 10
45197.00560603923
 20
-2282.892611553436
 30
0.0
  0
SEQEND
  5
4077
  8
LY_1
  6
CONTINUOUS
 62
     3
  0
POLYLINE
  5
3AB2
  8
LY_1
  6
CONTINUOUS
 62
     3
 66
     1
 10
0.0
 20
0.0
 30
0.0
  0
VERTEX
  5
401E
  8
LY_1
  6
CONTINUOUS
 62
     3
 10
45198.81201171056
 20
-2258.826961303874
 30
0.0
  0
VERTEX
  5
401F
  8
LY_1
  6
CONTINUOUS
 62
     3
 10
45198.80996427345
 20
-2258.823116356771
 30
0.0
  0
VERTEX
  5
4020
  8
LY_1
  6
CONTINUOUS
 62
     3
 10
45198.80741661169
 20
-2258.819597500604
 30
0.0
  0
VERTEX
  5
4021
  8
LY_1
  6
CONTINUOUS
 62
     3
 10
45198.80441855334
 20
-2258.816473431611
 30
0.0
  0
VERTEX
  5
4022
  8
LY_1
  6
CONTINUOUS
 62
     3
 10
45198.80102513826
 20
-2258.813800564409
 30
0.0
  0
VERTEX
  5
4023
  8
LY_1
  6
CONTINUOUS
 62
     3
 10
45198.79730113784
 20
-2258.811631952436
 30
0.0
  0
VERTEX
  5
4024
  8
LY_1
  6
CONTINUOUS
 62
     3
 10
45198.79331653533
 20
-2258.810008367569
 30
0.0
  0
VERTEX
  5
4025
  8
LY_1
  6
CONTINUOUS
 62
     3
 10
45198.78914751062
 20
-2258.808958473777
 30
0.0
  0
VERTEX
  5
4026
  8
LY_1
  6
CONTINUOUS
 62
     3
 10
45198.78487145915
 20
-2258.808504041388
 30
0.0
  0
VERTEX
  5
4027
  8
LY_1
  6
CONTINUOUS
 62
     3
 10
45198.7805723203
 20
-2258.808652763177
 30
0.0
  0
VERTEX
  5
4028
  8
LY_1
  6
CONTINUOUS
 62
     3
 10
45198.776328529
 20
-2258.809403237947
 30
0.0
  0
VERTEX
  5
4029
  8
LY_1
  6
CONTINUOUS
 62
     3
 10
45198.77222112488
 20
-2258.810739292372
 30
0.0
  0
VERTEX
  5
402A
  8
LY_1
  6
CONTINUOUS
 62
     3
 10
45198.76832859755
 20
-2258.812636180091
 30
0.0
  0
VERTEX
  5
402B
  8
LY_1
  6
CONTINUOUS
 62
     3
 10
45198.76472410579
 20
-2258.815059075891
 30
0.0
  0
VERTEX
  5
402C
  8
LY_1
  6
CONTINUOUS
 62
     3
 10
45198.76147582482
 20
-2258.817961106181
 30
0.0
  0
SEQEND
  5
4078
  8
LY_1
  6
CONTINUOUS
 62
     3
  0
ARC
  5
3AB3
  8
LY_1
  6
CONTINUOUS
 62
     3
 10
45263.25472468884
 20
-2164.444586629117
 30
0.0
 40
1.5
 50
170.0001820001404
 51
212.0245570001275
  0
ARC
  5
3AB4
  8
LY_1
  6
CONTINUOUS
 62
     3
 10
45260.28735000206
 20
-2166.300566933493
 30
0.0
 40
2.0
 50
349.9999819998667
 51
32.02444199983187
  0
ARC
  5
3AB5
  8
LY_1
  6
CONTINUOUS
 62
     3
 10
45196.62260564624
 20
-2284.179580178365
 30
0.0
 40
0.8565649999999999
 50
207.5240970001437
 51
349.9999819998667
  0
ARC
  5
3AB6
  8
LY_1
  6
CONTINUOUS
 62
     3
 10
45192.15216497581
 20
-2283.387493729608
 30
0.0
 40
0.8603290000000001
 50
170.0000180001587
 51
349.9999819998667
  0
ARC
  5
3AB7
  8
LY_1
  6
CONTINUOUS
 62
     3
 10
45193.18135406805
 20
-2277.529583724321
 30
0.0
 40
0.856713
 50
27.52411200030031
 51
170.00000100012
  0
ARC
  5
3AB8
  8
LY_1
  6
CONTINUOUS
 62
     3
 10
45197.57518366004
 20
-2278.648072584971
 30
0.0
 40
0.878975
 50
349.9999819998667
 51
259.9999830001234
  0
ARC
  5
3AB9
  8
LY_1
  6
CONTINUOUS
 62
     3
 10
45198.11166726137
 20
-2275.711495784642
 30
0.0
 40
0.8602920000000001
 50
170.0000180001587
 51
349.9999819998667
  0
ARC
  5
3ABA
  8
LY_1
  6
CONTINUOUS
 62
     3
 10
45194.15115307323
 20
-2272.157960527946
 30
0.0
 40
0.879
 50
80.00003600014927
 51
259.9999830001234
  0
ARC
  5
3ABB
  8
LY_1
  6
CONTINUOUS
 62
     3
 10
45199.11655056001
 20
-2269.905141367821
 30
0.0
 40
0.878926
 50
349.9999819998667
 51
259.9999830001234
  0
ARC
  5
3ABC
  8
LY_1
  6
CONTINUOUS
 62
     3
 10
45195.20986222266
 20
-2266.153722576495
 30
0.0
 40
0.878991
 50
80.00003600014927
 51
259.9999830001234
  0
ARC
  5
3ABD
  8
LY_1
  6
CONTINUOUS
 62
     3
 10
45199.64052018192
 20
-2266.934967117004
 30
0.0
 40
0.878991
 50
259.9999999999403
 51
80.00001899990832
  0
ARC
  5
3ABE
  8
LY_1
  6
CONTINUOUS
 62
     3
 10
45199.99415745434
 20
-2263.987578123353
 30
0.0
 40
1.042553
 50
350.7789510001554
 51
24.25906300010362
  0
ARC
  5
3ABF
  8
LY_1
  6
CONTINUOUS
 62
     3
 10
45200.17851236665
 20
-2263.992644995085
 30
0.0
 40
0.860117
 50
113.574514000003
 51
349.1432030001491
  0
ARC
  5
3AC0
  8
LY_1
  6
CONTINUOUS
 62
     3
 10
45195.71164773149
 20
-2263.188887204429
 30
0.0
 40
0.866237
 50
135.7409369999039
 51
315.7409549998359
  0
ARC
  5
3AC1
  8
LY_1
  6
CONTINUOUS
 62
     3
 10
45196.73056986971
 20
-2257.528917519523
 30
0.0
 40
0.878936
 50
79.99996400015539
 51
259.9999830001234
  0
ARC
  5
3AC2
  8
LY_1
  6
CONTINUOUS
 62
     3
 10
45201.16136373244
 20
-2258.31018602348
 30
0.0
 40
0.878936
 50
259.9999999999403
 51
80.00001899990832
  0
CIRCLE
  5
3ACB
  8
LY_1
  6
CONTINUOUS
 62
     3
 10
45209.86477424167
 20
-2195.995917641776
 30
0.0
 40
6.9175
  0
CIRCLE
  5
3ACD
  8
LY_1
  6
CONTINUOUS
 62
     3
 10
45209.86477424167
 20
-2195.995917641776
 30
0.0
 40
11.5
  0
ARC
  5
3ACE
  8
LY_1
  6
CONTINUOUS
 62
     3
 10
45170.94542076446
 20
-2387.141574869735
 30
0.0
 40
5.0
 50
171.5801960000259
 51
259.9999430000316
  0
ARC
  5
3ACF
  8
LY_1
  6
CONTINUOUS
 62
     3
 10
45181.06133842878
 20
-2388.92528408858
 30
0.0
 40
5.0
 50
260.000073000215
 51
348.4198039999895
  0
ARC
  5
3AD0
  8
LY_1
  6
CONTINUOUS
 62
     3
 10
45181.06133842878
 20
-2388.92528408858
 30
0.0
 40
3.0
 50
260.0001219999203
 51
348.4198039999895
  0
ARC
  5
3AD1
  8
LY_1
  6
CONTINUOUS
 62
     3
 10
45170.94542076446
 20
-2387.141574869735
 30
0.0
 40
3.0
 50
171.5801960000259
 51
259.9999050000819
  0
ARC
  5
3AD2
  8
LY_1
  6
CONTINUOUS
 62
     3
 10
45262.08140259417
 20
-2267.51939533768
 30
0.0
 40
52.0
 50
157.0153370000006
 51
168.4198400001382
  0
ARC
  5
3AD3
  8
LY_1
  6
CONTINUOUS
 62
     3
 10
45262.08140259417
 20
-2267.51939533768
 30
0.0
 40
50.0
 50
157.0153370000006
 51
168.4198400001382
  0
ARC
  5
3AD4
  8
LY_1
  6
CONTINUOUS
 62
     3
 10
45219.16183933545
 20
-2213.882066849385
 30
0.0
 40
4.0
 50
260.0000189999083
 51
337.1957269998744
  0
ARC
  5
3AD5
  8
LY_1
  6
CONTINUOUS
 62
     3
 10
45195.01096746254
 20
-2209.623616530558
 30
0.0
 40
4.0
 50
182.8042730001485
 51
259.9999809999723
  0
ARC
  5
3AD6
  8
LY_1
  6
CONTINUOUS
 62
     3
 10
45136.33467948745
 20
-2245.346855318287
 30
0.0
 40
52.0
 50
351.5801599999572
 51
2.984662999943564
  0
ARC
  5
3AD7
  8
LY_1
  6
CONTINUOUS
 62
     3
 10
45136.33467948745
 20
-2245.346855318287
 30
0.0
 40
50.0
 50
351.5801599999572
 51
2.984662999943564
  0
ARC
  5
3AD8
  8
LY_1
  6
CONTINUOUS
 62
     3
 10
45209.86477424167
 20
-2195.995917641776
 30
0.0
 40
24.0
 50
337.0153010002013
 51
182.9846819999272
  0
ARC
  5
3AD9
  8
LY_1
  6
CONTINUOUS
 62
     3
 10
45209.86477424167
 20
-2195.995917641776
 30
0.0
 40
26.0
 50
336.9581460001245
 51
182.9846819999272
  0
LINE
  5
3ADA
  8
LY_1
  6
CONTINUOUS
 62
     3
 10
45185.2817408813
 20
-2256.140855447427
 30
0.0
 11
45153.9308755136
 21
-2250.612852014545
 31
0.0
  0
LINE
  5
3ADB
  8
LY_1
  6
CONTINUOUS
 62
     3
 10
45185.64514037604
 20
-2230.819267285982
 30
0.0
 11
45158.27207995528
 21
-2225.992658189238
 31
0.0
  0
LINE
  5
3ADC
  8
LY_1
  6
CONTINUOUS
 62
     3
 10
45184.12222081523
 20
-2201.611077039228
 30
0.0
 11
45162.33473194992
 21
-2197.769354910388
 31
0.0
  0
LINE
  5
3ADD
  8
LY_1
  6
CONTINUOUS
 62
     3
 10
45220.89143352351
 20
-2133.460625325499
 30
0.0
 11
45216.81070134834
 21
-2156.603607521285
 31
0.0
  0
LINE
  5
3ADE
  8
LY_1
  6
CONTINUOUS
 62
     3
 10
45253.30221202269
 20
-2139.175520040671
 30
0.0
 11
45249.22147984752
 21
-2162.318502236458
 31
0.0
  0
LINE
  5
3ADF
  8
LY_1
  6
CONTINUOUS
 62
     3
 10
45265.79867296971
 20
-2141.378983268996
 30
0.0
 11
45261.77751305931
 21
-2164.18411436261
 31
0.0
  0
LINE
  5
3AE0
  8
LY_1
  6
CONTINUOUS
 62
     3
 10
45188.48065502433
 20
-2127.745730610326
 30
0.0
 11
45184.39992284916
 21
-2150.888712806112
 31
0.0
  0
LINE
  5
3AE1
  8
LY_1
  6
CONTINUOUS
 62
     3
 10
45175.9841940773
 20
-2125.542267381994
 30
0.0
 11
45171.96303416691
 21
-2148.347398475607
 31
0.0
  0
LINE
  5
3AE2
  8
LY_1
  6
CONTINUOUS
 62
     3
 10
45265.79867296971
 20
-2141.378983268996
 30
0.0
 11
45175.9841940773
 21
-2125.542267381994
 31
0.0
  0
LINE
  5
3AE3
  8
LY_1
  6
CONTINUOUS
 62
     3
 10
45260.63464635738
 20
-2164.330951427461
 30
0.0
 11
45172.98675633929
 21
-2148.876263615102
 31
0.0
  0
LINE
  5
3AE4
  8
LY_1
  6
CONTINUOUS
 62
     3
 10
45235.59009790066
 20
-2239.625910847915
 30
0.0
 11
45231.24889345899
 21
-2264.246104673222
 31
0.0
  0
LINE
  5
3AE5
  8
LY_1
  6
CONTINUOUS
 62
     3
 10
45250.800601202
 20
-2226.437275014572
 30
0.0
 11
45243.74535440601
 21
-2266.449567901547
 31
0.0
  0
LINE
  5
3AE6
  8
LY_1
  6
CONTINUOUS
 62
     3
 10
45253.9218777072
 20
-2213.918575821592
 30
0.0
 11
45250.80061429471
 21
-2226.437281384877
 31
0.0
  0
LINE
  5
3AE7
  8
LY_1
  6
CONTINUOUS
 62
     3
 10
45262.25696550807
 20
-2166.647863288819
 30
0.0
 11
45253.92186426719
 21
-2213.918571420903
 31
0.0
  0
LINE
  5
3AE8
  8
LY_1
  6
CONTINUOUS
 62
     3
 10
45170.7685409023
 20
-2228.19612141757
 30
0.0
 11
45166.42733646063
 21
-2252.816315242877
 31
0.0
  0
LINE
  5
3AE9
  8
LY_1
  6
CONTINUOUS
 62
     3
 10
45248.08655884769
 20
-2241.82937407624
 30
0.0
 11
45220.7137239479
 21
-2237.002804744932
 31
0.0
  0
LINE
  5
3AEA
  8
LY_1
  6
CONTINUOUS
 62
     3
 10
45160.98612230959
 20
-2210.60055912757
 30
0.0
 11
45153.9308755136
 21
-2250.612852014545
 31
0.0
  0
LINE
  5
3AEB
  8
LY_1
  6
CONTINUOUS
 62
     3
 10
45162.33475244762
 20
-2197.769290491096
 30
0.0
 11
45160.98613134651
 21
-2210.600559705601
 31
0.0
  0
LINE
  5
3AEC
  8
LY_1
  6
CONTINUOUS
 62
     3
 10
45253.92185298006
 20
-2213.918635433411
 30
0.0
 11
45232.1345738788
 21
-2210.076950291632
 31
0.0
  0
LINE
  5
3AED
  8
LY_1
  6
CONTINUOUS
 62
     3
 10
45170.66984447793
 20
-2150.498582765797
 30
0.0
 11
45162.33474323705
 21
-2197.769290897881
 31
0.0
  0
LINE
  5
3AEE
  8
LY_1
  6
CONTINUOUS
 62
     3
 10
45243.74535440601
 20
-2266.449567901547
 30
0.0
 11
45212.39445850928
 21
-2260.921559085577
 31
0.0
  0
LINE
  5
3AEF
  8
LY_1
  6
CONTINUOUS
 62
     3
 10
45261.5623727974
 20
-2170.587094300872
 30
0.0
 11
45169.97525176727
 21
-2154.437813777849
 31
0.0
  0
LINE
  5
3AF0
  8
LY_1
  6
CONTINUOUS
 62
     3
 10
45197.59600341832
 20
-2279.544301631084
 30
0.0
 11
45197.42254725916
 21
-2279.513716630254
 31
0.0
  0
LINE
  5
3AF1
  8
LY_1
  6
CONTINUOUS
 62
     3
 10
45199.13735298651
 20
-2270.80129018544
 30
0.0
 11
45198.9639273564
 21
-2270.770710567705
 31
0.0
  0
LINE
  5
3AF2
  8
LY_1
  6
CONTINUOUS
 62
     3
 10
45199.13735298651
 20
-2270.80129018544
 30
0.0
 11
45198.90762999201
 21
-2272.104114027674
 31
0.0
  0
LINE
  5
3AF3
  8
LY_1
  6
CONTINUOUS
 62
     3
 10
45197.60007321251
 20
-2273.6586713952
 30
0.0
 11
45197.26444601472
 21
-2275.562107820226
 31
0.0
  0
LINE
  5
3AF4
  8
LY_1
  6
CONTINUOUS
 62
     3
 10
45197.60007321251
 20
-2273.6586713952
 30
0.0
 11
45193.99851406763
 21
-2273.023619345333
 31
0.0
  0
LINE
  5
3AF5
  8
LY_1
  6
CONTINUOUS
 62
     3
 10
45198.90762999201
 20
-2272.104114027674
 30
0.0
 11
45194.30378669572
 21
-2271.292332239582
 31
0.0
  0
LINE
  5
3AF6
  8
LY_1
  6
CONTINUOUS
 62
     3
 10
45199.98211877509
 20
-2270.057764397783
 30
0.0
 11
45198.95887275109
 21
-2275.86088097068
 31
0.0
  0
LINE
  5
3AF7
  8
LY_1
  6
CONTINUOUS
 62
     3
 10
45197.59600341832
 20
-2279.544301631084
 30
0.0
 11
45197.00560603923
 21
-2282.892611553436
 31
0.0
  0
LINE
  5
3AF8
  8
LY_1
  6
CONTINUOUS
 62
     3
 10
45192.33769388623
 20
-2277.38082367171
 30
0.0
 11
45191.30490120637
 21
-2283.238082020451
 31
0.0
  0
LINE
  5
3AF9
  8
LY_1
  6
CONTINUOUS
 62
     3
 10
45192.99940278813
 20
-2283.536868368168
 30
0.0
 11
45193.57051323776
 21
-2280.297940058133
 31
0.0
  0
LINE
  5
3AFA
  8
LY_1
  6
CONTINUOUS
 62
     3
 10
45195.86297051711
 20
-2284.57539524272
 30
0.0
 11
45193.62887003011
 21
-2280.288131596202
 31
0.0
  0
LINE
  5
3AFB
  8
LY_1
  6
CONTINUOUS
 62
     3
 10
45196.94716088998
 20
-2282.902304923848
 30
0.0
 11
45193.94111378706
 21
-2277.133666746473
 31
0.0
  0
LINE
  5
3AFC
  8
LY_1
  6
CONTINUOUS
 62
     3
 10
45198.44082770532
 20
-2278.800708985838
 30
0.0
 11
45197.46616045361
 21
-2284.328321650604
 31
0.0
  0
LINE
  5
3AFD
  8
LY_1
  6
CONTINUOUS
 62
     3
 10
45195.36249862353
 20
-2265.288078531203
 30
0.0
 11
45199.79315658279
 21
-2266.069323071717
 31
0.0
  0
LINE
  5
3AFE
  8
LY_1
  6
CONTINUOUS
 62
     3
 10
45199.48788378105
 20
-2267.800611162284
 30
0.0
 11
45195.05722582178
 21
-2267.019366621769
 31
0.0
  0
LINE
  5
3AFF
  8
LY_1
  6
CONTINUOUS
 62
     3
 10
45198.90849112908
 20
-2261.149515597552
 30
0.0
 11
45199.83449975658
 21
-2263.204311271615
 31
0.0
  0
LINE
  5
3B00
  8
LY_1
  6
CONTINUOUS
 62
     3
 10
45198.90845092321
 20
-2261.149490230493
 30
0.0
 11
45196.33201361723
 21
-2263.793442158147
 31
0.0
  0
LINE
  5
3B01
  8
LY_1
  6
CONTINUOUS
 62
     3
 10
45198.81195782672
 20
-2258.826886815399
 30
0.0
 11
45200.94461912176
 21
-2263.55922338892
 31
0.0
  0
LINE
  5
3B02
  8
LY_1
  6
CONTINUOUS
 62
     3
 10
45198.76140445961
 20
-2258.817980000802
 30
0.0
 11
45195.09122328062
 21
-2262.584336140071
 31
0.0
  0
LINE
  5
3B03
  8
LY_1
  6
CONTINUOUS
 62
     3
 10
45201.00873531938
 20
-2259.1757847676
 30
0.0
 11
45196.57794145665
 21
-2258.394516263646
 31
0.0
  0
LINE
  5
3B04
  8
LY_1
  6
CONTINUOUS
 62
     3
 10
45201.31398954077
 20
-2257.444602051461
 30
0.0
 11
45196.88319567803
 21
-2256.663333547507
 31
0.0
  0
LINE
  5
3B0E
  8
LY_1
  6
CONTINUOUS
 62
     3
 10
45222.88551683148
 20
-2191.256770571565
 30
0.0
 11
45212.27088759538
 21
-2182.350038271145
 31
0.0
  0
LINE
  5
3B0F
  8
LY_1
  6
CONTINUOUS
 62
     3
 10
45220.47939536857
 20
-2204.902655620312
 30
0.0
 11
45222.88553658232
 21
-2191.256750699353
 31
0.0
  0
LINE
  5
3B10
  8
LY_1
  6
CONTINUOUS
 62
     3
 10
45207.45861292738
 20
-2209.641827141868
 30
0.0
 11
45220.47938436204
 21
-2204.902654694992
 31
0.0
  0
LINE
  5
3B11
  8
LY_1
  6
CONTINUOUS
 62
     3
 10
45196.84400002382
 20
-2200.735071320227
 30
0.0
 11
45207.45862943357
 21
-2209.641802635839
 31
0.0
  0
LINE
  5
3B12
  8
LY_1
  6
CONTINUOUS
 62
     3
 10
45199.25015172556
 20
-2187.089187541687
 30
0.0
 11
45196.84401068546
 21
-2200.735091477838
 31
0.0
  0
LINE
  5
3B13
  8
LY_1
  6
CONTINUOUS
 62
     3
 10
45212.27091221798
 20
-2182.35005987502
 30
0.0
 11
45199.25014176813
 21
-2187.089232495551
 31
0.0
  0
LINE
  5
3B14
  8
LY_1
  6
CONTINUOUS
 62
     3
 10
45180.54039389577
 20
-2391.879707347611
 30
0.0
 11
45170.42447623145
 21
-2390.095998128769
 31
0.0
  0
LINE
  5
3B15
  8
LY_1
  6
CONTINUOUS
 62
     3
 10
45211.13990300545
 20
-2257.081006180242
 30
0.0
 11
45184.00029835334
 21
-2389.527527555199
 31
0.0
  0
LINE
  5
3B16
  8
LY_1
  6
CONTINUOUS
 62
     3
 10
45213.0991626579
 20
-2257.482478312255
 30
0.0
 11
45185.95955817943
 21
-2389.928998702404
 31
0.0
  0
LINE
  5
3B17
  8
LY_1
  6
CONTINUOUS
 62
     3
 10
45231.95959693239
 20
-2205.367604316541
 30
0.0
 11
45214.20994776303
 21
-2247.214257779067
 31
0.0
  0
LINE
  5
3B18
  8
LY_1
  6
CONTINUOUS
 62
     3
 10
45233.8008151782
 20
-2206.148574196932
 30
0.0
 11
45216.05116600884
 21
-2247.995227659458
 31
0.0
  0
LINE
  5
3B19
  8
LY_1
  6
CONTINUOUS
 62
     3
 10
45224.98995044341
 20
-2210.340279006838
 30
0.0
 11
45222.84899855648
 21
-2215.432339453177
 31
0.0
  0
LINE
  5
3B1A
  8
LY_1
  6
CONTINUOUS
 62
     3
 10
45224.99015557604
 20
-2210.340336501215
 30
0.0
 11
45229.51195158401
 21
-2211.137651138679
 31
0.0
  0
LINE
  5
3B1B
  8
LY_1
  6
CONTINUOUS
 62
     3
 10
45190.74561643788
 20
-2204.302102340082
 30
0.0
 11
45191.01586507264
 21
-2209.819321478864
 31
0.0
  0
LINE
  5
3B1C
  8
LY_1
  6
CONTINUOUS
 62
     3
 10
45218.46724662478
 20
-2217.821297861434
 30
0.0
 11
45194.31637475186
 21
-2213.562847542607
 31
0.0
  0
LINE
  5
3B1D
  8
LY_1
  6
CONTINUOUS
 62
     3
 10
45190.74548482094
 20
-2204.302077101611
 30
0.0
 11
45186.22368881298
 21
-2203.504762464147
 31
0.0
  0
LINE
  5
3B1E
  8
LY_1
  6
CONTINUOUS
 62
     3
 10
45185.89732165967
 20
-2197.245594578266
 30
0.0
 11
45188.26413515241
 21
-2242.639285593754
 31
0.0
  0
LINE
  5
3B1F
  8
LY_1
  6
CONTINUOUS
 62
     3
 10
45187.774213311
 20
-2252.960982324863
 30
0.0
 11
45167.97772130999
 21
-2386.702292582597
 31
0.0
  0
LINE
  5
3B20
  8
LY_1
  6
CONTINUOUS
 62
     3
 10
45183.9000340456
 20
-2197.349732309945
 30
0.0
 11
45186.26684852315
 21
-2242.743423499081
 31
0.0
  0
LINE
  5
3B21
  8
LY_1
  6
CONTINUOUS
 62
     3
 10
45185.79577019939
 20
-2252.668132232984
 30
0.0
 11
45165.99927738721
 21
-2386.409441332262
 31
0.0
  0
LINE
  5
3B22
  8
LY_1
  6
CENTER
 62
   110
 10
45221.75967441184
 20
-2128.536586560434
 30
0.0
 11
45174.26689781994
 21
-2397.881507009277
 31
0.0
  0
LINE
  5
3B23
  8
LY_1
  6
CONTINUOUS
 62
     3
 10
45211.14580990757
 20
-2252.070247215235
 30
0.0
 11
45189.48244424183
 21
-2248.250411355411
 31
0.0
  0
LINE
  5
3B24
  8
LY_1
  6
CONTINUOUS
 62
     3
 10
45180.19309754044
 20
-2393.849322853634
 30
0.0
 11
45170.07717987611
 21
-2392.065613634792
 31
0.0
  0
POLYLINE
  5
3B26
  8
0
  6
CENTER
 66
     1
 10
0.0
 20
0.0
 30
0.0
  0
VERTEX
  5
402D
  8
0
  6
CENTER
 10
45199.07209147191
 20
-2257.204263218779
 30
0.0
  0
VERTEX
  5
402E
  8
0
  6
CENTER
 10
45239.26879213203
 20
-2029.23744555637
 30
0.0
  0
SEQEND
  5
4079
  8
0
  6
CENTER
  0
LINE
  5
3B27
  8
0
 10
45208.80136186691
 20
-2131.328819493741
 30
0.0
 11
45232.98150518016
 21
-2135.592431157263
 31
0.0
  0
LINE
  5
3B28
  8
0
 10
45238.83467168788
 20
-2031.699464938911
 30
0.0
 11
45220.89143352351
 21
-2133.460625325499
 31
0.0
  0
LINE
  5
3B3B
  8
細線
  6
CENTER
 10
40646.40368181088
 20
-2165.77553056857
 30
0.0
 11
40646.40368181088
 21
-4450.026664092982
 31
0.0
  0
POINT
  5
3B3C
  8
細線
  6
CONTINUOUS
 10
40654.42512668363
 20
-2215.504196832419
 30
0.0
  0
LINE
  5
3B3D
  8
細線
  6
CONTINUOUS
 10
40639.40368181088
 20
-2209.429839339931
 30
0.0
 11
40653.40368181088
 21
-2209.429839339931
 31
0.0
  0
LINE
  5
3B3E
  8
細線
  6
CONTINUOUS
 10
40639.40368181088
 20
-2194.429839339931
 30
0.0
 11
40639.40368181088
 21
-2209.429839339931
 31
0.0
  0
LINE
  5
3B3F
  8
細線
  6
CONTINUOUS
 10
40653.40368181088
 20
-2194.429839339931
 30
0.0
 11
40653.40368181088
 21
-2209.429839339931
 31
0.0
  0
LINE
  5
3B40
  8
細線
  6
CENTER
 10
40633.6659070688
 20
-2194.429839339931
 30
0.0
 11
40658.70934167671
 21
-2194.429839339931
 31
0.0
  0
LINE
  5
3B41
  8
細線
  6
CONTINUOUS
 10
40642.90368181088
 20
-2224.429839339931
 30
0.0
 11
40649.90368181088
 21
-2224.429839339931
 31
0.0
  0
LINE
  5
3B42
  8
細線
  6
CONTINUOUS
 10
40642.40368181088
 20
-2210.429839339931
 30
0.0
 11
40642.40368181088
 21
-2212.384431121627
 31
0.0
  0
LINE
  5
3B43
  8
細線
  6
CONTINUOUS
 10
40642.40368181087
 20
-2214.384431121626
 30
0.0
 11
40642.40368181087
 21
-2216.612334708125
 31
0.0
  0
LINE
  5
3B44
  8
細線
  6
CONTINUOUS
 10
40642.40368181087
 20
-2218.612334708125
 30
0.0
 11
40642.40368181088
 21
-2223.929839339931
 31
0.0
  0
LINE
  5
3B45
  8
細線
  6
CONTINUOUS
 10
40650.40368181088
 20
-2210.429839339931
 30
0.0
 11
40650.40368181088
 21
-2212.384431121627
 31
0.0
  0
LINE
  5
3B46
  8
細線
  6
CONTINUOUS
 10
40650.40368181087
 20
-2214.384431121626
 30
0.0
 11
40650.40368181087
 21
-2216.612334708125
 31
0.0
  0
LINE
  5
3B47
  8
細線
  6
CONTINUOUS
 10
40650.40368181087
 20
-2218.612334708125
 30
0.0
 11
40650.40368181088
 21
-2223.929839339931
 31
0.0
  0
LINE
  5
3B48
  8
細線
  6
CONTINUOUS
 10
40639.62605624792
 20
-2213.384431121627
 30
0.0
 11
40652.3022528458
 21
-2213.384431121627
 31
0.0
  0
LINE
  5
3B49
  8
細線
  6
CONTINUOUS
 10
40639.34803474908
 20
-2217.612334708125
 30
0.0
 11
40651.40368181088
 21
-2217.612334708125
 31
0.0
  0
LINE
  5
3B4A
  8
細線
  6
CONTINUOUS
 10
40641.40368181088
 20
-2216.612334708125
 30
0.0
 11
40651.63729052481
 21
-2216.612334708125
 31
0.0
  0
LINE
  5
3B4B
  8
細線
  6
CONTINUOUS
 10
40641.40368181088
 20
-2218.612334708125
 30
0.0
 11
40654.47240428637
 21
-2218.612334708125
 31
0.0
  0
LINE
  5
3B4C
  8
細線
  6
CONTINUOUS
 10
40641.40368181088
 20
-2214.384431121625
 30
0.0
 11
40651.64194060416
 21
-2214.384431121625
 31
0.0
  0
LINE
  5
3B4D
  8
細線
  6
CONTINUOUS
 10
40641.40368181088
 20
-2212.384431121627
 30
0.0
 11
40654.36119568684
 21
-2212.384431121627
 31
0.0
  0
LINE
  5
3B4E
  8
細線
  6
CENTER
 10
40656.40368181088
 20
-2211.384431121625
 30
0.0
 11
40656.40368181088
 21
-2213.249131509983
 31
0.0
  0
LINE
  5
3B4F
  8
細線
  6
CONTINUOUS
 10
40650.40368181088
 20
-2221.612334708125
 30
0.0
 11
40654.40368181088
 21
-2221.612334708125
 31
0.0
  0
LINE
  5
3B50
  8
細線
  6
CONTINUOUS
 10
40650.40368181088
 20
-2209.384431121625
 30
0.0
 11
40654.40368181088
 21
-2209.384431121625
 31
0.0
  0
LINE
  5
3B51
  8
細線
  6
CONTINUOUS
 10
40652.48863501053
 20
-2216.004196832419
 30
0.0
 11
40653.42512668363
 21
-2216.004196832419
 31
0.0
  0
LINE
  5
3B52
  8
細線
  6
CONTINUOUS
 10
40652.48863501053
 20
-2215.004196832419
 30
0.0
 11
40653.42512668363
 21
-2215.004196832419
 31
0.0
  0
LINE
  5
3B53
  8
細線
  6
CONTINUOUS
 10
40654.92512668363
 20
-2213.567705159314
 30
0.0
 11
40654.92512668363
 21
-2214.504196832419
 31
0.0
  0
LINE
  5
3B54
  8
細線
  6
CONTINUOUS
 10
40653.92512668363
 20
-2213.567705159314
 30
0.0
 11
40653.92512668363
 21
-2214.504196832419
 31
0.0
  0
LINE
  5
3B55
  8
細線
  6
CENTER
 10
40656.40368181088
 20
-2217.759262154852
 30
0.0
 11
40656.40368181088
 21
-2219.612334708125
 31
0.0
  0
LINE
  5
3B56
  8
細線
  6
CONTINUOUS
 10
40653.92512668363
 20
-2216.504196832419
 30
0.0
 11
40653.92512668363
 21
-2217.440688505521
 31
0.0
  0
LINE
  5
3B57
  8
細線
  6
CONTINUOUS
 10
40655.42512668363
 20
-2216.004196832419
 30
0.0
 11
40656.36161835673
 21
-2216.004196832419
 31
0.0
  0
LINE
  5
3B58
  8
細線
  6
CONTINUOUS
 10
40655.42512668363
 20
-2215.004196832419
 30
0.0
 11
40656.36161835673
 21
-2215.004196832419
 31
0.0
  0
LINE
  5
3B59
  8
細線
  6
CONTINUOUS
 10
40654.92512668363
 20
-2216.504196832419
 30
0.0
 11
40654.92512668363
 21
-2217.440688505521
 31
0.0
  0
ARC
  5
3B5A
  8
細線
  6
CONTINUOUS
 10
40646.40368181088
 20
-2194.429839339931
 30
0.0
 40
7.0
 50
0.0
 51
180.0
  0
ARC
  5
3B5B
  8
細線
  6
CONTINUOUS
 10
40641.40368181088
 20
-2213.384431121626
 30
0.0
 40
0.9999999999999432
 50
90.0
 51
270.0
  0
ARC
  5
3B5C
  8
細線
  6
CONTINUOUS
 10
40641.40368181088
 20
-2217.612334708125
 30
0.0
 40
0.9999999999999432
 50
90.0
 51
270.0
  0
CIRCLE
  5
3B5D
  8
細線
  6
CONTINUOUS
 10
40654.42512668363
 20
-2215.504196832418
 30
0.0
 40
3.0
  0
ARC
  5
3B5E
  8
細線
  6
CONTINUOUS
 10
40654.40368181088
 20
-2211.384431121626
 30
0.0
 40
2.0
 50
0.0
 51
90.0
  0
ARC
  5
3B5F
  8
細線
  6
CONTINUOUS
 10
40654.40368181088
 20
-2219.612334708124
 30
0.0
 40
2.0
 50
270.0
 51
0.0
  0
ARC
  5
3B60
  8
細線
  6
CONTINUOUS
 10
40654.42512668363
 20
-2215.504196832418
 30
0.0
 40
2.000000000000001
 50
345.5224878140901
 51
14.47751218590991
  0
ARC
  5
3B61
  8
細線
  6
CONTINUOUS
 10
40654.42512668363
 20
-2215.504196832418
 30
0.0
 40
2.000000000000001
 50
255.5224878140705
 51
284.4775121859295
  0
ARC
  5
3B62
  8
細線
  6
CONTINUOUS
 10
40654.42512668363
 20
-2215.504196832418
 30
0.0
 40
2.000000000000001
 50
75.52248781407056
 51
104.4775121859294
  0
ARC
  5
3B63
  8
細線
  6
CONTINUOUS
 10
40654.42512668363
 20
-2215.504196832418
 30
0.0
 40
2.000000000000001
 50
165.5224878140901
 51
194.4775121859099
  0
ARC
  5
3B64
  8
細線
  6
CONTINUOUS
 10
40653.42512668363
 20
-2214.504196832418
 30
0.0
 40
0.5
 50
270.0
 51
0.0
  0
ARC
  5
3B65
  8
細線
  6
CONTINUOUS
 10
40653.42512668363
 20
-2216.504196832418
 30
0.0
 40
0.5
 50
0.0
 51
90.0
  0
ARC
  5
3B66
  8
細線
  6
CONTINUOUS
 10
40655.42512668363
 20
-2216.504196832418
 30
0.0
 40
0.5
 50
90.0
 51
180.0
  0
ARC
  5
3B67
  8
細線
  6
CONTINUOUS
 10
40655.42512668363
 20
-2214.504196832418
 30
0.0
 40
0.5
 50
180.0
 51
270.0
  0
ARC
  5
3B68
  8
細線
  6
CONTINUOUS
 10
40642.90368181088
 20
-2223.929839339931
 30
0.0
 40
0.5
 50
180.0
 51
270.0
  0
ARC
  5
3B69
  8
細線
  6
CONTINUOUS
 10
40649.90368181088
 20
-2223.929839339931
 30
0.0
 40
0.5
 50
270.0
 51
0.0
  0
ARC
  5
3B6A
  8
細線
  6
CONTINUOUS
 10
40641.40368181088
 20
-2210.42983933993
 30
0.0
 40
1.0
 50
0.0
 51
90.0
  0
ARC
  5
3B6B
  8
細線
  6
CONTINUOUS
 10
40651.40368181088
 20
-2210.42983933993
 30
0.0
 40
1.0
 50
90.0
 51
180.0
  0
POINT
  5
3B6C
  8
細線
  6
CONTINUOUS
 10
40654.42512668363
 20
-4408.355481847439
 30
0.0
  0
LINE
  5
3B6D
  8
細線
 10
40641.40368181088
 20
-4414.429839339926
 30
0.0
 11
40641.40368181087
 21
-4411.47524755823
 31
0.0
  0
LINE
  5
3B6E
  8
細線
 10
40641.40368181088
 20
-4409.475247558234
 30
0.0
 11
40641.40368181088
 21
-4407.247343971732
 31
0.0
  0
LINE
  5
3B6F
  8
細線
 10
40641.40368181087
 20
-4405.247343971732
 30
0.0
 11
40641.40368181087
 21
-2218.612334708125
 31
0.0
  0
LINE
  5
3B70
  8
細線
 10
40641.40368181087
 20
-2216.612334708125
 30
0.0
 11
40641.40368181087
 21
-2214.384431121626
 31
0.0
  0
LINE
  5
3B71
  8
細線
 10
40641.40368181088
 20
-2212.384431121627
 30
0.0
 11
40641.40368181088
 21
-2209.429839339931
 31
0.0
  0
LINE
  5
3B72
  8
細線
 10
40651.40368181088
 20
-4414.429839339926
 30
0.0
 11
40651.40368181088
 21
-4411.47524755823
 31
0.0
  0
LINE
  5
3B73
  8
細線
 10
40651.40368181087
 20
-4409.475247558232
 30
0.0
 11
40651.40368181088
 21
-4407.247343971734
 31
0.0
  0
LINE
  5
3B74
  8
細線
 10
40651.40368181088
 20
-4405.247343971732
 30
0.0
 11
40651.40368181087
 21
-2221.612334708125
 31
0.0
  0
LINE
  5
3B75
  8
細線
  6
CONTINUOUS
 10
40639.40368181088
 20
-4414.429839339926
 30
0.0
 11
40653.40368181088
 21
-4414.429839339926
 31
0.0
  0
LINE
  5
3B76
  8
細線
  6
CONTINUOUS
 10
40639.40368181088
 20
-4429.429839339926
 30
0.0
 11
40639.40368181088
 21
-4414.429839339926
 31
0.0
  0
LINE
  5
3B77
  8
細線
  6
CONTINUOUS
 10
40653.40368181088
 20
-4429.429839339926
 30
0.0
 11
40653.40368181088
 21
-4414.429839339926
 31
0.0
  0
LINE
  5
3B78
  8
細線
  6
CENTER
 10
40633.6659070688
 20
-4429.429839339926
 30
0.0
 11
40658.70934167671
 21
-4429.429839339926
 31
0.0
  0
LINE
  5
3B79
  8
細線
  6
CONTINUOUS
 10
40642.90368181088
 20
-4399.429839339926
 30
0.0
 11
40649.90368181088
 21
-4399.429839339926
 31
0.0
  0
LINE
  5
3B7A
  8
細線
  6
CONTINUOUS
 10
40642.40368181088
 20
-4413.429839339928
 30
0.0
 11
40642.40368181089
 21
-4411.47524755823
 31
0.0
  0
LINE
  5
3B7B
  8
細線
  6
CONTINUOUS
 10
40642.40368181088
 20
-4409.475247558232
 30
0.0
 11
40642.40368181088
 21
-4407.247343971732
 31
0.0
  0
LINE
  5
3B7C
  8
細線
  6
CONTINUOUS
 10
40642.40368181088
 20
-4405.247343971732
 30
0.0
 11
40642.40368181088
 21
-4399.929839339926
 31
0.0
  0
LINE
  5
3B7D
  8
細線
  6
CONTINUOUS
 10
40650.40368181088
 20
-4413.429839339928
 30
0.0
 11
40650.40368181088
 21
-4411.47524755823
 31
0.0
  0
LINE
  5
3B7E
  8
細線
  6
CONTINUOUS
 10
40650.40368181088
 20
-4409.475247558232
 30
0.0
 11
40650.40368181088
 21
-4407.247343971732
 31
0.0
  0
LINE
  5
3B7F
  8
細線
  6
CONTINUOUS
 10
40650.40368181087
 20
-4405.247343971732
 30
0.0
 11
40650.40368181088
 21
-4399.929839339926
 31
0.0
  0
LINE
  5
3B80
  8
細線
  6
CONTINUOUS
 10
40639.62605624792
 20
-4410.47524755823
 30
0.0
 11
40652.3022528458
 21
-4410.47524755823
 31
0.0
  0
LINE
  5
3B81
  8
細線
  6
CONTINUOUS
 10
40639.34803474908
 20
-4406.247343971732
 30
0.0
 11
40651.40368181088
 21
-4406.247343971732
 31
0.0
  0
LINE
  5
3B82
  8
細線
  6
CONTINUOUS
 10
40641.40368181088
 20
-4407.247343971732
 30
0.0
 11
40651.63729052481
 21
-4407.247343971732
 31
0.0
  0
LINE
  5
3B83
  8
細線
  6
CONTINUOUS
 10
40641.40368181088
 20
-4405.247343971732
 30
0.0
 11
40654.47240428637
 21
-4405.247343971732
 31
0.0
  0
LINE
  5
3B84
  8
細線
  6
CONTINUOUS
 10
40641.40368181088
 20
-4409.475247558232
 30
0.0
 11
40651.64194060416
 21
-4409.475247558232
 31
0.0
  0
LINE
  5
3B85
  8
細線
  6
CONTINUOUS
 10
40641.40368181088
 20
-4411.47524755823
 30
0.0
 11
40654.36119568684
 21
-4411.47524755823
 31
0.0
  0
LINE
  5
3B86
  8
細線
  6
CENTER
 10
40656.40368181088
 20
-4412.475247558232
 30
0.0
 11
40656.40368181088
 21
-4410.610547169874
 31
0.0
  0
LINE
  5
3B87
  8
細線
  6
CONTINUOUS
 10
40650.40368181088
 20
-4402.247343971732
 30
0.0
 11
40654.40368181088
 21
-4402.247343971732
 31
0.0
  0
LINE
  5
3B88
  8
細線
  6
CONTINUOUS
 10
40650.40368181088
 20
-4414.475247558232
 30
0.0
 11
40654.40368181088
 21
-4414.475247558232
 31
0.0
  0
LINE
  5
3B89
  8
細線
  6
CONTINUOUS
 10
40652.48863501053
 20
-4407.855481847439
 30
0.0
 11
40653.42512668363
 21
-4407.855481847439
 31
0.0
  0
LINE
  5
3B8A
  8
細線
  6
CONTINUOUS
 10
40652.48863501053
 20
-4408.855481847439
 30
0.0
 11
40653.42512668363
 21
-4408.855481847439
 31
0.0
  0
LINE
  5
3B8B
  8
細線
  6
CONTINUOUS
 10
40654.92512668363
 20
-4410.291973520543
 30
0.0
 11
40654.92512668363
 21
-4409.355481847439
 31
0.0
  0
LINE
  5
3B8C
  8
細線
  6
CONTINUOUS
 10
40653.92512668363
 20
-4410.291973520543
 30
0.0
 11
40653.92512668363
 21
-4409.355481847439
 31
0.0
  0
LINE
  5
3B8D
  8
細線
  6
CENTER
 10
40656.40368181088
 20
-4406.100416525005
 30
0.0
 11
40656.40368181088
 21
-4404.247343971734
 31
0.0
  0
LINE
  5
3B8E
  8
細線
  6
CONTINUOUS
 10
40653.92512668363
 20
-4407.355481847439
 30
0.0
 11
40653.92512668363
 21
-4406.418990174336
 31
0.0
  0
LINE
  5
3B8F
  8
細線
  6
CONTINUOUS
 10
40655.42512668363
 20
-4407.855481847439
 30
0.0
 11
40656.36161835673
 21
-4407.855481847439
 31
0.0
  0
LINE
  5
3B90
  8
細線
  6
CONTINUOUS
 10
40655.42512668363
 20
-4408.855481847439
 30
0.0
 11
40656.36161835673
 21
-4408.855481847439
 31
0.0
  0
LINE
  5
3B91
  8
細線
  6
CONTINUOUS
 10
40654.92512668363
 20
-4407.355481847439
 30
0.0
 11
40654.92512668363
 21
-4406.418990174336
 31
0.0
  0
ARC
  5
3B92
  8
細線
  6
CONTINUOUS
 10
40646.40368181088
 20
-4429.429839339928
 30
0.0
 40
7.0
 50
180.0
 51
0.0
  0
ARC
  5
3B93
  8
細線
  6
CONTINUOUS
 10
40641.40368181088
 20
-4410.475247558232
 30
0.0
 40
0.9999999999999432
 50
90.0
 51
270.0
  0
ARC
  5
3B94
  8
細線
  6
CONTINUOUS
 10
40641.40368181088
 20
-4406.247343971734
 30
0.0
 40
0.9999999999999432
 50
90.0
 51
270.0
  0
CIRCLE
  5
3B95
  8
細線
  6
CONTINUOUS
 10
40654.42512668363
 20
-4408.35548184744
 30
0.0
 40
3.0
  0
ARC
  5
3B96
  8
細線
  6
CONTINUOUS
 10
40654.40368181088
 20
-4412.475247558232
 30
0.0
 40
2.0
 50
270.0
 51
0.0
  0
ARC
  5
3B97
  8
細線
  6
CONTINUOUS
 10
40654.40368181088
 20
-4404.247343971734
 30
0.0
 40
2.0
 50
0.0
 51
90.0
  0
ARC
  5
3B98
  8
細線
  6
CONTINUOUS
 10
40654.42512668363
 20
-4408.35548184744
 30
0.0
 40
2.000000000000001
 50
345.5224878140901
 51
14.47751218590991
  0
ARC
  5
3B99
  8
細線
  6
CONTINUOUS
 10
40654.42512668363
 20
-4408.35548184744
 30
0.0
 40
2.000000000000001
 50
75.52248781407056
 51
104.4775121859294
  0
ARC
  5
3B9A
  8
細線
  6
CONTINUOUS
 10
40654.42512668363
 20
-4408.35548184744
 30
0.0
 40
2.000000000000001
 50
255.5224878140705
 51
284.4775121859295
  0
ARC
  5
3B9B
  8
細線
  6
CONTINUOUS
 10
40654.42512668363
 20
-4408.35548184744
 30
0.0
 40
2.000000000000001
 50
165.5224878140901
 51
194.4775121859099
  0
ARC
  5
3B9C
  8
細線
  6
CONTINUOUS
 10
40653.42512668363
 20
-4409.35548184744
 30
0.0
 40
0.5
 50
0.0
 51
90.0
  0
ARC
  5
3B9D
  8
細線
  6
CONTINUOUS
 10
40653.42512668363
 20
-4407.35548184744
 30
0.0
 40
0.5
 50
270.0
 51
0.0
  0
ARC
  5
3B9E
  8
細線
  6
CONTINUOUS
 10
40655.42512668363
 20
-4407.35548184744
 30
0.0
 40
0.5
 50
180.0
 51
270.0
  0
ARC
  5
3B9F
  8
細線
  6
CONTINUOUS
 10
40655.42512668363
 20
-4409.35548184744
 30
0.0
 40
0.5
 50
90.0
 51
180.0
  0
ARC
  5
3BA0
  8
細線
  6
CONTINUOUS
 10
40642.90368181088
 20
-4399.929839339928
 30
0.0
 40
0.5
 50
90.0
 51
180.0
  0
ARC
  5
3BA1
  8
細線
  6
CONTINUOUS
 10
40649.90368181088
 20
-4399.929839339928
 30
0.0
 40
0.5
 50
0.0
 51
90.0
  0
ARC
  5
3BA2
  8
細線
  6
CONTINUOUS
 10
40641.40368181088
 20
-4413.429839339928
 30
0.0
 40
1.0
 50
270.0
 51
0.0
  0
ARC
  5
3BA3
  8
細線
  6
CONTINUOUS
 10
40651.40368181088
 20
-4413.429839339928
 30
0.0
 40
1.0
 50
180.0
 51
270.0
  0
INSERT
  5
3BA6
  8
0
 66
     1
  2
N-BALOON
 10
40305.79354955156
 20
-3322.429839339929
 30
0.0
  0
ATTRIB
  5
3BA7
  8
0
 10
40348.12990056658
 20
-3347.174863338433
 30
0.0
 40
50.0
  1
3
  2
NO.
 70
     0
  0
SEQEND
  5
3BA8
  8
0
  0
INSERT
  5
3BA9
  8
0
  2
*X59
 10
0.0
 20
0.0
 30
0.0
  0
INSERT
  5
3BAA
  8
0
  2
*X60
 10
0.0
 20
0.0
 30
0.0
  0
DIMENSION
  5
3C84
  8
0
  2
*D51
 10
40851.46129867976
 20
-2194.429839339935
 30
0.0
 11
40851.46129867976
 21
-3346.841193146829
 31
0.0
 70
   160
 13
40646.40368181088
 23
-4429.429839339928
 33
0.0
 14
40646.40368181088
 24
-2194.429839339935
 34
0.0
 50
90.0
  0
INSERT
  5
3D33
  8
0
 66
     1
  2
N-BALOON
 10
40037.49503013393
 20
-3927.365096738108
 30
0.0
  0
ATTRIB
  5
3D34
  8
0
 10
40079.83138114896
 20
-3952.110120736613
 30
0.0
 40
50.0
  1
1
  2
NO.
 70
     0
  0
SEQEND
  5
3D35
  8
0
  0
INSERT
  5
3D36
  8
0
  2
*X61
 10
0.0
 20
0.0
 30
0.0
  0
POLYLINE
  5
3D37
  8
LY_1
  6
CONTINUOUS
 62
     3
 66
     1
 10
0.0
 20
0.0
 30
0.0
  0
VERTEX
  5
4038
  8
LY_1
  6
CONTINUOUS
 62
     3
 10
40371.47657520109
 20
-4346.403995339931
 30
0.0
  0
VERTEX
  5
4039
  8
LY_1
  6
CONTINUOUS
 62
     3
 10
40371.47328220108
 20
-4346.406570339932
 30
0.0
  0
VERTEX
  5
403A
  8
LY_1
  6
CONTINUOUS
 62
     3
 10
40371.47038220108
 20
-4346.409563339932
 30
0.0
  0
VERTEX
  5
403B
  8
LY_1
  6
CONTINUOUS
 62
     3
 10
40371.46792920108
 20
-4346.412917339931
 30
0.0
  0
VERTEX
  5
403C
  8
LY_1
  6
CONTINUOUS
 62
     3
 10
40371.46597020108
 20
-4346.416569339932
 30
0.0
  0
VERTEX
  5
403D
  8
LY_1
  6
CONTINUOUS
 62
     3
 10
40371.46454120109
 20
-4346.420449339932
 30
0.0
  0
VERTEX
  5
403E
  8
LY_1
  6
CONTINUOUS
 62
     3
 10
40371.46367020109
 20
-4346.424484339932
 30
0.0
  0
VERTEX
  5
403F
  8
LY_1
  6
CONTINUOUS
 62
     3
 10
40371.46337320108
 20
-4346.428599339932
 30
0.0
  0
VERTEX
  5
4040
  8
LY_1
  6
CONTINUOUS
 62
     3
 10
40371.46365620109
 20
-4346.432714339931
 30
0.0
  0
VERTEX
  5
4041
  8
LY_1
  6
CONTINUOUS
 62
     3
 10
40371.46451320108
 20
-4346.436752339931
 30
0.0
  0
VERTEX
  5
4042
  8
LY_1
  6
CONTINUOUS
 62
     3
 10
40371.46592920109
 20
-4346.440637339931
 30
0.0
  0
VERTEX
  5
4043
  8
LY_1
  6
CONTINUOUS
 62
     3
 10
40371.46787620109
 20
-4346.444295339932
 30
0.0
  0
VERTEX
  5
4044
  8
LY_1
  6
CONTINUOUS
 62
     3
 10
40371.47031720108
 20
-4346.447657339932
 30
0.0
  0
VERTEX
  5
4045
  8
LY_1
  6
CONTINUOUS
 62
     3
 10
40371.47320720108
 20
-4346.450660339931
 30
0.0
  0
VERTEX
  5
4046
  8
LY_1
  6
CONTINUOUS
 62
     3
 10
40371.47649120109
 20
-4346.453246339932
 30
0.0
  0
SEQEND
  5
407A
  8
LY_1
  6
CONTINUOUS
 62
     3
  0
ARC
  5
3D38
  8
LY_1
  6
CONTINUOUS
 62
     3
 10
40376.15514620108
 20
-4344.427504339932
 30
0.0
 40
1.000141
 50
90.77895100017807
 51
124.2590629999615
  0
ARC
  5
3D39
  8
LY_1
  6
CONTINUOUS
 62
     3
 10
40376.12902320108
 20
-4344.252486339932
 30
0.0
 40
0.825127
 50
213.5745139998458
 51
89.14320300019773
  0
ARC
  5
3D3A
  8
LY_1
  6
CONTINUOUS
 62
     3
 10
40376.11388620108
 20
-4348.606429339932
 30
0.0
 40
0.8309979999999999
 50
235.7409370000385
 51
55.74095499982936
  0
ARC
  5
3D3B
  8
LY_1
  6
CONTINUOUS
 62
     3
 10
40370.59704020109
 20
-4348.586654339932
 30
0.0
 40
0.8431790000000001
 50
179.9999639999755
 51
359.9999829999826
  0
ARC
  5
3D3C
  8
LY_1
  6
CONTINUOUS
 62
     3
 10
40370.59704020109
 20
-4344.270568339931
 30
0.0
 40
0.8431790000000001
 50
0.0
 51
180.0000190000071
  0
ARC
  5
3D3D
  8
LY_1
  6
CONTINUOUS
 62
     3
 10
40350.18346620108
 20
-4322.629836339931
 30
0.0
 40
1.0
 50
129.0680079998717
 51
169.6945200000166
  0
ARC
  5
3D3E
  8
LY_1
  6
CONTINUOUS
 62
     3
 10
40361.06945220109
 20
-4320.629836339931
 30
0.0
 40
1.0
 50
198.4338970000873
 51
269.9967389998837
  0
ARC
  5
3D3F
  8
LY_1
  6
CONTINUOUS
 62
     3
 10
40397.44372020109
 20
-4341.629836339931
 30
0.0
 40
1.0
 50
269.9931880001947
 51
354.2887289999431
  0
ARC
  5
3D40
  8
LY_1
  6
CONTINUOUS
 62
     3
 10
40396.51403220108
 20
-4322.629836339931
 30
0.0
 40
1.0
 50
10.30549900007867
 51
50.93198299987729
  0
ARC
  5
3D41
  8
LY_1
  6
CONTINUOUS
 62
     3
 10
40385.62804620109
 20
-4320.629836339931
 30
0.0
 40
1.0
 50
270.0032419999007
 51
341.5660810000314
  0
ARC
  5
3D42
  8
LY_1
  6
CONTINUOUS
 62
     3
 10
40383.84020420109
 20
-4313.629836339931
 30
0.0
 40
2.0
 50
15.94561299991693
 51
90.00080199986188
  0
ARC
  5
3D43
  8
LY_1
  6
CONTINUOUS
 62
     3
 10
40405.84874920109
 20
-4356.932784339931
 30
0.0
 40
7.0
 50
180.0000359999724
 51
232.5927660000975
  0
ARC
  5
3D44
  8
LY_1
  6
CONTINUOUS
 62
     3
 10
40397.34874920109
 20
-4350.498763339931
 30
0.0
 40
8.0
 50
179.9999639999755
 51
243.8727239999937
  0
ARC
  5
3D45
  8
LY_1
  6
CONTINUOUS
 62
     3
 10
40349.34874920109
 20
-4350.498763339931
 30
0.0
 40
8.0
 50
296.1272949998403
 51
0.0000149999754545
  0
ARC
  5
3D46
  8
LY_1
  6
CONTINUOUS
 62
     3
 10
40373.34874920109
 20
-4399.429839339931
 30
0.0
 40
46.5
 50
116.1273129999569
 51
63.8726880002037
  0
CIRCLE
  5
3D47
  8
LY_1
  6
CONTINUOUS
 62
   110
 10
40373.34874920109
 20
-4399.429839339931
 30
0.0
 40
37.600006
  0
CIRCLE
  5
3D48
  8
LY_1
  6
CONTINUOUS
 62
     3
 10
40373.34874920109
 20
-4399.429839339931
 30
0.0
 40
36.100006
  0
LINE
  5
3D49
  8
LY_1
  6
CONTINUOUS
 62
     3
 10
40373.65483920109
 20
-4345.925841339931
 30
0.0
 11
40375.44182420109
 21
-4344.708713339931
 31
0.0
  0
LINE
  5
3D4A
  8
LY_1
  6
CONTINUOUS
 62
     3
 10
40373.65465620108
 20
-4345.925980339931
 30
0.0
 11
40376.58170020109
 21
-4347.919609339931
 31
0.0
  0
LINE
  5
3D4B
  8
LY_1
  6
CONTINUOUS
 62
     3
 10
40371.47651620109
 20
-4346.404039339932
 30
0.0
 11
40375.59207120108
 21
-4343.600907339931
 31
0.0
  0
LINE
  5
3D4C
  8
LY_1
  6
CONTINUOUS
 62
     3
 10
40371.47645420108
 20
-4346.453282339931
 30
0.0
 11
40375.64609920108
 21
-4349.293256339932
 31
0.0
  0
LINE
  5
3D4D
  8
LY_1
  6
CONTINUOUS
 62
     3
 10
40371.44005820109
 20
-4344.270568339931
 30
0.0
 11
40371.44005820109
 21
-4348.586654339932
 31
0.0
  0
LINE
  5
3D4E
  8
LY_1
  6
CONTINUOUS
 62
     3
 10
40369.75377820109
 20
-4344.270568339931
 30
0.0
 11
40369.75377820109
 21
-4348.586654339932
 31
0.0
  0
LINE
  5
3D4F
  8
LY_1
  6
CONTINUOUS
 62
     3
 10
40365.34874920109
 20
-4308.429839339931
 30
0.0
 11
40381.34874920109
 21
-4308.429839339931
 31
0.0
  0
LINE
  5
3D50
  8
LY_1
  6
CONTINUOUS
 62
     3
 10
40368.34874920109
 20
-4338.429839339931
 30
0.0
 11
40378.34874920109
 21
-4338.429839339931
 31
0.0
  0
LINE
  5
3D51
  8
LY_1
  6
CONTINUOUS
 62
     3
 10
40378.34874920109
 20
-4338.429839339931
 30
0.0
 11
40378.34874920109
 21
-4353.829833339931
 31
0.0
  0
LINE
  5
3D52
  8
LY_1
  6
CONTINUOUS
 62
   110
 10
40366.43126920109
 20
-4308.429839339931
 30
0.0
 11
40366.43126920109
 21
-4309.629836339931
 31
0.0
  0
LINE
  5
3D53
  8
LY_1
  6
CONTINUOUS
 62
   110
 10
40380.26623020109
 20
-4308.429839339931
 30
0.0
 11
40380.26623020109
 21
-4309.629836339931
 31
0.0
  0
LINE
  5
3D54
  8
LY_1
  6
CONTINUOUS
 62
     3
 10
40365.34874920109
 20
-4308.429839339931
 30
0.0
 11
40365.34874920109
 21
-4309.629836339931
 31
0.0
  0
LINE
  5
3D55
  8
LY_1
  6
CONTINUOUS
 62
     3
 10
40381.34874920109
 20
-4308.429839339931
 30
0.0
 11
40381.34874920109
 21
-4309.629836339931
 31
0.0
  0
LINE
  5
3D56
  8
LY_1
  6
CONTINUOUS
 62
     3
 10
40373.34874920109
 20
-4309.629836339931
 30
0.0
 11
40373.34874920109
 21
-4311.629836339931
 31
0.0
  0
LINE
  5
3D57
  8
LY_1
  6
CONTINUOUS
 62
     3
 10
40385.34874920109
 20
-4309.629836339931
 30
0.0
 11
40385.34874920109
 21
-4312.278502339932
 31
0.0
  0
LINE
  5
3D58
  8
LY_1
  6
CONTINUOUS
 62
     3
 10
40361.34874920109
 20
-4309.629836339931
 30
0.0
 11
40361.34874920109
 21
-4312.278365339931
 31
0.0
  0
LINE
  5
3D59
  8
LY_1
  6
CONTINUOUS
 62
     3
 10
40361.34874920109
 20
-4309.629836339931
 30
0.0
 11
40385.34874920109
 21
-4309.629836339931
 31
0.0
  0
LINE
  5
3D5A
  8
LY_1
  6
CONTINUOUS
 62
     3
 10
40391.17917020108
 20
-4335.629837339931
 30
0.0
 11
40391.67917020108
 21
-4342.629840339931
 31
0.0
  0
LINE
  5
3D5B
  8
LY_1
  6
CONTINUOUS
 62
     3
 10
40389.34874920109
 20
-4342.629836339931
 30
0.0
 11
40397.44372020109
 21
-4342.629836339931
 31
0.0
  0
LINE
  5
3D5C
  8
LY_1
  6
CONTINUOUS
 62
     3
 10
40353.59146420109
 20
-4332.629797339931
 30
0.0
 11
40360.34868920108
 21
-4321.629787339931
 31
0.0
  0
LINE
  5
3D5D
  8
LY_1
  6
CONTINUOUS
 62
     3
 10
40349.55313920109
 20
-4321.853462339932
 30
0.0
 11
40361.59685120109
 21
-4312.076962339932
 31
0.0
  0
LINE
  5
3D5E
  8
LY_1
  6
CONTINUOUS
 62
     3
 10
40350.74855320109
 20
-4332.629807339932
 30
0.0
 11
40359.34865120109
 21
-4318.629807339932
 31
0.0
  0
LINE
  5
3D5F
  8
LY_1
  6
CONTINUOUS
 62
     3
 10
40359.34848520109
 20
-4318.629894339931
 30
0.0
 11
40360.12055420109
 21
-4320.946102339931
 31
0.0
  0
LINE
  5
3D60
  8
LY_1
  6
CONTINUOUS
 62
     3
 10
40360.93412420109
 20
-4313.080332339932
 30
0.0
 11
40359.34857520109
 21
-4318.629752339932
 31
0.0
  0
LINE
  5
3D61
  8
LY_1
  6
CONTINUOUS
 62
     3
 10
40349.19963320109
 20
-4322.450927339931
 30
0.0
 11
40347.34892120109
 21
-4332.629843339932
 31
0.0
  0
LINE
  5
3D62
  8
LY_1
  6
CONTINUOUS
 62
     3
 10
40368.34874920109
 20
-4335.629836339931
 30
0.0
 11
40399.04894420109
 21
-4335.629836339931
 31
0.0
  0
LINE
  5
3D63
  8
LY_1
  6
CONTINUOUS
 62
     3
 10
40393.10569020109
 20
-4332.629980339931
 30
0.0
 11
40386.34846520108
 21
-4321.629971339931
 31
0.0
  0
LINE
  5
3D64
  8
LY_1
  6
CONTINUOUS
 62
     3
 10
40397.14415620109
 20
-4321.853750339931
 30
0.0
 11
40385.10051620108
 21
-4312.07730733993
 31
0.0
  0
LINE
  5
3D65
  8
LY_1
  6
CONTINUOUS
 62
     3
 10
40395.94860120109
 20
-4332.629991339931
 30
0.0
 11
40387.34850320108
 21
-4318.629990339932
 31
0.0
  0
LINE
  5
3D66
  8
LY_1
  6
CONTINUOUS
 62
     3
 10
40387.34886620108
 20
-4318.629850339932
 30
0.0
 11
40386.57679720108
 21
-4320.94605833993
 31
0.0
  0
LINE
  5
3D67
  8
LY_1
  6
CONTINUOUS
 62
     3
 10
40385.76300120108
 20
-4313.080453339931
 30
0.0
 11
40387.34855020109
 21
-4318.629874339931
 31
0.0
  0
LINE
  5
3D68
  8
LY_1
  6
CONTINUOUS
 62
     3
 10
40359.34874920109
 20
-4318.629836339931
 30
0.0
 11
40387.34874920109
 21
-4318.629836339931
 31
0.0
  0
LINE
  5
3D69
  8
LY_1
  6
CONTINUOUS
 62
     3
 10
40362.85729420108
 20
-4311.629836339931
 30
0.0
 11
40383.84020420109
 21
-4311.629836339931
 31
0.0
  0
LINE
  5
3D6A
  8
LY_1
  6
CONTINUOUS
 62
     3
 10
40397.49850820108
 20
-4322.450849339932
 30
0.0
 11
40399.34922120109
 21
-4332.62977033993
 31
0.0
  0
LINE
  5
3D6B
  8
LY_1
  6
CONTINUOUS
 62
     3
 10
40398.43842320108
 20
-4341.729342339931
 30
0.0
 11
40399.34837420109
 21
-4332.629828339932
 31
0.0
  0
LINE
  5
3D6C
  8
LY_1
  6
CONTINUOUS
 62
     3
 10
40348.34849220108
 20
-4342.629828339932
 30
0.0
 11
40347.34849320109
 21
-4332.629838339932
 31
0.0
  0
LINE
  5
3D6D
  8
LY_1
  6
CONTINUOUS
 62
     3
 10
40361.06945220109
 20
-4321.629836339931
 30
0.0
 11
40385.62804620109
 21
-4321.629836339931
 31
0.0
  0
LINE
  5
3D6E
  8
LY_1
  6
CONTINUOUS
 62
     3
 10
40347.34874920109
 20
-4332.629836339931
 30
0.0
 11
40399.34874920109
 21
-4332.629836339931
 31
0.0
  0
LINE
  5
3D6F
  8
LY_1
  6
CONTINUOUS
 62
     3
 10
40348.34874920109
 20
-4342.629836339931
 30
0.0
 11
40368.34874920109
 21
-4342.629836339931
 31
0.0
  0
LINE
  5
3D70
  8
LY_1
  6
CONTINUOUS
 62
     3
 10
40368.34874920109
 20
-4335.629836339931
 30
0.0
 11
40368.34874920109
 21
-4353.829833339931
 31
0.0
  0
LINE
  5
3D71
  8
LY_1
  6
CENTER
 62
   110
 10
40373.34874920109
 20
-4303.129836339931
 30
0.0
 11
40373.34874920109
 21
-4451.482467339931
 31
0.0
  0
LINE
  5
3D72
  8
LY_1
  6
CENTER
 62
   110
 10
40322.03866020108
 20
-4399.429839339931
 30
0.0
 11
40424.65856420109
 21
-4399.429839339931
 31
0.0
  0
LINE
  5
3D73
  8
LY_1
  6
CONTINUOUS
 62
     3
 10
40398.84874920109
 20
-4344.929839339931
 30
0.0
 11
40398.84874920109
 21
-4356.932784339931
 31
0.0
  0
LINE
  5
3D74
  8
LY_1
  6
CONTINUOUS
 62
     3
 10
40389.34874920109
 20
-4344.929839339931
 30
0.0
 11
40398.84874920109
 21
-4344.929839339931
 31
0.0
  0
LINE
  5
3D75
  8
LY_1
  6
CONTINUOUS
 62
     3
 10
40357.34874920109
 20
-4342.629836339931
 30
0.0
 11
40357.34874920109
 21
-4350.498763339931
 31
0.0
  0
LINE
  5
3D76
  8
LY_1
  6
CONTINUOUS
 62
     3
 10
40389.34874920109
 20
-4335.629836339931
 30
0.0
 11
40389.34874920109
 21
-4350.498763339931
 31
0.0
  0
LINE
  5
3D77
  8
LY_1
  6
CONTINUOUS
 62
     3
 10
40368.34874920109
 20
-4336.429839339931
 30
0.0
 11
40389.34874920109
 21
-4336.429839339931
 31
0.0
  0
LINE
  5
3D78
  8
LY_1
  6
CONTINUOUS
 62
     3
 10
40406.15577820108
 20
-4366.476068339931
 30
0.0
 11
40373.45253320108
 21
-4352.929943339932
 31
0.0
  0
LINE
  5
3D79
  8
LY_1
  6
CONTINUOUS
 62
     3
 10
40373.24500620109
 20
-4445.929711339932
 30
0.0
 11
40340.54173320108
 21
-4432.383574339932
 31
0.0
  0
LINE
  5
3D7A
  8
LY_1
  6
CONTINUOUS
 62
     3
 10
40419.84857320109
 20
-4399.326093339931
 30
0.0
 11
40406.30245720109
 21
-4366.622879339931
 31
0.0
  0
LINE
  5
3D7B
  8
LY_1
  6
CONTINUOUS
 62
     3
 10
40340.39499020108
 20
-4432.236881339932
 30
0.0
 11
40326.84885120108
 21
-4399.533610339931
 31
0.0
  0
LINE
  5
3D7C
  8
LY_1
  6
CONTINUOUS
 62
     3
 10
40406.30245220108
 20
-4432.236820339931
 30
0.0
 11
40419.84858320108
 21
-4399.533561339931
 31
0.0
  0
LINE
  5
3D7D
  8
LY_1
  6
CONTINUOUS
 62
     3
 10
40326.84887220108
 20
-4399.326057339931
 30
0.0
 11
40340.39499120109
 21
-4366.622827339932
 31
0.0
  0
LINE
  5
3D7E
  8
LY_1
  6
CONTINUOUS
 62
     3
 10
40373.45249220109
 20
-4445.929745339932
 30
0.0
 11
40406.15577720109
 21
-4432.383600339932
 31
0.0
  0
LINE
  5
3D7F
  8
LY_1
  6
CONTINUOUS
 62
     3
 10
40340.54172920108
 20
-4366.476102339931
 30
0.0
 11
40373.24500020109
 21
-4352.929963339931
 31
0.0
  0
LINE
  5
3D80
  8
0
 10
40373.66929971456
 20
-4491.041212114776
 30
0.0
 11
40373.15219517988
 21
-4343.255904339932
 31
0.0
  0
LINE
  5
3D81
  8
0
 10
40373.34874920109
 20
-4399.429839339546
 30
0.0
 11
40428.00088020109
 21
-4399.429839339546
 31
0.0
  0
INSERT
  5
3D9B
  8
0
  2
６５ＡエアーＬ_正面図
 10
41551.40381184631
 20
-1924.429915335828
 30
0.0
  0
INSERT
  5
3D9C
  8
0
  2
*X62
 10
0.0
 20
0.0
 30
0.0
  0
INSERT
  5
3D9D
  8
0
 66
     1
  2
N-BALOON
 10
41890.41146916534
 20
-1013.00841507739
 30
0.0
  0
ATTRIB
  5
3D9E
  8
0
 10
41932.74782018036
 20
-1037.753439075895
 30
0.0
 40
50.0
  1
2
  2
NO.
 70
     0
  0
SEQEND
  5
3D9F
  8
0
  0
DIMENSION
  5
3DA2
  8
0
  2
*D52
 10
45571.36777108353
 20
220.5846332341068
 30
0.0
 11
45421.36801327609
 21
300.5846332341068
 31
0.0
 70
    32
 13
45271.36825546865
 23
42.72954264310169
 33
0.0
 14
45571.36777108353
 24
42.73049912542501
 34
0.0
  0
DIMENSION
  5
3DAF
  8
0
  2
*D53
 10
45581.36828734565
 20
379.8798184618834
 30
0.0
 11
45421.36857715258
 21
459.8798184618834
 31
0.0
 70
    32
 13
45261.3688669595
 23
71.58031540908138
 33
0.0
 14
45581.36828734565
 24
71.58189233793206
 34
0.0
  0
INSERT
  5
3DBD
  8
0
 66
     1
  2
BALOON
 10
41232.75785849346
 20
-1011.265234476202
 30
0.0
  0
ATTRIB
  5
3DBE
  8
0
 10
41215.70361370657
 20
-1036.010258474707
 30
0.0
 40
50.0
  1
1
  2
NO.
 70
     0
  0
SEQEND
  5
3DBF
  8
0
  0
INSERT
  5
3DC0
  8
0
  2
*X63
 10
0.0
 20
0.0
 30
0.0
  0
INSERT
  5
3DC1
  8
0
 66
     1
  2
BALOON
 10
39803.9183357642
 20
-1011.265234476202
 30
0.0
  0
ATTRIB
  5
3DC2
  8
0
 10
39786.86409097731
 20
-1036.010258474706
 30
0.0
 40
50.0
  1
2
  2
NO.
 70
     0
  0
SEQEND
  5
3DC3
  8
0
  0
INSERT
  5
3DC4
  8
0
  2
*X64
 10
0.0
 20
0.0
 30
0.0
  0
DIMENSION
  5
3DC5
  8
0
  2
*D54
 10
40896.40376716459
 20
-1349.32990063398
 30
0.0
 11
40625.8186038952
 21
-1349.32990063398
 31
0.0
 70
   160
  1
I.D%%c<>
 13
40396.40359645717
 23
-1584.429925170605
 33
0.0
 14
40896.40376716459
 24
-1584.429925170605
 34
0.0
  0
DIMENSION
  5
3DF8
  8
0
  2
*D55
 10
40851.46129867976
 20
-4529.429839339931
 30
0.0
 11
40771.46129867976
 21
-4796.929839339925
 31
0.0
 70
    32
 13
40851.46129867976
 23
-4429.429839339929
 33
0.0
 14
40878.25621767976
 24
-4529.429839339931
 34
0.0
 50
90.0
  0
TEXT
  5
3E67
  8
0
 10
45392.54075926263
 20
645.0964115505049
 30
0.0
 40
75.0
  1
０°
  0
TEXT
  5
3E6B
  8
0
 10
43866.64237662204
 20
-1045.904799193722
 30
0.0
 40
75.0
  1
２７０°
  0
DIMENSION
  5
3F23
  8
0
  2
*D56
 10
40206.06009494548
 20
-4529.429839339931
 30
0.0
 11
40126.06009494548
 21
-4803.179839339925
 31
0.0
 70
    32
 13
40322.03866020108
 23
-4399.429839339931
 33
0.0
 14
40646.40368181088
 24
-4529.429839339931
 34
0.0
 50
90.0
  0
TEXT
  5
3F8A
  8
0
 10
45835.5502066249
 20
-5766.086371285299
 30
0.0
 40
150.0
  1
T０００１８２－０８△
 41
0.8
  0
TEXT
  5
3F8B
  8
0
 10
44362.89062961324
 20
-5395.484544448082
 30
0.0
 40
60.0
  1
２０２１．９．３０
 41
0.6
  0
ENDSEC
  0
EOF
