  0
SECTION
  2
HEADER
  9
$ACADVER
  1
AC1006
  9
$DWGCODEPAGE
  3
ansi_932
  9
$INSBASE
 10
0.0
 20
0.0
 30
0.0
  9
$EXTMIN
 10
13049.92693780115
 20
1556.924021928193
  9
$EXTMAX
 10
21509.92693780115
 20
7556.924021928193
  9
$LIMMIN
 10
-144.1413879394531
 20
-67.9833984375
  9
$LIMMAX
 10
277.8586120605469
 20
231.0166015625
  9
$ORTHOMODE
 70
     0
  9
$REGENMODE
 70
     1
  9
$FILLMODE
 70
     1
  9
$QTEXTMODE
 70
     0
  9
$MIRRTEXT
 70
     0
  9
$DRAGMODE
 70
     2
  9
$LTSCALE
 40
20.0
  9
$OSMODE
 70
    37
  9
$ATTMODE
 70
     1
  9
$TEXTSIZE
 40
60.0
  9
$TRACEWID
 40
0.05
  9
$TEXTSTYLE
  7
STANDARD
  9
$CLAYER
  8
0
  9
$CELTYPE
  6
BYLAYER
  9
$CECOLOR
 62
   256
  9
$DIMSCALE
 40
20.0
  9
$DIMASZ
 40
3.0
  9
$DIMEXO
 40
2.0
  9
$DIMDLI
 40
0.38
  9
$DIMRND
 40
0.0
  9
$DIMDLE
 40
0.0
  9
$DIMEXE
 40
3.0
  9
$DIMTP
 40
0.0
  9
$DIMTM
 40
0.0
  9
$DIMTXT
 40
3.0
  9
$DIMCEN
 40
0.09
  9
$DIMTSZ
 40
0.0
  9
$DIMTOL
 70
     0
  9
$DIMLIM
 70
     0
  9
$DIMTIH
 70
     0
  9
$DIMTOH
 70
     0
  9
$DIMSE1
 70
     0
  9
$DIMSE2
 70
     0
  9
$DIMTAD
 70
     1
  9
$DIMZIN
 70
     8
  9
$DIMBLK
  1
OPEN30
  9
$DIMASO
 70
     1
  9
$DIMSHO
 70
     0
  9
$DIMPOST
  1

  9
$DIMAPOST
  1

  9
$DIMALT
 70
     0
  9
$DIMALTD
 70
     3
  9
$DIMALTF
 40
0.03937007874016
  9
$DIMLFAC
 40
1.0
  9
$DIMTOFL
 70
     1
  9
$DIMTVP
 40
0.0
  9
$DIMTIX
 70
     0
  9
$DIMSOXD
 70
     0
  9
$DIMSAH
 70
     0
  9
$DIMBLK1
  1

  9
$DIMBLK2
  1

  9
$LUNITS
 70
     2
  9
$LUPREC
 70
     4
  9
$SKETCHINC
 40
0.1
  9
$FILLETRAD
 40
0.0
  9
$AUNITS
 70
     0
  9
$AUPREC
 70
     0
  9
$MENU
  1
.
  9
$ELEVATION
 40
0.0
  9
$THICKNESS
 40
0.0
  9
$LIMCHECK
 70
     0
  9
$CHAMFERA
 40
0.0
  9
$CHAMFERB
 40
0.0
  9
$SKPOLY
 70
     0
  9
$TDCREATE
 40
2454608.660720394
  9
$TDUPDATE
 40
2459716.33240213
  9
$TDINDWG
 40
0.2019108218
  9
$TDUSRTIMER
 40
0.2019108218
  9
$USRTIMER
 70
     1
  9
$ANGBASE
 50
0.0
  9
$ANGDIR
 70
     0
  9
$PDMODE
 70
     0
  9
$PDSIZE
 40
0.0
  9
$PLINEWID
 40
0.0
  9
$COORDS
 70
     1
  9
$SPLFRAME
 70
     0
  9
$SPLINETYPE
 70
     6
  9
$SPLINESEGS
 70
     8
  9
$ATTDIA
 70
     0
  9
$ATTREQ
 70
     1
  9
$HANDLING
 70
     1
  9
$HANDSEED
  5
1D9B
  9
$SURFTAB1
 70
     6
  9
$SURFTAB2
 70
     6
  9
$SURFTYPE
 70
     6
  9
$SURFU
 70
     6
  9
$SURFV
 70
     6
  9
$UCSNAME
  2

  9
$UCSORG
 10
0.0
 20
0.0
 30
0.0
  9
$UCSXDIR
 10
1.0
 20
0.0
 30
0.0
  9
$UCSYDIR
 10
0.0
 20
1.0
 30
0.0
  9
$USERI1
 70
     0
  9
$USERI2
 70
     0
  9
$USERI3
 70
     0
  9
$USERI4
 70
     0
  9
$USERI5
 70
     0
  9
$USERR1
 40
0.0
  9
$USERR2
 40
0.0
  9
$USERR3
 40
0.0
  9
$USERR4
 40
0.0
  9
$USERR5
 40
0.0
  9
$WORLDVIEW
 70
     1
  0
ENDSEC
  0
SECTION
  2
TABLES
  0
TABLE
  2
VPORT
 70
     1
  0
VPORT
  2
*ACTIVE
 70
     0
 10
0.0
 20
0.0
 11
1.0
 21
1.0
 12
27593.48197410413
 22
3160.137696728113
 13
0.0
 23
0.0
 14
1.0
 24
1.0
 15
0.0
 25
0.0
 16
0.0
 26
0.0
 36
1.0
 17
0.0
 27
0.0
 37
0.0
 40
8674.757145188114
 41
2.831858407079646
 42
50.0
 43
0.0
 44
0.0
 50
0.0
 51
0.0
 71
     0
 72
 10000
 73
     1
 74
     1
 75
     0
 76
     0
 77
     0
 78
     0
  0
ENDTAB
  0
TABLE
  2
LTYPE
 70
     3
  0
LTYPE
  2
CONTINUOUS
 70
     0
  3
Solid line
 72
    65
 73
     0
 40
0.0
  0
LTYPE
  2
CENTER
 70
     0
  3
Center ____ _ ____ _ ____ _ ____ _ ____ _ ____
 72
    65
 73
     4
 40
12.0
 49
7.5
 49
-1.5
 49
1.5
 49
-1.5
  0
LTYPE
  2
PHANTOM
 70
     0
  3
Phantom ______  __  __  ______  __  __  ______
 72
    65
 73
     6
 40
63.5
 49
31.75
 49
-6.35
 49
6.35
 49
-6.35
 49
6.35
 49
-6.35
  0
ENDTAB
  0
TABLE
  2
LAYER
 70
     8
  0
LAYER
  2
0
 70
     0
 62
     7
  6
CONTINUOUS
  0
LAYER
  2
2
 70
     0
 62
     7
  6
CONTINUOUS
  0
LAYER
  2
DEFPOINTS
 70
     0
 62
     7
  6
CONTINUOUS
  0
LAYER
  2
寸法線
 70
     0
 62
     9
  6
CONTINUOUS
  0
LAYER
  2
1
 70
     0
 62
     7
  6
CONTINUOUS
  0
LAYER
  2
細線
 70
     0
 62
     7
  6
CONTINUOUS
  0
LAYER
  2
4
 70
     0
 62
     7
  6
CONTINUOUS
  0
LAYER
  2
LY_1
 70
     0
 62
     7
  6
CONTINUOUS
  0
ENDTAB
  0
TABLE
  2
STYLE
 70
     3
  0
STYLE
  2
STANDARD
 70
     0
 40
0.0
 41
1.0
 50
0.0
 71
     0
 42
60.0
  3
txt.shx
  4
extfont2.shx
  0
STYLE
  2
ＭＳゴシック
 70
     0
 40
0.0
 41
1.0
 50
0.0
 71
     0
 42
75.0
  3
MS Gothic.ttf
  4

  0
STYLE
  2

 70
     1
 40
0.0
 41
1.0
 50
0.0
 71
     0
 42
75.0
  3
ltypeshp.shx
  4

  0
ENDTAB
  0
TABLE
  2
VIEW
 70
     0
  0
ENDTAB
  0
TABLE
  2
UCS
 70
     0
  0
ENDTAB
  0
ENDSEC
  0
SECTION
  2
BLOCKS
  0
BLOCK
  8
0
  2
*D0
 70
     1
 10
0.0
 20
0.0
 30
0.0
  0
LINE
  5
193B
  8
寸法線
 62
     0
 10
14669.78199284122
 20
2594.845207441471
 30
0.0
 11
14385.58701598808
 21
2594.845207441471
 31
0.0
  0
LINE
  5
193C
  8
寸法線
 62
     0
 10
14669.78199284122
 20
4944.845207441471
 30
0.0
 11
14385.58701598809
 21
4944.845207441471
 31
0.0
  0
LINE
  5
193D
  8
寸法線
 62
     0
 10
14445.58701598808
 20
2654.845207441471
 30
0.0
 11
14445.58701598809
 21
4884.845207441471
 31
0.0
  0
INSERT
  5
193E
  8
寸法線
 62
     0
  2
_OPEN30
 10
14445.58701598808
 20
2594.845207441471
 30
0.0
 41
60.0
 42
60.0
 43
60.0
 50
270.0
  0
INSERT
  5
193F
  8
寸法線
 62
     0
  2
_OPEN30
 10
14445.58701598809
 20
4944.845207441471
 30
0.0
 41
60.0
 42
60.0
 43
60.0
 50
90.0
  0
TEXT
  5
1940
  8
寸法線
  6
CONTINUOUS
 62
     0
 10
14411.58701598808
 20
3664.845207441474
 30
0.0
 40
60.0
  1
2350
 50
90.0
  0
POINT
  5
1941
  8
DEFPOINTS
 62
     0
 10
14709.78199284122
 20
2594.845207441471
 30
0.0
  0
POINT
  5
1942
  8
DEFPOINTS
 62
     0
 10
14709.78199284122
 20
4944.845207441471
 30
0.0
  0
POINT
  5
1943
  8
DEFPOINTS
 62
     0
 10
14445.58701598809
 20
4944.845207441471
 30
0.0
  0
ENDBLK
  8
0
  0
BLOCK
  8
0
  2
*D1
 70
     1
 10
0.0
 20
0.0
 30
0.0
  0
LINE
  5
1944
  8
寸法線
 62
     0
 10
14669.78199284122
 20
2594.845207441471
 30
0.0
 11
14090.28474861394
 21
2594.845207441471
 31
0.0
  0
LINE
  5
1945
  8
寸法線
 62
     0
 10
15600.78193943546
 20
5394.84511207404
 30
0.0
 11
14090.28474861394
 21
5394.845112074041
 31
0.0
  0
LINE
  5
1946
  8
寸法線
 62
     0
 10
14150.28474861394
 20
2654.845207441471
 30
0.0
 11
14150.28474861394
 21
5334.845112074041
 31
0.0
  0
INSERT
  5
1947
  8
寸法線
 62
     0
  2
_OPEN30
 10
14150.28474861394
 20
2594.845207441471
 30
0.0
 41
60.0
 42
60.0
 43
60.0
 50
270.0
  0
INSERT
  5
1948
  8
寸法線
 62
     0
  2
_OPEN30
 10
14150.28474861394
 20
5394.845112074041
 30
0.0
 41
60.0
 42
60.0
 43
60.0
 50
90.0
  0
TEXT
  5
1949
  8
寸法線
  6
CONTINUOUS
 62
     0
 10
14116.28474861394
 20
3894.845159757757
 30
0.0
 40
60.0
  1
2800
 50
90.0
  0
POINT
  5
194A
  8
DEFPOINTS
 62
     0
 10
14709.78199284122
 20
2594.845207441471
 30
0.0
  0
POINT
  5
194B
  8
DEFPOINTS
 62
     0
 10
15640.78193943546
 20
5394.84511207404
 30
0.0
  0
POINT
  5
194C
  8
DEFPOINTS
 62
     0
 10
14150.28474861394
 20
5394.845112074041
 30
0.0
  0
ENDBLK
  8
0
  0
BLOCK
  8
0
  2
*D2
 70
     1
 10
0.0
 20
0.0
 30
0.0
  0
LINE
  5
194D
  8
寸法線
 62
     0
 10
14679.78199462936
 20
2584.845215428571
 30
0.0
 11
14679.78199462936
 21
2011.384145915021
 31
0.0
  0
LINE
  5
194E
  8
寸法線
 62
     0
 10
16601.78188424155
 20
2584.845205653332
 30
0.0
 11
16601.78188424155
 21
2011.384145915021
 31
0.0
  0
LINE
  5
194F
  8
寸法線
 62
     0
 10
14739.78199462936
 20
2071.384145915021
 30
0.0
 11
16541.78188424155
 21
2071.384145915021
 31
0.0
  0
INSERT
  5
1950
  8
寸法線
 62
     0
  2
_OPEN30
 10
14679.78199462936
 20
2071.384145915021
 30
0.0
 41
60.0
 42
60.0
 43
60.0
 50
180.0
  0
INSERT
  5
1951
  8
寸法線
 62
     0
  2
_OPEN30
 10
16601.78188424155
 20
2071.384145915021
 30
0.0
 41
60.0
 42
60.0
 43
60.0
  0
TEXT
  5
1952
  8
寸法線
  6
CONTINUOUS
 62
     0
 10
15440.78193943546
 20
2105.384145915021
 30
0.0
 40
60.0
  1
O.D\U+22051922
  0
POINT
  5
1953
  8
DEFPOINTS
 62
     0
 10
14679.78199462936
 20
2624.845215428571
 30
0.0
  0
POINT
  5
1954
  8
DEFPOINTS
 62
     0
 10
16601.78188424155
 20
2624.845205653332
 30
0.0
  0
POINT
  5
1955
  8
DEFPOINTS
 62
     0
 10
16601.78188424155
 20
2071.384145915021
 30
0.0
  0
ENDBLK
  8
0
  0
BLOCK
  8
0
  2
*D3
 70
     1
 10
0.0
 20
0.0
 30
0.0
  0
LINE
  5
1482
  8
寸法線
 62
     0
 10
19109.31526447633
 20
5567.772528865512
 30
0.0
 11
19485.83691656927
 21
5828.531892082255
 31
0.0
  0
TEXT
  5
1483
  8
寸法線
  6
CONTINUOUS
 62
     0
 10
19117.90897151081
 20
5615.081599871035
 30
0.0
 40
60.0
  1
I.D\U+2205470
 50
34.70446481074652
  0
INSERT
  5
1484
  8
寸法線
 62
     0
  2
_OPEN30
 10
19535.1628971928
 20
5862.692507350824
 30
0.0
 41
60.0
 42
60.0
 43
60.0
 50
34.70446481074652
  0
POINT
  5
1485
  8
DEFPOINTS
 62
     0
 10
19535.1628971928
 20
5862.692507350824
 30
0.0
  0
POINT
  5
1486
  8
DEFPOINTS
 62
     0
 10
19148.77605761158
 20
5595.101027061508
 30
0.0
  0
ENDBLK
  8
0
  0
BLOCK
  8
0
  2
_OPEN30
 70
     0
 10
0.0
 20
0.0
 30
0.0
  0
LINE
  5
7FA
  8
0
  6
BYBLOCK
 62
     0
 10
-1.0
 20
0.26794919
 30
0.0
 11
0.0
 21
0.0
 31
0.0
  0
LINE
  5
7FB
  8
0
  6
BYBLOCK
 62
     0
 10
0.0
 20
0.0
 30
0.0
 11
-1.0
 21
-0.26794919
 31
0.0
  0
LINE
  5
7FC
  8
0
  6
BYBLOCK
 62
     0
 10
0.0
 20
0.0
 30
0.0
 11
-1.0
 21
0.0
 31
0.0
  0
ENDBLK
  8
0
  0
BLOCK
  8
0
  2
*D5
 70
     1
 10
0.0
 20
0.0
 30
0.0
  0
LINE
  5
1956
  8
寸法線
 62
     0
 10
15405.78194468811
 20
5374.845169294499
 30
0.0
 11
15405.78194468811
 21
5662.506359304465
 31
0.0
  0
LINE
  5
1957
  8
寸法線
 62
     0
 10
15875.7819341828
 20
5374.845169294499
 30
0.0
 11
15875.7819341828
 21
5662.506359304465
 31
0.0
  0
LINE
  5
1958
  8
寸法線
 62
     0
 10
15465.78194468811
 20
5602.506359304465
 30
0.0
 11
15815.7819341828
 21
5602.506359304465
 31
0.0
  0
INSERT
  5
1959
  8
寸法線
 62
     0
  2
_OPEN30
 10
15405.78194468811
 20
5602.506359304465
 30
0.0
 41
60.0
 42
60.0
 43
60.0
 50
180.0
  0
INSERT
  5
195A
  8
寸法線
 62
     0
  2
_OPEN30
 10
15875.7819341828
 20
5602.506359304465
 30
0.0
 41
60.0
 42
60.0
 43
60.0
  0
TEXT
  5
195B
  8
寸法線
  6
CONTINUOUS
 62
     0
 10
15475.78193943546
 20
5636.506359304465
 30
0.0
 40
60.0
  1
I.D\U+2205470
  0
POINT
  5
195C
  8
DEFPOINTS
 62
     0
 10
15405.78194468811
 20
5334.845169294499
 30
0.0
  0
POINT
  5
195D
  8
DEFPOINTS
 62
     0
 10
15875.7819341828
 20
5334.845169294499
 30
0.0
  0
POINT
  5
195E
  8
DEFPOINTS
 62
     0
 10
15875.7819341828
 20
5602.506359304465
 30
0.0
  0
ENDBLK
  8
0
  0
BLOCK
  8
0
  2
*D6
 70
     1
 10
0.0
 20
0.0
 30
0.0
  0
LINE
  5
195F
  8
寸法線
 62
     0
 10
14639.7819159319
 20
4944.845207441471
 30
0.0
 11
14385.58701598809
 21
4944.845207441471
 31
0.0
  0
LINE
  5
1960
  8
寸法線
 62
     0
 10
15600.78193943546
 20
5394.84511207404
 30
0.0
 11
14385.58701598809
 21
5394.84511207404
 31
0.0
  0
LINE
  5
1961
  8
寸法線
 62
     0
 10
14445.58701598809
 20
5004.845207441471
 30
0.0
 11
14445.58701598809
 21
5334.84511207404
 31
0.0
  0
INSERT
  5
1962
  8
寸法線
 62
     0
  2
_OPEN30
 10
14445.58701598809
 20
4944.845207441471
 30
0.0
 41
60.0
 42
60.0
 43
60.0
 50
270.0
  0
INSERT
  5
1963
  8
寸法線
 62
     0
  2
_OPEN30
 10
14445.58701598809
 20
5394.84511207404
 30
0.0
 41
60.0
 42
60.0
 43
60.0
 50
90.0
  0
TEXT
  5
1964
  8
寸法線
  6
CONTINUOUS
 62
     0
 10
14411.58701598808
 20
5094.845159757759
 30
0.0
 40
60.0
  1
450
 50
90.0
  0
POINT
  5
1965
  8
DEFPOINTS
 62
     0
 10
14679.7819159319
 20
4944.845207441471
 30
0.0
  0
POINT
  5
1966
  8
DEFPOINTS
 62
     0
 10
15640.78193943546
 20
5394.84511207404
 30
0.0
  0
POINT
  5
1967
  8
DEFPOINTS
 62
     0
 10
14445.58701598809
 20
5394.84511207404
 30
0.0
  0
ENDBLK
  8
0
  0
BLOCK
  8
0
  2
_DOTSMALL
 70
     0
 10
0.0
 20
0.0
 30
0.0
  0
POLYLINE
  5
F3E
  8
0
  6
BYBLOCK
 62
     0
 66
     1
 10
0.0
 20
0.0
 30
0.0
 70
     1
 40
0.5
 41
0.5
  0
VERTEX
  5
1D6D
  8
0
  6
BYBLOCK
 62
     0
 10
-0.0625
 20
0.0
 30
0.0
 42
1.0
  0
VERTEX
  5
1D6E
  8
0
  6
BYBLOCK
 62
     0
 10
0.0625
 20
0.0
 30
0.0
 42
1.0
  0
SEQEND
  5
1D94
  8
0
  6
BYBLOCK
 62
     0
  0
ENDBLK
  8
0
  0
BLOCK
  8
0
  2
*D8
 70
     1
 10
0.0
 20
0.0
 30
0.0
  0
LINE
  5
1968
  8
寸法線
 62
     0
 10
14709.78183456277
 20
5133.711912155805
 30
0.0
 11
14709.78183456277
 21
5305.795947687515
 31
0.0
  0
LINE
  5
1969
  8
寸法線
 62
     0
 10
15009.78183456277
 20
5134.845207441471
 30
0.0
 11
15009.78183456277
 21
5305.795947687515
 31
0.0
  0
LINE
  5
196A
  8
寸法線
 62
     0
 10
14769.78183456277
 20
5245.795947687515
 30
0.0
 11
14949.78183456277
 21
5245.795947687515
 31
0.0
  0
INSERT
  5
196B
  8
寸法線
 62
     0
  2
_OPEN30
 10
14709.78183456277
 20
5245.795947687515
 30
0.0
 41
60.0
 42
60.0
 43
60.0
 50
180.0
  0
INSERT
  5
196C
  8
寸法線
 62
     0
  2
_OPEN30
 10
15009.78183456277
 20
5245.795947687515
 30
0.0
 41
60.0
 42
60.0
 43
60.0
  0
TEXT
  5
196D
  8
寸法線
  6
CONTINUOUS
 62
     0
 10
14789.78183456277
 20
5279.795947687515
 30
0.0
 40
60.0
  1
300
  0
POINT
  5
196E
  8
DEFPOINTS
 62
     0
 10
14709.78183456277
 20
5093.711912155805
 30
0.0
  0
POINT
  5
196F
  8
DEFPOINTS
 62
     0
 10
15009.78183456277
 20
5094.845207441471
 30
0.0
  0
POINT
  5
1970
  8
DEFPOINTS
 62
     0
 10
15009.78183456277
 20
5245.795947687515
 30
0.0
  0
ENDBLK
  8
0
  0
BLOCK
  8
0
  2
65Aバルブ平面図
 70
     0
 10
0.0
 20
0.0
 30
0.0
  0
LINE
  5
166E
  8
0
  6
CONTINUOUS
 10
-43.0
 20
41.0
 30
0.0
 11
-28.52123899999788
 21
41.0
 31
0.0
  0
LINE
  5
166F
  8
0
  6
CONTINUOUS
 10
-43.0
 20
29.0
 30
0.0
 11
-43.0
 21
41.0
 31
0.0
  0
LINE
  5
1670
  8
0
  6
CONTINUOUS
 10
-41.5
 20
22.5
 30
0.0
 11
-41.5
 21
26.40191699999923
 31
0.0
  0
LINE
  5
1671
  8
0
  6
CONTINUOUS
 10
-43.0
 20
29.0
 30
0.0
 11
-34.90667799999937
 21
29.0
 31
0.0
  0
LINE
  5
1672
  8
0
  6
CONTINUOUS
 10
-17.0
 20
6.363704999999754
 30
0.0
 11
-17.0
 21
9.814955000001646
 31
0.0
  0
LINE
  5
1673
  8
0
  6
CONTINUOUS
 10
-26.5
 20
6.133358999999473
 30
0.0
 11
-26.5
 21
15.29978299999857
 31
0.0
  0
LINE
  5
1674
  8
0
  6
CONTINUOUS
 10
-17.0
 20
9.814954000001308
 30
0.0
 11
-6.389382999997906
 21
15.94098999999915
 31
0.0
  0
LINE
  5
1675
  8
0
  6
CONTINUOUS
 10
-26.5
 20
15.29978599999959
 30
0.0
 11
-6.11962499999936
 21
27.06639200000063
 31
0.0
  0
ARC
  5
1676
  8
0
  6
CONTINUOUS
 10
-33.5
 20
22.5
 30
0.0
 40
8.0
 50
179.999982000092
 51
187.0636249999592
  0
ARC
  5
1677
  8
0
  6
CONTINUOUS
 10
-44.5
 20
26.40191699999923
 30
0.0
 40
3.0
 50
0.0000199998977924
 51
60.00027999987502
  0
LINE
  5
1678
  8
0
  6
CONTINUOUS
 10
43.0
 20
41.0
 30
0.0
 11
28.52123900000151
 21
41.0
 31
0.0
  0
LINE
  5
1679
  8
0
  6
CONTINUOUS
 10
43.0
 20
29.0
 30
0.0
 11
43.0
 21
41.0
 31
0.0
  0
LINE
  5
167A
  8
0
  6
CONTINUOUS
 10
41.5
 20
22.5
 30
0.0
 11
41.5
 21
26.40191699999923
 31
0.0
  0
LINE
  5
167B
  8
0
  6
CONTINUOUS
 10
43.0
 20
29.0
 30
0.0
 11
34.90667799999937
 21
29.0
 31
0.0
  0
LINE
  5
167C
  8
0
  6
CONTINUOUS
 10
17.0
 20
6.363704999999754
 30
0.0
 11
17.0
 21
9.814955000001646
 31
0.0
  0
LINE
  5
167D
  8
0
  6
CONTINUOUS
 10
26.5
 20
6.133358999999473
 30
0.0
 11
26.5
 21
15.29978299999857
 31
0.0
  0
LINE
  5
167E
  8
0
  6
CONTINUOUS
 10
17.0
 20
9.814954000001308
 30
0.0
 11
6.389383000001544
 21
15.94098999999915
 31
0.0
  0
LINE
  5
167F
  8
0
  6
CONTINUOUS
 10
26.5
 20
15.29978599999959
 30
0.0
 11
6.11962499999936
 21
27.06639200000063
 31
0.0
  0
ARC
  5
1680
  8
0
  6
CONTINUOUS
 10
33.5
 20
22.5
 30
0.0
 40
8.0
 50
352.9363750000408
 51
0.0000179999080132
  0
ARC
  5
1681
  8
0
  6
CONTINUOUS
 10
44.5
 20
26.40191699999923
 30
0.0
 40
3.0
 50
119.999720000125
 51
179.9999800001022
  0
LINE
  5
1682
  8
0
  6
CONTINUOUS
 10
-43.0
 20
-41.0
 30
0.0
 11
-28.52123900000151
 21
-41.0
 31
0.0
  0
LINE
  5
1683
  8
0
  6
CONTINUOUS
 10
-43.0
 20
-29.0
 30
0.0
 11
-43.0
 21
-41.0
 31
0.0
  0
LINE
  5
1684
  8
0
  6
CONTINUOUS
 10
-41.5
 20
-22.5
 30
0.0
 11
-41.5
 21
-26.40191699999923
 31
0.0
  0
LINE
  5
1685
  8
0
  6
CONTINUOUS
 10
-43.0
 20
-29.0
 30
0.0
 11
-34.90667799999937
 21
-29.0
 31
0.0
  0
LINE
  5
1686
  8
0
  6
CONTINUOUS
 10
-17.0
 20
-6.363704999999754
 30
0.0
 11
-17.0
 21
-9.814954999998008
 31
0.0
  0
LINE
  5
1687
  8
0
  6
CONTINUOUS
 10
-26.5
 20
-6.133358999999473
 30
0.0
 11
-26.5
 21
-15.29978299999857
 31
0.0
  0
LINE
  5
1688
  8
0
  6
CONTINUOUS
 10
-17.0
 20
-9.814954000001308
 30
0.0
 11
-6.389383000001544
 21
-15.94098999999915
 31
0.0
  0
LINE
  5
1689
  8
0
  6
CONTINUOUS
 10
-26.5
 20
-15.29978599999959
 30
0.0
 11
-6.11962499999936
 21
-27.06639200000063
 31
0.0
  0
ARC
  5
168A
  8
0
  6
CONTINUOUS
 10
-33.5
 20
-22.5
 30
0.0
 40
8.0
 50
172.9363750000408
 51
180.000017999908
  0
ARC
  5
168B
  8
0
  6
CONTINUOUS
 10
-44.5
 20
-26.40191699999923
 30
0.0
 40
3.0
 50
299.999720000125
 51
359.9999800001022
  0
LINE
  5
168C
  8
0
  6
CONTINUOUS
 10
43.0
 20
-41.0
 30
0.0
 11
28.52123900000151
 21
-41.0
 31
0.0
  0
LINE
  5
168D
  8
0
  6
CONTINUOUS
 10
43.0
 20
-29.0
 30
0.0
 11
43.0
 21
-41.0
 31
0.0
  0
LINE
  5
168E
  8
0
  6
CONTINUOUS
 10
41.5
 20
-22.5
 30
0.0
 11
41.5
 21
-26.40191699999923
 31
0.0
  0
LINE
  5
168F
  8
0
  6
CONTINUOUS
 10
43.0
 20
-29.0
 30
0.0
 11
34.90667799999937
 21
-29.0
 31
0.0
  0
LINE
  5
1690
  8
0
  6
CONTINUOUS
 10
17.0
 20
-6.363704999999754
 30
0.0
 11
17.0
 21
-9.814954999998008
 31
0.0
  0
LINE
  5
1691
  8
0
  6
CONTINUOUS
 10
26.5
 20
-6.133358999999473
 30
0.0
 11
26.5
 21
-15.29978299999857
 31
0.0
  0
LINE
  5
1692
  8
0
  6
CONTINUOUS
 10
17.0
 20
-9.814954000001308
 30
0.0
 11
6.389383000001544
 21
-15.94098999999915
 31
0.0
  0
LINE
  5
1693
  8
0
  6
CONTINUOUS
 10
26.5
 20
-15.29978599999959
 30
0.0
 11
6.11962499999936
 21
-27.06639200000063
 31
0.0
  0
ARC
  5
1694
  8
0
  6
CONTINUOUS
 10
33.5
 20
-22.5
 30
0.0
 40
8.0
 50
359.999982000092
 51
7.063624999959234
  0
ARC
  5
1695
  8
0
  6
CONTINUOUS
 10
44.5
 20
-26.40191699999923
 30
0.0
 40
3.0
 50
180.0000199998978
 51
240.000279999875
  0
CIRCLE
  5
1696
  8
0
  6
CONTINUOUS
 10
0.0
 20
0.0
 30
0.0
 40
32.0
  0
ARC
  5
1697
  8
0
  6
CONTINUOUS
 10
-39.94437399999879
 20
-12.97871400000076
 30
0.0
 40
8.0
 50
155.2494670000171
 51
240.7505330001607
  0
ARC
  5
1698
  8
0
  6
CONTINUOUS
 10
-24.68698099999892
 20
-33.97871400000076
 30
0.0
 40
8.0
 50
191.2494670000484
 51
276.7505330001021
  0
ARC
  5
1699
  8
0
  6
CONTINUOUS
 10
0.0
 20
-42.0
 30
0.0
 40
8.0
 50
227.2494669999631
 51
312.7505330000369
  0
ARC
  5
169A
  8
0
  6
CONTINUOUS
 10
-68.09669099999883
 20
0.0
 30
0.0
 40
23.0
 50
335.249467000017
 51
24.75053299998294
  0
ARC
  5
169B
  8
0
  6
CONTINUOUS
 10
-55.09138099999836
 20
-40.02623099999983
 30
0.0
 40
23.0
 50
11.24946700004833
 51
60.75053300016073
  0
ARC
  5
169C
  8
0
  6
CONTINUOUS
 10
-21.04303499999878
 20
-64.7638020000013
 30
0.0
 40
23.0
 50
47.2494669999631
 51
96.75053300010205
  0
LINE
  5
169D
  8
0
  6
CONTINUOUS
 10
-13.5436179999997
 20
-6.447511999998824
 30
0.0
 11
-30.18905000000086
 21
-6.043910000000324
 31
0.0
  0
ARC
  5
169E
  8
0
  6
CONTINUOUS
 10
-30.18905699999959
 20
-7.04420399999799
 30
0.0
 40
1.0
 50
88.61102100007285
 51
193.1341849999397
  0
LINE
  5
169F
  8
0
  6
CONTINUOUS
 10
-6.447511999998824
 20
-13.5436179999997
 30
0.0
 11
-6.043910000000324
 21
-30.18905000000086
 31
0.0
  0
ARC
  5
16A0
  8
0
  6
CONTINUOUS
 10
-7.044204000001628
 20
-30.18905699999959
 30
0.0
 40
1.0
 50
256.8658150000543
 51
1.388978999929044
  0
ARC
  5
16A1
  8
0
  6
CONTINUOUS
 10
-39.94437399999879
 20
12.97871400000076
 30
0.0
 40
8.0
 50
119.2494669998393
 51
204.7505329999829
  0
ARC
  5
16A2
  8
0
  6
CONTINUOUS
 10
-24.68698099999892
 20
33.97871400000076
 30
0.0
 40
8.0
 50
83.24946699989796
 51
168.7505329999516
  0
ARC
  5
16A3
  8
0
  6
CONTINUOUS
 10
0.0
 20
42.0
 30
0.0
 40
8.0
 50
47.2494669999631
 51
132.7505330000369
  0
ARC
  5
16A4
  8
0
  6
CONTINUOUS
 10
-55.09138099999836
 20
40.02623099999983
 30
0.0
 40
23.0
 50
299.2494669998392
 51
348.7505329999517
  0
ARC
  5
16A5
  8
0
  6
CONTINUOUS
 10
-21.04303499999878
 20
64.7638020000013
 30
0.0
 40
23.0
 50
263.2494669998979
 51
312.7505330000369
  0
LINE
  5
16A6
  8
0
  6
CONTINUOUS
 10
-13.5436179999997
 20
6.447511999998824
 30
0.0
 11
-30.18905000000086
 21
6.043910000000324
 31
0.0
  0
ARC
  5
16A7
  8
0
  6
CONTINUOUS
 10
-30.18905699999959
 20
7.044204000001628
 30
0.0
 40
1.0
 50
166.8658150000602
 51
271.3889789999271
  0
LINE
  5
16A8
  8
0
  6
CONTINUOUS
 10
-6.447511999998824
 20
13.5436179999997
 30
0.0
 11
-6.043910000000324
 21
30.18905000000086
 31
0.0
  0
ARC
  5
16A9
  8
0
  6
CONTINUOUS
 10
-7.04420399999799
 20
30.18905699999959
 30
0.0
 40
1.0
 50
358.611021000071
 51
103.1341849999457
  0
ARC
  5
16AA
  8
0
  6
CONTINUOUS
 10
39.94437399999879
 20
-12.97871400000076
 30
0.0
 40
8.0
 50
299.2494669998392
 51
24.75053299998294
  0
ARC
  5
16AB
  8
0
  6
CONTINUOUS
 10
24.68698099999892
 20
-33.97871400000076
 30
0.0
 40
8.0
 50
263.2494669998979
 51
348.7505329999517
  0
ARC
  5
16AC
  8
0
  6
CONTINUOUS
 10
68.09669099999883
 20
0.0
 30
0.0
 40
23.0
 50
155.2494670000171
 51
204.7505329999829
  0
ARC
  5
16AD
  8
0
  6
CONTINUOUS
 10
55.09138099999836
 20
-40.02623099999983
 30
0.0
 40
23.0
 50
119.2494669998393
 51
168.7505329999516
  0
ARC
  5
16AE
  8
0
  6
CONTINUOUS
 10
21.04303499999878
 20
-64.7638020000013
 30
0.0
 40
23.0
 50
83.24946699989796
 51
132.7505330000369
  0
LINE
  5
16AF
  8
0
  6
CONTINUOUS
 10
13.5436179999997
 20
-6.447511999998824
 30
0.0
 11
30.18905000000086
 21
-6.043910000000324
 31
0.0
  0
ARC
  5
16B0
  8
0
  6
CONTINUOUS
 10
30.18905699999959
 20
-7.04420399999799
 30
0.0
 40
1.0
 50
346.8658150000603
 51
91.38897899992715
  0
LINE
  5
16B1
  8
0
  6
CONTINUOUS
 10
6.447511999998824
 20
-13.5436179999997
 30
0.0
 11
6.043910000000324
 21
-30.18905000000086
 31
0.0
  0
ARC
  5
16B2
  8
0
  6
CONTINUOUS
 10
7.044204000001628
 20
-30.18905699999959
 30
0.0
 40
1.0
 50
178.611021000071
 51
283.1341849999457
  0
ARC
  5
16B3
  8
0
  6
CONTINUOUS
 10
39.94437399999879
 20
12.97871400000076
 30
0.0
 40
8.0
 50
335.249467000017
 51
60.75053300016073
  0
ARC
  5
16B4
  8
0
  6
CONTINUOUS
 10
24.68698099999892
 20
33.97871400000076
 30
0.0
 40
8.0
 50
11.24946700004833
 51
96.75053300010205
  0
ARC
  5
16B5
  8
0
  6
CONTINUOUS
 10
55.09138099999836
 20
40.02623099999983
 30
0.0
 40
23.0
 50
191.2494670000484
 51
240.7505330001607
  0
ARC
  5
16B6
  8
0
  6
CONTINUOUS
 10
21.04303499999878
 20
64.7638020000013
 30
0.0
 40
23.0
 50
227.2494669999631
 51
276.7505330001021
  0
LINE
  5
16B7
  8
0
  6
CONTINUOUS
 10
13.5436179999997
 20
6.447511999998824
 30
0.0
 11
30.18905000000086
 21
6.043910000000324
 31
0.0
  0
ARC
  5
16B8
  8
0
  6
CONTINUOUS
 10
30.18905699999959
 20
7.044204000001628
 30
0.0
 40
1.0
 50
268.6110210000729
 51
13.13418499993977
  0
LINE
  5
16B9
  8
0
  6
CONTINUOUS
 10
6.447511999998824
 20
13.5436179999997
 30
0.0
 11
6.043910000000324
 21
30.18905000000086
 31
0.0
  0
ARC
  5
16BA
  8
0
  6
CONTINUOUS
 10
7.044204000001628
 20
30.18905699999959
 30
0.0
 40
1.0
 50
76.86581500005431
 51
181.388978999929
  0
LINE
  5
16BB
  8
0
  6
CENTER
 62
     4
 10
-53.0
 20
0.0
 30
0.0
 11
53.0
 21
0.0
 31
0.0
  0
CIRCLE
  5
16BC
  8
0
  6
CONTINUOUS
 10
0.0
 20
0.0
 30
0.0
 40
15.0
  0
LINE
  5
16BD
  8
0
  6
CONTINUOUS
 10
0.0
 20
7.505552999999054
 30
0.0
 11
-6.5
 21
3.752777000001515
 31
0.0
  0
LINE
  5
16BE
  8
0
  6
CONTINUOUS
 10
-6.5
 20
3.752777000001515
 30
0.0
 11
-6.5
 21
-3.752777000001515
 31
0.0
  0
LINE
  5
16BF
  8
0
  6
CONTINUOUS
 10
-6.5
 20
-3.752777000001515
 30
0.0
 11
0.0
 21
-7.505552999999054
 31
0.0
  0
LINE
  5
16C0
  8
0
  6
CONTINUOUS
 10
0.0
 20
-7.505552999999054
 30
0.0
 11
6.5
 21
-3.752777000001515
 31
0.0
  0
LINE
  5
16C1
  8
0
  6
CONTINUOUS
 10
6.5
 20
-3.752777000001515
 30
0.0
 11
6.5
 21
3.752777000001515
 31
0.0
  0
LINE
  5
16C2
  8
0
  6
CONTINUOUS
 10
6.5
 20
3.752777000001515
 30
0.0
 11
0.0
 21
7.505552999999054
 31
0.0
  0
CIRCLE
  5
16C3
  8
0
  6
CONTINUOUS
 10
0.0
 20
0.0
 30
0.0
 40
6.25
  0
CIRCLE
  5
16C4
  8
0
  6
CONTINUOUS
 10
0.0
 20
0.0
 30
0.0
 40
3.2
  0
CIRCLE
  5
16C5
  8
0
  6
CONTINUOUS
 10
0.0
 20
0.0
 30
0.0
 40
4.0
  0
ENDBLK
  8
0
  0
BLOCK
  8
0
  2
65Aバルブ側面図
 70
     0
 10
0.0
 20
0.0
 30
0.0
  0
LINE
  5
16C9
  8
0
  6
CONTINUOUS
 10
-17.0
 20
151.2999999999997
 30
0.0
 11
17.0
 21
151.2999999999997
 31
0.0
  0
LINE
  5
16CA
  8
0
  6
CONTINUOUS
 10
-17.0
 20
131.2999999999997
 30
0.0
 11
17.0
 21
131.2999999999997
 31
0.0
  0
LINE
  5
16CB
  8
0
  6
CONTINUOUS
 10
6.75
 20
160.0
 30
0.0
 11
6.75
 21
151.2999999999997
 31
0.0
  0
LINE
  5
16CC
  8
0
  6
CONTINUOUS
 10
-6.75
 20
160.0
 30
0.0
 11
-6.75
 21
151.2999999999997
 31
0.0
  0
LINE
  5
16CD
  8
0
  6
CONTINUOUS
 10
-17.0
 20
151.2999999999997
 30
0.0
 11
-17.0
 21
131.2999999999997
 31
0.0
  0
LINE
  5
16CE
  8
0
  6
CONTINUOUS
 10
17.0
 20
151.2999999999997
 30
0.0
 11
17.0
 21
131.2999999999997
 31
0.0
  0
LINE
  5
16CF
  8
0
  6
CENTER
 62
     4
 10
0.0
 20
187.0
 30
0.0
 11
0.0
 21
-54.65212999999994
 31
0.0
  0
LINE
  5
16D0
  8
0
  6
CENTER
 62
     4
 10
-54.65213199999926
 20
0.0
 30
0.0
 11
54.65212999999858
 21
0.0
 31
0.0
  0
LINE
  5
16D1
  8
0
  6
CONTINUOUS
 10
-43.00000200000068
 20
24.82606499999974
 30
0.0
 11
-43.00000200000068
 21
-24.8260650000002
 31
0.0
  0
LINE
  5
16D2
  8
0
  6
CONTINUOUS
 10
43.0
 20
24.82606499999974
 30
0.0
 11
43.0
 21
-24.8260650000002
 31
0.0
  0
LINE
  5
16D3
  8
0
  6
CONTINUOUS
 10
-42.99998699999924
 20
-24.82607300000018
 30
0.0
 11
0.0000099999997474
 21
-49.65212999999994
 31
0.0
  0
LINE
  5
16D4
  8
0
  6
CONTINUOUS
 10
4.500009999999747
 20
47.05403500000011
 30
0.0
 11
43.00000999999975
 21
24.82605400000011
 31
0.0
  0
LINE
  5
16D5
  8
0
  6
CONTINUOUS
 10
0.0000099999997474
 20
-49.65211100000033
 30
0.0
 11
43.00000999999975
 21
-24.82605400000011
 31
0.0
  0
LINE
  5
16D6
  8
0
  6
CONTINUOUS
 10
-42.99998699999924
 20
24.82607299999972
 30
0.0
 11
-4.247199999997974
 21
47.20000499999969
 31
0.0
  0
LINE
  5
16D7
  8
0
  6
CONTINUOUS
 10
37.06440999999904
 20
62.51973700000008
 30
0.0
 11
36.76685999999972
 21
28.42470599999979
 31
0.0
  0
LINE
  5
16D8
  8
0
  6
CONTINUOUS
 10
-39.00000200000068
 20
81.5
 30
0.0
 11
39.0
 21
81.5
 31
0.0
  0
LINE
  5
16D9
  8
0
  6
CONTINUOUS
 10
-39.00000200000068
 20
77.0
 30
0.0
 11
39.0
 21
77.0
 31
0.0
  0
LINE
  5
16DA
  8
0
  6
CONTINUOUS
 10
39.0
 20
84.84307899999976
 30
0.0
 11
39.0
 21
77.0
 31
0.0
  0
LINE
  5
16DB
  8
0
  6
CONTINUOUS
 10
38.5
 20
77.0
 30
0.0
 11
38.5
 21
66.73205599999983
 31
0.0
  0
LINE
  5
16DC
  8
0
  6
CONTINUOUS
 10
-37.30276700000104
 20
65.0
 30
0.0
 11
37.30275999999867
 21
65.0
 31
0.0
  0
LINE
  5
16DD
  8
0
  6
CONTINUOUS
 10
-26.50000200000068
 20
87.5
 30
0.0
 11
26.5
 21
87.5
 31
0.0
  0
LINE
  5
16DE
  8
0
  6
CONTINUOUS
 10
-26.50000200000068
 20
98.5
 30
0.0
 11
26.5
 21
98.5
 31
0.0
  0
LINE
  5
16DF
  8
0
  6
CONTINUOUS
 10
-14.5
 20
119.0
 30
0.0
 11
14.5
 21
119.0
 31
0.0
  0
LINE
  5
16E0
  8
0
  6
CONTINUOUS
 10
14.5
 20
131.2999999999997
 30
0.0
 11
14.5
 21
116.8303099999998
 31
0.0
  0
LINE
  5
16E1
  8
0
  6
CONTINUOUS
 10
13.64999000000171
 20
131.2999999999997
 30
0.0
 11
13.64999000000171
 21
119.0
 31
0.0
  0
LINE
  5
16E2
  8
0
  6
CONTINUOUS
 10
-13.65000000000146
 20
131.2999999999997
 30
0.0
 11
-13.65000000000146
 21
119.0
 31
0.0
  0
LINE
  5
16E3
  8
0
  6
CONTINUOUS
 10
26.5
 20
98.5
 30
0.0
 11
26.5
 21
87.5
 31
0.0
  0
LINE
  5
16E4
  8
0
  6
CONTINUOUS
 10
26.50003999999899
 20
87.50003100000004
 30
0.0
 11
39.0
 21
84.84307899999976
 31
0.0
  0
LINE
  5
16E5
  8
0
  6
CONTINUOUS
 10
-39.00000200000068
 20
84.84300200000007
 30
0.0
 11
-39.00000200000068
 21
77.0
 31
0.0
  0
LINE
  5
16E6
  8
0
  6
CONTINUOUS
 10
-14.5
 20
131.2999999999997
 30
0.0
 11
-14.5
 21
116.8303099999998
 31
0.0
  0
LINE
  5
16E7
  8
0
  6
CONTINUOUS
 10
-26.50000200000068
 20
98.5
 30
0.0
 11
-26.50000200000068
 21
87.5
 31
0.0
  0
LINE
  5
16E8
  8
0
  6
CONTINUOUS
 10
-26.4999710000011
 20
87.49996199999987
 30
0.0
 11
-38.99999399999797
 21
84.84300200000007
 31
0.0
  0
LINE
  5
16E9
  8
0
  6
CONTINUOUS
 10
-37.06447800000024
 20
62.51980599999979
 30
0.0
 11
-36.766939000001
 21
28.42477599999984
 31
0.0
  0
LINE
  5
16EA
  8
0
  6
CONTINUOUS
 10
-38.50000200000068
 20
77.0
 30
0.0
 11
-38.50000200000068
 21
66.73205599999983
 31
0.0
  0
LINE
  5
16EB
  8
0
  6
CONTINUOUS
 10
-4.24721000000136
 20
47.19999699999971
 30
0.0
 11
4.24721000000136
 21
47.19999699999971
 31
0.0
  0
LINE
  5
16EC
  8
0
  6
CONTINUOUS
 10
-2.5
 20
61.0
 30
0.0
 11
-2.5
 21
50.51814299999978
 31
0.0
  0
LINE
  5
16ED
  8
0
  6
CONTINUOUS
 10
0.0
 20
151.2999999999997
 30
0.0
 11
0.0
 21
131.2999999999997
 31
0.0
  0
LINE
  5
16EE
  8
0
  6
CONTINUOUS
 10
0.0
 20
98.5
 30
0.0
 11
0.0
 21
87.5
 31
0.0
  0
LINE
  5
16EF
  8
0
  6
CONTINUOUS
 10
2.5
 20
61.0
 30
0.0
 11
2.5
 21
50.51814299999978
 31
0.0
  0
LINE
  5
16F0
  8
0
  6
CONTINUOUS
 10
-39.00000899999941
 20
84.84301000000005
 30
0.0
 11
39.0
 21
84.84308599999986
 31
0.0
  0
CIRCLE
  5
16F1
  8
0
  6
CONTINUOUS
 10
0.0
 20
0.0
 30
0.0
 40
37.600006
  0
CIRCLE
  5
16F2
  8
0
  6
CONTINUOUS
 10
0.0
 20
0.0
 30
0.0
 40
36.100006
  0
ARC
  5
16F3
  8
0
  6
CONTINUOUS
 10
35.5
 20
66.73205599999983
 30
0.0
 40
3.0
 50
322.645680000067
 51
0.0
  0
ARC
  5
16F4
  8
0
  6
CONTINUOUS
 10
41.06427999999869
 20
62.48486299999968
 30
0.0
 40
4.0
 50
142.6456599998915
 51
179.4999400000095
  0
ARC
  5
16F5
  8
0
  6
CONTINUOUS
 10
34.5
 20
116.8303099999998
 30
0.0
 40
20.0
 50
180.0
 51
246.4218299999828
  0
ARC
  5
16F6
  8
0
  6
CONTINUOUS
 10
-34.50000200000068
 20
116.8303099999998
 30
0.0
 40
20.0
 50
293.5781600000327
 51
0.0
  0
ARC
  5
16F7
  8
0
  6
CONTINUOUS
 10
-35.50000200000068
 20
66.73205599999983
 30
0.0
 40
3.0
 50
180.0
 51
217.3543400001085
  0
ARC
  5
16F8
  8
0
  6
CONTINUOUS
 10
-41.06428700000106
 20
62.48486299999968
 30
0.0
 40
4.0
 50
0.5000609999958383
 51
37.35434199993992
  0
ARC
  5
16F9
  8
0
  6
CONTINUOUS
 10
-6.5
 20
50.51814299999978
 30
0.0
 40
4.0
 50
299.9999600000318
 51
0.0
  0
ARC
  5
16FA
  8
0
  6
CONTINUOUS
 10
-6.5
 20
61.0
 30
0.0
 40
4.0
 50
0.0
 51
90.00003699991512
  0
ARC
  5
16FB
  8
0
  6
CONTINUOUS
 10
6.5
 20
50.51814299999978
 30
0.0
 40
4.0
 50
180.0
 51
240.0000200000953
  0
ARC
  5
16FC
  8
0
  6
CONTINUOUS
 10
6.5
 20
61.0
 30
0.0
 40
4.0
 50
89.99998200009199
 51
180.0
  0
LINE
  5
16FD
  8
0
  6
CONTINUOUS
 10
-31.8094749999982
 20
176.5
 30
0.0
 11
31.80947500000184
 21
176.5
 31
0.0
  0
ARC
  5
16FE
  8
0
  6
CONTINUOUS
 10
-41.0
 20
180.0
 30
0.0
 40
7.0
 50
90.0
 51
145.6987590000096
  0
ARC
  5
16FF
  8
0
  6
CONTINUOUS
 10
-41.0
 20
178.0
 30
0.0
 40
9.0
 50
0.0
 51
90.0
  0
ARC
  5
1700
  8
0
  6
CONTINUOUS
 10
-31.50000999999975
 20
173.519245
 30
0.0
 40
18.5
 50
145.6987590000096
 51
180.0596020000102
  0
LINE
  5
1701
  8
0
  6
CONTINUOUS
 10
-50.0
 20
173.5
 30
0.0
 11
-49.62644799999907
 21
169.2302749999999
 31
0.0
  0
ARC
  5
1702
  8
0
  6
CONTINUOUS
 10
-48.82949200000076
 20
169.2999999999997
 30
0.0
 40
0.8
 50
185.0000000000029
 51
270.0
  0
LINE
  5
1703
  8
0
  6
CONTINUOUS
 10
-48.82949200000076
 20
168.5
 30
0.0
 11
48.82949200000076
 21
168.5
 31
0.0
  0
ARC
  5
1704
  8
0
  6
CONTINUOUS
 10
-9.801035000000411
 20
161.0
 30
0.0
 40
1.0
 50
183.0000000000034
 51
270.0
  0
LINE
  5
1705
  8
0
  6
CONTINUOUS
 10
-9.801035000000411
 20
160.0
 30
0.0
 11
9.801035000000411
 21
160.0
 31
0.0
  0
LINE
  5
1706
  8
0
  6
CONTINUOUS
 10
-10.79966499999864
 20
160.9476639999998
 30
0.0
 11
-11.19022499999846
 21
168.4000000000001
 31
0.0
  0
ARC
  5
1707
  8
0
  6
CONTINUOUS
 10
-26.0
 20
178.0
 30
0.0
 40
6.0
 50
180.0
 51
194.4775119999656
  0
ARC
  5
1708
  8
0
  6
CONTINUOUS
 10
-11.31126899999799
 20
161.1559969999998
 30
0.0
 40
0.5
 50
3.000000000003379
 51
67.95690600008288
  0
LINE
  5
1709
  8
0
  6
CONTINUOUS
 10
-11.12361800000144
 20
161.6194479999999
 30
0.0
 11
-28.11677200000122
 21
168.5
 31
0.0
  0
ARC
  5
170A
  8
0
  6
CONTINUOUS
 10
41.0
 20
180.0
 30
0.0
 40
7.0
 50
34.30124099999035
 51
90.0
  0
ARC
  5
170B
  8
0
  6
CONTINUOUS
 10
41.0
 20
178.0
 30
0.0
 40
9.0
 50
90.0
 51
180.0
  0
ARC
  5
170C
  8
0
  6
CONTINUOUS
 10
31.50000999999975
 20
173.519245
 30
0.0
 40
18.5
 50
359.9403979999898
 51
34.30124099999035
  0
LINE
  5
170D
  8
0
  6
CONTINUOUS
 10
50.0
 20
173.5
 30
0.0
 11
49.62644799999907
 21
169.2302749999999
 31
0.0
  0
ARC
  5
170E
  8
0
  6
CONTINUOUS
 10
48.82949200000076
 20
169.2999999999997
 30
0.0
 40
0.8
 50
270.0
 51
354.9999999999972
  0
ARC
  5
170F
  8
0
  6
CONTINUOUS
 10
9.801035000000411
 20
161.0
 30
0.0
 40
1.0
 50
270.0
 51
356.9999999999966
  0
LINE
  5
1710
  8
0
  6
CONTINUOUS
 10
10.79966499999864
 20
160.9476639999998
 30
0.0
 11
11.19022499999846
 21
168.4000000000001
 31
0.0
  0
ARC
  5
1711
  8
0
  6
CONTINUOUS
 10
26.0
 20
178.0
 30
0.0
 40
6.0
 50
345.5224880000344
 51
0.0
  0
ARC
  5
1712
  8
0
  6
CONTINUOUS
 10
11.31126900000163
 20
161.1559969999998
 30
0.0
 40
0.5
 50
112.0430939999171
 51
176.9999999999966
  0
LINE
  5
1713
  8
0
  6
CONTINUOUS
 10
11.12361800000144
 20
161.6194479999999
 30
0.0
 11
28.11677200000122
 21
168.5
 31
0.0
  0
ENDBLK
  8
0
  0
BLOCK
  8
0
  2
ALﾌｨｯﾃｨﾝｸﾞ平面図
 70
     0
 10
0.0
 20
0.0
 30
0.0
  0
LINE
  5
1717
  8
0
 10
54.12658773652947
 20
8.000000000000455
 30
0.0
 11
54.12658773652947
 21
0.0000000000004547
 31
0.0
  0
LINE
  5
1718
  8
0
 10
54.12658773652947
 20
0.0000000000004547
 30
0.0
 11
-54.12658773652947
 21
0.0
 31
0.0
  0
LINE
  5
1719
  8
0
 10
-54.12658773652947
 20
0.0
 30
0.0
 11
-54.12658773652583
 21
8.0
 31
0.0
  0
LINE
  5
171A
  8
0
 10
-54.12658773652583
 20
8.0
 30
0.0
 11
54.12658773652947
 21
8.000000000000455
 31
0.0
  0
POLYLINE
  5
171B
  8
0
 66
     1
 10
0.0
 20
0.0
 30
0.0
  0
VERTEX
  5
1D6F
  8
0
 10
-43.5
 20
54.00000000000045
 30
0.0
  0
VERTEX
  5
1D70
  8
0
 10
-43.5
 20
8.0
 30
0.0
  0
SEQEND
  5
1D95
  8
0
  0
POLYLINE
  5
171C
  8
0
 66
     1
 10
0.0
 20
0.0
 30
0.0
  0
VERTEX
  5
1D71
  8
0
 10
43.5
 20
54.0
 30
0.0
  0
VERTEX
  5
1D72
  8
0
 10
43.5
 20
8.000000000000455
 30
0.0
  0
SEQEND
  5
1D96
  8
0
  0
POLYLINE
  5
171D
  8
0
 66
     1
 10
0.0
 20
0.0
 30
0.0
  0
VERTEX
  5
1D73
  8
0
 10
-43.5
 20
54.00000000000045
 30
0.0
  0
VERTEX
  5
1D74
  8
0
 10
43.5
 20
54.00000000000045
 30
0.0
  0
SEQEND
  5
1D97
  8
0
  0
ENDBLK
  8
0
  0
BLOCK
  8
0
  2
液面計平面図
 70
     0
 10
0.0
 20
0.0
 30
0.0
  0
LINE
  5
1721
  8
4
  6
CENTER
 10
0.0000000061918399
 20
12.68536112816355
 30
0.0
 11
-0.0000000266700226
 21
-54.624178065877
 31
0.0
  0
LINE
  5
1722
  8
4
  6
CONTINUOUS
 10
13.95543432118211
 20
-4.957636454589647
 30
0.0
 11
-14.9878162764835
 21
-4.957636443673891
 31
0.0
  0
LINE
  5
1723
  8
4
  6
CONTINUOUS
 10
-14.98781625898118
 20
0.0
 30
0.0
 11
-14.9878162764835
 21
-4.957636443673891
 31
0.0
  0
LINE
  5
1724
  8
4
  6
CONTINUOUS
 10
13.95543433794228
 20
0.0000000000004547
 30
0.0
 11
13.95543432118211
 21
-4.957636454589647
 31
0.0
  0
LINE
  5
1725
  8
4
  6
CENTER
 10
13.95543432118211
 20
-29.95763645458965
 30
0.0
 11
-14.9878162764835
 21
-29.95763644367389
 31
0.0
  0
LINE
  5
1726
  8
0
 10
8.999999983672751
 20
-29.95763645272064
 30
0.0
 11
8.999999983672751
 21
-4.957636452720635
 31
0.0
  0
LINE
  5
1727
  8
0
 10
-9.000000016327249
 20
-29.95763644593217
 30
0.0
 11
-9.000000016327249
 21
-4.957636445932167
 31
0.0
  0
ARC
  5
1728
  8
0
 10
-0.0000000163272489
 20
-29.95763645102306
 30
0.0
 40
9.0
 50
179.9999999675875
 51
0.0000000108128681
  0
POLYLINE
  5
1729
  8
0
 66
     1
 10
0.0
 20
0.0
 30
0.0
  0
VERTEX
  5
1D75
  8
0
 10
-14.98781625898118
 20
0.0
 30
0.0
  0
VERTEX
  5
1D76
  8
0
 10
13.95543433794228
 20
0.0
 30
0.0
  0
SEQEND
  5
1D98
  8
0
  0
ENDBLK
  8
0
  0
BLOCK
  8
0
  2
６５ＡエアーＬ_正面図
 70
     0
 10
0.0
 20
0.0
 30
0.0
  0
LINE
  5
172D
  8
0
  6
CENTER
 10
43.5
 20
243.000020745058
 30
0.0
 11
176.5
 21
243.000020745058
 31
0.0
  0
LINE
  5
172E
  8
0
  6
CENTER
 10
220.0
 20
199.500020745058
 30
0.0
 11
220.0
 21
113.2213137450581
 31
0.0
  0
LINE
  5
172F
  8
0
  6
CONTINUOUS
 10
176.5
 20
199.500020745058
 30
0.0
 11
176.5
 21
133.0000007450581
 31
0.0
  0
LINE
  5
1730
  8
0
  6
CONTINUOUS
 10
263.5
 20
199.500020745058
 30
0.0
 11
263.5
 21
133.0000007450581
 31
0.0
  0
LINE
  5
1731
  8
0
  6
CONTINUOUS
 10
43.5
 20
286.500020745058
 30
0.0
 11
176.5
 21
286.500020745058
 31
0.0
  0
LINE
  5
1732
  8
0
  6
CONTINUOUS
 10
43.5
 20
199.500020745058
 30
0.0
 11
176.5
 21
199.500020745058
 31
0.0
  0
LINE
  5
1733
  8
0
  6
CENTER
 10
0.0
 20
199.500020745058
 30
0.0
 11
0.0
 21
17.39178574505786
 31
0.0
  0
LINE
  5
1734
  8
0
  6
CONTINUOUS
 10
-43.5
 20
199.500020745058
 30
0.0
 11
-43.5
 21
62.00000074505806
 31
0.0
  0
LINE
  5
1735
  8
0
  6
CONTINUOUS
 10
43.5
 20
199.500020745058
 30
0.0
 11
43.5
 21
62.00000074505806
 31
0.0
  0
LINE
  5
1736
  8
0
  6
CONTINUOUS
 10
176.5
 20
133.0000007450581
 30
0.0
 11
263.5
 21
133.0000007450581
 31
0.0
  0
LINE
  5
1737
  8
0
  6
CONTINUOUS
 10
-50.22952300000179
 20
50.00000074505806
 30
0.0
 11
50.22944599999755
 21
50.00000074505806
 31
0.0
  0
LINE
  5
1738
  8
0
  6
CONTINUOUS
 10
-25.11465499999758
 20
62.00000074505806
 30
0.0
 11
-25.11465499999758
 21
50.00000074505806
 31
0.0
  0
LINE
  5
1739
  8
0
  6
CONTINUOUS
 10
25.11471599999641
 20
62.00000074505806
 30
0.0
 11
25.11471599999641
 21
50.00000074505806
 31
0.0
  0
LINE
  5
173A
  8
0
  6
CONTINUOUS
 10
-50.22952300000179
 20
62.00000074505806
 30
0.0
 11
50.22944599999755
 21
62.00000074505806
 31
0.0
  0
LINE
  5
173B
  8
0
  6
CONTINUOUS
 10
-50.22952300000179
 20
62.00000074505806
 30
0.0
 11
-50.22952300000179
 21
50.00000074505806
 31
0.0
  0
LINE
  5
173C
  8
0
  6
CONTINUOUS
 10
50.22944599999755
 20
62.00000074505806
 30
0.0
 11
50.22944599999755
 21
50.00000074505806
 31
0.0
  0
LINE
  5
173D
  8
0
  6
CONTINUOUS
 10
43.5
 20
124.7500007450581
 30
0.0
 11
-43.5
 21
124.7500007450581
 31
0.0
  0
LINE
  5
173E
  8
0
  6
CONTINUOUS
 10
110.0
 20
199.500020745058
 30
0.0
 11
110.0
 21
286.500020745058
 31
0.0
  0
ARC
  5
173F
  8
0
  6
CONTINUOUS
 10
43.5
 20
199.500020745058
 30
0.0
 40
87.0
 50
89.99998199988354
 51
179.999959999996
  0
ARC
  5
1740
  8
0
  6
CONTINUOUS
 10
176.5
 20
199.500020745058
 30
0.0
 40
87.0
 50
0.0
 51
89.99998199988354
  0
ARC
  5
1741
  8
0
  6
CENTER
 10
43.5
 20
199.500020745058
 30
0.0
 40
43.5
 50
89.99998199988354
 51
179.999959999996
  0
ARC
  5
1742
  8
0
  6
CENTER
 10
176.5
 20
199.500020745058
 30
0.0
 40
43.5
 50
0.0
 51
89.99998199988354
  0
LINE
  5
1743
  8
0
  6
CONTINUOUS
 62
     1
 10
-64.00000095367432
 20
30.00000044703484
 30
0.0
 11
64.00000095367432
 21
30.00000044703484
 31
0.0
  0
LINE
  5
1744
  8
0
  6
CONTINUOUS
 62
     1
 10
-64.00000095367432
 20
30.00000044703484
 30
0.0
 11
-64.00000095367432
 21
0.0
 31
0.0
  0
LINE
  5
1745
  8
0
  6
CONTINUOUS
 62
     1
 10
-45.00000067055225
 20
50.00000074505806
 30
0.0
 11
-45.00000067055225
 21
30.00000044703484
 31
0.0
  0
LINE
  5
1746
  8
0
  6
CONTINUOUS
 62
     1
 10
45.00000067055225
 20
50.00000074505806
 30
0.0
 11
45.00000067055225
 21
30.00000044703484
 31
0.0
  0
LINE
  5
1747
  8
0
  6
CONTINUOUS
 62
     1
 10
64.00000095367432
 20
30.00000044703484
 30
0.0
 11
64.00000095367432
 21
0.0
 31
0.0
  0
LINE
  5
1748
  8
0
  6
CONTINUOUS
 62
     1
 10
-45.00000067055225
 20
50.00000074505806
 30
0.0
 11
45.00000067055225
 21
50.00000074505806
 31
0.0
  0
LINE
  5
1749
  8
0
  6
CENTER
 62
     1
 10
0.0
 20
80.0000011920929
 30
0.0
 11
0.0
 21
-20.00000029802322
 31
0.0
  0
LINE
  5
174A
  8
0
  6
CONTINUOUS
 62
     1
 10
-64.00000095367432
 20
15.00000022351742
 30
0.0
 11
64.00000095367432
 21
15.00000022351742
 31
0.0
  0
ENDBLK
  8
0
  0
BLOCK
  8
0
  2
６５ＡエアーＬ_平面図
 70
     0
 10
0.0
 20
0.0
 30
0.0
  0
LINE
  5
189D
  8
0
  6
CENTER
 62
     1
 10
0.0
 20
90.00000134110451
 30
0.0
 11
0.0
 21
-90.00000134110451
 31
0.0
  0
LINE
  5
189E
  8
0
  6
CONTINUOUS
 62
     1
 10
45.9817046700482
 20
43.50001525878906
 30
0.0
 11
45.25483467028971
 21
45.2548346702888
 31
0.0
  0
LINE
  5
189F
  8
0
  6
CONTINUOUS
 62
     1
 10
45.25483467028971
 20
45.2548346702888
 30
0.0
 11
0.0
 21
64.00000095367432
 31
0.0
  0
LINE
  5
18A0
  8
0
  6
CONTINUOUS
 62
     1
 10
-45.25483467028971
 20
45.2548346702888
 30
0.0
 11
0.0
 21
64.00000095367432
 31
0.0
  0
LINE
  5
18A1
  8
0
  6
CONTINUOUS
 62
     1
 10
-64.00000095367432
 20
0.0
 30
0.0
 11
-45.25483467028971
 21
45.2548346702888
 31
0.0
  0
LINE
  5
18A2
  8
0
  6
CONTINUOUS
 62
     1
 10
-45.25483467028971
 20
-45.2548346702888
 30
0.0
 11
-64.00000095367432
 21
0.0
 31
0.0
  0
LINE
  5
18A3
  8
0
  6
CONTINUOUS
 62
     1
 10
0.0
 20
-64.00000095367432
 30
0.0
 11
-45.25483467028971
 21
-45.2548346702888
 31
0.0
  0
LINE
  5
18A4
  8
0
  6
CONTINUOUS
 62
     1
 10
45.25483467028971
 20
-45.2548346702888
 30
0.0
 11
0.0
 21
-64.00000095367432
 31
0.0
  0
LINE
  5
18A5
  8
0
  6
CONTINUOUS
 10
0.0
 20
43.50001525878906
 30
0.0
 11
220.0
 21
43.50001525878906
 31
0.0
  0
LINE
  5
18A6
  8
0
  6
CONTINUOUS
 10
0.0
 20
-43.49998474121094
 30
0.0
 11
220.0
 21
-43.49998474121094
 31
0.0
  0
LINE
  5
18A7
  8
0
  6
CENTER
 10
220.0
 20
65.00001525878906
 30
0.0
 11
220.0
 21
-64.99998474121094
 31
0.0
  0
ARC
  5
18A8
  8
0
  6
CONTINUOUS
 10
0.0
 20
0.0
 30
0.0
 40
43.5
 50
89.99998199988354
 51
270.0
  0
ARC
  5
18A9
  8
0
  6
CONTINUOUS
 10
220.0
 20
0.0000152587890625
 30
0.0
 40
43.5
 50
270.0000199998978
 51
89.99998199988354
  0
ARC
  5
18AA
  8
0
  6
CONTINUOUS
 10
0.0
 20
0.0000152587890625
 30
0.0
 40
50.229473
 50
60.00000200011934
 51
299.9999899999576
  0
POLYLINE
  5
18AB
  8
0
  6
CENTER
 66
     1
 10
0.0
 20
0.0
 30
0.0
  0
VERTEX
  5
1D77
  8
0
  6
CENTER
 10
-99.41334725918568
 20
0.0
 30
0.0
  0
VERTEX
  5
1D78
  8
0
  6
CENTER
 10
292.4680340731502
 20
0.0000160179242812
 30
0.0
  0
SEQEND
  5
1D99
  8
0
  6
CENTER
  0
ENDBLK
  8
0
  0
BLOCK
  8
0
  2
出口
 70
     0
 10
0.0
 20
0.0
 30
0.0
  0
INSERT
  5
18B1
  8
0
  2
65Aバルブ平面図
 10
-0.0000000000109139
 20
-118.0000000000191
 30
0.0
  0
INSERT
  5
18B2
  8
0
  2
ALﾌｨｯﾃｨﾝｸﾞ平面図
 10
0.0
 20
0.0
 30
0.0
 50
180.0
  0
LINE
  5
18B3
  8
細線
 10
-39.00000000002183
 20
-56.50000000001091
 30
0.0
 11
38.99999999999272
 21
-56.50000000001273
 31
0.0
  0
LINE
  5
18B4
  8
細線
 10
-38.99999999999272
 20
-74.5000000000091
 30
0.0
 11
-12.27658049974707
 21
-74.50000000001091
 31
0.0
  0
LINE
  5
18B5
  8
細線
 10
12.27658049973979
 20
-74.50000000001091
 30
0.0
 11
38.99999999999272
 21
-74.50000000001273
 31
0.0
  0
LINE
  5
18B6
  8
細線
 10
38.99999999999272
 20
-56.50000000001273
 30
0.0
 11
39.99999999999272
 21
-57.07735026920091
 31
0.0
  0
LINE
  5
18B7
  8
細線
 10
38.99999999999272
 20
-74.50000000001273
 30
0.0
 11
39.99999999998909
 21
-73.92264973082274
 31
0.0
  0
LINE
  5
18B8
  8
細線
 10
-39.00000000001455
 20
-56.50000000001091
 30
0.0
 11
-40.00000000001455
 21
-57.07735026920273
 31
0.0
  0
LINE
  5
18B9
  8
細線
 10
-39.00000000000728
 20
-74.50000000001091
 30
0.0
 11
-40.00000000001091
 21
-73.9226497308191
 31
0.0
  0
LINE
  5
18BA
  8
細線
 10
39.99999999998909
 20
-73.92264973082274
 30
0.0
 11
39.99999999999272
 21
-57.07735026920091
 31
0.0
  0
LINE
  5
18BB
  8
細線
 10
-40.00000000001091
 20
-73.9226497308191
 30
0.0
 11
-40.00000000001455
 21
-57.07735026920273
 31
0.0
  0
LINE
  5
18BC
  8
細線
 10
16.5685424949188
 20
-72.01988337010334
 30
0.0
 11
16.56854249491516
 21
-58.9801166299203
 31
0.0
  0
LINE
  5
18BD
  8
細線
 10
-16.56854249493335
 20
-72.01988337010334
 30
0.0
 11
-16.56854249494427
 21
-58.9801166299203
 31
0.0
  0
ARC
  5
18BE
  8
細線
 10
-0.000000000003638
 20
-17.91645559738208
 30
0.0
 40
56.58354440262278
 50
252.9734048203697
 51
259.538417357061
  0
ARC
  5
18BF
  8
細線
 10
-0.000000000003638
 20
-17.91645559738208
 30
0.0
 40
56.58354440262278
 50
280.4615826431535
 51
287.026595179431
  0
ARC
  5
18C0
  8
細線
 10
28.2842712474594
 20
-45.58819864121779
 30
0.0
 40
28.91180135878851
 50
246.0948937241524
 51
293.905106276292
  0
ARC
  5
18C1
  8
細線
 10
-28.2842712474594
 20
-45.58819864121415
 30
0.0
 40
28.91180135878851
 50
246.0948937241524
 51
293.905106276292
  0
ARC
  5
18C2
  8
細線
 10
0.0
 20
-113.0835444026284
 30
0.0
 40
56.58354440262278
 50
72.9734048203697
 51
107.026595179431
  0
ARC
  5
18C3
  8
細線
 10
28.2842712474594
 20
-85.4118013587995
 30
0.0
 40
28.91180135878851
 50
66.0948937241524
 51
113.9051062762921
  0
ARC
  5
18C4
  8
細線
 10
-28.2842712474594
 20
-85.41180135879358
 30
0.0
 40
28.91180135878851
 50
66.0948937241524
 51
113.9051062762921
  0
LINE
  5
18C5
  8
細線
 10
39.00000000000364
 20
-56.50000000001637
 30
0.0
 11
38.29344347594451
 21
-56.50000000002183
 31
0.0
  0
ARC
  5
18C6
  8
細線
 10
-38.29344347595907
 20
-74.90000000001419
 30
0.0
 40
0.4
 50
1.789899999995269
 51
90.0
  0
LINE
  5
18C7
  8
細線
 10
-36.34862360262923
 20
-77.00000000002001
 30
0.0
 11
-37.89363864320694
 21
-74.8875061730887
 31
0.0
  0
LINE
  5
18C8
  8
細線
 10
37.82762360259949
 20
-77.00000000002183
 30
0.0
 11
28.52124010785337
 21
-77.00000000001819
 31
0.0
  0
LINE
  5
18C9
  8
細線
 10
-28.52124010787156
 20
-77.00000000001819
 30
0.0
 11
-37.82762360263223
 21
-77.00000000002001
 31
0.0
  0
ARC
  5
18CA
  8
細線
 10
38.29344347594088
 20
-74.90000000000964
 30
0.0
 40
0.4
 50
90.0
 51
178.2101000000047
  0
LINE
  5
18CB
  8
細線
 10
37.82762360259949
 20
-77.00000000002183
 30
0.0
 11
37.89363864318875
 21
-74.88750617309233
 31
0.0
  0
LINE
  5
18CC
  8
細線
 10
-37.82762360263223
 20
-77.00000000002001
 30
0.0
 11
-37.89363864320694
 21
-74.8875061730887
 31
0.0
  0
LINE
  5
18CD
  8
細線
 10
36.34862360261104
 20
-77.00000000002183
 30
0.0
 11
37.89363864318875
 21
-74.88750617309233
 31
0.0
  0
ARC
  5
18CE
  8
細線
 10
-38.29344347595543
 20
-56.09999999999945
 30
0.0
 40
0.4
 50
270.0
 51
358.2101000000047
  0
LINE
  5
18CF
  8
細線
 10
-36.34862360262196
 20
-54.00000000000546
 30
0.0
 11
-37.89363864320694
 21
-56.11249382693131
 31
0.0
  0
LINE
  5
18D0
  8
細線
 10
37.82762360260313
 20
-54.00000000000364
 30
0.0
 11
-37.82762360262495
 21
-54.00000000000728
 31
0.0
  0
ARC
  5
18D1
  8
細線
 10
38.29344347594088
 20
-56.10000000000673
 30
0.0
 40
0.4
 50
181.7898999999953
 51
270.0
  0
LINE
  5
18D2
  8
細線
 10
37.82762360260313
 20
-54.00000000000364
 30
0.0
 11
37.89363864318148
 21
-56.11249382694041
 31
0.0
  0
LINE
  5
18D3
  8
細線
 10
-37.82762360262495
 20
-54.00000000000728
 30
0.0
 11
-37.89363864320694
 21
-56.11249382693131
 31
0.0
  0
LINE
  5
18D4
  8
細線
 10
36.34862360261104
 20
-54.00000000000728
 30
0.0
 11
37.89363864319603
 21
-56.11249382693131
 31
0.0
  0
POLYLINE
  5
18D5
  8
0
  6
CENTER
 66
     1
 10
0.0
 20
0.0
 30
0.0
  0
VERTEX
  5
1D79
  8
0
  6
CENTER
 10
-0.000000000007276
 20
-202.6525829684088
 30
0.0
  0
VERTEX
  5
1D7A
  8
0
  6
CENTER
 10
-0.0000000000145519
 20
28.83099031290476
 30
0.0
  0
SEQEND
  5
1D9A
  8
0
  6
CENTER
  0
ENDBLK
  8
0
  0
BLOCK
  8
0
  2
N-BALOON
 70
     2
 10
0.0
 20
0.0
 30
0.0
  0
CIRCLE
  5
18E6
  8
0
 10
0.0
 20
0.0
 30
0.0
 40
80.0
  0
TEXT
  5
18E7
  8
0
 10
-54.80747623446223
 20
-19.84838056682929
 30
0.0
 40
40.0
  1
N-
  0
ATTDEF
  5
18E8
  8
0
 10
36.18295389930427
 20
-19.82969338686235
 30
0.0
 40
40.0
  1

  3
?
  2
NO.
 70
     0
  0
ENDBLK
  8
0
  0
BLOCK
  8
0
  2
BALOON
 70
     2
 10
0.0
 20
0.0
 30
0.0
  0
CIRCLE
  5
18F0
  8
0
 10
0.0
 20
0.0
 30
0.0
 40
80.0
  0
ATTDEF
  5
18F1
  8
0
 10
-13.54374865719001
 20
-19.82969338686235
 30
0.0
 40
40.0
  1

  3
?
  2
NO.
 70
     0
  0
ENDBLK
  8
0
  0
BLOCK
  8
0
  2
*D18
 70
     1
 10
0.0
 20
0.0
 30
0.0
  0
LINE
  5
1C89
  8
寸法線
 62
     0
 10
15226.16244726983
 20
2724.845493235441
 30
0.0
 11
15128.03823686833
 21
2724.845493235441
 31
0.0
  0
LINE
  5
1C8A
  8
寸法線
 62
     0
 10
15229.21354617277
 20
2594.845207441471
 30
0.0
 11
15128.03823686833
 21
2594.845207441471
 31
0.0
  0
LINE
  5
1C8B
  8
寸法線
 62
     0
 10
15188.03823686833
 20
2784.845493235441
 30
0.0
 11
15188.03823686833
 21
2844.845493235441
 31
0.0
  0
LINE
  5
1C8C
  8
寸法線
 62
     0
 10
15188.03823686833
 20
2534.845207441471
 30
0.0
 11
15188.03823686833
 21
2276.845207441471
 31
0.0
  0
LINE
  5
1C8D
  8
寸法線
 62
     0
 10
15188.03823686833
 20
2724.845493235441
 30
0.0
 11
15188.03823686833
 21
2594.845207441471
 31
0.0
  0
INSERT
  5
1C8E
  8
寸法線
 62
     0
  2
_OPEN30
 10
15188.03823686833
 20
2724.845493235441
 30
0.0
 41
60.0
 42
60.0
 43
60.0
 50
270.0
  0
INSERT
  5
1C8F
  8
寸法線
 62
     0
  2
_OPEN30
 10
15188.03823686833
 20
2594.845207441471
 30
0.0
 41
60.0
 42
60.0
 43
60.0
 50
90.0
  0
TEXT
  5
1C90
  8
寸法線
  6
CONTINUOUS
 62
     0
 10
15154.03823686833
 20
2310.845207441473
 30
0.0
 40
60.0
  1
130
 50
90.0
  0
POINT
  5
1C91
  8
DEFPOINTS
 62
     0
 10
15266.16244726983
 20
2724.845493235441
 30
0.0
  0
POINT
  5
1C92
  8
DEFPOINTS
 62
     0
 10
15269.21354617277
 20
2594.845207441471
 30
0.0
  0
POINT
  5
1C93
  8
DEFPOINTS
 62
     0
 10
15188.03823686833
 20
2594.845207441471
 30
0.0
  0
ENDBLK
  8
0
  0
BLOCK
  8
0
  2
*D19
 70
     1
 10
0.0
 20
0.0
 30
0.0
  0
LINE
  5
197C
  8
寸法線
 62
     0
 10
15680.78193943546
 20
2694.845207441473
 30
0.0
 11
15878.59574954013
 21
2694.845207441473
 31
0.0
  0
LINE
  5
197D
  8
寸法線
 62
     0
 10
15680.78193943546
 20
2594.845207441471
 30
0.0
 11
15878.59574954013
 21
2594.845207441471
 31
0.0
  0
LINE
  5
197E
  8
寸法線
 62
     0
 10
15818.59574954013
 20
2754.845207441473
 30
0.0
 11
15818.59574954013
 21
2814.845207441473
 31
0.0
  0
LINE
  5
197F
  8
寸法線
 62
     0
 10
15818.59574954013
 20
2534.845207441471
 30
0.0
 11
15818.59574954013
 21
2286.845207441471
 31
0.0
  0
LINE
  5
1980
  8
寸法線
 62
     0
 10
15818.59574954013
 20
2694.845207441473
 30
0.0
 11
15818.59574954013
 21
2594.845207441471
 31
0.0
  0
INSERT
  5
1981
  8
寸法線
 62
     0
  2
_OPEN30
 10
15818.59574954013
 20
2694.845207441473
 30
0.0
 41
60.0
 42
60.0
 43
60.0
 50
270.0
  0
INSERT
  5
1982
  8
寸法線
 62
     0
  2
_OPEN30
 10
15818.59574954013
 20
2594.845207441471
 30
0.0
 41
60.0
 42
60.0
 43
60.0
 50
90.0
  0
TEXT
  5
1983
  8
寸法線
  6
CONTINUOUS
 62
     0
 10
15784.59574954013
 20
2320.845207441474
 30
0.0
 40
60.0
  1
100
 50
90.0
  0
POINT
  5
1984
  8
DEFPOINTS
 62
     0
 10
15640.78193943546
 20
2694.845207441473
 30
0.0
  0
POINT
  5
1985
  8
DEFPOINTS
 62
     0
 10
15640.78193943546
 20
2594.845207441471
 30
0.0
  0
POINT
  5
1986
  8
DEFPOINTS
 62
     0
 10
15818.59574954013
 20
2594.845207441471
 30
0.0
  0
ENDBLK
  8
0
  0
BLOCK
  8
0
  2
*D20
 70
     1
 10
0.0
 20
0.0
 30
0.0
  0
LINE
  5
1987
  8
寸法線
 62
     0
 10
15680.78193943546
 20
2694.845207441473
 30
0.0
 11
15878.59574954013
 21
2694.845207441473
 31
0.0
  0
LINE
  5
1988
  8
寸法線
 62
     0
 10
15680.78193943546
 20
4844.845207441473
 30
0.0
 11
15878.59574954013
 21
4844.845207441473
 31
0.0
  0
LINE
  5
1989
  8
寸法線
 62
     0
 10
15818.59574954013
 20
2754.845207441473
 30
0.0
 11
15818.59574954013
 21
4784.845207441473
 31
0.0
  0
INSERT
  5
198A
  8
寸法線
 62
     0
  2
_OPEN30
 10
15818.59574954013
 20
2694.845207441473
 30
0.0
 41
60.0
 42
60.0
 43
60.0
 50
270.0
  0
INSERT
  5
198B
  8
寸法線
 62
     0
  2
_OPEN30
 10
15818.59574954013
 20
4844.845207441473
 30
0.0
 41
60.0
 42
60.0
 43
60.0
 50
90.0
  0
TEXT
  5
198C
  8
寸法線
  6
CONTINUOUS
 62
     0
 10
15784.59574954013
 20
3674.845207441474
 30
0.0
 40
60.0
  1
2150
 50
90.0
  0
POINT
  5
198D
  8
DEFPOINTS
 62
     0
 10
15640.78193943546
 20
2694.845207441473
 30
0.0
  0
POINT
  5
198E
  8
DEFPOINTS
 62
     0
 10
15640.78193943546
 20
4844.845207441473
 30
0.0
  0
POINT
  5
198F
  8
DEFPOINTS
 62
     0
 10
15818.59574954013
 20
4844.845207441473
 30
0.0
  0
ENDBLK
  8
0
  0
BLOCK
  8
0
  2
*D21
 70
     1
 10
0.0
 20
0.0
 30
0.0
  0
LINE
  5
19C4
  8
寸法線
 62
     0
 10
19191.96922049931
 20
6687.73393580117
 30
0.0
 11
19191.96922049931
 21
6844.136696698726
 31
0.0
  0
LINE
  5
19C5
  8
寸法線
 62
     0
 10
19491.96988468561
 20
6687.734602926481
 30
0.0
 11
19491.96988468561
 21
6844.136696698726
 31
0.0
  0
LINE
  5
19C6
  8
寸法線
 62
     0
 10
19251.96922049931
 20
6784.136696698726
 30
0.0
 11
19431.96988468561
 21
6784.136696698726
 31
0.0
  0
INSERT
  5
19C7
  8
寸法線
 62
     0
  2
_OPEN30
 10
19191.96922049931
 20
6784.136696698726
 30
0.0
 41
60.0
 42
60.0
 43
60.0
 50
180.0
  0
INSERT
  5
19C8
  8
寸法線
 62
     0
  2
_OPEN30
 10
19491.96988468561
 20
6784.136696698726
 30
0.0
 41
60.0
 42
60.0
 43
60.0
  0
TEXT
  5
19C9
  8
寸法線
  6
CONTINUOUS
 62
     0
 10
19271.96955259246
 20
6818.136696698726
 30
0.0
 40
60.0
  1
300
  0
POINT
  5
19CA
  8
DEFPOINTS
 62
     0
 10
19191.96922049931
 20
6647.73393580117
 30
0.0
  0
POINT
  5
19CB
  8
DEFPOINTS
 62
     0
 10
19491.96988468561
 20
6647.734602926481
 30
0.0
  0
POINT
  5
19CC
  8
DEFPOINTS
 62
     0
 10
19491.96988468561
 20
6784.136696698726
 30
0.0
  0
ENDBLK
  8
0
  0
BLOCK
  8
0
  2
*D22
 70
     1
 10
0.0
 20
0.0
 30
0.0
  0
LINE
  5
19D1
  8
寸法線
 62
     0
 10
19181.96934407255
 20
6716.484263744682
 30
0.0
 11
19181.96934407255
 21
6975.934193265595
 31
0.0
  0
LINE
  5
19D2
  8
寸法線
 62
     0
 10
19501.96964723774
 20
6716.483108193485
 30
0.0
 11
19501.96964723774
 21
6975.934193265595
 31
0.0
  0
LINE
  5
19D3
  8
寸法線
 62
     0
 10
19241.96934407255
 20
6915.934193265595
 30
0.0
 11
19441.96964723774
 21
6915.934193265595
 31
0.0
  0
INSERT
  5
19D4
  8
寸法線
 62
     0
  2
_OPEN30
 10
19181.96934407255
 20
6915.934193265595
 30
0.0
 41
60.0
 42
60.0
 43
60.0
 50
180.0
  0
INSERT
  5
19D5
  8
寸法線
 62
     0
  2
_OPEN30
 10
19501.96964723774
 20
6915.934193265595
 30
0.0
 41
60.0
 42
60.0
 43
60.0
  0
TEXT
  5
19D6
  8
寸法線
  6
CONTINUOUS
 62
     0
 10
19266.96949565515
 20
6949.934193265595
 30
0.0
 40
60.0
  1
320
  0
POINT
  5
19D7
  8
DEFPOINTS
 62
     0
 10
19181.96934407255
 20
6676.484263744682
 30
0.0
  0
POINT
  5
19D8
  8
DEFPOINTS
 62
     0
 10
19501.96964723774
 20
6676.483108193485
 30
0.0
  0
POINT
  5
19D9
  8
DEFPOINTS
 62
     0
 10
19501.96964723774
 20
6915.934193265595
 30
0.0
  0
ENDBLK
  8
0
  0
BLOCK
  8
0
  2
*X23
 70
     1
 10
0.0
 20
0.0
 30
0.0
  0
TEXT
  5
1D08
  8
0
  6
CONTINUOUS
 10
15838.71293417343
 20
6333.249097205845
 30
0.0
 40
45.0
  1
融着フランジ（ＰＥ）は、ＪＩＳ１０
  0
TEXT
  5
1D09
  8
0
  6
CONTINUOUS
 10
16476.21293417343
 20
6360.999097205845
 30
0.0
 40
31.5
  1
Ｋ
  0
TEXT
  5
1D0A
  8
0
  6
CONTINUOUS
 10
16502.46293417343
 20
6333.249097205845
 30
0.0
 40
45.0
  1
相当とする。
  0
ENDBLK
  8
0
  0
BLOCK
  8
0
  2
*X24
 70
     1
 10
0.0
 20
0.0
 30
0.0
  0
TEXT
  5
1D0C
  8
0
  6
CONTINUOUS
 10
19643.8818569864
 20
3633.612550592876
 30
0.0
 40
33.59999999999999
  1
\U+2205
  0
TEXT
  5
1D0D
  8
0
  6
CONTINUOUS
 10
19677.4818569864
 20
3622.412550592876
 30
0.0
 40
48.0
  1
13×
  0
TEXT
  5
1D0E
  8
0
  6
CONTINUOUS
 10
19797.4818569864
 20
3633.612550592876
 30
0.0
 40
33.59999999999999
  1
\U+2205
  0
TEXT
  5
1D0F
  8
0
  6
CONTINUOUS
 10
19831.0818569864
 20
3622.412550592876
 30
0.0
 40
48.0
  1
9
  0
ENDBLK
  8
0
  0
BLOCK
  8
0
  2
*X25
 70
     1
 10
0.0
 20
0.0
 30
0.0
  0
INSERT
  5
1D11
  8
0
  2
_OPEN30
 10
15493.30207325945
 20
5372.134283379236
 30
0.0
 41
60.0
 42
60.0
 43
60.0
 50
310.2359240423793
  0
LINE
  5
1D12
  8
0
 10
15454.54588593261
 20
5417.937754250846
 30
0.0
 11
15069.03975510292
 21
5873.542911831812
 31
0.0
  0
ENDBLK
  8
0
  0
BLOCK
  8
0
  2
*X26
 70
     1
 10
0.0
 20
0.0
 30
0.0
  0
INSERT
  5
1D14
  8
0
  2
_DOTSMALL
 10
16036.75993729323
 20
5038.227905222928
 30
0.0
 41
59.99999999999999
 42
59.99999999999999
 43
60.0
 50
254.8014597426878
  0
LINE
  5
1D15
  8
0
 10
16036.75993729323
 20
5038.227905222928
 30
0.0
 11
16259.3050145274
 21
5857.412352404436
 31
0.0
  0
ENDBLK
  8
0
  0
BLOCK
  8
0
  2
*X27
 70
     1
 10
0.0
 20
0.0
 30
0.0
  0
INSERT
  5
1D17
  8
0
  2
_OPEN30
 10
16598.28215178031
 20
5381.345228186525
 30
0.0
 41
60.0
 42
60.0
 43
60.0
 50
249.7514917316348
  0
LINE
  5
1D18
  8
0
 10
16619.04770961385
 20
5437.637249005304
 30
0.0
 11
16774.69007840072
 21
5859.558178568921
 31
0.0
  0
ENDBLK
  8
0
  0
BLOCK
  8
0
  2
*X28
 70
     1
 10
0.0
 20
0.0
 30
0.0
  0
INSERT
  5
1D1A
  8
0
  2
_OPEN30
 10
15297.16244826983
 20
2814.645496235055
 30
0.0
 41
60.00000000000001
 42
60.00000000000001
 43
60.0
 50
300.2352717456282
  0
LINE
  5
1D1B
  8
0
 10
15266.94933391915
 20
2866.483394738299
 30
0.0
 11
15121.88731110309
 21
3115.37234832757
 31
0.0
  0
ENDBLK
  8
0
  0
BLOCK
  8
0
  2
*X29
 70
     1
 10
0.0
 20
0.0
 30
0.0
  0
INSERT
  5
1D1D
  8
0
  2
_OPEN30
 10
15633.78193943545
 20
2709.845207441473
 30
0.0
 41
60.0
 42
60.0
 43
60.0
 50
280.9930820252442
  0
LINE
  5
1D1E
  8
0
 10
15622.3405111809
 20
2768.744220332148
 30
0.0
 11
15441.2106653124
 21
3701.177557267266
 31
0.0
  0
ENDBLK
  8
0
  0
BLOCK
  8
0
  2
*X30
 70
     1
 10
0.0
 20
0.0
 30
0.0
  0
INSERT
  5
1D20
  8
0
  2
_OPEN30
 10
15633.78193943545
 20
4829.845207441473
 30
0.0
 41
60.0
 42
60.0
 43
60.0
 50
78.80556231544487
  0
LINE
  5
1D21
  8
0
 10
15622.13359232705
 20
4770.986767013255
 30
0.0
 11
15441.48655711754
 21
3858.18749502579
 31
0.0
  0
ENDBLK
  8
0
  0
BLOCK
  8
0
  2
*X31
 70
     1
 10
0.0
 20
0.0
 30
0.0
  0
INSERT
  5
1D23
  8
0
  2
_OPEN30
 10
19341.96947740219
 20
4767.896767206164
 30
0.0
 41
60.00000000000001
 42
60.00000000000001
 43
60.0
 50
140.7239984847097
  0
LINE
  5
1D24
  8
0
 10
19388.41580350502
 20
4729.913365679313
 30
0.0
 11
19631.73822497777
 21
4530.926405659593
 31
0.0
  0
LINE
  5
1D25
  8
0
 10
19631.73822497777
 20
4530.926405659593
 30
0.0
 11
20207.78880494971
 21
4530.926405659593
 31
0.0
  0
ENDBLK
  8
0
  0
ENDSEC
  0
SECTION
  2
ENTITIES
  0
POINT
  5
14D
  8
0
  6
CONTINUOUS
 10
15405.78194468811
 20
5334.845169294498
 30
0.0
  0
POINT
  5
14E
  8
0
  6
CONTINUOUS
 10
15875.7819341828
 20
5334.845169294498
 30
0.0
  0
POINT
  5
14F
  8
0
  6
CONTINUOUS
 10
14709.7819326464
 20
5094.845207441471
 30
0.0
  0
POINT
  5
150
  8
0
 10
15009.78183456277
 20
5094.845207441471
 30
0.0
  0
LINE
  5
151
  8
0
  6
CENTER
 10
15640.78193943546
 20
5477.970131147526
 30
0.0
 11
15640.78193943546
 21
2433.499320257328
 31
0.0
  0
LINE
  5
152
  8
0
 10
14709.78199284122
 20
2594.845207441471
 30
0.0
 11
16571.78188602969
 21
2594.845207441471
 31
0.0
  0
LINE
  5
153
  8
0
 10
14679.78197376773
 20
4944.845207441471
 30
0.0
 11
16601.78190510318
 21
4944.845207441471
 31
0.0
  0
LINE
  5
154
  8
0
 10
14679.78197376773
 20
2624.845205653332
 30
0.0
 11
14679.78197376773
 21
4944.845207441471
 31
0.0
  0
LINE
  5
155
  8
0
 10
14712.95178629374
 20
5094.845207441471
 30
0.0
 11
15009.78183456277
 21
5094.845207441471
 31
0.0
  0
LINE
  5
156
  8
0
 10
14708.04887915064
 20
5090.825768072131
 30
0.0
 11
14679.78194833484
 21
4944.845374781687
 31
0.0
  0
LINE
  5
157
  8
0
 10
14779.78197376773
 20
4954.845245588444
 30
0.0
 11
15475.07624666736
 21
4954.845245588444
 31
0.0
  0
LINE
  5
158
  8
0
  6
CONTINUOUS
 10
14779.78197376773
 20
4954.845245588444
 30
0.0
 11
14779.78197376773
 21
4944.845207441471
 31
0.0
  0
LINE
  5
159
  8
0
 10
15325.78195318178
 20
5334.845169294498
 30
0.0
 11
15955.78192568913
 21
5334.845169294498
 31
0.0
  0
LINE
  5
15A
  8
0
 10
15325.78195318178
 20
5299.845131147526
 30
0.0
 11
15955.78192568913
 21
5299.845131147526
 31
0.0
  0
LINE
  5
15B
  8
0
 10
16568.61207649181
 20
5094.845207441471
 30
0.0
 11
16271.78202908084
 21
5094.845207441471
 31
0.0
  0
LINE
  5
15C
  8
0
 10
16573.51498268095
 20
5090.825764993924
 30
0.0
 11
16601.78182927649
 21
4944.845248053794
 31
0.0
  0
LINE
  5
15D
  8
0
 10
16601.78190510318
 20
2624.845205653332
 30
0.0
 11
16601.78190510318
 21
4944.845207441471
 31
0.0
  0
LINE
  5
15E
  8
0
 10
16501.78190510318
 20
4954.845245588444
 30
0.0
 11
16501.78190510318
 21
4944.845207441471
 31
0.0
  0
LINE
  5
15F
  8
0
 10
15495.4597000365
 20
5094.845207441471
 30
0.0
 11
15786.10417883441
 21
5094.845207441471
 31
0.0
  0
LINE
  5
160
  8
0
 10
15490.4707860971
 20
5090.177868240986
 30
0.0
 11
15482.64902631538
 21
4972.84968514026
 31
0.0
  0
LINE
  5
161
  8
0
 10
15791.09309277381
 20
5090.177868240986
 30
0.0
 11
15798.91485255552
 21
4972.84968514026
 31
0.0
  0
LINE
  5
162
  8
0
 10
15806.48763220355
 20
4954.845245588444
 30
0.0
 11
16501.78200047061
 21
4954.845245588444
 31
0.0
  0
LINE
  5
163
  8
0
  6
CENTER
 10
16421.78212444827
 20
5001.095016706608
 30
0.0
 11
16421.78212444827
 21
5211.095054853581
 31
0.0
  0
LINE
  5
164
  8
0
  6
CENTER
 10
14859.78204052493
 20
4983.595093000553
 30
0.0
 11
14859.78204052493
 21
5184.845169294498
 31
0.0
  0
LINE
  5
1A4
  8
0
 10
15365.78195340529
 20
5299.845131147526
 30
0.0
 11
15365.78195340529
 21
5233.397732567926
 31
0.0
  0
LINE
  5
1A5
  8
0
 10
15915.78192546562
 20
5299.845131147526
 30
0.0
 11
15915.78192546562
 21
5233.397732567926
 31
0.0
  0
LINE
  5
1A8
  8
0
 10
15325.78195318178
 20
5299.845131147526
 30
0.0
 11
15325.78195318178
 21
5334.845169294498
 31
0.0
  0
LINE
  5
1A9
  8
0
 10
15955.78192568913
 20
5299.845131147526
 30
0.0
 11
15955.78192568913
 21
5334.845169294498
 31
0.0
  0
ARC
  5
1AB
  8
0
 10
14709.78199284122
 20
2624.845205653332
 30
0.0
 40
29.99999821186065
 50
179.9999813306654
 51
270.0000179860899
  0
ARC
  5
1AC
  8
0
  6
CONTINUOUS
 10
14712.95178629374
 20
5089.845207739494
 30
0.0
 40
4.999999701976775
 50
89.9999820139103
 51
168.6903045736829
  0
ARC
  5
1AD
  8
0
 10
15671.55448238895
 20
3748.718555677555
 30
0.0
 40
1500.0
 50
102.3758727795798
 51
126.4780825972245
  0
ARC
  5
1AE
  8
0
 10
15610.00939648196
 20
3748.718555677555
 30
0.0
 40
1500.0
 50
53.52188143059685
 51
77.62412722042019
  0
ARC
  5
1AF
  8
0
 10
16571.78188602969
 20
2624.845205653332
 30
0.0
 40
29.99999821186065
 50
269.9999633445767
 51
0.0
  0
ARC
  5
1B0
  8
0
 10
16568.61207492223
 20
5089.845207739494
 30
0.0
 40
4.999999701976775
 50
11.30965945413908
 51
89.9999820139103
  0
ARC
  5
1B1
  8
0
 10
15452.71546881244
 20
4974.845131147526
 30
0.0
 40
29.99999821186065
 50
270.0000179860899
 51
356.1861188438877
  0
ARC
  5
1B2
  8
0
 10
15828.84841005847
 20
4974.845131147526
 30
0.0
 40
29.99999821186065
 50
183.8138633405527
 51
270.0000179860899
  0
ARC
  5
1B3
  8
0
  6
CONTINUOUS
 10
15495.4597000365
 20
5089.845283735416
 30
0.0
 40
4.999999701976775
 50
89.99998201391054
 51
176.1854126593978
  0
ARC
  5
1B4
  8
0
 10
15786.10417883441
 20
5089.845283735416
 30
0.0
 40
4.999999701976775
 50
3.814611132578852
 51
89.99998201391054
  0
ARC
  5
1BC
  8
0
 10
15935.78192501858
 20
5233.397732567926
 30
0.0
 40
19.99999955296516
 50
180.0000000000004
 51
257.6241272204209
  0
ARC
  5
1BD
  8
0
 10
15345.78195385233
 20
5233.397732567926
 30
0.0
 40
19.99999955296516
 50
282.3758727795805
 51
0.0
  0
ARC
  5
1BE
  8
0
 10
15640.78193943546
 20
4904.636389034586
 30
0.0
 40
490.208723039455
 50
61.3545856241483
 51
118.6454143758517
  0
POINT
  5
258
  8
2
  6
CONTINUOUS
 10
19341.96947740219
 20
5728.896767206166
 30
0.0
  0
POINT
  5
259
  8
2
  6
CONTINUOUS
 10
19341.96947740219
 20
5728.896767206166
 30
0.0
  0
POINT
  5
25A
  8
2
  6
CONTINUOUS
 10
19181.97015229149
 20
6676.483781668421
 30
0.0
  0
POINT
  5
25B
  8
2
  6
CONTINUOUS
 10
19501.96966391635
 20
6676.483636220716
 30
0.0
  0
LINE
  5
25C
  8
2
  6
CENTER
 10
20341.96947740219
 20
5728.896767206166
 30
0.0
 11
18341.96928666733
 21
5728.896767206166
 31
0.0
  0
LINE
  5
25D
  8
2
  6
CENTER
 10
19341.96947740219
 20
4728.896767206166
 30
0.0
 11
19341.96947740219
 21
6728.896767206166
 31
0.0
  0
LINE
  5
25E
  8
2
 10
19191.96985887192
 20
6359.896523065541
 30
0.0
 11
19191.96985887192
 21
6647.733360834096
 31
0.0
  0
LINE
  5
25F
  8
2
 10
19491.96985887192
 20
6359.896523065541
 30
0.0
 11
19491.96985887192
 21
6647.733360834096
 31
0.0
  0
LINE
  5
260
  8
2
 10
19181.96934407255
 20
6676.484263744682
 30
0.0
 11
19191.96922049931
 21
6647.73393580117
 31
0.0
  0
LINE
  5
261
  8
2
 10
19501.96977082363
 20
6676.484927492239
 30
0.0
 11
19491.96988468561
 21
6647.734602926481
 31
0.0
  0
LINE
  5
262
  8
2
 10
19181.97016649523
 20
6676.483331986894
 30
0.0
 11
19191.96993870099
 21
6359.896606379973
 31
0.0
  0
LINE
  5
263
  8
2
 10
19501.96964723774
 20
6676.483108193485
 30
0.0
 11
19491.96973357724
 21
6359.896387054616
 31
0.0
  0
LINE
  5
264
  8
2
 10
18710.96953080795
 20
5878.896767206166
 30
0.0
 11
18423.13288377426
 21
5878.896767206166
 31
0.0
  0
LINE
  5
265
  8
2
 10
18394.38272701725
 20
5888.896726065668
 30
0.0
 11
18710.96964102994
 21
5878.896877110907
 31
0.0
  0
LINE
  5
266
  8
2
 10
18394.38276280843
 20
5888.896819140306
 30
0.0
 11
18423.13299898861
 21
5878.896969187426
 31
0.0
  0
LINE
  5
267
  8
2
 10
18710.96953080795
 20
5578.896767206166
 30
0.0
 11
18423.13288377426
 21
5578.896767206166
 31
0.0
  0
LINE
  5
268
  8
2
 10
18394.38279407779
 20
5568.897088399639
 30
0.0
 11
18423.13312033243
 21
5578.896969682036
 31
0.0
  0
LINE
  5
269
  8
2
 10
18394.38275480363
 20
5568.896864158901
 30
0.0
 11
18710.96947817653
 21
5578.896707092033
 31
0.0
  0
LINE
  5
26A
  8
2
 10
19191.96909593247
 20
5097.896820611926
 30
0.0
 11
19191.96909593247
 21
4810.060173578237
 31
0.0
  0
LINE
  5
26B
  8
2
 10
19181.96916621758
 20
4781.310006053009
 30
0.0
 11
19191.96903874815
 21
5097.896919321023
 31
0.0
  0
LINE
  5
26C
  8
2
 10
19181.96916956179
 20
4781.309921685021
 30
0.0
 11
19191.96905246273
 21
4810.060247376696
 31
0.0
  0
LINE
  5
26D
  8
2
 10
19491.96909593247
 20
5097.896820611926
 30
0.0
 11
19491.96909593247
 21
4810.060173578237
 31
0.0
  0
LINE
  5
26E
  8
2
 10
19501.9690166048
 20
4781.310094450691
 30
0.0
 11
19491.96913694094
 21
4810.060421268283
 31
0.0
  0
LINE
  5
26F
  8
2
 10
19501.96903563946
 20
4781.310134526659
 30
0.0
 11
19491.96921628211
 21
5097.896858644239
 31
0.0
  0
LINE
  5
270
  8
2
 10
19972.96923326157
 20
5578.896004266713
 30
0.0
 11
20260.80607103012
 21
5578.896004266713
 31
0.0
  0
LINE
  5
271
  8
2
 10
20289.55595767728
 20
5568.896405747952
 30
0.0
 11
19972.96923579373
 21
5578.896295832668
 31
0.0
  0
LINE
  5
272
  8
2
 10
20289.55753289092
 20
5568.896481080516
 30
0.0
 11
20260.8072077622
 21
5578.896365600001
 31
0.0
  0
LINE
  5
273
  8
2
 10
19972.96923326157
 20
5878.896004266713
 30
0.0
 11
20260.80607103012
 21
5878.896004266713
 31
0.0
  0
LINE
  5
274
  8
2
 10
20289.55660154286
 20
5888.896663852869
 30
0.0
 11
20260.80627416231
 21
5878.896785807558
 31
0.0
  0
LINE
  5
275
  8
2
 10
20289.55584248373
 20
5888.895827767708
 30
0.0
 11
19972.96911762148
 21
5878.896031986156
 31
0.0
  0
ARC
  5
28C
  8
2
 10
19341.96947740219
 20
5728.896767206166
 30
0.0
 40
930.9999465942383
 50
80.72827342318513
 51
99.2716906046362
  0
ARC
  5
28D
  8
2
 10
19341.96947740219
 20
5728.896767206166
 30
0.0
 40
860.9999656677244
 50
190.4935697827718
 51
259.5063680622818
  0
ARC
  5
28E
  8
2
 10
19341.96947740219
 20
5728.896767206166
 30
0.0
 40
930.9999465942383
 50
170.7282827578525
 51
189.2716999393042
  0
ARC
  5
28F
  8
2
 10
19341.96947740219
 20
5728.896767206166
 30
0.0
 40
930.9999465942383
 50
260.7282820746079
 51
279.2716992560589
  0
ARC
  5
290
  8
2
 10
19341.96947740219
 20
5728.896767206166
 30
0.0
 40
930.9999465942383
 50
350.7282777488969
 51
357.3219404641883
  0
ARC
  5
291
  8
2
 10
19341.96947740219
 20
5728.896767206167
 30
0.0
 40
860.9999656677254
 50
280.4935654570608
 51
349.5063779812934
  0
ARC
  5
292
  8
2
 10
19341.96947740219
 20
5728.896767206166
 30
0.0
 40
860.9999656677244
 50
100.4935772962056
 51
169.5064302172289
  0
CIRCLE
  5
293
  8
2
  6
CENTER
 10
19341.96947740219
 20
5728.896767206166
 30
0.0
 40
780.999994277954
  0
CIRCLE
  5
29D
  8
2
 10
19341.96947740219
 20
5728.896767206166
 30
0.0
 40
314.9999929592013
  0
CIRCLE
  5
29E
  8
2
 10
19341.96947740219
 20
5728.896767206166
 30
0.0
 40
234.9999947473407
  0
ARC
  5
29F
  8
2
 10
19341.96947740219
 20
5728.896767206166
 30
0.0
 40
630.9999532997607
 50
170.7282827578525
 51
189.2716999393042
  0
ARC
  5
2A0
  8
2
 10
19341.96947740219
 20
5728.896767206166
 30
0.0
 40
630.9999532997607
 50
260.7282820746079
 51
279.2716992560589
  0
ARC
  5
2A1
  8
2
 10
19341.96947740219
 20
5728.896767206166
 30
0.0
 40
630.9999532997607
 50
350.7282777488969
 51
9.2716949303472
  0
ARC
  5
2A2
  8
2
 10
19341.96947740219
 20
5728.896767206166
 30
0.0
 40
630.9999532997607
 50
80.72827342318513
 51
99.2716906046362
  0
LINE
  5
561
  8
0
  6
CONTINUOUS
 10
13249.92693780114
 20
7356.924021928221
 30
0.0
 11
13389.92693780114
 21
7356.924021928221
 31
0.0
  0
LINE
  5
562
  8
0
  6
CONTINUOUS
 10
13389.92693780114
 20
7356.924021928221
 30
0.0
 11
13492.32693780112
 21
7356.924021928221
 31
0.0
  0
LINE
  5
563
  8
0
  6
CONTINUOUS
 10
13249.92693780114
 20
7356.924021928221
 30
0.0
 11
13249.92693780114
 21
7221.190688594884
 31
0.0
  0
LINE
  5
564
  8
0
  6
CONTINUOUS
 10
13492.32693780112
 20
7356.924021928221
 30
0.0
 11
13632.32693780112
 21
7356.924021928221
 31
0.0
  0
LINE
  5
565
  8
0
  6
CONTINUOUS
 10
13632.32693780112
 20
7356.924021928221
 30
0.0
 11
13772.32693780112
 21
7356.924021928221
 31
0.0
  0
LINE
  5
566
  8
0
  6
CONTINUOUS
 10
13772.32693780112
 20
7356.924021928221
 30
0.0
 11
13912.32693780112
 21
7356.924021928221
 31
0.0
  0
LINE
  5
567
  8
0
  6
CONTINUOUS
 10
13912.32693780112
 20
7356.924021928221
 30
0.0
 11
14052.32693780112
 21
7356.924021928221
 31
0.0
  0
LINE
  5
568
  8
0
  6
CONTINUOUS
 10
14052.32693780112
 20
7356.924021928221
 30
0.0
 11
14192.32693780112
 21
7356.924021928221
 31
0.0
  0
LINE
  5
569
  8
0
  6
CONTINUOUS
 10
14192.32693780112
 20
7356.924021928221
 30
0.0
 11
14332.32693780112
 21
7356.924021928221
 31
0.0
  0
LINE
  5
56A
  8
0
  6
CONTINUOUS
 10
14332.32693780112
 20
7356.924021928221
 30
0.0
 11
14472.32693780112
 21
7356.924021928221
 31
0.0
  0
LINE
  5
56B
  8
0
  6
CONTINUOUS
 10
14472.32693780112
 20
7356.924021928221
 30
0.0
 11
14612.32693780112
 21
7356.924021928221
 31
0.0
  0
LINE
  5
56C
  8
0
  6
CONTINUOUS
 10
13492.32693780112
 20
7356.924021928221
 30
0.0
 11
13492.32693780112
 21
7221.190688594884
 31
0.0
  0
LINE
  5
56D
  8
0
  6
CONTINUOUS
 10
14612.32693780112
 20
7356.924021928221
 30
0.0
 11
14752.32693780112
 21
7356.924021928221
 31
0.0
  0
LINE
  5
56E
  8
0
  6
CONTINUOUS
 10
14752.32693780112
 20
7356.924021928221
 30
0.0
 11
14892.32693780112
 21
7356.924021928221
 31
0.0
  0
LINE
  5
56F
  8
0
  6
CONTINUOUS
 10
14892.32693780112
 20
7356.924021928221
 30
0.0
 11
15032.32693780112
 21
7356.924021928221
 31
0.0
  0
LINE
  5
570
  8
0
  6
CONTINUOUS
 10
14612.32693780112
 20
7356.924021928221
 30
0.0
 11
14612.32693780112
 21
7221.190688594884
 31
0.0
  0
LINE
  5
571
  8
0
  6
CONTINUOUS
 10
15032.32693780112
 20
7356.924021928221
 30
0.0
 11
15172.32693780112
 21
7356.924021928221
 31
0.0
  0
LINE
  5
572
  8
0
  6
CONTINUOUS
 10
15172.32693780112
 20
7356.924021928221
 30
0.0
 11
15312.32693780112
 21
7356.924021928221
 31
0.0
  0
LINE
  5
573
  8
0
  6
CONTINUOUS
 10
15032.32693780112
 20
7356.924021928221
 30
0.0
 11
15032.32693780112
 21
7221.190688594884
 31
0.0
  0
LINE
  5
574
  8
0
  6
CONTINUOUS
 10
15312.32693780112
 20
7356.924021928221
 30
0.0
 11
15312.32693780112
 21
7221.190688594884
 31
0.0
  0
LINE
  5
575
  8
0
  6
CONTINUOUS
 10
13249.92693780114
 20
7221.190688594884
 30
0.0
 11
13389.92693780114
 21
7221.190688594884
 31
0.0
  0
LINE
  5
576
  8
0
  6
CONTINUOUS
 10
13389.92693780114
 20
7221.190688594884
 30
0.0
 11
13492.32693780112
 21
7221.190688594884
 31
0.0
  0
LINE
  5
577
  8
0
  6
CONTINUOUS
 10
13492.32693780112
 20
7221.190688594884
 30
0.0
 11
13632.32693780112
 21
7221.190688594884
 31
0.0
  0
LINE
  5
578
  8
0
  6
CONTINUOUS
 10
13632.32693780112
 20
7221.190688594884
 30
0.0
 11
13772.32693780112
 21
7221.190688594884
 31
0.0
  0
LINE
  5
579
  8
0
  6
CONTINUOUS
 10
13772.32693780112
 20
7221.190688594884
 30
0.0
 11
13912.32693780112
 21
7221.190688594884
 31
0.0
  0
LINE
  5
57A
  8
0
  6
CONTINUOUS
 10
13912.32693780112
 20
7221.190688594884
 30
0.0
 11
14052.32693780112
 21
7221.190688594884
 31
0.0
  0
LINE
  5
57B
  8
0
  6
CONTINUOUS
 10
14052.32693780112
 20
7221.190688594884
 30
0.0
 11
14192.32693780112
 21
7221.190688594884
 31
0.0
  0
LINE
  5
57C
  8
0
  6
CONTINUOUS
 10
14192.32693780112
 20
7221.190688594884
 30
0.0
 11
14332.32693780112
 21
7221.190688594884
 31
0.0
  0
LINE
  5
57D
  8
0
  6
CONTINUOUS
 10
14332.32693780112
 20
7221.190688594884
 30
0.0
 11
14472.32693780112
 21
7221.190688594884
 31
0.0
  0
LINE
  5
57E
  8
0
  6
CONTINUOUS
 10
14472.32693780112
 20
7221.190688594884
 30
0.0
 11
14612.32693780112
 21
7221.190688594884
 31
0.0
  0
LINE
  5
57F
  8
0
  6
CONTINUOUS
 10
14612.32693780112
 20
7221.190688594884
 30
0.0
 11
14752.32693780112
 21
7221.190688594884
 31
0.0
  0
LINE
  5
580
  8
0
  6
CONTINUOUS
 10
14752.32693780112
 20
7221.190688594884
 30
0.0
 11
14892.32693780112
 21
7221.190688594884
 31
0.0
  0
LINE
  5
581
  8
0
  6
CONTINUOUS
 10
14892.32693780112
 20
7221.190688594884
 30
0.0
 11
15032.32693780112
 21
7221.190688594884
 31
0.0
  0
LINE
  5
582
  8
0
  6
CONTINUOUS
 10
15032.32693780112
 20
7221.190688594884
 30
0.0
 11
15172.32693780112
 21
7221.190688594884
 31
0.0
  0
LINE
  5
583
  8
0
  6
CONTINUOUS
 10
15172.32693780112
 20
7221.190688594884
 30
0.0
 11
15312.32693780112
 21
7221.190688594884
 31
0.0
  0
TEXT
  5
584
  8
0
  6
CONTINUOUS
 10
13270.77312822025
 20
7258.940211804033
 30
0.0
 40
64.0
  1
記 号
  0
TEXT
  5
585
  8
0
  6
CONTINUOUS
 10
13660.61489980159
 20
7258.008499214661
 30
0.0
 40
64.0
  1
来　　　　　　　　歴
  0
TEXT
  5
586
  8
0
  6
CONTINUOUS
 10
14641.45759248805
 20
7256.719988154978
 30
0.0
 40
64.0
  1
年・月・日
  0
TEXT
  5
587
  8
0
  6
CONTINUOUS
 10
15099.3229996472
 20
7259.361277481962
 30
0.0
 40
64.0
  1
記 入
  0
POLYLINE
  5
588
  8
0
  6
CONTINUOUS
 66
     1
 10
0.0
 20
0.0
 30
0.0
 70
     1
  0
VERTEX
  5
1CFF
  8
0
  6
CONTINUOUS
 10
13249.92693780115
 20
7356.924021928193
 30
0.0
  0
VERTEX
  5
1D00
  8
0
  6
CONTINUOUS
 10
21309.92693780115
 20
7356.924021928193
 30
0.0
  0
VERTEX
  5
1D01
  8
0
  6
CONTINUOUS
 10
21309.92693780115
 20
1756.924021928193
 30
0.0
  0
VERTEX
  5
1D02
  8
0
  6
CONTINUOUS
 10
13249.92693780115
 20
1756.924021928193
 30
0.0
  0
SEQEND
  5
1D8D
  8
0
  6
CONTINUOUS
  0
POLYLINE
  5
589
  8
0
  6
CONTINUOUS
 66
     1
 10
0.0
 20
0.0
 30
0.0
 70
     1
  0
VERTEX
  5
1D03
  8
0
  6
CONTINUOUS
 10
13049.92693780115
 20
7556.924021928193
 30
0.0
  0
VERTEX
  5
1D04
  8
0
  6
CONTINUOUS
 10
21509.92693780115
 20
7556.924021928193
 30
0.0
  0
VERTEX
  5
1D05
  8
0
  6
CONTINUOUS
 10
21509.92693780115
 20
1556.924021928193
 30
0.0
  0
VERTEX
  5
1D06
  8
0
  6
CONTINUOUS
 10
13049.92693780115
 20
1556.924021928193
 30
0.0
  0
SEQEND
  5
1D8E
  8
0
  6
CONTINUOUS
  0
LINE
  5
58A
  8
0
  6
CONTINUOUS
 10
18649.92693780114
 20
2707.057355261545
 30
0.0
 11
18649.92693780114
 21
2571.324021928226
 31
0.0
  0
LINE
  5
58B
  8
0
  6
CONTINUOUS
 10
18929.92693780114
 20
2707.057355261545
 30
0.0
 11
18929.92693780114
 21
2571.324021928226
 31
0.0
  0
LINE
  5
58C
  8
0
  6
CONTINUOUS
 10
19209.92693780114
 20
2707.057355261545
 30
0.0
 11
19209.92693780114
 21
2571.324021928226
 31
0.0
  0
LINE
  5
58D
  8
0
  6
CONTINUOUS
 10
19489.92693780114
 20
2707.057355261545
 30
0.0
 11
19489.92693780114
 21
2571.324021928226
 31
0.0
  0
LINE
  5
58E
  8
0
  6
CONTINUOUS
 10
19769.92693780114
 20
2707.057355261545
 30
0.0
 11
19769.92693780114
 21
2571.324021928226
 31
0.0
  0
LINE
  5
58F
  8
0
  6
CONTINUOUS
 10
19769.92693780114
 20
2571.324021928226
 30
0.0
 11
19769.92693780114
 21
2435.590688594889
 31
0.0
  0
LINE
  5
590
  8
0
  6
CONTINUOUS
 10
19769.92693780114
 20
2435.590688594889
 30
0.0
 11
19769.92693780114
 21
2299.857355261552
 31
0.0
  0
LINE
  5
591
  8
0
  6
CONTINUOUS
 10
19769.92693780114
 20
2299.857355261552
 30
0.0
 11
19769.92693780114
 21
2164.124021928214
 31
0.0
  0
LINE
  5
592
  8
0
  6
CONTINUOUS
 10
19769.92693780114
 20
2164.124021928214
 30
0.0
 11
19769.92693780114
 21
2028.390688594895
 31
0.0
  0
LINE
  5
593
  8
0
  6
CONTINUOUS
 10
19909.92693780114
 20
2707.057355261545
 30
0.0
 11
19909.92693780114
 21
2571.324021928226
 31
0.0
  0
LINE
  5
594
  8
0
  6
CONTINUOUS
 10
21309.92693780114
 20
2707.057355261545
 30
0.0
 11
21309.92693780114
 21
2571.324021928226
 31
0.0
  0
LINE
  5
595
  8
0
  6
CONTINUOUS
 10
19909.92693780114
 20
2571.324021928226
 30
0.0
 11
19909.92693780114
 21
2435.590688594889
 31
0.0
  0
LINE
  5
596
  8
0
  6
CONTINUOUS
 10
21309.92693780114
 20
2571.324021928226
 30
0.0
 11
21309.92693780114
 21
2435.590688594889
 31
0.0
  0
LINE
  5
597
  8
0
  6
CONTINUOUS
 10
19909.92693780114
 20
2435.590688594889
 30
0.0
 11
19909.92693780114
 21
2299.857355261552
 31
0.0
  0
LINE
  5
598
  8
0
  6
CONTINUOUS
 10
21309.92693780114
 20
2435.590688594889
 30
0.0
 11
21309.92693780114
 21
2299.857355261552
 31
0.0
  0
LINE
  5
599
  8
0
  6
CONTINUOUS
 10
19909.92693780114
 20
2299.857355261552
 30
0.0
 11
19909.92693780114
 21
2164.124021928214
 31
0.0
  0
LINE
  5
59A
  8
0
  6
CONTINUOUS
 10
21309.92693780114
 20
2299.857355261552
 30
0.0
 11
21309.92693780114
 21
2164.124021928214
 31
0.0
  0
LINE
  5
59B
  8
0
  6
CONTINUOUS
 10
19909.92693780114
 20
2164.124021928214
 30
0.0
 11
19909.92693780114
 21
2028.390688594895
 31
0.0
  0
LINE
  5
59C
  8
0
  6
CONTINUOUS
 10
21309.92693780114
 20
2164.124021928214
 30
0.0
 11
21309.92693780114
 21
2028.390688594895
 31
0.0
  0
LINE
  5
59D
  8
0
  6
CONTINUOUS
 10
18649.92693780114
 20
2571.324021928226
 30
0.0
 11
18789.92693780114
 21
2571.324021928226
 31
0.0
  0
LINE
  5
59E
  8
0
  6
CONTINUOUS
 10
18789.92693780114
 20
2571.324021928226
 30
0.0
 11
18929.92693780114
 21
2571.324021928226
 31
0.0
  0
LINE
  5
59F
  8
0
  6
CONTINUOUS
 10
18649.92693780114
 20
2571.324021928226
 30
0.0
 11
18649.92693780114
 21
2435.590688594889
 31
0.0
  0
LINE
  5
5A0
  8
0
  6
CONTINUOUS
 10
18649.92693780114
 20
2435.590688594889
 30
0.0
 11
18649.92693780114
 21
2299.857355261552
 31
0.0
  0
LINE
  5
5A1
  8
0
  6
CONTINUOUS
 10
18929.92693780114
 20
2571.324021928226
 30
0.0
 11
19069.92693780114
 21
2571.324021928226
 31
0.0
  0
LINE
  5
5A2
  8
0
  6
CONTINUOUS
 10
19069.92693780114
 20
2571.324021928226
 30
0.0
 11
19209.92693780114
 21
2571.324021928226
 31
0.0
  0
LINE
  5
5A3
  8
0
  6
CONTINUOUS
 10
18929.92693780114
 20
2571.324021928226
 30
0.0
 11
18929.92693780114
 21
2435.590688594889
 31
0.0
  0
LINE
  5
5A4
  8
0
  6
CONTINUOUS
 10
18929.92693780114
 20
2435.590688594889
 30
0.0
 11
18929.92693780114
 21
2299.857355261552
 31
0.0
  0
LINE
  5
5A5
  8
0
  6
CONTINUOUS
 10
19209.92693780114
 20
2571.324021928226
 30
0.0
 11
19349.92693780114
 21
2571.324021928226
 31
0.0
  0
LINE
  5
5A6
  8
0
  6
CONTINUOUS
 10
19349.92693780114
 20
2571.324021928226
 30
0.0
 11
19489.92693780114
 21
2571.324021928226
 31
0.0
  0
LINE
  5
5A7
  8
0
  6
CONTINUOUS
 10
19209.92693780114
 20
2571.324021928226
 30
0.0
 11
19209.92693780114
 21
2435.590688594889
 31
0.0
  0
LINE
  5
5A8
  8
0
  6
CONTINUOUS
 10
19209.92693780114
 20
2435.590688594889
 30
0.0
 11
19209.92693780114
 21
2299.857355261552
 31
0.0
  0
LINE
  5
5A9
  8
0
  6
CONTINUOUS
 10
19489.92693780114
 20
2571.324021928226
 30
0.0
 11
19629.92693780114
 21
2571.324021928226
 31
0.0
  0
LINE
  5
5AA
  8
0
  6
CONTINUOUS
 10
19629.92693780114
 20
2571.324021928226
 30
0.0
 11
19769.92693780114
 21
2571.324021928226
 31
0.0
  0
LINE
  5
5AB
  8
0
  6
CONTINUOUS
 10
19489.92693780114
 20
2571.324021928226
 30
0.0
 11
19489.92693780114
 21
2435.590688594889
 31
0.0
  0
LINE
  5
5AC
  8
0
  6
CONTINUOUS
 10
19489.92693780114
 20
2435.590688594889
 30
0.0
 11
19489.92693780114
 21
2299.857355261552
 31
0.0
  0
LINE
  5
5AD
  8
0
  6
CONTINUOUS
 10
18649.92693780114
 20
2299.857355261552
 30
0.0
 11
18789.92693780114
 21
2299.857355261552
 31
0.0
  0
LINE
  5
5AE
  8
0
  6
CONTINUOUS
 10
18649.92693780114
 20
2299.857355261552
 30
0.0
 11
18649.92693780114
 21
2164.124021928214
 31
0.0
  0
LINE
  5
5AF
  8
0
  6
CONTINUOUS
 10
18649.92693780114
 20
2164.124021928214
 30
0.0
 11
18649.92693780114
 21
2028.390688594895
 31
0.0
  0
LINE
  5
5B0
  8
0
  6
CONTINUOUS
 10
18789.92693780114
 20
2299.857355261552
 30
0.0
 11
18929.92693780114
 21
2299.857355261552
 31
0.0
  0
LINE
  5
5B1
  8
0
  6
CONTINUOUS
 10
18929.92693780114
 20
2299.857355261552
 30
0.0
 11
19069.92693780114
 21
2299.857355261552
 31
0.0
  0
LINE
  5
5B2
  8
0
  6
CONTINUOUS
 10
19069.92693780114
 20
2299.857355261552
 30
0.0
 11
19209.92693780114
 21
2299.857355261552
 31
0.0
  0
LINE
  5
5B3
  8
0
  6
CONTINUOUS
 10
18789.92693780114
 20
2299.857355261552
 30
0.0
 11
18789.92693780114
 21
2164.124021928214
 31
0.0
  0
LINE
  5
5B4
  8
0
  6
CONTINUOUS
 10
18789.92693780114
 20
2164.124021928214
 30
0.0
 11
18789.92693780114
 21
2028.390688594895
 31
0.0
  0
LINE
  5
5B5
  8
0
  6
CONTINUOUS
 10
19209.92693780114
 20
2299.857355261552
 30
0.0
 11
19349.92693780114
 21
2299.857355261552
 31
0.0
  0
LINE
  5
5B6
  8
0
  6
CONTINUOUS
 10
19209.92693780114
 20
2299.857355261552
 30
0.0
 11
19209.92693780114
 21
2164.124021928214
 31
0.0
  0
LINE
  5
5B7
  8
0
  6
CONTINUOUS
 10
19209.92693780114
 20
2164.124021928214
 30
0.0
 11
19209.92693780114
 21
2028.390688594895
 31
0.0
  0
LINE
  5
5B8
  8
0
  6
CONTINUOUS
 10
19349.92693780114
 20
2299.857355261552
 30
0.0
 11
19489.92693780114
 21
2299.857355261552
 31
0.0
  0
LINE
  5
5B9
  8
0
  6
CONTINUOUS
 10
19489.92693780114
 20
2299.857355261552
 30
0.0
 11
19629.92693780114
 21
2299.857355261552
 31
0.0
  0
LINE
  5
5BA
  8
0
  6
CONTINUOUS
 10
19629.92693780114
 20
2299.857355261552
 30
0.0
 11
19769.92693780114
 21
2299.857355261552
 31
0.0
  0
LINE
  5
5BB
  8
0
  6
CONTINUOUS
 10
19349.92693780114
 20
2299.857355261552
 30
0.0
 11
19349.92693780114
 21
2164.124021928214
 31
0.0
  0
LINE
  5
5BC
  8
0
  6
CONTINUOUS
 10
19349.92693780114
 20
2164.124021928214
 30
0.0
 11
19349.92693780114
 21
2028.390688594895
 31
0.0
  0
LINE
  5
5BD
  8
0
  6
CONTINUOUS
 10
18649.92693780114
 20
2028.390688594895
 30
0.0
 11
18789.92693780114
 21
2028.390688594895
 31
0.0
  0
LINE
  5
5BE
  8
0
  6
CONTINUOUS
 10
18649.92693780114
 20
1756.924021928221
 30
0.0
 11
18789.92693780114
 21
1756.924021928221
 31
0.0
  0
LINE
  5
5BF
  8
0
  6
CONTINUOUS
 10
18789.92693780114
 20
2028.390688594895
 30
0.0
 11
18929.92693780114
 21
2028.390688594895
 31
0.0
  0
LINE
  5
5C0
  8
0
  6
CONTINUOUS
 10
18789.92693780114
 20
1756.924021928221
 30
0.0
 11
18929.92693780114
 21
1756.924021928221
 31
0.0
  0
LINE
  5
5C1
  8
0
  6
CONTINUOUS
 10
18929.92693780114
 20
2028.390688594895
 30
0.0
 11
19069.92693780114
 21
2028.390688594895
 31
0.0
  0
LINE
  5
5C2
  8
0
  6
CONTINUOUS
 10
18929.92693780114
 20
1756.924021928221
 30
0.0
 11
19069.92693780114
 21
1756.924021928221
 31
0.0
  0
LINE
  5
5C3
  8
0
  6
CONTINUOUS
 10
19069.92693780114
 20
2028.390688594895
 30
0.0
 11
19209.92693780114
 21
2028.390688594895
 31
0.0
  0
LINE
  5
5C4
  8
0
  6
CONTINUOUS
 10
19069.92693780114
 20
1756.924021928221
 30
0.0
 11
19209.92693780114
 21
1756.924021928221
 31
0.0
  0
LINE
  5
5C5
  8
0
  6
CONTINUOUS
 10
19209.92693780114
 20
2028.390688594895
 30
0.0
 11
19349.92693780114
 21
2028.390688594895
 31
0.0
  0
LINE
  5
5C6
  8
0
  6
CONTINUOUS
 10
19209.92693780114
 20
1756.924021928221
 30
0.0
 11
19349.92693780114
 21
1756.924021928221
 31
0.0
  0
LINE
  5
5C7
  8
0
  6
CONTINUOUS
 10
19349.92693780114
 20
2028.390688594895
 30
0.0
 11
19489.92693780114
 21
2028.390688594895
 31
0.0
  0
LINE
  5
5C8
  8
0
  6
CONTINUOUS
 10
19349.92693780114
 20
1756.924021928221
 30
0.0
 11
19489.92693780114
 21
1756.924021928221
 31
0.0
  0
LINE
  5
5C9
  8
0
  6
CONTINUOUS
 10
19489.92693780114
 20
2028.390688594895
 30
0.0
 11
19629.92693780114
 21
2028.390688594895
 31
0.0
  0
LINE
  5
5CA
  8
0
  6
CONTINUOUS
 10
19489.92693780114
 20
1756.924021928221
 30
0.0
 11
19629.92693780114
 21
1756.924021928221
 31
0.0
  0
LINE
  5
5CB
  8
0
  6
CONTINUOUS
 10
19629.92693780114
 20
2028.390688594895
 30
0.0
 11
19769.92693780114
 21
2028.390688594895
 31
0.0
  0
LINE
  5
5CC
  8
0
  6
CONTINUOUS
 10
19629.92693780114
 20
1756.924021928221
 30
0.0
 11
19769.92693780114
 21
1756.924021928221
 31
0.0
  0
LINE
  5
5CD
  8
0
  6
CONTINUOUS
 10
18649.92693780114
 20
2028.390688594895
 30
0.0
 11
18649.92693780114
 21
1892.657355261558
 31
0.0
  0
LINE
  5
5CE
  8
0
  6
CONTINUOUS
 10
18649.92693780114
 20
1892.657355261558
 30
0.0
 11
18649.92693780114
 21
1756.924021928221
 31
0.0
  0
LINE
  5
5CF
  8
0
  6
CONTINUOUS
 10
19769.92693780114
 20
2028.390688594895
 30
0.0
 11
19909.92693780114
 21
2028.390688594895
 31
0.0
  0
LINE
  5
5D0
  8
0
  6
CONTINUOUS
 10
19769.92693780114
 20
1756.924021928221
 30
0.0
 11
19909.92693780114
 21
1756.924021928221
 31
0.0
  0
LINE
  5
5D1
  8
0
  6
CONTINUOUS
 10
19769.92693780114
 20
2028.390688594895
 30
0.0
 11
19769.92693780114
 21
1892.657355261558
 31
0.0
  0
LINE
  5
5D2
  8
0
  6
CONTINUOUS
 10
19769.92693780114
 20
1892.657355261558
 30
0.0
 11
19769.92693780114
 21
1756.924021928221
 31
0.0
  0
LINE
  5
5D3
  8
0
  6
CONTINUOUS
 10
19909.92693780114
 20
2028.390688594895
 30
0.0
 11
20049.92693780114
 21
2028.390688594895
 31
0.0
  0
LINE
  5
5D4
  8
0
  6
CONTINUOUS
 10
19909.92693780114
 20
1756.924021928221
 30
0.0
 11
20049.92693780114
 21
1756.924021928221
 31
0.0
  0
LINE
  5
5D5
  8
0
  6
CONTINUOUS
 10
20049.92693780114
 20
2028.390688594895
 30
0.0
 11
20189.92693780114
 21
2028.390688594895
 31
0.0
  0
LINE
  5
5D6
  8
0
  6
CONTINUOUS
 10
20049.92693780114
 20
1756.924021928221
 30
0.0
 11
20189.92693780114
 21
1756.924021928221
 31
0.0
  0
LINE
  5
5D7
  8
0
  6
CONTINUOUS
 10
20189.92693780114
 20
2028.390688594895
 30
0.0
 11
20329.92693780114
 21
2028.390688594895
 31
0.0
  0
LINE
  5
5D8
  8
0
  6
CONTINUOUS
 10
20189.92693780114
 20
1756.924021928221
 30
0.0
 11
20329.92693780114
 21
1756.924021928221
 31
0.0
  0
LINE
  5
5D9
  8
0
  6
CONTINUOUS
 10
20329.92693780114
 20
2028.390688594895
 30
0.0
 11
20469.92693780114
 21
2028.390688594895
 31
0.0
  0
LINE
  5
5DA
  8
0
  6
CONTINUOUS
 10
20329.92693780114
 20
1756.924021928221
 30
0.0
 11
20469.92693780114
 21
1756.924021928221
 31
0.0
  0
LINE
  5
5DB
  8
0
  6
CONTINUOUS
 10
20469.92693780114
 20
2028.390688594895
 30
0.0
 11
20609.92693780114
 21
2028.390688594895
 31
0.0
  0
LINE
  5
5DC
  8
0
  6
CONTINUOUS
 10
20469.92693780114
 20
1756.924021928221
 30
0.0
 11
20609.92693780114
 21
1756.924021928221
 31
0.0
  0
LINE
  5
5DD
  8
0
  6
CONTINUOUS
 10
20609.92693780114
 20
2028.390688594895
 30
0.0
 11
20749.92693780114
 21
2028.390688594895
 31
0.0
  0
LINE
  5
5DE
  8
0
  6
CONTINUOUS
 10
20609.92693780114
 20
1756.924021928221
 30
0.0
 11
20749.92693780114
 21
1756.924021928221
 31
0.0
  0
LINE
  5
5DF
  8
0
  6
CONTINUOUS
 10
20749.92693780114
 20
2028.390688594895
 30
0.0
 11
20889.92693780114
 21
2028.390688594895
 31
0.0
  0
LINE
  5
5E0
  8
0
  6
CONTINUOUS
 10
20749.92693780114
 20
1756.924021928221
 30
0.0
 11
20889.92693780114
 21
1756.924021928221
 31
0.0
  0
LINE
  5
5E1
  8
0
  6
CONTINUOUS
 10
20889.92693780114
 20
2028.390688594895
 30
0.0
 11
21029.92693780114
 21
2028.390688594895
 31
0.0
  0
LINE
  5
5E2
  8
0
  6
CONTINUOUS
 10
20889.92693780114
 20
1756.924021928221
 30
0.0
 11
21029.92693780114
 21
1756.924021928221
 31
0.0
  0
LINE
  5
5E3
  8
0
  6
CONTINUOUS
 10
21029.92693780114
 20
2028.390688594895
 30
0.0
 11
21169.92693780114
 21
2028.390688594895
 31
0.0
  0
LINE
  5
5E4
  8
0
  6
CONTINUOUS
 10
21029.92693780114
 20
1756.924021928221
 30
0.0
 11
21169.92693780114
 21
1756.924021928221
 31
0.0
  0
LINE
  5
5E5
  8
0
  6
CONTINUOUS
 10
21169.92693780114
 20
2028.390688594895
 30
0.0
 11
21309.92693780114
 21
2028.390688594895
 31
0.0
  0
LINE
  5
5E6
  8
0
  6
CONTINUOUS
 10
21169.92693780114
 20
1756.924021928221
 30
0.0
 11
21309.92693780114
 21
1756.924021928221
 31
0.0
  0
LINE
  5
5E7
  8
0
  6
CONTINUOUS
 10
19909.92693780114
 20
2028.390688594895
 30
0.0
 11
19909.92693780114
 21
1892.657355261558
 31
0.0
  0
LINE
  5
5E8
  8
0
  6
CONTINUOUS
 10
21309.92693780114
 20
2028.390688594895
 30
0.0
 11
21309.92693780114
 21
1892.657355261558
 31
0.0
  0
LINE
  5
5E9
  8
0
  6
CONTINUOUS
 10
19909.92693780114
 20
1892.657355261558
 30
0.0
 11
19909.92693780114
 21
1756.924021928221
 31
0.0
  0
LINE
  5
5EA
  8
0
  6
CONTINUOUS
 10
21309.92693780114
 20
1892.657355261558
 30
0.0
 11
21309.92693780114
 21
1756.924021928221
 31
0.0
  0
TEXT
  5
5EE
  8
0
  6
CONTINUOUS
 10
19802.65523729436
 20
1919.149587192398
 30
0.0
 40
70.0
  1
図
  0
TEXT
  5
5EF
  8
0
  6
CONTINUOUS
 10
19799.38260327201
 20
1793.226529209671
 30
0.0
 40
70.0
  1
番
  0
TEXT
  5
5F0
  8
0
  6
CONTINUOUS
 10
19799.38260327201
 20
2501.324021928187
 30
0.0
 40
70.0
  1
名
  0
TEXT
  5
5F1
  8
0
  6
CONTINUOUS
 10
19798.93968431457
 20
2166.759202616289
 30
0.0
 40
70.0
  1
称
  0
TEXT
  5
5F2
  8
0
  6
CONTINUOUS
 10
18692.47411899632
 20
2243.317171694478
 30
0.0
 40
50.0
  1
年
  0
TEXT
  5
5F3
  8
0
  6
CONTINUOUS
 10
18715.38386333254
 20
2188.530872161966
 30
0.0
 40
50.0
  1
・
  0
TEXT
  5
5F4
  8
0
  6
CONTINUOUS
 10
18689.20115842894
 20
2143.554847980035
 30
0.0
 40
50.0
  1
月
  0
TEXT
  5
5F5
  8
0
  6
CONTINUOUS
 10
18712.11090276521
 20
2098.578823798074
 30
0.0
 40
50.0
  1
・
  0
TEXT
  5
5F6
  8
0
  6
CONTINUOUS
 10
18699.01971358593
 20
2052.797538828629
 30
0.0
 40
50.0
  1
日
  0
TEXT
  5
5F7
  8
0
  6
CONTINUOUS
 10
19241.66208702899
 20
2203.709993378841
 30
0.0
 40
60.0
  1
尺
  0
TEXT
  5
5F8
  8
0
  6
CONTINUOUS
 10
19241.54472263661
 20
2083.217500638129
 30
0.0
 40
60.0
  1
度
  0
TEXT
  5
5F9
  8
0
  6
CONTINUOUS
 10
18679.3829298171
 20
2611.08634564266
 30
0.0
 40
60.0
  1
設　計
  0
TEXT
  5
5FA
  8
0
  6
CONTINUOUS
 10
18956.10964270463
 20
2611.08634564263
 30
0.0
 40
60.0
  1
製　図
  0
TEXT
  5
5FB
  8
0
  6
CONTINUOUS
 10
19236.10964270463
 20
2614.356437426177
 30
0.0
 40
60.0
  1
検　図
  0
TEXT
  5
5FC
  8
0
  6
CONTINUOUS
 10
19522.6552372943
 20
2611.08634564266
 30
0.0
 40
60.0
  1
承　認
  0
LINE
  5
5FD
  8
0
 10
18649.92693780114
 20
2707.057355261545
 30
0.0
 11
18789.92693780114
 21
2707.057355261545
 31
0.0
  0
LINE
  5
5FE
  8
0
 10
18789.92693780114
 20
2707.057355261545
 30
0.0
 11
18929.92693780114
 21
2707.057355261545
 31
0.0
  0
LINE
  5
5FF
  8
0
 10
18929.92693780114
 20
2707.057355261545
 30
0.0
 11
19069.92693780114
 21
2707.057355261545
 31
0.0
  0
LINE
  5
600
  8
0
 10
19069.92693780114
 20
2707.057355261545
 30
0.0
 11
19209.92693780114
 21
2707.057355261545
 31
0.0
  0
LINE
  5
601
  8
0
 10
19209.92693780114
 20
2707.057355261545
 30
0.0
 11
19349.92693780114
 21
2707.057355261545
 31
0.0
  0
LINE
  5
602
  8
0
 10
19349.92693780114
 20
2707.057355261545
 30
0.0
 11
19489.92693780114
 21
2707.057355261545
 31
0.0
  0
LINE
  5
603
  8
0
 10
19489.92693780114
 20
2707.057355261545
 30
0.0
 11
19629.92693780114
 21
2707.057355261545
 31
0.0
  0
LINE
  5
604
  8
0
 10
19629.92693780114
 20
2707.057355261545
 30
0.0
 11
19769.92693780114
 21
2707.057355261545
 31
0.0
  0
LINE
  5
605
  8
0
 10
19769.92693780114
 20
2707.057355261545
 30
0.0
 11
19909.92693780114
 21
2707.057355261545
 31
0.0
  0
LINE
  5
606
  8
0
 10
19909.92693780114
 20
2707.057355261545
 30
0.0
 11
20049.92693780114
 21
2707.057355261545
 31
0.0
  0
LINE
  5
607
  8
0
 10
20049.92693780114
 20
2707.057355261545
 30
0.0
 11
20189.92693780114
 21
2707.057355261545
 31
0.0
  0
LINE
  5
608
  8
0
 10
20189.92693780114
 20
2707.057355261545
 30
0.0
 11
20329.92693780114
 21
2707.057355261545
 31
0.0
  0
LINE
  5
609
  8
0
 10
20329.92693780114
 20
2707.057355261545
 30
0.0
 11
20469.92693780114
 21
2707.057355261545
 31
0.0
  0
LINE
  5
60A
  8
0
 10
20469.92693780114
 20
2707.057355261545
 30
0.0
 11
20609.92693780114
 21
2707.057355261545
 31
0.0
  0
LINE
  5
60B
  8
0
 10
20609.92693780114
 20
2707.057355261545
 30
0.0
 11
20749.92693780114
 21
2707.057355261545
 31
0.0
  0
LINE
  5
60C
  8
0
 10
20749.92693780114
 20
2707.057355261545
 30
0.0
 11
20889.92693780114
 21
2707.057355261545
 31
0.0
  0
LINE
  5
60D
  8
0
 10
20889.92693780114
 20
2707.057355261545
 30
0.0
 11
21029.92693780114
 21
2707.057355261545
 31
0.0
  0
LINE
  5
60E
  8
0
 10
21029.92693780114
 20
2707.057355261545
 30
0.0
 11
21169.92693780114
 21
2707.057355261545
 31
0.0
  0
LINE
  5
60F
  8
0
 10
21169.92693780114
 20
2707.057355261545
 30
0.0
 11
21309.92693780114
 21
2707.057355261545
 31
0.0
  0
LINE
  5
610
  8
0
 10
18649.92693780114
 20
2987.057355261545
 30
0.0
 11
18789.92693780114
 21
2987.057355261545
 31
0.0
  0
LINE
  5
611
  8
0
 10
18649.92693780114
 20
2707.057355261545
 30
0.0
 11
18789.92693780114
 21
2707.057355261545
 31
0.0
  0
LINE
  5
612
  8
0
 10
18789.92693780114
 20
2987.057355261545
 30
0.0
 11
18929.92693780114
 21
2987.057355261545
 31
0.0
  0
LINE
  5
613
  8
0
 10
18789.92693780114
 20
2707.057355261545
 30
0.0
 11
18929.92693780114
 21
2707.057355261545
 31
0.0
  0
LINE
  5
614
  8
0
 10
18929.92693780114
 20
2987.057355261545
 30
0.0
 11
19069.92693780114
 21
2987.057355261545
 31
0.0
  0
LINE
  5
615
  8
0
 10
18929.92693780114
 20
2707.057355261545
 30
0.0
 11
19069.92693780114
 21
2707.057355261545
 31
0.0
  0
LINE
  5
616
  8
0
 10
19069.92693780114
 20
2987.057355261545
 30
0.0
 11
19209.92693780114
 21
2987.057355261545
 31
0.0
  0
LINE
  5
617
  8
0
 10
19069.92693780114
 20
2707.057355261545
 30
0.0
 11
19209.92693780114
 21
2707.057355261545
 31
0.0
  0
LINE
  5
618
  8
0
 10
18649.92693780114
 20
2987.057355261545
 30
0.0
 11
18649.92693780114
 21
2847.057355261545
 31
0.0
  0
LINE
  5
619
  8
0
 10
18649.92693780114
 20
2847.057355261545
 30
0.0
 11
18649.92693780114
 21
2707.057355261545
 31
0.0
  0
LINE
  5
61A
  8
0
 10
19209.92693780114
 20
2987.057355261545
 30
0.0
 11
19349.92693780114
 21
2987.057355261545
 31
0.0
  0
LINE
  5
61B
  8
0
 10
19209.92693780114
 20
2707.057355261545
 30
0.0
 11
19349.92693780114
 21
2707.057355261545
 31
0.0
  0
LINE
  5
61C
  8
0
 10
19349.92693780114
 20
2987.057355261545
 30
0.0
 11
19489.92693780114
 21
2987.057355261545
 31
0.0
  0
LINE
  5
61D
  8
0
 10
19349.92693780114
 20
2707.057355261545
 30
0.0
 11
19489.92693780114
 21
2707.057355261545
 31
0.0
  0
LINE
  5
61E
  8
0
 10
19489.92693780114
 20
2987.057355261545
 30
0.0
 11
19629.92693780114
 21
2987.057355261545
 31
0.0
  0
LINE
  5
61F
  8
0
 10
19489.92693780114
 20
2707.057355261545
 30
0.0
 11
19629.92693780114
 21
2707.057355261545
 31
0.0
  0
LINE
  5
620
  8
0
 10
19629.92693780114
 20
2987.057355261545
 30
0.0
 11
19769.92693780114
 21
2987.057355261545
 31
0.0
  0
LINE
  5
621
  8
0
 10
19629.92693780114
 20
2707.057355261545
 30
0.0
 11
19769.92693780114
 21
2707.057355261545
 31
0.0
  0
LINE
  5
622
  8
0
 10
19769.92693780114
 20
2987.057355261545
 30
0.0
 11
19909.92693780114
 21
2987.057355261545
 31
0.0
  0
LINE
  5
623
  8
0
 10
19769.92693780114
 20
2707.057355261545
 30
0.0
 11
19909.92693780114
 21
2707.057355261545
 31
0.0
  0
LINE
  5
624
  8
0
 10
19909.92693780114
 20
2987.057355261545
 30
0.0
 11
20049.92693780114
 21
2987.057355261545
 31
0.0
  0
LINE
  5
625
  8
0
 10
19909.92693780114
 20
2707.057355261545
 30
0.0
 11
20049.92693780114
 21
2707.057355261545
 31
0.0
  0
LINE
  5
626
  8
0
 10
20049.92693780114
 20
2987.057355261545
 30
0.0
 11
20189.92693780114
 21
2987.057355261545
 31
0.0
  0
LINE
  5
627
  8
0
 10
20049.92693780114
 20
2707.057355261545
 30
0.0
 11
20189.92693780114
 21
2707.057355261545
 31
0.0
  0
LINE
  5
628
  8
0
 10
20189.92693780114
 20
2987.057355261545
 30
0.0
 11
20329.92693780114
 21
2987.057355261545
 31
0.0
  0
LINE
  5
629
  8
0
 10
20189.92693780114
 20
2707.057355261545
 30
0.0
 11
20329.92693780114
 21
2707.057355261545
 31
0.0
  0
LINE
  5
62A
  8
0
 10
20329.92693780114
 20
2987.057355261545
 30
0.0
 11
20469.92693780114
 21
2987.057355261545
 31
0.0
  0
LINE
  5
62B
  8
0
 10
20329.92693780114
 20
2707.057355261545
 30
0.0
 11
20469.92693780114
 21
2707.057355261545
 31
0.0
  0
LINE
  5
62C
  8
0
 10
20469.92693780114
 20
2987.057355261545
 30
0.0
 11
20609.92693780114
 21
2987.057355261545
 31
0.0
  0
LINE
  5
62D
  8
0
 10
20469.92693780114
 20
2707.057355261545
 30
0.0
 11
20609.92693780114
 21
2707.057355261545
 31
0.0
  0
LINE
  5
62E
  8
0
 10
20609.92693780114
 20
2987.057355261545
 30
0.0
 11
20749.92693780114
 21
2987.057355261545
 31
0.0
  0
LINE
  5
62F
  8
0
 10
20609.92693780114
 20
2707.057355261545
 30
0.0
 11
20749.92693780114
 21
2707.057355261545
 31
0.0
  0
LINE
  5
630
  8
0
 10
20749.92693780114
 20
2987.057355261545
 30
0.0
 11
20889.92693780114
 21
2987.057355261545
 31
0.0
  0
LINE
  5
631
  8
0
 10
20749.92693780114
 20
2707.057355261545
 30
0.0
 11
20889.92693780114
 21
2707.057355261545
 31
0.0
  0
LINE
  5
632
  8
0
 10
20889.92693780114
 20
2987.057355261545
 30
0.0
 11
21029.92693780114
 21
2987.057355261545
 31
0.0
  0
LINE
  5
633
  8
0
 10
20889.92693780114
 20
2707.057355261545
 30
0.0
 11
21029.92693780114
 21
2707.057355261545
 31
0.0
  0
LINE
  5
634
  8
0
 10
21029.92693780114
 20
2987.057355261545
 30
0.0
 11
21169.92693780114
 21
2987.057355261545
 31
0.0
  0
LINE
  5
635
  8
0
 10
21029.92693780114
 20
2707.057355261545
 30
0.0
 11
21169.92693780114
 21
2707.057355261545
 31
0.0
  0
LINE
  5
636
  8
0
 10
21169.92693780114
 20
2987.057355261545
 30
0.0
 11
21309.92693780114
 21
2987.057355261545
 31
0.0
  0
LINE
  5
637
  8
0
 10
21169.92693780114
 20
2707.057355261545
 30
0.0
 11
21309.92693780114
 21
2707.057355261545
 31
0.0
  0
LINE
  5
638
  8
0
 10
19209.92693780114
 20
2987.057355261545
 30
0.0
 11
19209.92693780114
 21
2847.057355261545
 31
0.0
  0
LINE
  5
639
  8
0
 10
21309.92693780114
 20
2987.057355261545
 30
0.0
 11
21309.92693780114
 21
2847.057355261545
 31
0.0
  0
LINE
  5
63A
  8
0
 10
19209.92693780114
 20
2847.057355261545
 30
0.0
 11
19209.92693780114
 21
2707.057355261545
 31
0.0
  0
LINE
  5
63B
  8
0
 10
21309.92693780114
 20
2847.057355261545
 30
0.0
 11
21309.92693780114
 21
2707.057355261545
 31
0.0
  0
TEXT
  5
63C
  8
0
  6
CONTINUOUS
 10
18717.09656048237
 20
2811.786556040519
 30
0.0
 40
70.0
  1
納　入　先
  0
TEXT
  5
63E
  8
0
 10
19404.35398654609
 20
2128.383526551238
 30
0.0
 40
60.0
  1
１／２０
  0
TEXT
  5
63F
  8
0
 10
20004.06648684796
 20
2419.780798006555
 30
0.0
 40
130.0
  1
ＷＴ－６０００
  0
TEXT
  5
640
  8
0
 10
20019.83413316423
 20
2194.279652206328
 30
0.0
 40
100.0
  1
製品図
  0
DIMENSION
  5
653
  8
寸法線
  2
*D0
 10
14445.58701598809
 20
4944.845207441471
 30
0.0
 11
14381.58701598808
 21
3769.845207441474
 31
0.0
 70
    32
 13
14709.78199284122
 23
2594.845207441471
 33
0.0
 14
14709.78199284122
 24
4944.845207441471
 34
0.0
 50
90.0
  0
DIMENSION
  5
678
  8
寸法線
  2
*D1
 10
14150.28474861394
 20
5394.845112074041
 30
0.0
 11
14086.28474861394
 21
3994.845159757758
 31
0.0
 70
    32
 13
14709.78199284122
 23
2594.845207441471
 33
0.0
 14
15640.78193943546
 24
5394.84511207404
 34
0.0
 50
90.0
  0
DIMENSION
  5
6A2
  8
寸法線
  2
*D2
 10
16601.78188424155
 20
2071.384145915021
 30
0.0
 11
15640.78193943546
 21
2135.384145915021
 31
0.0
 70
    32
  1
O.D%%c<>
 13
14679.78199462936
 23
2624.845215428571
 33
0.0
 14
16601.78188424155
 24
2624.845205653332
 34
0.0
  0
DIMENSION
  5
6C7
  8
寸法線
  2
*D3
 10
19148.77605761158
 20
5595.101027061508
 30
0.0
 11
19272.91310021104
 21
5681.071902839599
 31
0.0
 70
   163
  1
I.D<>
 15
19535.1628971928
 25
5862.692507350824
 35
0.0
 40
0.0
  0
ARC
  5
73B
  8
0
 10
19341.96947740219
 20
5728.896767206164
 30
0.0
 40
961.0
 50
2.594400824972104
 51
357.4056009963835
  0
ARC
  5
73C
  8
2
 10
19341.96947740219
 20
5728.896767206165
 30
0.0
 40
860.9999656677254
 50
10.49362201870664
 51
79.5064345429392
  0
DIMENSION
  5
87F
  8
寸法線
  2
*D5
 10
15875.7819341828
 20
5602.506359304465
 30
0.0
 11
15640.78193943546
 21
5602.506359304465
 31
0.0
 70
   160
  1
I.D%%c<>
 13
15405.78194468811
 23
5334.845169294499
 33
0.0
 14
15875.7819341828
 24
5334.845169294499
 34
0.0
  0
TEXT
  5
8C0
  8
0
 10
19927.61716757549
 20
1824.204196230671
 30
0.0
 40
130.0
  1
T０００１８１－０８△
 41
0.8
  0
LINE
  5
C6E
  8
0
 10
21309.92693780114
 20
3707.057355261545
 30
0.0
 11
21309.92693780114
 21
3587.057355261545
 31
0.0
  0
LINE
  5
C88
  8
0
 10
21309.92693780114
 20
3587.057355261545
 30
0.0
 11
21309.92693780114
 21
3467.057355261545
 31
0.0
  0
LINE
  5
CA2
  8
0
 10
21309.92693780114
 20
3467.057355261545
 30
0.0
 11
21309.92693780114
 21
3347.057355261545
 31
0.0
  0
LINE
  5
CD6
  8
0
 10
21309.92693780114
 20
3347.057355261545
 30
0.0
 11
21309.92693780114
 21
3227.057355261545
 31
0.0
  0
LINE
  5
CF0
  8
0
 10
21309.92693780114
 20
3227.057355261545
 30
0.0
 11
21309.92693780114
 21
3107.057355261545
 31
0.0
  0
LINE
  5
CF2
  8
0
 10
18649.92693780114
 20
2987.057355261545
 30
0.0
 11
18789.92693780114
 21
2987.057355261545
 31
0.0
  0
LINE
  5
CF5
  8
0
 10
18789.92693780114
 20
2987.057355261545
 30
0.0
 11
18929.92693780114
 21
2987.057355261545
 31
0.0
  0
LINE
  5
CF7
  8
0
 10
18929.92693780114
 20
2987.057355261545
 30
0.0
 11
19069.92693780114
 21
2987.057355261545
 31
0.0
  0
LINE
  5
CFA
  8
0
 10
19069.92693780114
 20
2987.057355261545
 30
0.0
 11
19209.92693780114
 21
2987.057355261545
 31
0.0
  0
LINE
  5
CFC
  8
0
 10
19209.92693780114
 20
2987.057355261545
 30
0.0
 11
19349.92693780114
 21
2987.057355261545
 31
0.0
  0
LINE
  5
CFE
  8
0
 10
19349.92693780114
 20
2987.057355261545
 30
0.0
 11
19489.92693780114
 21
2987.057355261545
 31
0.0
  0
LINE
  5
D00
  8
0
 10
19489.92693780114
 20
2987.057355261545
 30
0.0
 11
19629.92693780114
 21
2987.057355261545
 31
0.0
  0
LINE
  5
D02
  8
0
 10
19629.92693780114
 20
2987.057355261545
 30
0.0
 11
19769.92693780114
 21
2987.057355261545
 31
0.0
  0
LINE
  5
D05
  8
0
 10
19769.92693780114
 20
2987.057355261545
 30
0.0
 11
19909.92693780114
 21
2987.057355261545
 31
0.0
  0
LINE
  5
D07
  8
0
 10
19909.92693780114
 20
2987.057355261545
 30
0.0
 11
20049.92693780114
 21
2987.057355261545
 31
0.0
  0
LINE
  5
D0A
  8
0
 10
20049.92693780114
 20
2987.057355261545
 30
0.0
 11
20189.92693780114
 21
2987.057355261545
 31
0.0
  0
LINE
  5
D0C
  8
0
 10
20189.92693780114
 20
2987.057355261545
 30
0.0
 11
20329.92693780114
 21
2987.057355261545
 31
0.0
  0
LINE
  5
D0F
  8
0
 10
20329.92693780114
 20
2987.057355261545
 30
0.0
 11
20469.92693780114
 21
2987.057355261545
 31
0.0
  0
LINE
  5
D11
  8
0
 10
20469.92693780114
 20
2987.057355261545
 30
0.0
 11
20609.92693780114
 21
2987.057355261545
 31
0.0
  0
LINE
  5
D14
  8
0
 10
20609.92693780114
 20
2987.057355261545
 30
0.0
 11
20749.92693780114
 21
2987.057355261545
 31
0.0
  0
LINE
  5
D16
  8
0
 10
20749.92693780114
 20
2987.057355261545
 30
0.0
 11
20889.92693780114
 21
2987.057355261545
 31
0.0
  0
LINE
  5
D18
  8
0
 10
20889.92693780114
 20
2987.057355261545
 30
0.0
 11
21029.92693780114
 21
2987.057355261545
 31
0.0
  0
LINE
  5
D1A
  8
0
 10
21029.92693780114
 20
2987.057355261545
 30
0.0
 11
21169.92693780114
 21
2987.057355261545
 31
0.0
  0
LINE
  5
D1C
  8
0
 10
21169.92693780114
 20
2987.057355261545
 30
0.0
 11
21309.92693780114
 21
2987.057355261545
 31
0.0
  0
LINE
  5
D1D
  8
0
 10
21309.92693780114
 20
3107.057355261545
 30
0.0
 11
21309.92693780114
 21
2987.057355261545
 31
0.0
  0
DIMENSION
  5
F2A
  8
寸法線
  2
*D6
 10
14445.58701598809
 20
5394.84511207404
 30
0.0
 11
14381.58701598808
 21
5169.845159757758
 31
0.0
 70
    32
 13
14679.7819159319
 23
4944.845207441471
 33
0.0
 14
15640.78193943546
 24
5394.84511207404
 34
0.0
 50
90.0
  0
DIMENSION
  5
F9E
  8
寸法線
  2
*D8
 10
15009.78183456277
 20
5245.795947687515
 30
0.0
 11
14859.78183456277
 21
5309.795947687515
 31
0.0
 70
    32
 13
14709.78183456277
 23
5093.711912155805
 33
0.0
 14
15009.78183456277
 24
5094.845207441471
 34
0.0
  0
TEXT
  5
11FC
  8
0
 10
18977.64956694752
 20
1843.4371520181
 30
0.0
 40
80.0
  1
北海道スイコー株式会社
 41
0.75
  0
TEXT
  5
1208
  8
0
 10
18805.42907953879
 20
2131.941885662181
 30
0.0
 40
60.0
  1
２０２１．９．３０
 41
0.6
  0
LINE
  5
1301
  8
0
 10
15682.8225956777
 20
7221.742215844742
 30
0.0
 11
15787.8225956777
 21
7221.742215844742
 31
0.0
  0
LINE
  5
1302
  8
0
 10
15787.8225956777
 20
7221.742215844742
 30
0.0
 11
15892.8225956777
 21
7221.742215844742
 31
0.0
  0
LINE
  5
1303
  8
0
 10
15892.8225956777
 20
7221.742215844742
 30
0.0
 11
15997.8225956777
 21
7221.742215844742
 31
0.0
  0
LINE
  5
1304
  8
0
 10
15997.8225956777
 20
7221.742215844742
 30
0.0
 11
16102.8225956777
 21
7221.742215844742
 31
0.0
  0
LINE
  5
1305
  8
0
 10
16102.8225956777
 20
7221.742215844742
 30
0.0
 11
16207.8225956777
 21
7221.742215844742
 31
0.0
  0
LINE
  5
1306
  8
0
 10
16207.8225956777
 20
7221.742215844742
 30
0.0
 11
16312.8225956777
 21
7221.742215844742
 31
0.0
  0
LINE
  5
1307
  8
0
 10
16312.8225956777
 20
7221.742215844742
 30
0.0
 11
16417.8225956777
 21
7221.742215844742
 31
0.0
  0
LINE
  5
1308
  8
0
 10
16417.8225956777
 20
7221.742215844742
 30
0.0
 11
16522.8225956777
 21
7221.742215844742
 31
0.0
  0
LINE
  5
1309
  8
0
 10
16522.8225956777
 20
7221.742215844742
 30
0.0
 11
16627.8225956777
 21
7221.742215844742
 31
0.0
  0
LINE
  5
130A
  8
0
 10
16627.8225956777
 20
7221.742215844742
 30
0.0
 11
16732.8225956777
 21
7221.742215844742
 31
0.0
  0
LINE
  5
130B
  8
0
 10
16732.8225956777
 20
7221.742215844742
 30
0.0
 11
16837.8225956777
 21
7221.742215844742
 31
0.0
  0
LINE
  5
130C
  8
0
 10
16837.8225956777
 20
7221.742215844742
 30
0.0
 11
16942.8225956777
 21
7221.742215844742
 31
0.0
  0
LINE
  5
130D
  8
0
 10
16942.8225956777
 20
7221.742215844742
 30
0.0
 11
17047.8225956777
 21
7221.742215844742
 31
0.0
  0
LINE
  5
130E
  8
0
 10
17047.8225956777
 20
7221.742215844742
 30
0.0
 11
17152.8225956777
 21
7221.742215844742
 31
0.0
  0
LINE
  5
130F
  8
0
 10
17152.8225956777
 20
7221.742215844742
 30
0.0
 11
17257.8225956777
 21
7221.742215844742
 31
0.0
  0
LINE
  5
1310
  8
0
 10
17257.8225956777
 20
7221.742215844742
 30
0.0
 11
17362.8225956777
 21
7221.742215844742
 31
0.0
  0
LINE
  5
1311
  8
0
 10
17362.8225956777
 20
7221.742215844742
 30
0.0
 11
17467.8225956777
 21
7221.742215844742
 31
0.0
  0
LINE
  5
1312
  8
0
 10
15682.8225956777
 20
7221.742215844742
 30
0.0
 11
15682.8225956777
 21
7119.942215844739
 31
0.0
  0
LINE
  5
1313
  8
0
 10
17467.8225956777
 20
7221.742215844742
 30
0.0
 11
17467.8225956777
 21
7119.942215844739
 31
0.0
  0
LINE
  5
1314
  8
0
 10
15682.8225956777
 20
7119.942215844739
 30
0.0
 11
15787.8225956777
 21
7119.942215844739
 31
0.0
  0
LINE
  5
1315
  8
0
 10
15787.8225956777
 20
7119.942215844739
 30
0.0
 11
15892.8225956777
 21
7119.942215844739
 31
0.0
  0
LINE
  5
1316
  8
0
 10
15892.8225956777
 20
7119.942215844739
 30
0.0
 11
15997.8225956777
 21
7119.942215844739
 31
0.0
  0
LINE
  5
1317
  8
0
 10
15997.8225956777
 20
7119.942215844739
 30
0.0
 11
16102.8225956777
 21
7119.942215844739
 31
0.0
  0
LINE
  5
1318
  8
0
 10
16102.8225956777
 20
7119.942215844739
 30
0.0
 11
16207.8225956777
 21
7119.942215844739
 31
0.0
  0
LINE
  5
1319
  8
0
 10
16207.8225956777
 20
7119.942215844739
 30
0.0
 11
16312.8225956777
 21
7119.942215844739
 31
0.0
  0
LINE
  5
131A
  8
0
 10
16312.8225956777
 20
7119.942215844739
 30
0.0
 11
16417.8225956777
 21
7119.942215844739
 31
0.0
  0
LINE
  5
131B
  8
0
 10
16417.8225956777
 20
7119.942215844739
 30
0.0
 11
16522.8225956777
 21
7119.942215844739
 31
0.0
  0
LINE
  5
131C
  8
0
 10
16522.8225956777
 20
7119.942215844739
 30
0.0
 11
16627.8225956777
 21
7119.942215844739
 31
0.0
  0
LINE
  5
131D
  8
0
 10
16627.8225956777
 20
7119.942215844739
 30
0.0
 11
16732.8225956777
 21
7119.942215844739
 31
0.0
  0
LINE
  5
131E
  8
0
 10
16732.8225956777
 20
7119.942215844739
 30
0.0
 11
16837.8225956777
 21
7119.942215844739
 31
0.0
  0
LINE
  5
131F
  8
0
 10
16837.8225956777
 20
7119.942215844739
 30
0.0
 11
16942.8225956777
 21
7119.942215844739
 31
0.0
  0
LINE
  5
1320
  8
0
 10
16942.8225956777
 20
7119.942215844739
 30
0.0
 11
17047.8225956777
 21
7119.942215844739
 31
0.0
  0
LINE
  5
1321
  8
0
 10
17047.8225956777
 20
7119.942215844739
 30
0.0
 11
17152.8225956777
 21
7119.942215844739
 31
0.0
  0
LINE
  5
1322
  8
0
 10
17152.8225956777
 20
7119.942215844739
 30
0.0
 11
17257.8225956777
 21
7119.942215844739
 31
0.0
  0
LINE
  5
1323
  8
0
 10
17257.8225956777
 20
7119.942215844739
 30
0.0
 11
17362.8225956777
 21
7119.942215844739
 31
0.0
  0
LINE
  5
1324
  8
0
 10
17362.8225956777
 20
7119.942215844739
 30
0.0
 11
17467.8225956777
 21
7119.942215844739
 31
0.0
  0
LINE
  5
1325
  8
0
 10
15682.8225956777
 20
7119.942215844739
 30
0.0
 11
15682.8225956777
 21
7018.142215844736
 31
0.0
  0
LINE
  5
1326
  8
0
 10
17467.8225956777
 20
7119.942215844739
 30
0.0
 11
17467.8225956777
 21
7018.142215844736
 31
0.0
  0
LINE
  5
1327
  8
0
 10
15682.8225956777
 20
7018.142215844736
 30
0.0
 11
15787.8225956777
 21
7018.142215844736
 31
0.0
  0
LINE
  5
1328
  8
0
 10
15787.8225956777
 20
7018.142215844736
 30
0.0
 11
15892.8225956777
 21
7018.142215844736
 31
0.0
  0
LINE
  5
1329
  8
0
 10
15892.8225956777
 20
7018.142215844736
 30
0.0
 11
15997.8225956777
 21
7018.142215844736
 31
0.0
  0
LINE
  5
132A
  8
0
 10
15997.8225956777
 20
7018.142215844736
 30
0.0
 11
16102.8225956777
 21
7018.142215844736
 31
0.0
  0
LINE
  5
132B
  8
0
 10
16102.8225956777
 20
7018.142215844736
 30
0.0
 11
16207.8225956777
 21
7018.142215844736
 31
0.0
  0
LINE
  5
132C
  8
0
 10
16207.8225956777
 20
7018.142215844736
 30
0.0
 11
16312.8225956777
 21
7018.142215844736
 31
0.0
  0
LINE
  5
132D
  8
0
 10
16312.8225956777
 20
7018.142215844736
 30
0.0
 11
16417.8225956777
 21
7018.142215844736
 31
0.0
  0
LINE
  5
132E
  8
0
 10
16417.8225956777
 20
7018.142215844736
 30
0.0
 11
16522.8225956777
 21
7018.142215844736
 31
0.0
  0
LINE
  5
132F
  8
0
 10
15682.8225956777
 20
7018.142215844736
 30
0.0
 11
15682.8225956777
 21
6916.342215844733
 31
0.0
  0
LINE
  5
1330
  8
0
 10
16522.8225956777
 20
7018.142215844736
 30
0.0
 11
16627.8225956777
 21
7018.142215844736
 31
0.0
  0
LINE
  5
1331
  8
0
 10
16627.8225956777
 20
7018.142215844736
 30
0.0
 11
16732.8225956777
 21
7018.142215844736
 31
0.0
  0
LINE
  5
1332
  8
0
 10
16732.8225956777
 20
7018.142215844736
 30
0.0
 11
16837.8225956777
 21
7018.142215844736
 31
0.0
  0
LINE
  5
1333
  8
0
 10
16837.8225956777
 20
7018.142215844736
 30
0.0
 11
16942.8225956777
 21
7018.142215844736
 31
0.0
  0
LINE
  5
1334
  8
0
 10
16942.8225956777
 20
7018.142215844736
 30
0.0
 11
17047.8225956777
 21
7018.142215844736
 31
0.0
  0
LINE
  5
1335
  8
0
 10
17047.8225956777
 20
7018.142215844736
 30
0.0
 11
17152.8225956777
 21
7018.142215844736
 31
0.0
  0
LINE
  5
1336
  8
0
 10
17152.8225956777
 20
7018.142215844736
 30
0.0
 11
17257.8225956777
 21
7018.142215844736
 31
0.0
  0
LINE
  5
1337
  8
0
 10
17257.8225956777
 20
7018.142215844736
 30
0.0
 11
17362.8225956777
 21
7018.142215844736
 31
0.0
  0
LINE
  5
1338
  8
0
 10
17362.8225956777
 20
7018.142215844736
 30
0.0
 11
17467.8225956777
 21
7018.142215844736
 31
0.0
  0
LINE
  5
1339
  8
0
 10
16522.8225956777
 20
7018.142215844736
 30
0.0
 11
16522.8225956777
 21
6916.342215844733
 31
0.0
  0
LINE
  5
133A
  8
0
 10
17467.8225956777
 20
7018.142215844736
 30
0.0
 11
17467.8225956777
 21
6916.342215844733
 31
0.0
  0
LINE
  5
133B
  8
0
 10
15682.8225956777
 20
6916.342215844733
 30
0.0
 11
15787.8225956777
 21
6916.342215844733
 31
0.0
  0
LINE
  5
133C
  8
0
 10
15787.8225956777
 20
6916.342215844733
 30
0.0
 11
15892.8225956777
 21
6916.342215844733
 31
0.0
  0
LINE
  5
133D
  8
0
 10
15892.8225956777
 20
6916.342215844733
 30
0.0
 11
15997.8225956777
 21
6916.342215844733
 31
0.0
  0
LINE
  5
133E
  8
0
 10
15997.8225956777
 20
6916.342215844733
 30
0.0
 11
16102.8225956777
 21
6916.342215844733
 31
0.0
  0
LINE
  5
133F
  8
0
 10
16102.8225956777
 20
6916.342215844733
 30
0.0
 11
16207.8225956777
 21
6916.342215844733
 31
0.0
  0
LINE
  5
1340
  8
0
 10
16207.8225956777
 20
6916.342215844733
 30
0.0
 11
16312.8225956777
 21
6916.342215844733
 31
0.0
  0
LINE
  5
1341
  8
0
 10
15682.8225956777
 20
6916.342215844733
 30
0.0
 11
15682.8225956777
 21
6814.542215844744
 31
0.0
  0
LINE
  5
1342
  8
0
 10
16312.8225956777
 20
6916.342215844733
 30
0.0
 11
16417.8225956777
 21
6916.342215844733
 31
0.0
  0
LINE
  5
1343
  8
0
 10
16417.8225956777
 20
6916.342215844733
 30
0.0
 11
16522.8225956777
 21
6916.342215844733
 31
0.0
  0
LINE
  5
1344
  8
0
 10
16522.8225956777
 20
6916.342215844733
 30
0.0
 11
16627.8225956777
 21
6916.342215844733
 31
0.0
  0
LINE
  5
1345
  8
0
 10
16627.8225956777
 20
6916.342215844733
 30
0.0
 11
16732.8225956777
 21
6916.342215844733
 31
0.0
  0
LINE
  5
1346
  8
0
 10
16732.8225956777
 20
6916.342215844733
 30
0.0
 11
16837.8225956777
 21
6916.342215844733
 31
0.0
  0
LINE
  5
1347
  8
0
 10
16837.8225956777
 20
6916.342215844733
 30
0.0
 11
16942.8225956777
 21
6916.342215844733
 31
0.0
  0
LINE
  5
1348
  8
0
 10
16942.8225956777
 20
6916.342215844733
 30
0.0
 11
17047.8225956777
 21
6916.342215844733
 31
0.0
  0
LINE
  5
1349
  8
0
 10
17047.8225956777
 20
6916.342215844733
 30
0.0
 11
17152.8225956777
 21
6916.342215844733
 31
0.0
  0
LINE
  5
134A
  8
0
 10
17152.8225956777
 20
6916.342215844733
 30
0.0
 11
17257.8225956777
 21
6916.342215844733
 31
0.0
  0
LINE
  5
134B
  8
0
 10
17257.8225956777
 20
6916.342215844733
 30
0.0
 11
17362.8225956777
 21
6916.342215844733
 31
0.0
  0
LINE
  5
134C
  8
0
 10
17362.8225956777
 20
6916.342215844733
 30
0.0
 11
17467.8225956777
 21
6916.342215844733
 31
0.0
  0
LINE
  5
134D
  8
0
 10
16312.8225956777
 20
6916.342215844733
 30
0.0
 11
16312.8225956777
 21
6814.542215844744
 31
0.0
  0
LINE
  5
134E
  8
0
 10
17467.8225956777
 20
6916.342215844733
 30
0.0
 11
17467.8225956777
 21
6814.542215844744
 31
0.0
  0
LINE
  5
134F
  8
0
 10
15682.8225956777
 20
6814.542215844744
 30
0.0
 11
15787.8225956777
 21
6814.542215844744
 31
0.0
  0
LINE
  5
1350
  8
0
 10
15787.8225956777
 20
6814.542215844744
 30
0.0
 11
15892.8225956777
 21
6814.542215844744
 31
0.0
  0
LINE
  5
1351
  8
0
 10
15892.8225956777
 20
6814.542215844744
 30
0.0
 11
15997.8225956777
 21
6814.542215844744
 31
0.0
  0
LINE
  5
1352
  8
0
 10
15682.8225956777
 20
6814.542215844744
 30
0.0
 11
15682.8225956777
 21
6712.742215844741
 31
0.0
  0
LINE
  5
1353
  8
0
 10
15682.8225956777
 20
6712.742215844741
 30
0.0
 11
15682.8225956777
 21
6610.942215844738
 31
0.0
  0
LINE
  5
1354
  8
0
 10
15682.8225956777
 20
6610.942215844738
 30
0.0
 11
15682.8225956777
 21
6509.142215844735
 31
0.0
  0
LINE
  5
1355
  8
0
 10
15682.8225956777
 20
6509.142215844735
 30
0.0
 11
15682.8225956777
 21
6407.342215844746
 31
0.0
  0
LINE
  5
1356
  8
0
 10
15997.8225956777
 20
6814.542215844744
 30
0.0
 11
16102.8225956777
 21
6814.542215844744
 31
0.0
  0
LINE
  5
1357
  8
0
 10
16102.8225956777
 20
6814.542215844744
 30
0.0
 11
16207.8225956777
 21
6814.542215844744
 31
0.0
  0
LINE
  5
1358
  8
0
 10
16207.8225956777
 20
6814.542215844744
 30
0.0
 11
16312.8225956777
 21
6814.542215844744
 31
0.0
  0
LINE
  5
1359
  8
0
 10
15997.8225956777
 20
6814.542215844744
 30
0.0
 11
15997.8225956777
 21
6712.742215844741
 31
0.0
  0
LINE
  5
135A
  8
0
 10
15997.8225956777
 20
6712.742215844741
 30
0.0
 11
15997.8225956777
 21
6610.942215844738
 31
0.0
  0
LINE
  5
135B
  8
0
 10
16312.8225956777
 20
6814.542215844744
 30
0.0
 11
16417.8225956777
 21
6814.542215844744
 31
0.0
  0
LINE
  5
135C
  8
0
 10
16417.8225956777
 20
6814.542215844744
 30
0.0
 11
16522.8225956777
 21
6814.542215844744
 31
0.0
  0
LINE
  5
135D
  8
0
 10
16312.8225956777
 20
6814.542215844744
 30
0.0
 11
16312.8225956777
 21
6712.742215844741
 31
0.0
  0
LINE
  5
135E
  8
0
 10
16522.8225956777
 20
6814.542215844744
 30
0.0
 11
16627.8225956777
 21
6814.542215844744
 31
0.0
  0
LINE
  5
135F
  8
0
 10
16627.8225956777
 20
6814.542215844744
 30
0.0
 11
16732.8225956777
 21
6814.542215844744
 31
0.0
  0
LINE
  5
1360
  8
0
 10
16732.8225956777
 20
6814.542215844744
 30
0.0
 11
16837.8225956777
 21
6814.542215844744
 31
0.0
  0
LINE
  5
1361
  8
0
 10
16837.8225956777
 20
6814.542215844744
 30
0.0
 11
16942.8225956777
 21
6814.542215844744
 31
0.0
  0
LINE
  5
1362
  8
0
 10
16942.8225956777
 20
6814.542215844744
 30
0.0
 11
17047.8225956777
 21
6814.542215844744
 31
0.0
  0
LINE
  5
1363
  8
0
 10
17047.8225956777
 20
6814.542215844744
 30
0.0
 11
17152.8225956777
 21
6814.542215844744
 31
0.0
  0
LINE
  5
1364
  8
0
 10
17152.8225956777
 20
6814.542215844744
 30
0.0
 11
17257.8225956777
 21
6814.542215844744
 31
0.0
  0
LINE
  5
1365
  8
0
 10
17257.8225956777
 20
6814.542215844744
 30
0.0
 11
17362.8225956777
 21
6814.542215844744
 31
0.0
  0
LINE
  5
1366
  8
0
 10
17362.8225956777
 20
6814.542215844744
 30
0.0
 11
17467.8225956777
 21
6814.542215844744
 31
0.0
  0
LINE
  5
1367
  8
0
 10
16522.8225956777
 20
6814.542215844744
 30
0.0
 11
16522.8225956777
 21
6712.742215844741
 31
0.0
  0
LINE
  5
1368
  8
0
 10
17467.8225956777
 20
6814.542215844744
 30
0.0
 11
17467.8225956777
 21
6712.742215844741
 31
0.0
  0
LINE
  5
1369
  8
0
 10
16312.8225956777
 20
6712.742215844741
 30
0.0
 11
16417.8225956777
 21
6712.742215844741
 31
0.0
  0
LINE
  5
136A
  8
0
 10
16417.8225956777
 20
6712.742215844741
 30
0.0
 11
16522.8225956777
 21
6712.742215844741
 31
0.0
  0
LINE
  5
136B
  8
0
 10
16312.8225956777
 20
6712.742215844741
 30
0.0
 11
16312.8225956777
 21
6610.942215844738
 31
0.0
  0
LINE
  5
136C
  8
0
 10
16522.8225956777
 20
6712.742215844741
 30
0.0
 11
16627.8225956777
 21
6712.742215844741
 31
0.0
  0
LINE
  5
136D
  8
0
 10
16627.8225956777
 20
6712.742215844741
 30
0.0
 11
16732.8225956777
 21
6712.742215844741
 31
0.0
  0
LINE
  5
136E
  8
0
 10
16732.8225956777
 20
6712.742215844741
 30
0.0
 11
16837.8225956777
 21
6712.742215844741
 31
0.0
  0
LINE
  5
136F
  8
0
 10
16837.8225956777
 20
6712.742215844741
 30
0.0
 11
16942.8225956777
 21
6712.742215844741
 31
0.0
  0
LINE
  5
1370
  8
0
 10
16942.8225956777
 20
6712.742215844741
 30
0.0
 11
17047.8225956777
 21
6712.742215844741
 31
0.0
  0
LINE
  5
1371
  8
0
 10
17047.8225956777
 20
6712.742215844741
 30
0.0
 11
17152.8225956777
 21
6712.742215844741
 31
0.0
  0
LINE
  5
1372
  8
0
 10
17152.8225956777
 20
6712.742215844741
 30
0.0
 11
17257.8225956777
 21
6712.742215844741
 31
0.0
  0
LINE
  5
1373
  8
0
 10
17257.8225956777
 20
6712.742215844741
 30
0.0
 11
17362.8225956777
 21
6712.742215844741
 31
0.0
  0
LINE
  5
1374
  8
0
 10
17362.8225956777
 20
6712.742215844741
 30
0.0
 11
17467.8225956777
 21
6712.742215844741
 31
0.0
  0
LINE
  5
1375
  8
0
 10
16522.8225956777
 20
6712.742215844741
 30
0.0
 11
16522.8225956777
 21
6610.942215844738
 31
0.0
  0
LINE
  5
1376
  8
0
 10
17467.8225956777
 20
6712.742215844741
 30
0.0
 11
17467.8225956777
 21
6610.942215844738
 31
0.0
  0
LINE
  5
1377
  8
0
 10
15997.8225956777
 20
6610.942215844738
 30
0.0
 11
16102.8225956777
 21
6610.942215844738
 31
0.0
  0
LINE
  5
1378
  8
0
 10
16102.8225956777
 20
6610.942215844738
 30
0.0
 11
16207.8225956777
 21
6610.942215844738
 31
0.0
  0
LINE
  5
1379
  8
0
 10
16207.8225956777
 20
6610.942215844738
 30
0.0
 11
16312.8225956777
 21
6610.942215844738
 31
0.0
  0
LINE
  5
137A
  8
0
 10
15997.8225956777
 20
6610.942215844738
 30
0.0
 11
15997.8225956777
 21
6509.142215844735
 31
0.0
  0
LINE
  5
137B
  8
0
 10
15997.8225956777
 20
6509.142215844735
 30
0.0
 11
15997.8225956777
 21
6407.342215844746
 31
0.0
  0
LINE
  5
137C
  8
0
 10
16312.8225956777
 20
6610.942215844738
 30
0.0
 11
16417.8225956777
 21
6610.942215844738
 31
0.0
  0
LINE
  5
137D
  8
0
 10
16417.8225956777
 20
6610.942215844738
 30
0.0
 11
16522.8225956777
 21
6610.942215844738
 31
0.0
  0
LINE
  5
137E
  8
0
 10
16312.8225956777
 20
6610.942215844738
 30
0.0
 11
16312.8225956777
 21
6509.142215844735
 31
0.0
  0
LINE
  5
137F
  8
0
 10
16522.8225956777
 20
6610.942215844738
 30
0.0
 11
16627.8225956777
 21
6610.942215844738
 31
0.0
  0
LINE
  5
1380
  8
0
 10
16627.8225956777
 20
6610.942215844738
 30
0.0
 11
16732.8225956777
 21
6610.942215844738
 31
0.0
  0
LINE
  5
1381
  8
0
 10
16732.8225956777
 20
6610.942215844738
 30
0.0
 11
16837.8225956777
 21
6610.942215844738
 31
0.0
  0
LINE
  5
1382
  8
0
 10
16837.8225956777
 20
6610.942215844738
 30
0.0
 11
16942.8225956777
 21
6610.942215844738
 31
0.0
  0
LINE
  5
1383
  8
0
 10
16942.8225956777
 20
6610.942215844738
 30
0.0
 11
17047.8225956777
 21
6610.942215844738
 31
0.0
  0
LINE
  5
1384
  8
0
 10
17047.8225956777
 20
6610.942215844738
 30
0.0
 11
17152.8225956777
 21
6610.942215844738
 31
0.0
  0
LINE
  5
1385
  8
0
 10
17152.8225956777
 20
6610.942215844738
 30
0.0
 11
17257.8225956777
 21
6610.942215844738
 31
0.0
  0
LINE
  5
1386
  8
0
 10
17257.8225956777
 20
6610.942215844738
 30
0.0
 11
17362.8225956777
 21
6610.942215844738
 31
0.0
  0
LINE
  5
1387
  8
0
 10
17362.8225956777
 20
6610.942215844738
 30
0.0
 11
17467.8225956777
 21
6610.942215844738
 31
0.0
  0
LINE
  5
1388
  8
0
 10
16522.8225956777
 20
6610.942215844738
 30
0.0
 11
16522.8225956777
 21
6509.142215844735
 31
0.0
  0
LINE
  5
1389
  8
0
 10
17467.8225956777
 20
6610.942215844738
 30
0.0
 11
17467.8225956777
 21
6509.142215844735
 31
0.0
  0
LINE
  5
138A
  8
0
 10
16312.8225956777
 20
6509.142215844735
 30
0.0
 11
16417.8225956777
 21
6509.142215844735
 31
0.0
  0
LINE
  5
138B
  8
0
 10
16417.8225956777
 20
6509.142215844735
 30
0.0
 11
16522.8225956777
 21
6509.142215844735
 31
0.0
  0
LINE
  5
138C
  8
0
 10
16312.8225956777
 20
6509.142215844735
 30
0.0
 11
16312.8225956777
 21
6407.342215844746
 31
0.0
  0
LINE
  5
138D
  8
0
 10
16522.8225956777
 20
6509.142215844735
 30
0.0
 11
16627.8225956777
 21
6509.142215844735
 31
0.0
  0
LINE
  5
138E
  8
0
 10
16627.8225956777
 20
6509.142215844735
 30
0.0
 11
16732.8225956777
 21
6509.142215844735
 31
0.0
  0
LINE
  5
138F
  8
0
 10
16732.8225956777
 20
6509.142215844735
 30
0.0
 11
16837.8225956777
 21
6509.142215844735
 31
0.0
  0
LINE
  5
1390
  8
0
 10
16837.8225956777
 20
6509.142215844735
 30
0.0
 11
16942.8225956777
 21
6509.142215844735
 31
0.0
  0
LINE
  5
1391
  8
0
 10
16942.8225956777
 20
6509.142215844735
 30
0.0
 11
17047.8225956777
 21
6509.142215844735
 31
0.0
  0
LINE
  5
1392
  8
0
 10
17047.8225956777
 20
6509.142215844735
 30
0.0
 11
17152.8225956777
 21
6509.142215844735
 31
0.0
  0
LINE
  5
1393
  8
0
 10
17152.8225956777
 20
6509.142215844735
 30
0.0
 11
17257.8225956777
 21
6509.142215844735
 31
0.0
  0
LINE
  5
1394
  8
0
 10
17257.8225956777
 20
6509.142215844735
 30
0.0
 11
17362.8225956777
 21
6509.142215844735
 31
0.0
  0
LINE
  5
1395
  8
0
 10
17362.8225956777
 20
6509.142215844735
 30
0.0
 11
17467.8225956777
 21
6509.142215844735
 31
0.0
  0
LINE
  5
1396
  8
0
 10
16522.8225956777
 20
6509.142215844735
 30
0.0
 11
16522.8225956777
 21
6407.342215844746
 31
0.0
  0
LINE
  5
1397
  8
0
 10
17467.8225956777
 20
6509.142215844735
 30
0.0
 11
17467.8225956777
 21
6407.342215844746
 31
0.0
  0
LINE
  5
1398
  8
0
 10
15682.8225956777
 20
6407.342215844746
 30
0.0
 11
15787.8225956777
 21
6407.342215844746
 31
0.0
  0
LINE
  5
1399
  8
0
 10
15682.8225956777
 20
6305.542215844743
 30
0.0
 11
15787.8225956777
 21
6305.542215844743
 31
0.0
  0
LINE
  5
139A
  8
0
 10
15787.8225956777
 20
6407.342215844746
 30
0.0
 11
15892.8225956777
 21
6407.342215844746
 31
0.0
  0
LINE
  5
139B
  8
0
 10
15787.8225956777
 20
6305.542215844743
 30
0.0
 11
15892.8225956777
 21
6305.542215844743
 31
0.0
  0
LINE
  5
139C
  8
0
 10
15892.8225956777
 20
6407.342215844746
 30
0.0
 11
15997.8225956777
 21
6407.342215844746
 31
0.0
  0
LINE
  5
139D
  8
0
 10
15892.8225956777
 20
6305.542215844743
 30
0.0
 11
15997.8225956777
 21
6305.542215844743
 31
0.0
  0
LINE
  5
139E
  8
0
 10
15997.8225956777
 20
6407.342215844746
 30
0.0
 11
16102.8225956777
 21
6407.342215844746
 31
0.0
  0
LINE
  5
139F
  8
0
 10
15997.8225956777
 20
6305.542215844743
 30
0.0
 11
16102.8225956777
 21
6305.542215844743
 31
0.0
  0
LINE
  5
13A0
  8
0
 10
16102.8225956777
 20
6407.342215844746
 30
0.0
 11
16207.8225956777
 21
6407.342215844746
 31
0.0
  0
LINE
  5
13A1
  8
0
 10
16102.8225956777
 20
6305.542215844743
 30
0.0
 11
16207.8225956777
 21
6305.542215844743
 31
0.0
  0
LINE
  5
13A2
  8
0
 10
16207.8225956777
 20
6407.342215844746
 30
0.0
 11
16312.8225956777
 21
6407.342215844746
 31
0.0
  0
LINE
  5
13A3
  8
0
 10
16207.8225956777
 20
6305.542215844743
 30
0.0
 11
16312.8225956777
 21
6305.542215844743
 31
0.0
  0
LINE
  5
13A4
  8
0
 10
16312.8225956777
 20
6407.342215844746
 30
0.0
 11
16417.8225956777
 21
6407.342215844746
 31
0.0
  0
LINE
  5
13A5
  8
0
 10
16312.8225956777
 20
6305.542215844743
 30
0.0
 11
16417.8225956777
 21
6305.542215844743
 31
0.0
  0
LINE
  5
13A6
  8
0
 10
16417.8225956777
 20
6407.342215844746
 30
0.0
 11
16522.8225956777
 21
6407.342215844746
 31
0.0
  0
LINE
  5
13A7
  8
0
 10
16417.8225956777
 20
6305.542215844743
 30
0.0
 11
16522.8225956777
 21
6305.542215844743
 31
0.0
  0
LINE
  5
13A8
  8
0
 10
16522.8225956777
 20
6407.342215844746
 30
0.0
 11
16627.8225956777
 21
6407.342215844746
 31
0.0
  0
LINE
  5
13A9
  8
0
 10
16522.8225956777
 20
6305.542215844743
 30
0.0
 11
16627.8225956777
 21
6305.542215844743
 31
0.0
  0
LINE
  5
13AA
  8
0
 10
16627.8225956777
 20
6407.342215844746
 30
0.0
 11
16732.8225956777
 21
6407.342215844746
 31
0.0
  0
LINE
  5
13AB
  8
0
 10
16627.8225956777
 20
6305.542215844743
 30
0.0
 11
16732.8225956777
 21
6305.542215844743
 31
0.0
  0
LINE
  5
13AC
  8
0
 10
16732.8225956777
 20
6407.342215844746
 30
0.0
 11
16837.8225956777
 21
6407.342215844746
 31
0.0
  0
LINE
  5
13AD
  8
0
 10
16732.8225956777
 20
6305.542215844743
 30
0.0
 11
16837.8225956777
 21
6305.542215844743
 31
0.0
  0
LINE
  5
13AE
  8
0
 10
16837.8225956777
 20
6407.342215844746
 30
0.0
 11
16942.8225956777
 21
6407.342215844746
 31
0.0
  0
LINE
  5
13AF
  8
0
 10
16837.8225956777
 20
6305.542215844743
 30
0.0
 11
16942.8225956777
 21
6305.542215844743
 31
0.0
  0
LINE
  5
13B0
  8
0
 10
16942.8225956777
 20
6407.342215844746
 30
0.0
 11
17047.8225956777
 21
6407.342215844746
 31
0.0
  0
LINE
  5
13B1
  8
0
 10
16942.8225956777
 20
6305.542215844743
 30
0.0
 11
17047.8225956777
 21
6305.542215844743
 31
0.0
  0
LINE
  5
13B2
  8
0
 10
17047.8225956777
 20
6407.342215844746
 30
0.0
 11
17152.8225956777
 21
6407.342215844746
 31
0.0
  0
LINE
  5
13B3
  8
0
 10
17047.8225956777
 20
6305.542215844743
 30
0.0
 11
17152.8225956777
 21
6305.542215844743
 31
0.0
  0
LINE
  5
13B4
  8
0
 10
17152.8225956777
 20
6407.342215844746
 30
0.0
 11
17257.8225956777
 21
6407.342215844746
 31
0.0
  0
LINE
  5
13B5
  8
0
 10
17152.8225956777
 20
6305.542215844743
 30
0.0
 11
17257.8225956777
 21
6305.542215844743
 31
0.0
  0
LINE
  5
13B6
  8
0
 10
17257.8225956777
 20
6407.342215844746
 30
0.0
 11
17362.8225956777
 21
6407.342215844746
 31
0.0
  0
LINE
  5
13B7
  8
0
 10
17257.8225956777
 20
6305.542215844743
 30
0.0
 11
17362.8225956777
 21
6305.542215844743
 31
0.0
  0
LINE
  5
13B8
  8
0
 10
17362.8225956777
 20
6407.342215844746
 30
0.0
 11
17467.8225956777
 21
6407.342215844746
 31
0.0
  0
LINE
  5
13B9
  8
0
 10
17362.8225956777
 20
6305.542215844743
 30
0.0
 11
17467.8225956777
 21
6305.542215844743
 31
0.0
  0
LINE
  5
13BA
  8
0
 10
15682.8225956777
 20
6407.342215844746
 30
0.0
 11
15682.8225956777
 21
6305.542215844743
 31
0.0
  0
LINE
  5
13BB
  8
0
 10
17467.8225956777
 20
6407.342215844746
 30
0.0
 11
17467.8225956777
 21
6305.542215844743
 31
0.0
  0
TEXT
  5
13BC
  8
0
 10
15799.49233924126
 20
7146.669136950985
 30
0.0
 40
48.0
  1
タンク本体寸法差：\U+00B1１．５％
  0
TEXT
  5
13BD
  8
0
 10
15796.1556391253
 20
7048.793244638258
 30
0.0
 40
48.0
  1
付属品取付位置は平面図による。
  0
TEXT
  5
13BE
  8
0
 10
15728.10294756718
 20
6844.353755823016
 30
0.0
 40
48.0
  1
フィッティング材質
  0
TEXT
  5
13BF
  8
0
 10
16429.36475923272
 20
6836.204977982333
 30
0.0
 40
48.0
  1
Ｐ　Ｅ　・　Ａ　Ｌ　・　ＳＵＳ
  0
TEXT
  5
13C0
  8
0
 10
15731.956395224
 20
6747.692149057983
 30
0.0
 40
48.0
  1
ガ
  0
TEXT
  5
13C1
  8
0
 10
15734.88025309201
 20
6667.692149057974
 30
0.0
 40
48.0
  1
ス
  0
TEXT
  5
13C2
  8
0
 10
15734.39294344736
 20
6587.692149057979
 30
0.0
 40
48.0
  1
ケ
  0
TEXT
  5
13C3
  8
0
 10
15753.8879011541
 20
6514.547885247215
 30
0.0
 40
48.0
  1
ッ
  0
TEXT
  5
13C4
  8
0
 10
15730.51068424007
 20
6427.284239263494
 30
0.0
 40
48.0
  1
ト
  0
TEXT
  5
13C5
  8
0
 10
15848.80405025089
 20
6750.616006925992
 30
0.0
 40
48.0
  1
材
  0
TEXT
  5
13C6
  8
0
 10
15846.61115684983
 20
6669.154077991992
 30
0.0
 40
48.0
  1
質
  0
TEXT
  5
13C7
  8
0
 10
16009.38770077335
 20
6696.503438123131
 30
0.0
 40
30.0
  1
フィッティング用
  0
TEXT
  5
13C8
  8
0
 10
16042.60978119244
 20
6487.731934974776
 30
0.0
 40
37.5
  1
フランジ用
  0
TEXT
  5
13C9
  8
0
 10
15791.38088834286
 20
6942.912815254694
 30
0.0
 40
48.0
  1
フランジ規格：ＪＩＳ
  0
TEXT
  5
13CA
  8
0
 10
16724.6626255084
 20
6940.464205801985
 30
0.0
 40
48.0
  1
製作数：　　１　基
  0
TEXT
  5
13CB
  8
0
 10
16363.24801975797
 20
6742.021944047059
 30
0.0
 40
48.0
  1
天板
  0
TEXT
  5
13CC
  8
0
 10
16360.73979167919
 20
6639.574583725884
 30
0.0
 40
48.0
  1
側面
  0
TEXT
  5
13CD
  8
0
 10
16365.41519937269
 20
6538.253610816922
 30
0.0
 40
48.0
  1
天板
  0
TEXT
  5
13CE
  8
0
 10
16362.90672638517
 20
6436.941192696999
 30
0.0
 40
48.0
  1
側面
  0
TEXT
  5
13CF
  8
0
 10
16717.15288043296
 20
6735.819029448584
 30
0.0
 40
48.0
  1
ＩＩＲ　・　ＦＫＭ
  0
TEXT
  5
13D0
  8
0
 10
16720.31808114919
 20
6633.215680091206
 30
0.0
 40
48.0
  1
ＩＩＲ　・　ＦＫＭ
  0
TEXT
  5
13D1
  8
0
 10
16661.21032370618
 20
6431.297822709456
 30
0.0
 40
48.0
  1
ＥＰＤＭ　・　ＦＫＭ
  0
TEXT
  5
13D2
  8
0
 10
16662.35527212376
 20
6532.987822255526
 30
0.0
 40
48.0
  1
ＥＰＤＭ　・　ＦＫＭ
  0
LINE
  5
13D5
  8
0
 10
17077.74423374505
 20
6869.544200197787
 30
0.0
 11
17424.61168360945
 21
6869.544200197787
 31
0.0
  0
LINE
  5
13D8
  8
0
 10
17081.283655035
 20
6851.861829520948
 30
0.0
 11
17428.1511048994
 21
6851.861829520948
 31
0.0
  0
LINE
  5
13DA
  8
0
 10
16992.79714315111
 20
6771.735130661854
 30
0.0
 11
17410.45375354086
 21
6771.735130661854
 31
0.0
  0
LINE
  5
13DC
  8
0
 10
16996.33680934985
 20
6746.210613334087
 30
0.0
 11
17413.9934197396
 21
6746.210613334087
 31
0.0
  0
LINE
  5
13DE
  8
0
 10
16992.82824656269
 20
6645.072296073039
 30
0.0
 11
17410.48485695244
 21
6645.072296073039
 31
0.0
  0
LINE
  5
13DF
  8
0
 10
16576.75962452354
 20
6567.08842019203
 30
0.0
 11
16990.87705853213
 21
6567.08842019203
 31
0.0
  0
LINE
  5
13E0
  8
0
 10
16990.87705853213
 20
6567.08842019203
 30
0.0
 11
17408.53366892188
 21
6567.08842019203
 31
0.0
  0
LINE
  5
13E1
  8
0
 10
16578.71081255411
 20
6539.794097663124
 30
0.0
 11
16992.82824656269
 21
6539.794097663124
 31
0.0
  0
LINE
  5
13E2
  8
0
 10
16992.82824656269
 20
6539.794097663124
 30
0.0
 11
17410.48485695244
 21
6539.794097663124
 31
0.0
  0
LINE
  5
13E3
  8
0
 10
16572.07182609352
 20
6467.039455716848
 30
0.0
 11
16986.18926010211
 21
6467.039455716848
 31
0.0
  0
LINE
  5
13E4
  8
0
 10
16986.18926010211
 20
6467.039455716848
 30
0.0
 11
17403.84587049186
 21
6467.039455716848
 31
0.0
  0
LINE
  5
13E5
  8
0
 10
16574.00219688006
 20
6440.035063902978
 30
0.0
 11
16988.11963088865
 21
6440.035063902978
 31
0.0
  0
LINE
  5
13E6
  8
0
 10
16988.11963088865
 20
6440.035063902978
 30
0.0
 11
17405.7762412784
 21
6440.035063902978
 31
0.0
  0
LINE
  5
13E8
  8
0
 10
16993.91123306584
 20
6667.643742535819
 30
0.0
 11
17411.56784345559
 21
6667.643742535819
 31
0.0
  0
LINE
  5
13E9
  8
0
 10
15792.37674004052
 20
6364.999512671965
 30
0.0
 11
17331.30690939619
 21
6364.999512671965
 31
0.0
  0
LINE
  5
13EA
  8
0
 10
15795.04385436004
 20
6346.345328930842
 30
0.0
 11
17333.97402371571
 21
6346.345328930842
 31
0.0
  0
INSERT
  5
13EB
  8
0
  2
*X23
 10
0.0
 20
0.0
 30
0.0
  0
LINE
  5
159C
  8
0
 10
18649.92693780114
 20
3707.057355261545
 30
0.0
 11
18789.92693780114
 21
3707.057355261545
 31
0.0
  0
LINE
  5
159D
  8
0
 10
18649.92693780114
 20
3707.057355261545
 30
0.0
 11
18649.92693780114
 21
3587.057355261545
 31
0.0
  0
LINE
  5
159E
  8
0
 10
18789.92693780114
 20
3707.057355261545
 30
0.0
 11
18929.92693780114
 21
3707.057355261545
 31
0.0
  0
LINE
  5
159F
  8
0
 10
18929.92693780114
 20
3707.057355261545
 30
0.0
 11
19069.92693780114
 21
3707.057355261545
 31
0.0
  0
LINE
  5
15A0
  8
0
 10
18929.92693780114
 20
3707.057355261545
 30
0.0
 11
18929.92693780114
 21
3587.057355261545
 31
0.0
  0
LINE
  5
15A1
  8
0
 10
19069.92693780114
 20
3707.057355261545
 30
0.0
 11
19209.92693780114
 21
3707.057355261545
 31
0.0
  0
LINE
  5
15A2
  8
0
 10
19209.92693780114
 20
3707.057355261545
 30
0.0
 11
19349.92693780114
 21
3707.057355261545
 31
0.0
  0
LINE
  5
15A3
  8
0
 10
19349.92693780114
 20
3707.057355261545
 30
0.0
 11
19489.92693780114
 21
3707.057355261545
 31
0.0
  0
LINE
  5
15A4
  8
0
 10
19489.92693780114
 20
3707.057355261545
 30
0.0
 11
19629.92693780114
 21
3707.057355261545
 31
0.0
  0
LINE
  5
15A5
  8
0
 10
19629.92693780114
 20
3707.057355261545
 30
0.0
 11
19769.92693780114
 21
3707.057355261545
 31
0.0
  0
LINE
  5
15A6
  8
0
 10
19629.92693780114
 20
3707.057355261545
 30
0.0
 11
19629.92693780114
 21
3587.057355261545
 31
0.0
  0
LINE
  5
15A7
  8
0
 10
19769.92693780114
 20
3707.057355261545
 30
0.0
 11
19909.92693780114
 21
3707.057355261545
 31
0.0
  0
LINE
  5
15A8
  8
0
 10
19909.92693780114
 20
3707.057355261545
 30
0.0
 11
20049.92693780114
 21
3707.057355261545
 31
0.0
  0
LINE
  5
15A9
  8
0
 10
19909.92693780114
 20
3707.057355261545
 30
0.0
 11
19909.92693780114
 21
3587.057355261545
 31
0.0
  0
LINE
  5
15AA
  8
0
 10
20049.92693780114
 20
3707.057355261545
 30
0.0
 11
20189.92693780114
 21
3707.057355261545
 31
0.0
  0
LINE
  5
15AB
  8
0
 10
20189.92693780114
 20
3707.057355261545
 30
0.0
 11
20329.92693780114
 21
3707.057355261545
 31
0.0
  0
LINE
  5
15AC
  8
0
 10
20189.92693780114
 20
3707.057355261545
 30
0.0
 11
20189.92693780114
 21
3587.057355261545
 31
0.0
  0
LINE
  5
15AD
  8
0
 10
20329.92693780114
 20
3707.057355261545
 30
0.0
 11
20469.92693780114
 21
3707.057355261545
 31
0.0
  0
LINE
  5
15AE
  8
0
 10
20469.92693780114
 20
3707.057355261545
 30
0.0
 11
20609.92693780114
 21
3707.057355261545
 31
0.0
  0
LINE
  5
15AF
  8
0
 10
20469.92693780114
 20
3707.057355261545
 30
0.0
 11
20469.92693780114
 21
3587.057355261545
 31
0.0
  0
LINE
  5
15B0
  8
0
 10
20609.92693780114
 20
3707.057355261545
 30
0.0
 11
20749.92693780114
 21
3707.057355261545
 31
0.0
  0
LINE
  5
15B1
  8
0
 10
20749.92693780114
 20
3707.057355261545
 30
0.0
 11
20889.92693780114
 21
3707.057355261545
 31
0.0
  0
LINE
  5
15B2
  8
0
 10
20889.92693780114
 20
3707.057355261545
 30
0.0
 11
21029.92693780114
 21
3707.057355261545
 31
0.0
  0
LINE
  5
15B3
  8
0
 10
21029.92693780114
 20
3707.057355261545
 30
0.0
 11
21169.92693780114
 21
3707.057355261545
 31
0.0
  0
LINE
  5
15B4
  8
0
 10
21169.92693780114
 20
3707.057355261545
 30
0.0
 11
21309.92693780114
 21
3707.057355261545
 31
0.0
  0
LINE
  5
15B5
  8
0
 10
18649.92693780114
 20
3587.057355261545
 30
0.0
 11
18789.92693780114
 21
3587.057355261545
 31
0.0
  0
LINE
  5
15B6
  8
0
 10
18649.92693780114
 20
3587.057355261545
 30
0.0
 11
18649.92693780114
 21
3467.057355261545
 31
0.0
  0
LINE
  5
15B7
  8
0
 10
18789.92693780114
 20
3587.057355261545
 30
0.0
 11
18929.92693780114
 21
3587.057355261545
 31
0.0
  0
LINE
  5
15B8
  8
0
 10
18929.92693780114
 20
3587.057355261545
 30
0.0
 11
19069.92693780114
 21
3587.057355261545
 31
0.0
  0
LINE
  5
15B9
  8
0
 10
18929.92693780114
 20
3587.057355261545
 30
0.0
 11
18929.92693780114
 21
3467.057355261545
 31
0.0
  0
LINE
  5
15BA
  8
0
 10
19069.92693780114
 20
3587.057355261545
 30
0.0
 11
19209.92693780114
 21
3587.057355261545
 31
0.0
  0
LINE
  5
15BB
  8
0
 10
19209.92693780114
 20
3587.057355261545
 30
0.0
 11
19349.92693780114
 21
3587.057355261545
 31
0.0
  0
LINE
  5
15BC
  8
0
 10
19349.92693780114
 20
3587.057355261545
 30
0.0
 11
19489.92693780114
 21
3587.057355261545
 31
0.0
  0
LINE
  5
15BD
  8
0
 10
19489.92693780114
 20
3587.057355261545
 30
0.0
 11
19629.92693780114
 21
3587.057355261545
 31
0.0
  0
LINE
  5
15BE
  8
0
 10
19629.92693780114
 20
3587.057355261545
 30
0.0
 11
19769.92693780114
 21
3587.057355261545
 31
0.0
  0
LINE
  5
15BF
  8
0
 10
19629.92693780114
 20
3587.057355261545
 30
0.0
 11
19629.92693780114
 21
3467.057355261545
 31
0.0
  0
LINE
  5
15C0
  8
0
 10
19769.92693780114
 20
3587.057355261545
 30
0.0
 11
19909.92693780114
 21
3587.057355261545
 31
0.0
  0
LINE
  5
15C1
  8
0
 10
19909.92693780114
 20
3587.057355261545
 30
0.0
 11
20049.92693780114
 21
3587.057355261545
 31
0.0
  0
LINE
  5
15C2
  8
0
 10
19909.92693780114
 20
3587.057355261545
 30
0.0
 11
19909.92693780114
 21
3467.057355261545
 31
0.0
  0
LINE
  5
15C3
  8
0
 10
20049.92693780114
 20
3587.057355261545
 30
0.0
 11
20189.92693780114
 21
3587.057355261545
 31
0.0
  0
LINE
  5
15C4
  8
0
 10
20189.92693780114
 20
3587.057355261545
 30
0.0
 11
20329.92693780114
 21
3587.057355261545
 31
0.0
  0
LINE
  5
15C5
  8
0
 10
20189.92693780114
 20
3587.057355261545
 30
0.0
 11
20189.92693780114
 21
3467.057355261545
 31
0.0
  0
LINE
  5
15C6
  8
0
 10
20329.92693780114
 20
3587.057355261545
 30
0.0
 11
20469.92693780114
 21
3587.057355261545
 31
0.0
  0
LINE
  5
15C7
  8
0
 10
20469.92693780114
 20
3587.057355261545
 30
0.0
 11
20609.92693780114
 21
3587.057355261545
 31
0.0
  0
LINE
  5
15C8
  8
0
 10
20469.92693780114
 20
3587.057355261545
 30
0.0
 11
20469.92693780114
 21
3467.057355261545
 31
0.0
  0
LINE
  5
15C9
  8
0
 10
20609.92693780114
 20
3587.057355261545
 30
0.0
 11
20749.92693780114
 21
3587.057355261545
 31
0.0
  0
LINE
  5
15CA
  8
0
 10
20749.92693780114
 20
3587.057355261545
 30
0.0
 11
20889.92693780114
 21
3587.057355261545
 31
0.0
  0
LINE
  5
15CB
  8
0
 10
20889.92693780114
 20
3587.057355261545
 30
0.0
 11
21029.92693780114
 21
3587.057355261545
 31
0.0
  0
LINE
  5
15CC
  8
0
 10
21029.92693780114
 20
3587.057355261545
 30
0.0
 11
21169.92693780114
 21
3587.057355261545
 31
0.0
  0
LINE
  5
15CD
  8
0
 10
21169.92693780114
 20
3587.057355261545
 30
0.0
 11
21309.92693780114
 21
3587.057355261545
 31
0.0
  0
LINE
  5
15CE
  8
0
 10
18649.92693780114
 20
3467.057355261545
 30
0.0
 11
18789.92693780114
 21
3467.057355261545
 31
0.0
  0
LINE
  5
15CF
  8
0
 10
18649.92693780114
 20
3467.057355261545
 30
0.0
 11
18649.92693780114
 21
3347.057355261545
 31
0.0
  0
LINE
  5
15D0
  8
0
 10
18789.92693780114
 20
3467.057355261545
 30
0.0
 11
18929.92693780114
 21
3467.057355261545
 31
0.0
  0
LINE
  5
15D1
  8
0
 10
18929.92693780114
 20
3467.057355261545
 30
0.0
 11
19069.92693780114
 21
3467.057355261545
 31
0.0
  0
LINE
  5
15D2
  8
0
 10
18929.92693780114
 20
3467.057355261545
 30
0.0
 11
18929.92693780114
 21
3347.057355261545
 31
0.0
  0
LINE
  5
15D3
  8
0
 10
19069.92693780114
 20
3467.057355261545
 30
0.0
 11
19209.92693780114
 21
3467.057355261545
 31
0.0
  0
LINE
  5
15D4
  8
0
 10
19209.92693780114
 20
3467.057355261545
 30
0.0
 11
19349.92693780114
 21
3467.057355261545
 31
0.0
  0
LINE
  5
15D5
  8
0
 10
19349.92693780114
 20
3467.057355261545
 30
0.0
 11
19489.92693780114
 21
3467.057355261545
 31
0.0
  0
LINE
  5
15D6
  8
0
 10
19489.92693780114
 20
3467.057355261545
 30
0.0
 11
19629.92693780114
 21
3467.057355261545
 31
0.0
  0
LINE
  5
15D7
  8
0
 10
19629.92693780114
 20
3467.057355261545
 30
0.0
 11
19769.92693780114
 21
3467.057355261545
 31
0.0
  0
LINE
  5
15D8
  8
0
 10
19629.92693780114
 20
3467.057355261545
 30
0.0
 11
19629.92693780114
 21
3347.057355261545
 31
0.0
  0
LINE
  5
15D9
  8
0
 10
19769.92693780114
 20
3467.057355261545
 30
0.0
 11
19909.92693780114
 21
3467.057355261545
 31
0.0
  0
LINE
  5
15DA
  8
0
 10
19909.92693780114
 20
3467.057355261545
 30
0.0
 11
20049.92693780114
 21
3467.057355261545
 31
0.0
  0
LINE
  5
15DB
  8
0
 10
19909.92693780114
 20
3467.057355261545
 30
0.0
 11
19909.92693780114
 21
3347.057355261545
 31
0.0
  0
LINE
  5
15DC
  8
0
 10
20049.92693780114
 20
3467.057355261545
 30
0.0
 11
20189.92693780114
 21
3467.057355261545
 31
0.0
  0
LINE
  5
15DD
  8
0
 10
20189.92693780114
 20
3467.057355261545
 30
0.0
 11
20329.92693780114
 21
3467.057355261545
 31
0.0
  0
LINE
  5
15DE
  8
0
 10
20189.92693780114
 20
3467.057355261545
 30
0.0
 11
20189.92693780114
 21
3347.057355261545
 31
0.0
  0
LINE
  5
15DF
  8
0
 10
20329.92693780114
 20
3467.057355261545
 30
0.0
 11
20469.92693780114
 21
3467.057355261545
 31
0.0
  0
LINE
  5
15E0
  8
0
 10
20469.92693780114
 20
3467.057355261545
 30
0.0
 11
20609.92693780114
 21
3467.057355261545
 31
0.0
  0
LINE
  5
15E1
  8
0
 10
20469.92693780114
 20
3467.057355261545
 30
0.0
 11
20469.92693780114
 21
3347.057355261545
 31
0.0
  0
LINE
  5
15E2
  8
0
 10
20609.92693780114
 20
3467.057355261545
 30
0.0
 11
20749.92693780114
 21
3467.057355261545
 31
0.0
  0
LINE
  5
15E3
  8
0
 10
20749.92693780114
 20
3467.057355261545
 30
0.0
 11
20889.92693780114
 21
3467.057355261545
 31
0.0
  0
LINE
  5
15E4
  8
0
 10
20889.92693780114
 20
3467.057355261545
 30
0.0
 11
21029.92693780114
 21
3467.057355261545
 31
0.0
  0
LINE
  5
15E5
  8
0
 10
21029.92693780114
 20
3467.057355261545
 30
0.0
 11
21169.92693780114
 21
3467.057355261545
 31
0.0
  0
LINE
  5
15E6
  8
0
 10
21169.92693780114
 20
3467.057355261545
 30
0.0
 11
21309.92693780114
 21
3467.057355261545
 31
0.0
  0
LINE
  5
15E7
  8
0
 10
18649.92693780114
 20
3347.057355261545
 30
0.0
 11
18789.92693780114
 21
3347.057355261545
 31
0.0
  0
LINE
  5
15E8
  8
0
 10
18789.92693780114
 20
3347.057355261545
 30
0.0
 11
18929.92693780114
 21
3347.057355261545
 31
0.0
  0
LINE
  5
15E9
  8
0
 10
18929.92693780114
 20
3347.057355261545
 30
0.0
 11
19069.92693780114
 21
3347.057355261545
 31
0.0
  0
LINE
  5
15EA
  8
0
 10
19069.92693780114
 20
3347.057355261545
 30
0.0
 11
19209.92693780114
 21
3347.057355261545
 31
0.0
  0
LINE
  5
15EB
  8
0
 10
19209.92693780114
 20
3347.057355261545
 30
0.0
 11
19349.92693780114
 21
3347.057355261545
 31
0.0
  0
LINE
  5
15EC
  8
0
 10
19349.92693780114
 20
3347.057355261545
 30
0.0
 11
19489.92693780114
 21
3347.057355261545
 31
0.0
  0
LINE
  5
15ED
  8
0
 10
19489.92693780114
 20
3347.057355261545
 30
0.0
 11
19629.92693780114
 21
3347.057355261545
 31
0.0
  0
LINE
  5
15EE
  8
0
 10
19629.92693780114
 20
3347.057355261545
 30
0.0
 11
19769.92693780114
 21
3347.057355261545
 31
0.0
  0
LINE
  5
15EF
  8
0
 10
19769.92693780114
 20
3347.057355261545
 30
0.0
 11
19909.92693780114
 21
3347.057355261545
 31
0.0
  0
LINE
  5
15F0
  8
0
 10
19909.92693780114
 20
3347.057355261545
 30
0.0
 11
20049.92693780114
 21
3347.057355261545
 31
0.0
  0
LINE
  5
15F1
  8
0
 10
20049.92693780114
 20
3347.057355261545
 30
0.0
 11
20189.92693780114
 21
3347.057355261545
 31
0.0
  0
LINE
  5
15F2
  8
0
 10
20189.92693780114
 20
3347.057355261545
 30
0.0
 11
20329.92693780114
 21
3347.057355261545
 31
0.0
  0
LINE
  5
15F3
  8
0
 10
20329.92693780114
 20
3347.057355261545
 30
0.0
 11
20469.92693780114
 21
3347.057355261545
 31
0.0
  0
LINE
  5
15F4
  8
0
 10
20469.92693780114
 20
3347.057355261545
 30
0.0
 11
20609.92693780114
 21
3347.057355261545
 31
0.0
  0
LINE
  5
15F5
  8
0
 10
20609.92693780114
 20
3347.057355261545
 30
0.0
 11
20749.92693780114
 21
3347.057355261545
 31
0.0
  0
LINE
  5
15F6
  8
0
 10
20749.92693780114
 20
3347.057355261545
 30
0.0
 11
20889.92693780114
 21
3347.057355261545
 31
0.0
  0
LINE
  5
15F7
  8
0
 10
20889.92693780114
 20
3347.057355261545
 30
0.0
 11
21029.92693780114
 21
3347.057355261545
 31
0.0
  0
LINE
  5
15F8
  8
0
 10
21029.92693780114
 20
3347.057355261545
 30
0.0
 11
21169.92693780114
 21
3347.057355261545
 31
0.0
  0
LINE
  5
15F9
  8
0
 10
21169.92693780114
 20
3347.057355261545
 30
0.0
 11
21309.92693780114
 21
3347.057355261545
 31
0.0
  0
LINE
  5
15FA
  8
0
 10
18649.92693780114
 20
3347.057355261545
 30
0.0
 11
18789.92693780114
 21
3347.057355261545
 31
0.0
  0
LINE
  5
15FB
  8
0
 10
18649.92693780114
 20
3347.057355261545
 30
0.0
 11
18649.92693780114
 21
3227.057355261545
 31
0.0
  0
LINE
  5
15FC
  8
0
 10
18789.92693780114
 20
3347.057355261545
 30
0.0
 11
18929.92693780114
 21
3347.057355261545
 31
0.0
  0
LINE
  5
15FD
  8
0
 10
18929.92693780114
 20
3347.057355261545
 30
0.0
 11
19069.92693780114
 21
3347.057355261545
 31
0.0
  0
LINE
  5
15FE
  8
0
 10
18929.92693780114
 20
3347.057355261545
 30
0.0
 11
18929.92693780114
 21
3227.057355261545
 31
0.0
  0
LINE
  5
15FF
  8
0
 10
19069.92693780114
 20
3347.057355261545
 30
0.0
 11
19209.92693780114
 21
3347.057355261545
 31
0.0
  0
LINE
  5
1600
  8
0
 10
19209.92693780114
 20
3347.057355261545
 30
0.0
 11
19349.92693780114
 21
3347.057355261545
 31
0.0
  0
LINE
  5
1601
  8
0
 10
19349.92693780114
 20
3347.057355261545
 30
0.0
 11
19489.92693780114
 21
3347.057355261545
 31
0.0
  0
LINE
  5
1602
  8
0
 10
19489.92693780114
 20
3347.057355261545
 30
0.0
 11
19629.92693780114
 21
3347.057355261545
 31
0.0
  0
LINE
  5
1603
  8
0
 10
19629.92693780114
 20
3347.057355261545
 30
0.0
 11
19769.92693780114
 21
3347.057355261545
 31
0.0
  0
LINE
  5
1604
  8
0
 10
19629.92693780114
 20
3347.057355261545
 30
0.0
 11
19629.92693780114
 21
3227.057355261545
 31
0.0
  0
LINE
  5
1605
  8
0
 10
19769.92693780114
 20
3347.057355261545
 30
0.0
 11
19909.92693780114
 21
3347.057355261545
 31
0.0
  0
LINE
  5
1606
  8
0
 10
19909.92693780114
 20
3347.057355261545
 30
0.0
 11
20049.92693780114
 21
3347.057355261545
 31
0.0
  0
LINE
  5
1607
  8
0
 10
19909.92693780114
 20
3347.057355261545
 30
0.0
 11
19909.92693780114
 21
3227.057355261545
 31
0.0
  0
LINE
  5
1608
  8
0
 10
20049.92693780114
 20
3347.057355261545
 30
0.0
 11
20189.92693780114
 21
3347.057355261545
 31
0.0
  0
LINE
  5
1609
  8
0
 10
20189.92693780114
 20
3347.057355261545
 30
0.0
 11
20329.92693780114
 21
3347.057355261545
 31
0.0
  0
LINE
  5
160A
  8
0
 10
20189.92693780114
 20
3347.057355261545
 30
0.0
 11
20189.92693780114
 21
3227.057355261545
 31
0.0
  0
LINE
  5
160B
  8
0
 10
20329.92693780114
 20
3347.057355261545
 30
0.0
 11
20469.92693780114
 21
3347.057355261545
 31
0.0
  0
LINE
  5
160C
  8
0
 10
20469.92693780114
 20
3347.057355261545
 30
0.0
 11
20609.92693780114
 21
3347.057355261545
 31
0.0
  0
LINE
  5
160D
  8
0
 10
20469.92693780114
 20
3347.057355261545
 30
0.0
 11
20469.92693780114
 21
3227.057355261545
 31
0.0
  0
LINE
  5
160E
  8
0
 10
20609.92693780114
 20
3347.057355261545
 30
0.0
 11
20749.92693780114
 21
3347.057355261545
 31
0.0
  0
LINE
  5
160F
  8
0
 10
20749.92693780114
 20
3347.057355261545
 30
0.0
 11
20889.92693780114
 21
3347.057355261545
 31
0.0
  0
LINE
  5
1610
  8
0
 10
20889.92693780114
 20
3347.057355261545
 30
0.0
 11
21029.92693780114
 21
3347.057355261545
 31
0.0
  0
LINE
  5
1611
  8
0
 10
21029.92693780114
 20
3347.057355261545
 30
0.0
 11
21169.92693780114
 21
3347.057355261545
 31
0.0
  0
LINE
  5
1612
  8
0
 10
21169.92693780114
 20
3347.057355261545
 30
0.0
 11
21309.92693780114
 21
3347.057355261545
 31
0.0
  0
LINE
  5
1613
  8
0
 10
18649.92693780114
 20
3227.057355261545
 30
0.0
 11
18789.92693780114
 21
3227.057355261545
 31
0.0
  0
LINE
  5
1614
  8
0
 10
18649.92693780114
 20
3227.057355261545
 30
0.0
 11
18649.92693780114
 21
3107.057355261545
 31
0.0
  0
LINE
  5
1615
  8
0
 10
18789.92693780114
 20
3227.057355261545
 30
0.0
 11
18929.92693780114
 21
3227.057355261545
 31
0.0
  0
LINE
  5
1616
  8
0
 10
18929.92693780114
 20
3227.057355261545
 30
0.0
 11
19069.92693780114
 21
3227.057355261545
 31
0.0
  0
LINE
  5
1617
  8
0
 10
18929.92693780114
 20
3227.057355261545
 30
0.0
 11
18929.92693780114
 21
3107.057355261545
 31
0.0
  0
LINE
  5
1618
  8
0
 10
19069.92693780114
 20
3227.057355261545
 30
0.0
 11
19209.92693780114
 21
3227.057355261545
 31
0.0
  0
LINE
  5
1619
  8
0
 10
19209.92693780114
 20
3227.057355261545
 30
0.0
 11
19349.92693780114
 21
3227.057355261545
 31
0.0
  0
LINE
  5
161A
  8
0
 10
19349.92693780114
 20
3227.057355261545
 30
0.0
 11
19489.92693780114
 21
3227.057355261545
 31
0.0
  0
LINE
  5
161B
  8
0
 10
19489.92693780114
 20
3227.057355261545
 30
0.0
 11
19629.92693780114
 21
3227.057355261545
 31
0.0
  0
LINE
  5
161C
  8
0
 10
19629.92693780114
 20
3227.057355261545
 30
0.0
 11
19769.92693780114
 21
3227.057355261545
 31
0.0
  0
LINE
  5
161D
  8
0
 10
19629.92693780114
 20
3227.057355261545
 30
0.0
 11
19629.92693780114
 21
3107.057355261545
 31
0.0
  0
LINE
  5
161E
  8
0
 10
19769.92693780114
 20
3227.057355261545
 30
0.0
 11
19909.92693780114
 21
3227.057355261545
 31
0.0
  0
LINE
  5
161F
  8
0
 10
19909.92693780114
 20
3227.057355261545
 30
0.0
 11
20049.92693780114
 21
3227.057355261545
 31
0.0
  0
LINE
  5
1620
  8
0
 10
19909.92693780114
 20
3227.057355261545
 30
0.0
 11
19909.92693780114
 21
3107.057355261545
 31
0.0
  0
LINE
  5
1621
  8
0
 10
20049.92693780114
 20
3227.057355261545
 30
0.0
 11
20189.92693780114
 21
3227.057355261545
 31
0.0
  0
LINE
  5
1622
  8
0
 10
20189.92693780114
 20
3227.057355261545
 30
0.0
 11
20329.92693780114
 21
3227.057355261545
 31
0.0
  0
LINE
  5
1623
  8
0
 10
20189.92693780114
 20
3227.057355261545
 30
0.0
 11
20189.92693780114
 21
3107.057355261545
 31
0.0
  0
LINE
  5
1624
  8
0
 10
20329.92693780114
 20
3227.057355261545
 30
0.0
 11
20469.92693780114
 21
3227.057355261545
 31
0.0
  0
LINE
  5
1625
  8
0
 10
20469.92693780114
 20
3227.057355261545
 30
0.0
 11
20609.92693780114
 21
3227.057355261545
 31
0.0
  0
LINE
  5
1626
  8
0
 10
20469.92693780114
 20
3227.057355261545
 30
0.0
 11
20469.92693780114
 21
3107.057355261545
 31
0.0
  0
LINE
  5
1627
  8
0
 10
20609.92693780114
 20
3227.057355261545
 30
0.0
 11
20749.92693780114
 21
3227.057355261545
 31
0.0
  0
LINE
  5
1628
  8
0
 10
20749.92693780114
 20
3227.057355261545
 30
0.0
 11
20889.92693780114
 21
3227.057355261545
 31
0.0
  0
LINE
  5
1629
  8
0
 10
20889.92693780114
 20
3227.057355261545
 30
0.0
 11
21029.92693780114
 21
3227.057355261545
 31
0.0
  0
LINE
  5
162A
  8
0
 10
21029.92693780114
 20
3227.057355261545
 30
0.0
 11
21169.92693780114
 21
3227.057355261545
 31
0.0
  0
LINE
  5
162B
  8
0
 10
21169.92693780114
 20
3227.057355261545
 30
0.0
 11
21309.92693780114
 21
3227.057355261545
 31
0.0
  0
LINE
  5
162C
  8
0
 10
18649.92693780114
 20
3107.057355261545
 30
0.0
 11
18789.92693780114
 21
3107.057355261545
 31
0.0
  0
LINE
  5
162D
  8
0
 10
18649.92693780114
 20
3107.057355261545
 30
0.0
 11
18649.92693780114
 21
2987.057355261545
 31
0.0
  0
LINE
  5
162E
  8
0
 10
18789.92693780114
 20
3107.057355261545
 30
0.0
 11
18929.92693780114
 21
3107.057355261545
 31
0.0
  0
LINE
  5
162F
  8
0
 10
18929.92693780114
 20
3107.057355261545
 30
0.0
 11
19069.92693780114
 21
3107.057355261545
 31
0.0
  0
LINE
  5
1630
  8
0
 10
18929.92693780114
 20
3107.057355261545
 30
0.0
 11
18929.92693780114
 21
2987.057355261545
 31
0.0
  0
LINE
  5
1631
  8
0
 10
19069.92693780114
 20
3107.057355261545
 30
0.0
 11
19209.92693780114
 21
3107.057355261545
 31
0.0
  0
LINE
  5
1632
  8
0
 10
19209.92693780114
 20
3107.057355261545
 30
0.0
 11
19349.92693780114
 21
3107.057355261545
 31
0.0
  0
LINE
  5
1633
  8
0
 10
19349.92693780114
 20
3107.057355261545
 30
0.0
 11
19489.92693780114
 21
3107.057355261545
 31
0.0
  0
LINE
  5
1634
  8
0
 10
19489.92693780114
 20
3107.057355261545
 30
0.0
 11
19629.92693780114
 21
3107.057355261545
 31
0.0
  0
LINE
  5
1635
  8
0
 10
19629.92693780114
 20
3107.057355261545
 30
0.0
 11
19769.92693780114
 21
3107.057355261545
 31
0.0
  0
LINE
  5
1636
  8
0
 10
19629.92693780114
 20
3107.057355261545
 30
0.0
 11
19629.92693780114
 21
2987.057355261545
 31
0.0
  0
LINE
  5
1637
  8
0
 10
19769.92693780114
 20
3107.057355261545
 30
0.0
 11
19909.92693780114
 21
3107.057355261545
 31
0.0
  0
LINE
  5
1638
  8
0
 10
19909.92693780114
 20
3107.057355261545
 30
0.0
 11
20049.92693780114
 21
3107.057355261545
 31
0.0
  0
LINE
  5
1639
  8
0
 10
19909.92693780114
 20
3107.057355261545
 30
0.0
 11
19909.92693780114
 21
2987.057355261545
 31
0.0
  0
LINE
  5
163A
  8
0
 10
20049.92693780114
 20
3107.057355261545
 30
0.0
 11
20189.92693780114
 21
3107.057355261545
 31
0.0
  0
LINE
  5
163B
  8
0
 10
20189.92693780114
 20
3107.057355261545
 30
0.0
 11
20329.92693780114
 21
3107.057355261545
 31
0.0
  0
LINE
  5
163C
  8
0
 10
20189.92693780114
 20
3107.057355261545
 30
0.0
 11
20189.92693780114
 21
2987.057355261545
 31
0.0
  0
LINE
  5
163D
  8
0
 10
20329.92693780114
 20
3107.057355261545
 30
0.0
 11
20469.92693780114
 21
3107.057355261545
 31
0.0
  0
LINE
  5
163E
  8
0
 10
20469.92693780114
 20
3107.057355261545
 30
0.0
 11
20609.92693780114
 21
3107.057355261545
 31
0.0
  0
LINE
  5
163F
  8
0
 10
20469.92693780114
 20
3107.057355261545
 30
0.0
 11
20469.92693780114
 21
2987.057355261545
 31
0.0
  0
LINE
  5
1640
  8
0
 10
20609.92693780114
 20
3107.057355261545
 30
0.0
 11
20749.92693780114
 21
3107.057355261545
 31
0.0
  0
LINE
  5
1641
  8
0
 10
20749.92693780114
 20
3107.057355261545
 30
0.0
 11
20889.92693780114
 21
3107.057355261545
 31
0.0
  0
LINE
  5
1642
  8
0
 10
20889.92693780114
 20
3107.057355261545
 30
0.0
 11
21029.92693780114
 21
3107.057355261545
 31
0.0
  0
LINE
  5
1643
  8
0
 10
21029.92693780114
 20
3107.057355261545
 30
0.0
 11
21169.92693780114
 21
3107.057355261545
 31
0.0
  0
LINE
  5
1644
  8
0
 10
21169.92693780114
 20
3107.057355261545
 30
0.0
 11
21309.92693780114
 21
3107.057355261545
 31
0.0
  0
TEXT
  5
1645
  8
0
  6
CONTINUOUS
 10
18686.92342387148
 20
3017.685841211708
 30
0.0
 40
60.0
  1
品　番
  0
TEXT
  5
1646
  8
0
  6
CONTINUOUS
 10
19094.4784714053
 20
3020.278658433214
 30
0.0
 40
60.0
  1
名　　　称
  0
TEXT
  5
1647
  8
0
  6
CONTINUOUS
 10
19666.35432176731
 20
3019.73379390836
 30
0.0
 40
60.0
  1
サイズ
  0
TEXT
  5
1648
  8
0
  6
CONTINUOUS
 10
19942.16001623615
 20
3019.023347536969
 30
0.0
 40
60.0
  1
材　質
  0
TEXT
  5
1649
  8
0
  6
CONTINUOUS
 10
20224.50121431491
 20
3018.428195525828
 30
0.0
 40
60.0
  1
個　数
  0
TEXT
  5
164A
  8
0
  6
CONTINUOUS
 10
20699.15312735314
 20
3018.538228061917
 30
0.0
 40
60.0
  1
摘　　　要
  0
TEXT
  5
164B
  8
0
  6
CONTINUOUS
 10
18779.49967198454
 20
3134.571257181256
 30
0.0
 40
60.0
  1
１
  0
TEXT
  5
164C
  8
0
  6
CONTINUOUS
 10
19111.08170378327
 20
3139.322706677915
 30
0.0
 40
60.0
  1
タ　ン　ク
  0
TEXT
  5
164D
  8
0
  6
CONTINUOUS
 10
19945.45271071241
 20
3136.696336495902
 30
0.0
 40
60.0
  1
Ｐ　Ｅ
  0
TEXT
  5
164E
  8
0
  6
CONTINUOUS
 10
20319.08026748531
 20
3135.515716920542
 30
0.0
 40
60.0
  1
１
  0
TEXT
  5
164F
  8
0
  6
CONTINUOUS
 10
20507.20150491196
 20
3141.540201252451
 30
0.0
 40
60.0
  1
（茶）　ｔ＝7
  0
TEXT
  5
1650
  8
0
  6
CONTINUOUS
 10
18771.24575538196
 20
3257.782672482784
 30
0.0
 40
60.0
  1
２
  0
TEXT
  5
1651
  8
0
  6
CONTINUOUS
 10
19104.90870130891
 20
3262.937199541841
 30
0.0
 40
60.0
  1
マンホール
  0
TEXT
  5
1652
  8
0
  6
CONTINUOUS
 10
19946.27173461459
 20
3261.261749868348
 30
0.0
 40
60.0
  1
Ｐ　Ｅ
  0
TEXT
  5
1653
  8
0
  6
CONTINUOUS
 10
20510.10033577968
 20
3261.370708411582
 30
0.0
 40
60.0
  1
捻込式
  0
TEXT
  5
1654
  8
0
  6
CONTINUOUS
 10
18701.43653921919
 20
3381.182416599034
 30
0.0
 40
60.0
  1
Ｎ－１
  0
TEXT
  5
1655
  8
0
  6
CONTINUOUS
 10
18700.16077889289
 20
3499.666243437235
 30
0.0
 40
60.0
  1
Ｎ－２
  0
TEXT
  5
1656
  8
0
  6
CONTINUOUS
 10
18698.55585866523
 20
3617.996197783062
 30
0.0
 40
60.0
  1
Ｎ－３
  0
TEXT
  5
1657
  8
0
  6
CONTINUOUS
 10
20319.08026748531
 20
3256.270853088275
 30
0.0
 40
60.0
  1
１
  0
TEXT
  5
1658
  8
0
  6
CONTINUOUS
 10
20319.08026748531
 20
3376.490821555381
 30
0.0
 40
60.0
  1
１
  0
TEXT
  5
1659
  8
0
  6
CONTINUOUS
 10
20319.08026748531
 20
3496.877626872761
 30
0.0
 40
60.0
  1
１
  0
TEXT
  5
165A
  8
0
  6
CONTINUOUS
 10
20319.08026748531
 20
3615.656187341295
 30
0.0
 40
60.0
  1
１
  0
TEXT
  5
165B
  8
0
 10
19679.49416327953
 20
3374.496498977383
 30
0.0
 40
60.0
  1
６５
  0
TEXT
  5
165C
  8
0
 10
19829.02759743557
 20
3402.640532249584
 30
0.0
 40
40.0
  1
Ａ
  0
TEXT
  5
165D
  8
0
 10
19679.49416327953
 20
3493.124866706962
 30
0.0
 40
60.0
  1
６５
  0
TEXT
  5
165E
  8
0
 10
19829.02759743557
 20
3521.268899979145
 30
0.0
 40
40.0
  1
Ａ
  0
TEXT
  5
165F
  8
0
 10
19673.83188829751
 20
3140.262305119991
 30
0.0
 40
60.0
  1
６ｍ
  0
TEXT
  5
1660
  8
0
 10
19823.36532245354
 20
3168.406338392192
 30
0.0
 40
40.0
  1
３
  0
TEXT
  5
1661
  8
0
 10
19651.9747382217
 20
3261.832500443884
 30
0.0
 40
60.0
  1
φ470
  0
TEXT
  5
1662
  8
0
  6
CONTINUOUS
 10
19111.08170378327
 20
3374.267409986213
 30
0.0
 40
60.0
  1
液　出　口
  0
TEXT
  5
1663
  8
0
  6
CONTINUOUS
 10
19111.08170378327
 20
3499.546332228588
 30
0.0
 40
60.0
  1
エアー抜き
  0
TEXT
  5
1664
  8
0
  6
CONTINUOUS
 10
19111.08170378327
 20
3617.020930369757
 30
0.0
 40
60.0
  1
ゲ　ー　ジ
  0
TEXT
  5
1665
  8
0
 10
19944.91360619963
 20
3373.633397630379
 30
0.0
 40
60.0
  1
AL/SS
 41
0.7
  0
TEXT
  5
1666
  8
0
 10
19922.86204114375
 20
3496.041917025227
 30
0.0
 40
60.0
  1
PE/PVC
 41
0.7
  0
TEXT
  5
1667
  8
0
 10
20494.2787526281
 20
3375.607423906563
 30
0.0
 40
60.0
  1
ﾌｨｯﾃｨﾝｸﾞ・六角ﾆｯﾌﾟﾙ・Tボール付
 41
0.7
  0
TEXT
  5
1668
  8
0
 10
20499.73335937925
 20
3499.291750114439
 30
0.0
 40
60.0
  1
L型ベント管付
  0
TEXT
  5
1669
  8
0
 10
20498.48044890133
 20
3617.915574709818
 30
0.0
 40
60.0
  1
ﾁｭｰﾌﾞ式液面計
  0
INSERT
  5
166B
  8
0
  2
*X24
 10
0.0
 20
0.0
 30
0.0
  0
LINE
  5
181D
  8
細線
  6
CENTER
 10
15640.78193943545
 20
4885.17076622125
 30
0.0
 11
15640.78193943545
 21
2674.248382688416
 31
0.0
  0
POINT
  5
181E
  8
細線
  6
CONTINUOUS
 10
15648.8033843082
 20
4823.770849948985
 30
0.0
  0
LINE
  5
181F
  8
細線
  6
CONTINUOUS
 10
15633.78193943545
 20
4829.845207441473
 30
0.0
 11
15647.78193943545
 21
4829.845207441473
 31
0.0
  0
LINE
  5
1820
  8
細線
  6
CONTINUOUS
 10
15633.78193943545
 20
4844.845207441473
 30
0.0
 11
15633.78193943545
 21
4829.845207441473
 31
0.0
  0
LINE
  5
1821
  8
細線
  6
CONTINUOUS
 10
15647.78193943545
 20
4844.845207441473
 30
0.0
 11
15647.78193943545
 21
4829.845207441473
 31
0.0
  0
LINE
  5
1822
  8
細線
  6
CENTER
 10
15628.04416469338
 20
4844.845207441473
 30
0.0
 11
15653.08759930128
 21
4844.845207441473
 31
0.0
  0
LINE
  5
1823
  8
細線
  6
CONTINUOUS
 10
15637.28193943545
 20
4814.845207441473
 30
0.0
 11
15644.28193943545
 21
4814.845207441473
 31
0.0
  0
LINE
  5
1824
  8
細線
  6
CONTINUOUS
 10
15636.78193943545
 20
4828.845207441473
 30
0.0
 11
15636.78193943545
 21
4826.890615659777
 31
0.0
  0
LINE
  5
1825
  8
細線
  6
CONTINUOUS
 10
15636.78193943545
 20
4824.890615659778
 30
0.0
 11
15636.78193943545
 21
4822.662712073279
 31
0.0
  0
LINE
  5
1826
  8
細線
  6
CONTINUOUS
 10
15636.78193943545
 20
4820.662712073279
 30
0.0
 11
15636.78193943545
 21
4815.345207441473
 31
0.0
  0
LINE
  5
1827
  8
細線
  6
CONTINUOUS
 10
15644.78193943545
 20
4828.845207441473
 30
0.0
 11
15644.78193943545
 21
4826.890615659777
 31
0.0
  0
LINE
  5
1828
  8
細線
  6
CONTINUOUS
 10
15644.78193943545
 20
4824.890615659778
 30
0.0
 11
15644.78193943545
 21
4822.662712073279
 31
0.0
  0
LINE
  5
1829
  8
細線
  6
CONTINUOUS
 10
15644.78193943545
 20
4820.662712073279
 30
0.0
 11
15644.78193943545
 21
4815.345207441473
 31
0.0
  0
LINE
  5
182A
  8
細線
  6
CONTINUOUS
 10
15634.0043138725
 20
4825.890615659777
 30
0.0
 11
15646.68051047038
 21
4825.890615659777
 31
0.0
  0
LINE
  5
182B
  8
細線
  6
CONTINUOUS
 10
15633.72629237365
 20
4821.662712073279
 30
0.0
 11
15645.78193943545
 21
4821.662712073279
 31
0.0
  0
LINE
  5
182C
  8
細線
  6
CONTINUOUS
 10
15635.78193943545
 20
4822.662712073279
 30
0.0
 11
15646.01554814938
 21
4822.662712073279
 31
0.0
  0
LINE
  5
182D
  8
細線
  6
CONTINUOUS
 10
15635.78193943545
 20
4820.662712073279
 30
0.0
 11
15648.85066191095
 21
4820.662712073279
 31
0.0
  0
LINE
  5
182E
  8
細線
  6
CONTINUOUS
 10
15635.78193943545
 20
4824.890615659779
 30
0.0
 11
15646.02019822873
 21
4824.890615659779
 31
0.0
  0
LINE
  5
182F
  8
細線
  6
CONTINUOUS
 10
15635.78193943545
 20
4826.890615659777
 30
0.0
 11
15648.73945331141
 21
4826.890615659777
 31
0.0
  0
LINE
  5
1830
  8
細線
  6
CENTER
 10
15650.78193943545
 20
4827.890615659779
 30
0.0
 11
15650.78193943545
 21
4826.025915271421
 31
0.0
  0
LINE
  5
1831
  8
細線
  6
CONTINUOUS
 10
15644.78193943545
 20
4817.662712073279
 30
0.0
 11
15648.78193943545
 21
4817.662712073279
 31
0.0
  0
LINE
  5
1832
  8
細線
  6
CONTINUOUS
 10
15644.78193943545
 20
4829.890615659779
 30
0.0
 11
15648.78193943545
 21
4829.890615659779
 31
0.0
  0
LINE
  5
1833
  8
細線
  6
CONTINUOUS
 10
15646.8668926351
 20
4823.270849948985
 30
0.0
 11
15647.8033843082
 21
4823.270849948985
 31
0.0
  0
LINE
  5
1834
  8
細線
  6
CONTINUOUS
 10
15646.8668926351
 20
4824.270849948985
 30
0.0
 11
15647.8033843082
 21
4824.270849948985
 31
0.0
  0
LINE
  5
1835
  8
細線
  6
CONTINUOUS
 10
15649.3033843082
 20
4825.70734162209
 30
0.0
 11
15649.3033843082
 21
4824.770849948985
 31
0.0
  0
LINE
  5
1836
  8
細線
  6
CONTINUOUS
 10
15648.3033843082
 20
4825.70734162209
 30
0.0
 11
15648.3033843082
 21
4824.770849948985
 31
0.0
  0
LINE
  5
1837
  8
細線
  6
CENTER
 10
15650.78193943545
 20
4821.515784626552
 30
0.0
 11
15650.78193943545
 21
4819.662712073279
 31
0.0
  0
LINE
  5
1838
  8
細線
  6
CONTINUOUS
 10
15648.3033843082
 20
4822.770849948985
 30
0.0
 11
15648.3033843082
 21
4821.834358275883
 31
0.0
  0
LINE
  5
1839
  8
細線
  6
CONTINUOUS
 10
15649.8033843082
 20
4823.270849948985
 30
0.0
 11
15650.7398759813
 21
4823.270849948985
 31
0.0
  0
LINE
  5
183A
  8
細線
  6
CONTINUOUS
 10
15649.8033843082
 20
4824.270849948985
 30
0.0
 11
15650.7398759813
 21
4824.270849948985
 31
0.0
  0
LINE
  5
183B
  8
細線
  6
CONTINUOUS
 10
15649.3033843082
 20
4822.770849948985
 30
0.0
 11
15649.3033843082
 21
4821.834358275883
 31
0.0
  0
ARC
  5
183C
  8
細線
  6
CONTINUOUS
 10
15640.78193943545
 20
4844.845207441473
 30
0.0
 40
7.0
 50
0.0
 51
180.0
  0
ARC
  5
183D
  8
細線
  6
CONTINUOUS
 10
15635.78193943545
 20
4825.890615659778
 30
0.0
 40
0.9999999999999432
 50
90.0
 51
270.0
  0
ARC
  5
183E
  8
細線
  6
CONTINUOUS
 10
15635.78193943545
 20
4821.662712073279
 30
0.0
 40
0.9999999999999432
 50
90.0
 51
270.0
  0
CIRCLE
  5
183F
  8
細線
  6
CONTINUOUS
 10
15648.8033843082
 20
4823.770849948986
 30
0.0
 40
3.0
  0
ARC
  5
1840
  8
細線
  6
CONTINUOUS
 10
15648.78193943545
 20
4827.890615659778
 30
0.0
 40
2.0
 50
0.0
 51
90.0
  0
ARC
  5
1841
  8
細線
  6
CONTINUOUS
 10
15648.78193943545
 20
4819.66271207328
 30
0.0
 40
2.0
 50
270.0
 51
0.0
  0
ARC
  5
1842
  8
細線
  6
CONTINUOUS
 10
15648.8033843082
 20
4823.770849948986
 30
0.0
 40
2.000000000000001
 50
345.5224878140648
 51
14.47751218593514
  0
ARC
  5
1843
  8
細線
  6
CONTINUOUS
 10
15648.8033843082
 20
4823.770849948986
 30
0.0
 40
2.000000000000001
 50
255.5224878140705
 51
284.4775121859295
  0
ARC
  5
1844
  8
細線
  6
CONTINUOUS
 10
15648.8033843082
 20
4823.770849948986
 30
0.0
 40
2.000000000000001
 50
75.52248781407056
 51
104.4775121859294
  0
ARC
  5
1845
  8
細線
  6
CONTINUOUS
 10
15648.8033843082
 20
4823.770849948986
 30
0.0
 40
2.000000000000001
 50
165.5224878140648
 51
194.4775121859352
  0
ARC
  5
1846
  8
細線
  6
CONTINUOUS
 10
15647.8033843082
 20
4824.770849948986
 30
0.0
 40
0.5
 50
270.0
 51
0.0
  0
ARC
  5
1847
  8
細線
  6
CONTINUOUS
 10
15647.8033843082
 20
4822.770849948986
 30
0.0
 40
0.5
 50
0.0
 51
90.0
  0
ARC
  5
1848
  8
細線
  6
CONTINUOUS
 10
15649.8033843082
 20
4822.770849948986
 30
0.0
 40
0.5
 50
90.0
 51
180.0
  0
ARC
  5
1849
  8
細線
  6
CONTINUOUS
 10
15649.8033843082
 20
4824.770849948986
 30
0.0
 40
0.5
 50
180.0
 51
270.0
  0
ARC
  5
184A
  8
細線
  6
CONTINUOUS
 10
15637.28193943545
 20
4815.345207441473
 30
0.0
 40
0.5
 50
180.0
 51
270.0
  0
ARC
  5
184B
  8
細線
  6
CONTINUOUS
 10
15644.28193943545
 20
4815.345207441473
 30
0.0
 40
0.5
 50
270.0
 51
0.0
  0
ARC
  5
184C
  8
細線
  6
CONTINUOUS
 10
15635.78193943545
 20
4828.845207441474
 30
0.0
 40
1.0
 50
0.0
 51
90.0
  0
ARC
  5
184D
  8
細線
  6
CONTINUOUS
 10
15645.78193943545
 20
4828.845207441474
 30
0.0
 40
1.0
 50
90.0
 51
180.0
  0
POINT
  5
184E
  8
細線
  6
CONTINUOUS
 10
15648.8033843082
 20
2715.919564933959
 30
0.0
  0
LINE
  5
184F
  8
細線
 10
15635.78193943545
 20
2709.845207441473
 30
0.0
 11
15635.78193943545
 21
2712.799799223168
 31
0.0
  0
LINE
  5
1850
  8
細線
 10
15635.78193943545
 20
2714.799799223166
 30
0.0
 11
15635.78193943545
 21
2717.027702809666
 31
0.0
  0
LINE
  5
1851
  8
細線
 10
15635.78193943545
 20
2719.027702809666
 30
0.0
 11
15635.78193943544
 21
4820.662712073279
 31
0.0
  0
LINE
  5
1852
  8
細線
 10
15635.78193943544
 20
4822.662712073279
 30
0.0
 11
15635.78193943545
 21
4824.890615659778
 31
0.0
  0
LINE
  5
1853
  8
細線
 10
15635.78193943545
 20
4826.890615659777
 30
0.0
 11
15635.78193943545
 21
4829.845207441473
 31
0.0
  0
LINE
  5
1854
  8
細線
 10
15645.78193943545
 20
2709.845207441473
 30
0.0
 11
15645.78193943545
 21
2712.799799223168
 31
0.0
  0
LINE
  5
1855
  8
細線
 10
15645.78193943545
 20
2714.799799223167
 30
0.0
 11
15645.78193943545
 21
2717.027702809665
 31
0.0
  0
LINE
  5
1856
  8
細線
 10
15645.78193943545
 20
2719.027702809666
 30
0.0
 11
15645.78193943545
 21
4817.662712073279
 31
0.0
  0
LINE
  5
1857
  8
細線
  6
CONTINUOUS
 10
15633.78193943545
 20
2709.845207441473
 30
0.0
 11
15647.78193943545
 21
2709.845207441473
 31
0.0
  0
LINE
  5
1858
  8
細線
  6
CONTINUOUS
 10
15633.78193943545
 20
2694.845207441473
 30
0.0
 11
15633.78193943545
 21
2709.845207441473
 31
0.0
  0
LINE
  5
1859
  8
細線
  6
CONTINUOUS
 10
15647.78193943545
 20
2694.845207441473
 30
0.0
 11
15647.78193943545
 21
2709.845207441473
 31
0.0
  0
LINE
  5
185A
  8
細線
  6
CENTER
 10
15628.04416469338
 20
2694.845207441473
 30
0.0
 11
15653.08759930128
 21
2694.845207441473
 31
0.0
  0
LINE
  5
185B
  8
細線
  6
CONTINUOUS
 10
15637.28193943545
 20
2724.845207441473
 30
0.0
 11
15644.28193943545
 21
2724.845207441473
 31
0.0
  0
LINE
  5
185C
  8
細線
  6
CONTINUOUS
 10
15636.78193943545
 20
2710.845207441472
 30
0.0
 11
15636.78193943546
 21
2712.799799223168
 31
0.0
  0
LINE
  5
185D
  8
細線
  6
CONTINUOUS
 10
15636.78193943545
 20
2714.799799223167
 30
0.0
 11
15636.78193943545
 21
2717.027702809666
 31
0.0
  0
LINE
  5
185E
  8
細線
  6
CONTINUOUS
 10
15636.78193943545
 20
2719.027702809666
 30
0.0
 11
15636.78193943545
 21
2724.345207441473
 31
0.0
  0
LINE
  5
185F
  8
細線
  6
CONTINUOUS
 10
15644.78193943545
 20
2710.845207441472
 30
0.0
 11
15644.78193943545
 21
2712.799799223168
 31
0.0
  0
LINE
  5
1860
  8
細線
  6
CONTINUOUS
 10
15644.78193943545
 20
2714.799799223167
 30
0.0
 11
15644.78193943545
 21
2717.027702809666
 31
0.0
  0
LINE
  5
1861
  8
細線
  6
CONTINUOUS
 10
15644.78193943545
 20
2719.027702809666
 30
0.0
 11
15644.78193943545
 21
2724.345207441473
 31
0.0
  0
LINE
  5
1862
  8
細線
  6
CONTINUOUS
 10
15634.0043138725
 20
2713.799799223168
 30
0.0
 11
15646.68051047038
 21
2713.799799223168
 31
0.0
  0
LINE
  5
1863
  8
細線
  6
CONTINUOUS
 10
15633.72629237365
 20
2718.027702809666
 30
0.0
 11
15645.78193943545
 21
2718.027702809666
 31
0.0
  0
LINE
  5
1864
  8
細線
  6
CONTINUOUS
 10
15635.78193943545
 20
2717.027702809666
 30
0.0
 11
15646.01554814938
 21
2717.027702809666
 31
0.0
  0
LINE
  5
1865
  8
細線
  6
CONTINUOUS
 10
15635.78193943545
 20
2719.027702809666
 30
0.0
 11
15648.85066191095
 21
2719.027702809666
 31
0.0
  0
LINE
  5
1866
  8
細線
  6
CONTINUOUS
 10
15635.78193943545
 20
2714.799799223167
 30
0.0
 11
15646.02019822873
 21
2714.799799223167
 31
0.0
  0
LINE
  5
1867
  8
細線
  6
CONTINUOUS
 10
15635.78193943545
 20
2712.799799223168
 30
0.0
 11
15648.73945331141
 21
2712.799799223168
 31
0.0
  0
LINE
  5
1868
  8
細線
  6
CENTER
 10
15650.78193943545
 20
2711.799799223167
 30
0.0
 11
15650.78193943545
 21
2713.664499611525
 31
0.0
  0
LINE
  5
1869
  8
細線
  6
CONTINUOUS
 10
15644.78193943545
 20
2722.027702809666
 30
0.0
 11
15648.78193943545
 21
2722.027702809666
 31
0.0
  0
LINE
  5
186A
  8
細線
  6
CONTINUOUS
 10
15644.78193943545
 20
2709.799799223167
 30
0.0
 11
15648.78193943545
 21
2709.799799223167
 31
0.0
  0
LINE
  5
186B
  8
細線
  6
CONTINUOUS
 10
15646.8668926351
 20
2716.419564933959
 30
0.0
 11
15647.8033843082
 21
2716.419564933959
 31
0.0
  0
LINE
  5
186C
  8
細線
  6
CONTINUOUS
 10
15646.8668926351
 20
2715.419564933959
 30
0.0
 11
15647.8033843082
 21
2715.419564933959
 31
0.0
  0
LINE
  5
186D
  8
細線
  6
CONTINUOUS
 10
15649.3033843082
 20
2713.983073260855
 30
0.0
 11
15649.3033843082
 21
2714.919564933959
 31
0.0
  0
LINE
  5
186E
  8
細線
  6
CONTINUOUS
 10
15648.3033843082
 20
2713.983073260855
 30
0.0
 11
15648.3033843082
 21
2714.919564933959
 31
0.0
  0
LINE
  5
186F
  8
細線
  6
CENTER
 10
15650.78193943545
 20
2718.174630256393
 30
0.0
 11
15650.78193943545
 21
2720.027702809665
 31
0.0
  0
LINE
  5
1870
  8
細線
  6
CONTINUOUS
 10
15648.3033843082
 20
2716.919564933959
 30
0.0
 11
15648.3033843082
 21
2717.856056607063
 31
0.0
  0
LINE
  5
1871
  8
細線
  6
CONTINUOUS
 10
15649.8033843082
 20
2716.419564933959
 30
0.0
 11
15650.7398759813
 21
2716.419564933959
 31
0.0
  0
LINE
  5
1872
  8
細線
  6
CONTINUOUS
 10
15649.8033843082
 20
2715.419564933959
 30
0.0
 11
15650.7398759813
 21
2715.419564933959
 31
0.0
  0
LINE
  5
1873
  8
細線
  6
CONTINUOUS
 10
15649.3033843082
 20
2716.919564933959
 30
0.0
 11
15649.3033843082
 21
2717.856056607063
 31
0.0
  0
ARC
  5
1874
  8
細線
  6
CONTINUOUS
 10
15640.78193943545
 20
2694.845207441471
 30
0.0
 40
7.0
 50
180.0
 51
0.0
  0
ARC
  5
1875
  8
細線
  6
CONTINUOUS
 10
15635.78193943545
 20
2713.799799223167
 30
0.0
 40
0.9999999999999432
 50
90.0
 51
270.0
  0
ARC
  5
1876
  8
細線
  6
CONTINUOUS
 10
15635.78193943545
 20
2718.027702809664
 30
0.0
 40
0.9999999999999432
 50
90.0
 51
270.0
  0
CIRCLE
  5
1877
  8
細線
  6
CONTINUOUS
 10
15648.8033843082
 20
2715.919564933958
 30
0.0
 40
3.0
  0
ARC
  5
1878
  8
細線
  6
CONTINUOUS
 10
15648.78193943545
 20
2711.799799223167
 30
0.0
 40
2.0
 50
270.0
 51
0.0
  0
ARC
  5
1879
  8
細線
  6
CONTINUOUS
 10
15648.78193943545
 20
2720.027702809664
 30
0.0
 40
2.0
 50
0.0
 51
90.0
  0
ARC
  5
187A
  8
細線
  6
CONTINUOUS
 10
15648.8033843082
 20
2715.919564933958
 30
0.0
 40
2.000000000000001
 50
345.5224878140648
 51
14.47751218593514
  0
ARC
  5
187B
  8
細線
  6
CONTINUOUS
 10
15648.8033843082
 20
2715.919564933958
 30
0.0
 40
2.000000000000001
 50
75.52248781407056
 51
104.4775121859294
  0
ARC
  5
187C
  8
細線
  6
CONTINUOUS
 10
15648.8033843082
 20
2715.919564933958
 30
0.0
 40
2.000000000000001
 50
255.5224878140705
 51
284.4775121859295
  0
ARC
  5
187D
  8
細線
  6
CONTINUOUS
 10
15648.8033843082
 20
2715.919564933958
 30
0.0
 40
2.000000000000001
 50
165.5224878140648
 51
194.4775121859352
  0
ARC
  5
187E
  8
細線
  6
CONTINUOUS
 10
15647.8033843082
 20
2714.919564933958
 30
0.0
 40
0.5
 50
0.0
 51
90.0
  0
ARC
  5
187F
  8
細線
  6
CONTINUOUS
 10
15647.8033843082
 20
2716.919564933958
 30
0.0
 40
0.5
 50
270.0
 51
0.0
  0
ARC
  5
1880
  8
細線
  6
CONTINUOUS
 10
15649.8033843082
 20
2716.919564933958
 30
0.0
 40
0.5
 50
180.0
 51
270.0
  0
ARC
  5
1881
  8
細線
  6
CONTINUOUS
 10
15649.8033843082
 20
2714.919564933958
 30
0.0
 40
0.5
 50
90.0
 51
180.0
  0
ARC
  5
1882
  8
細線
  6
CONTINUOUS
 10
15637.28193943545
 20
2724.345207441471
 30
0.0
 40
0.5
 50
90.0
 51
180.0
  0
ARC
  5
1883
  8
細線
  6
CONTINUOUS
 10
15644.28193943545
 20
2724.345207441471
 30
0.0
 40
0.5
 50
0.0
 51
90.0
  0
ARC
  5
1884
  8
細線
  6
CONTINUOUS
 10
15635.78193943545
 20
2710.845207441471
 30
0.0
 40
1.0
 50
270.0
 51
0.0
  0
ARC
  5
1885
  8
細線
  6
CONTINUOUS
 10
15645.78193943545
 20
2710.845207441471
 30
0.0
 40
1.0
 50
180.0
 51
270.0
  0
INSERT
  5
1886
  8
0
  2
液面計平面図
 10
19341.96947740219
 20
4767.896767206164
 30
0.0
  0
INSERT
  5
1896
  8
0
  2
６５ＡエアーＬ_正面図
 10
16421.78212444827
 20
5094.845207441471
 30
0.0
  0
INSERT
  5
18AC
  8
0
  2
６５ＡエアーＬ_平面図
 10
20122.96947168015
 20
5728.896767206166
 30
0.0
  0
INSERT
  5
18F5
  8
0
 66
     1
  2
N-BALOON
 10
19091.87093665573
 20
4357.023139775345
 30
0.0
  0
ATTRIB
  5
18F6
  8
0
 10
19128.05389055503
 20
4337.193446388483
 30
0.0
 40
40.0
  1
1
  2
NO.
 70
     0
  0
SEQEND
  5
18F7
  8
0
  0
INSERT
  5
18F8
  8
0
 66
     1
  2
N-BALOON
 10
20535.85152747926
 20
5728.896783224091
 30
0.0
  0
ATTRIB
  5
18F9
  8
0
 10
20572.03448137856
 20
5709.067089837228
 30
0.0
 40
40.0
  1
2
  2
NO.
 70
     0
  0
SEQEND
  5
18FA
  8
0
  0
INSERT
  5
18FB
  8
0
 66
     1
  2
N-BALOON
 10
19341.96947732384
 20
4607.426981525284
 30
0.0
  0
ATTRIB
  5
18FC
  8
0
 10
19378.15243122315
 20
4587.597288138421
 30
0.0
 40
40.0
  1
3
  2
NO.
 70
     0
  0
SEQEND
  5
18FD
  8
0
  0
INSERT
  5
18FE
  8
0
 66
     1
  2
N-BALOON
 10
15075.19848745912
 20
3180.335058760117
 30
0.0
  0
ATTRIB
  5
18FF
  8
0
 10
15111.38144135843
 20
3160.505365373255
 30
0.0
 40
40.0
  1
1
  2
NO.
 70
     0
  0
SEQEND
  5
1900
  8
0
  0
INSERT
  5
1901
  8
0
 66
     1
  2
N-BALOON
 10
16802.37748884544
 20
5934.614206327293
 30
0.0
  0
ATTRIB
  5
1902
  8
0
 10
16838.56044274475
 20
5914.78451294043
 30
0.0
 40
40.0
  1
2
  2
NO.
 70
     0
  0
SEQEND
  5
1903
  8
0
  0
INSERT
  5
1904
  8
0
 66
     1
  2
N-BALOON
 10
15425.95542763966
 20
3779.709574454833
 30
0.0
  0
ATTRIB
  5
1905
  8
0
 10
15462.13838153896
 20
3759.879881067971
 30
0.0
 40
40.0
  1
3
  2
NO.
 70
     0
  0
SEQEND
  5
1906
  8
0
  0
DIMENSION
  5
1907
  8
寸法線
  2
*D18
 10
15188.03823686833
 20
2594.845207441471
 30
0.0
 11
15124.03823686833
 21
2375.845207441473
 31
0.0
 70
    32
 13
15266.16244726983
 23
2724.845493235441
 33
0.0
 14
15269.21354617277
 24
2594.845207441471
 34
0.0
 50
90.0
  0
DIMENSION
  5
1916
  8
寸法線
  2
*D19
 10
15818.59574954013
 20
2594.845207441471
 30
0.0
 11
15754.59574954013
 21
2380.845207441474
 31
0.0
 70
    32
 13
15640.78193943546
 23
2694.845207441473
 33
0.0
 14
15640.78193943546
 24
2594.845207441471
 34
0.0
 50
90.0
  0
DIMENSION
  5
1925
  8
寸法線
  2
*D20
 10
15818.59574954013
 20
4844.845207441473
 30
0.0
 11
15754.59574954013
 21
3769.845207441475
 31
0.0
 70
    32
 13
15640.78193943546
 23
2694.845207441473
 33
0.0
 14
15640.78193943546
 24
4844.845207441473
 34
0.0
 50
90.0
  0
INSERT
  5
1990
  8
0
 66
     1
  2
BALOON
 10
16280.27818192944
 20
5934.614206327293
 30
0.0
  0
ATTRIB
  5
1991
  8
0
 10
16266.73443327225
 20
5914.78451294043
 30
0.0
 40
40.0
  1
1
  2
NO.
 70
     0
  0
SEQEND
  5
1992
  8
0
  0
INSERT
  5
1993
  8
0
 66
     1
  2
BALOON
 10
15017.36483866713
 20
5934.614206327293
 30
0.0
  0
ATTRIB
  5
1994
  8
0
 10
15003.82109000994
 20
5914.78451294043
 30
0.0
 40
40.0
  1
2
  2
NO.
 70
     0
  0
SEQEND
  5
1995
  8
0
  0
INSERT
  5
1996
  8
0
  2
*X25
 10
0.0
 20
0.0
 30
0.0
  0
INSERT
  5
1997
  8
0
  2
*X26
 10
0.0
 20
0.0
 30
0.0
  0
INSERT
  5
1998
  8
0
  2
*X27
 10
0.0
 20
0.0
 30
0.0
  0
INSERT
  5
1999
  8
0
  2
*X28
 10
0.0
 20
0.0
 30
0.0
  0
INSERT
  5
199A
  8
0
  2
*X29
 10
0.0
 20
0.0
 30
0.0
  0
INSERT
  5
199B
  8
0
  2
*X30
 10
0.0
 20
0.0
 30
0.0
  0
TEXT
  5
199C
  8
0
 10
19311.89683875885
 20
7084.795046643951
 30
0.0
 40
60.0
  1
０°
  0
TEXT
  5
199D
  8
0
 10
20666.74116123005
 20
5699.498892237469
 30
0.0
 40
60.0
  1
９０°
  0
TEXT
  5
199E
  8
0
 10
19250.54623084095
 20
4426.918132027356
 30
0.0
 40
60.0
  1
１８０°
  0
TEXT
  5
199F
  8
0
 10
18915.39810801762
 20
4186.657533547063
 30
0.0
 40
60.0
  1
１９０°
  0
TEXT
  5
19A0
  8
0
 10
18041.03549253252
 20
5702.138525619615
 30
0.0
 40
60.0
  1
２７０°
  0
ARC
  5
19AF
  8
2
 10
19341.96947740219
 20
5728.896767206166
 30
0.0
 40
930.9999465942383
 50
2.678061415983785
 51
9.27169493034717
  0
DIMENSION
  5
19C2
  8
寸法線
  2
*D21
 10
19491.96988468561
 20
6784.136696698726
 30
0.0
 11
19341.96955259246
 21
6848.136696698726
 31
0.0
 70
    32
 13
19191.96922049931
 23
6647.73393580117
 33
0.0
 14
19491.96988468561
 24
6647.734602926481
 34
0.0
  0
DIMENSION
  5
19CF
  8
寸法線
  2
*D22
 10
19501.96964723774
 20
6915.934193265595
 30
0.0
 11
19341.96949565515
 21
6979.934193265595
 31
0.0
 70
    32
 13
19181.96934407255
 23
6676.484263744682
 33
0.0
 14
19501.96964723774
 24
6676.483108193485
 34
0.0
  0
INSERT
  5
19E5
  8
0
  2
*X31
 10
0.0
 20
0.0
 30
0.0
  0
TEXT
  5
19E6
  8
0
  6
CONTINUOUS
 10
19902.93553308207
 20
4551.711721036421
 30
0.0
 40
60.0
  1
目盛位置
  0
POLYLINE
  5
1AAE
  8
LY_1
  6
CONTINUOUS
 62
     3
 66
     1
 10
0.0
 20
0.0
 30
0.0
  0
VERTEX
  5
1D26
  8
LY_1
  6
CONTINUOUS
 62
     3
 10
19134.46019066224
 20
4559.838691670902
 30
0.0
  0
VERTEX
  5
1D27
  8
LY_1
  6
CONTINUOUS
 62
     3
 10
19134.4579251428
 20
4559.842405495565
 30
0.0
  0
VERTEX
  5
1D28
  8
LY_1
  6
CONTINUOUS
 62
     3
 10
19134.45517933041
 20
4559.845762298264
 30
0.0
  0
VERTEX
  5
1D29
  8
LY_1
  6
CONTINUOUS
 62
     3
 10
19134.45200641191
 20
4559.848700913954
 30
0.0
  0
VERTEX
  5
1D2A
  8
LY_1
  6
CONTINUOUS
 62
     3
 10
19134.44846420794
 20
4559.851163422249
 30
0.0
  0
VERTEX
  5
1D2B
  8
LY_1
  6
CONTINUOUS
 62
     3
 10
19134.44462183353
 20
4559.85310412724
 30
0.0
  0
VERTEX
  5
1D2C
  8
LY_1
  6
CONTINUOUS
 62
     3
 10
19134.44055014014
 20
4559.854487181063
 30
0.0
  0
VERTEX
  5
1D2D
  8
LY_1
  6
CONTINUOUS
 62
     3
 10
19134.43632745093
 20
4559.855284557289
 30
0.0
  0
VERTEX
  5
1D2E
  8
LY_1
  6
CONTINUOUS
 62
     3
 10
19134.43203272417
 20
4559.855483348849
 30
0.0
  0
VERTEX
  5
1D2F
  8
LY_1
  6
CONTINUOUS
 62
     3
 10
19134.42774827694
 20
4559.85507817988
 30
0.0
  0
VERTEX
  5
1D30
  8
LY_1
  6
CONTINUOUS
 62
     3
 10
19134.42355375968
 20
4559.85407734523
 30
0.0
  0
VERTEX
  5
1D31
  8
LY_1
  6
CONTINUOUS
 62
     3
 10
19134.41952957453
 20
4559.852499161494
 30
0.0
  0
VERTEX
  5
1D32
  8
LY_1
  6
CONTINUOUS
 62
     3
 10
19134.41575114011
 20
4559.850373993675
 30
0.0
  0
VERTEX
  5
1D33
  8
LY_1
  6
CONTINUOUS
 62
     3
 10
19134.41229068744
 20
4559.847742923095
 30
0.0
  0
VERTEX
  5
1D34
  8
LY_1
  6
CONTINUOUS
 62
     3
 10
19134.40921245257
 20
4559.844653517965
 30
0.0
  0
VERTEX
  5
1D35
  8
LY_1
  6
CONTINUOUS
 62
     3
 10
19134.40657586163
 20
4559.841166379712
 30
0.0
  0
VERTEX
  5
1D36
  8
LY_1
  6
CONTINUOUS
 62
     3
 10
19134.40443002882
 20
4559.837346974313
 30
0.0
  0
VERTEX
  5
1D37
  8
LY_1
  6
CONTINUOUS
 62
     3
 10
19134.40281589968
 20
4559.833266269827
 30
0.0
  0
VERTEX
  5
1D38
  8
LY_1
  6
CONTINUOUS
 62
     3
 10
19134.40176445507
 20
4559.829002068469
 30
0.0
  0
VERTEX
  5
1D39
  8
LY_1
  6
CONTINUOUS
 62
     3
 10
19134.40176445507
 20
4559.829002068469
 30
0.0
  0
SEQEND
  5
1D8F
  8
LY_1
  6
CONTINUOUS
 62
     3
  0
POLYLINE
  5
1AAF
  8
LY_1
  6
CONTINUOUS
 62
     3
 66
     1
 10
0.0
 20
0.0
 30
0.0
  0
VERTEX
  5
1D3A
  8
LY_1
  6
CONTINUOUS
 62
     3
 10
19137.77841529243
 20
4557.224643749109
 30
0.0
  0
VERTEX
  5
1D3B
  8
LY_1
  6
CONTINUOUS
 62
     3
 10
19137.78084113126
 20
4557.220704663054
 30
0.0
  0
VERTEX
  5
1D3C
  8
LY_1
  6
CONTINUOUS
 62
     3
 10
19137.78380709596
 20
4557.217173989829
 30
0.0
  0
VERTEX
  5
1D3D
  8
LY_1
  6
CONTINUOUS
 62
     3
 10
19137.78724928097
 20
4557.214126969597
 30
0.0
  0
VERTEX
  5
1D3E
  8
LY_1
  6
CONTINUOUS
 62
     3
 10
19137.79109266005
 20
4557.211627602814
 30
0.0
  0
VERTEX
  5
1D3F
  8
LY_1
  6
CONTINUOUS
 62
     3
 10
19137.79525734239
 20
4557.209729578066
 30
0.0
  0
VERTEX
  5
1D40
  8
LY_1
  6
CONTINUOUS
 62
     3
 10
19137.79965312765
 20
4557.208474185736
 30
0.0
  0
VERTEX
  5
1D41
  8
LY_1
  6
CONTINUOUS
 62
     3
 10
19137.80418524117
 20
4557.207888291432
 30
0.0
  0
VERTEX
  5
1D42
  8
LY_1
  6
CONTINUOUS
 62
     3
 10
19137.80875827314
 20
4557.207983641336
 30
0.0
  0
VERTEX
  5
1D43
  8
LY_1
  6
CONTINUOUS
 62
     3
 10
19137.8132733979
 20
4557.208758367993
 30
0.0
  0
VERTEX
  5
1D44
  8
LY_1
  6
CONTINUOUS
 62
     3
 10
19137.81763544121
 20
4557.210196759519
 30
0.0
  0
VERTEX
  5
1D45
  8
LY_1
  6
CONTINUOUS
 62
     3
 10
19137.82174842005
 20
4557.212266999839
 30
0.0
  0
VERTEX
  5
1D46
  8
LY_1
  6
CONTINUOUS
 62
     3
 10
19137.82552741746
 20
4557.214925167365
 30
0.0
  0
VERTEX
  5
1D47
  8
LY_1
  6
CONTINUOUS
 62
     3
 10
19137.8288893719
 20
4557.218114828222
 30
0.0
  0
VERTEX
  5
1D48
  8
LY_1
  6
CONTINUOUS
 62
     3
 10
19137.83176327266
 20
4557.221767269377
 30
0.0
  0
VERTEX
  5
1D49
  8
LY_1
  6
CONTINUOUS
 62
     3
 10
19137.83408772639
 20
4557.22580497403
 30
0.0
  0
VERTEX
  5
1D4A
  8
LY_1
  6
CONTINUOUS
 62
     3
 10
19137.8358119419
 20
4557.230141447933
 30
0.0
  0
VERTEX
  5
1D4B
  8
LY_1
  6
CONTINUOUS
 62
     3
 10
19137.83639667184
 20
4557.232219480629
 30
0.0
  0
VERTEX
  5
1D4C
  8
LY_1
  6
CONTINUOUS
 62
     3
 10
19137.83684149961
 20
4557.234333351542
 30
0.0
  0
SEQEND
  5
1D90
  8
LY_1
  6
CONTINUOUS
 62
     3
  0
POLYLINE
  5
1AB0
  8
LY_1
  6
CONTINUOUS
 62
     3
 66
     1
 10
0.0
 20
0.0
 30
0.0
  0
VERTEX
  5
1D4D
  8
LY_1
  6
CONTINUOUS
 62
     3
 10
19139.64324717094
 20
4581.299983601104
 30
0.0
  0
VERTEX
  5
1D4E
  8
LY_1
  6
CONTINUOUS
 62
     3
 10
19139.64119973383
 20
4581.303828548207
 30
0.0
  0
VERTEX
  5
1D4F
  8
LY_1
  6
CONTINUOUS
 62
     3
 10
19139.63865207207
 20
4581.307347404374
 30
0.0
  0
VERTEX
  5
1D50
  8
LY_1
  6
CONTINUOUS
 62
     3
 10
19139.63565401372
 20
4581.310471473367
 30
0.0
  0
VERTEX
  5
1D51
  8
LY_1
  6
CONTINUOUS
 62
     3
 10
19139.63226059864
 20
4581.313144340569
 30
0.0
  0
VERTEX
  5
1D52
  8
LY_1
  6
CONTINUOUS
 62
     3
 10
19139.62853659822
 20
4581.315312952542
 30
0.0
  0
VERTEX
  5
1D53
  8
LY_1
  6
CONTINUOUS
 62
     3
 10
19139.62455199571
 20
4581.316936537409
 30
0.0
  0
VERTEX
  5
1D54
  8
LY_1
  6
CONTINUOUS
 62
     3
 10
19139.620382971
 20
4581.317986431201
 30
0.0
  0
VERTEX
  5
1D55
  8
LY_1
  6
CONTINUOUS
 62
     3
 10
19139.61610691953
 20
4581.31844086359
 30
0.0
  0
VERTEX
  5
1D56
  8
LY_1
  6
CONTINUOUS
 62
     3
 10
19139.61180778068
 20
4581.318292141801
 30
0.0
  0
VERTEX
  5
1D57
  8
LY_1
  6
CONTINUOUS
 62
     3
 10
19139.60756398938
 20
4581.317541667031
 30
0.0
  0
VERTEX
  5
1D58
  8
LY_1
  6
CONTINUOUS
 62
     3
 10
19139.60345658526
 20
4581.316205612606
 30
0.0
  0
VERTEX
  5
1D59
  8
LY_1
  6
CONTINUOUS
 62
     3
 10
19139.59956405793
 20
4581.314308724886
 30
0.0
  0
VERTEX
  5
1D5A
  8
LY_1
  6
CONTINUOUS
 62
     3
 10
19139.59595956617
 20
4581.311885829087
 30
0.0
  0
VERTEX
  5
1D5B
  8
LY_1
  6
CONTINUOUS
 62
     3
 10
19139.5927112852
 20
4581.308983798797
 30
0.0
  0
SEQEND
  5
1D91
  8
LY_1
  6
CONTINUOUS
 62
     3
  0
ARC
  5
1AB1
  8
LY_1
  6
CONTINUOUS
 62
     3
 10
19204.08596014922
 20
4675.682358275861
 30
0.0
 40
1.5
 50
170.0001820001404
 51
212.0245570000832
  0
ARC
  5
1AB2
  8
LY_1
  6
CONTINUOUS
 62
     3
 10
19201.11858546244
 20
4673.826377971485
 30
0.0
 40
2.0
 50
349.9999819999029
 51
32.02444199983187
  0
ARC
  5
1AB3
  8
LY_1
  6
CONTINUOUS
 62
     3
 10
19137.45384110662
 20
4555.947364726613
 30
0.0
 40
0.8565649999999999
 50
207.5240970001206
 51
349.9999819999029
  0
ARC
  5
1AB4
  8
LY_1
  6
CONTINUOUS
 62
     3
 10
19132.98340043619
 20
4556.73945117537
 30
0.0
 40
0.8603290000000001
 50
170.0000180001587
 51
349.9999819999029
  0
ARC
  5
1AB5
  8
LY_1
  6
CONTINUOUS
 62
     3
 10
19134.01258952843
 20
4562.597361180657
 30
0.0
 40
0.856713
 50
27.52411200023099
 51
170.0000010001095
  0
ARC
  5
1AB6
  8
LY_1
  6
CONTINUOUS
 62
     3
 10
19138.40641912042
 20
4561.478872320007
 30
0.0
 40
0.878975
 50
349.9999819999029
 51
259.9999830001279
  0
ARC
  5
1AB7
  8
LY_1
  6
CONTINUOUS
 62
     3
 10
19138.94290272175
 20
4564.415449120335
 30
0.0
 40
0.8602920000000001
 50
170.0000180001587
 51
349.9999819999029
  0
ARC
  5
1AB8
  8
LY_1
  6
CONTINUOUS
 62
     3
 10
19134.98238853361
 20
4567.968984377032
 30
0.0
 40
0.879
 50
80.00003600014927
 51
259.9999830001279
  0
ARC
  5
1AB9
  8
LY_1
  6
CONTINUOUS
 62
     3
 10
19139.9477860204
 20
4570.221803537157
 30
0.0
 40
0.878926
 50
349.9999819999029
 51
259.9999830001279
  0
ARC
  5
1ABA
  8
LY_1
  6
CONTINUOUS
 62
     3
 10
19136.04109768304
 20
4573.973222328483
 30
0.0
 40
0.878991
 50
80.00003600014927
 51
259.9999830001279
  0
ARC
  5
1ABB
  8
LY_1
  6
CONTINUOUS
 62
     3
 10
19140.4717556423
 20
4573.191977787974
 30
0.0
 40
0.878991
 50
259.9999999999448
 51
80.00001899991285
  0
ARC
  5
1ABC
  8
LY_1
  6
CONTINUOUS
 62
     3
 10
19140.82539291472
 20
4576.139366781625
 30
0.0
 40
1.042553
 50
350.7789510001888
 51
24.25906300004173
  0
ARC
  5
1ABD
  8
LY_1
  6
CONTINUOUS
 62
     3
 10
19141.00974782703
 20
4576.134299909892
 30
0.0
 40
0.860117
 50
113.574514000003
 51
349.1432030001883
  0
ARC
  5
1ABE
  8
LY_1
  6
CONTINUOUS
 62
     3
 10
19136.54288319187
 20
4576.938057700549
 30
0.0
 40
0.866237
 50
135.7409369999934
 51
315.7409549998359
  0
ARC
  5
1ABF
  8
LY_1
  6
CONTINUOUS
 62
     3
 10
19137.56180533009
 20
4582.598027385455
 30
0.0
 40
0.878936
 50
79.99996400015087
 51
259.9999830001279
  0
ARC
  5
1AC0
  8
LY_1
  6
CONTINUOUS
 62
     3
 10
19141.99259919282
 20
4581.816758881498
 30
0.0
 40
0.878936
 50
259.9999999999448
 51
80.00001899991285
  0
CIRCLE
  5
1AC9
  8
LY_1
  6
CONTINUOUS
 62
     3
 10
19150.69600970205
 20
4644.131027263202
 30
0.0
 40
6.9175
  0
CIRCLE
  5
1ACA
  8
LY_1
  6
CONTINUOUS
 62
   110
 10
19150.69600970205
 20
4644.131027263202
 30
0.0
 40
8.0
  0
CIRCLE
  5
1ACB
  8
LY_1
  6
CONTINUOUS
 62
     3
 10
19150.69600970205
 20
4644.131027263202
 30
0.0
 40
11.5
  0
ARC
  5
1ACC
  8
LY_1
  6
CONTINUOUS
 62
     3
 10
19111.77665622484
 20
4452.985370035243
 30
0.0
 40
5.0
 50
171.5801960000564
 51
259.9999430000316
  0
ARC
  5
1ACD
  8
LY_1
  6
CONTINUOUS
 62
     3
 10
19121.89257388916
 20
4451.201660816398
 30
0.0
 40
5.0
 50
260.0000730002105
 51
348.419803999964
  0
ARC
  5
1ACE
  8
LY_1
  6
CONTINUOUS
 62
     3
 10
19121.89257388916
 20
4451.201660816398
 30
0.0
 40
3.0
 50
260.0001219999203
 51
348.419803999964
  0
ARC
  5
1ACF
  8
LY_1
  6
CONTINUOUS
 62
     3
 10
19111.77665622484
 20
4452.985370035243
 30
0.0
 40
3.0
 50
171.5801960000564
 51
259.9999050000864
  0
ARC
  5
1AD0
  8
LY_1
  6
CONTINUOUS
 62
     3
 10
19202.91263805455
 20
4572.607549567298
 30
0.0
 40
52.0
 50
157.01533700001
 51
168.4198400001126
  0
ARC
  5
1AD1
  8
LY_1
  6
CONTINUOUS
 62
     3
 10
19202.91263805455
 20
4572.607549567298
 30
0.0
 40
50.0
 50
157.01533700001
 51
168.4198400001126
  0
ARC
  5
1AD2
  8
LY_1
  6
CONTINUOUS
 62
     3
 10
19159.99307479583
 20
4626.244878055593
 30
0.0
 40
4.0
 50
260.0000189999129
 51
337.1957269998744
  0
ARC
  5
1AD3
  8
LY_1
  6
CONTINUOUS
 62
     3
 10
19135.84220292292
 20
4630.50332837442
 30
0.0
 40
4.0
 50
182.8042730001485
 51
259.9999809999767
  0
ARC
  5
1AD4
  8
LY_1
  6
CONTINUOUS
 62
     3
 10
19077.16591494783
 20
4594.780089586691
 30
0.0
 40
52.0
 50
351.5801599999315
 51
2.984662999943564
  0
ARC
  5
1AD5
  8
LY_1
  6
CONTINUOUS
 62
     3
 10
19077.16591494783
 20
4594.780089586691
 30
0.0
 40
50.0
 50
351.5801599999315
 51
2.984662999943564
  0
ARC
  5
1AD6
  8
LY_1
  6
CONTINUOUS
 62
     3
 10
19150.69600970205
 20
4644.131027263202
 30
0.0
 40
24.0
 50
337.0153010002013
 51
182.9846819999272
  0
ARC
  5
1AD7
  8
LY_1
  6
CONTINUOUS
 62
     3
 10
19150.69600970205
 20
4644.131027263202
 30
0.0
 40
26.0
 50
336.9581460001341
 51
182.9846819999272
  0
LINE
  5
1AD8
  8
LY_1
  6
CONTINUOUS
 62
     3
 10
19126.11297634168
 20
4583.98608945755
 30
0.0
 11
19094.76211097398
 21
4589.514092890433
 31
0.0
  0
LINE
  5
1AD9
  8
LY_1
  6
CONTINUOUS
 62
     3
 10
19126.47637583642
 20
4609.307677618996
 30
0.0
 11
19099.10331541566
 21
4614.13428671574
 31
0.0
  0
LINE
  5
1ADA
  8
LY_1
  6
CONTINUOUS
 62
     3
 10
19124.95345627561
 20
4638.51586786575
 30
0.0
 11
19103.1659674103
 21
4642.35758999459
 31
0.0
  0
LINE
  5
1ADB
  8
LY_1
  6
CONTINUOUS
 62
     3
 10
19161.72266898389
 20
4706.666319579479
 30
0.0
 11
19157.64193680872
 21
4683.523337383693
 31
0.0
  0
LINE
  5
1ADC
  8
LY_1
  6
CONTINUOUS
 62
     3
 10
19194.13344748307
 20
4700.951424864306
 30
0.0
 11
19190.0527153079
 21
4677.80844266852
 31
0.0
  0
LINE
  5
1ADD
  8
LY_1
  6
CONTINUOUS
 62
     3
 10
19206.6299084301
 20
4698.747961635981
 30
0.0
 11
19202.60874851969
 21
4675.942830542368
 31
0.0
  0
LINE
  5
1ADE
  8
LY_1
  6
CONTINUOUS
 62
     3
 10
19129.31189048471
 20
4712.381214294652
 30
0.0
 11
19125.23115830954
 21
4689.238232098865
 31
0.0
  0
LINE
  5
1ADF
  8
LY_1
  6
CONTINUOUS
 62
     3
 10
19116.81542953768
 20
4714.584677522984
 30
0.0
 11
19112.79426962729
 21
4691.77954642937
 31
0.0
  0
LINE
  5
1AE0
  8
LY_1
  6
CONTINUOUS
 62
     3
 10
19206.6299084301
 20
4698.747961635981
 30
0.0
 11
19116.81542953768
 21
4714.584677522984
 31
0.0
  0
LINE
  5
1AE1
  8
LY_1
  6
CONTINUOUS
 62
     3
 10
19201.46588181776
 20
4675.795993477517
 30
0.0
 11
19113.81799179967
 21
4691.250681289876
 31
0.0
  0
LINE
  5
1AE2
  8
LY_1
  6
CONTINUOUS
 62
     3
 10
19176.42133336104
 20
4600.501034057062
 30
0.0
 11
19172.08012891937
 21
4575.880840231755
 31
0.0
  0
LINE
  5
1AE3
  8
LY_1
  6
CONTINUOUS
 62
     3
 10
19191.63183666238
 20
4613.689669890406
 30
0.0
 11
19184.57658986639
 21
4573.677377003431
 31
0.0
  0
LINE
  5
1AE4
  8
LY_1
  6
CONTINUOUS
 62
     3
 10
19194.75311316758
 20
4626.208369083386
 30
0.0
 11
19191.63184975509
 21
4613.689663520101
 31
0.0
  0
LINE
  5
1AE5
  8
LY_1
  6
CONTINUOUS
 62
     3
 10
19203.08820096845
 20
4673.479081616159
 30
0.0
 11
19194.75309972757
 21
4626.208373484074
 31
0.0
  0
LINE
  5
1AE6
  8
LY_1
  6
CONTINUOUS
 62
     3
 10
19111.59977636268
 20
4611.930823487408
 30
0.0
 11
19107.25857192101
 21
4587.310629662101
 31
0.0
  0
LINE
  5
1AE7
  8
LY_1
  6
CONTINUOUS
 62
     3
 10
19188.91779430807
 20
4598.297570828738
 30
0.0
 11
19161.54495940828
 21
4603.124140160045
 31
0.0
  0
LINE
  5
1AE8
  8
LY_1
  6
CONTINUOUS
 62
     3
 10
19101.81735776997
 20
4629.526385777408
 30
0.0
 11
19094.76211097398
 21
4589.514092890433
 31
0.0
  0
LINE
  5
1AE9
  8
LY_1
  6
CONTINUOUS
 62
     3
 10
19103.165987908
 20
4642.357654413881
 30
0.0
 11
19101.81736680689
 21
4629.526385199377
 31
0.0
  0
LINE
  5
1AEA
  8
LY_1
  6
CONTINUOUS
 62
     3
 10
19194.75308844044
 20
4626.208309471567
 30
0.0
 11
19172.96580933918
 21
4630.049994613346
 31
0.0
  0
LINE
  5
1AEB
  8
LY_1
  6
CONTINUOUS
 62
     3
 10
19111.50107993831
 20
4689.628362139181
 30
0.0
 11
19103.16597869743
 21
4642.357654007097
 31
0.0
  0
LINE
  5
1AEC
  8
LY_1
  6
CONTINUOUS
 62
     3
 10
19184.57658986639
 20
4573.677377003431
 30
0.0
 11
19153.22569396966
 21
4579.205385819401
 31
0.0
  0
LINE
  5
1AED
  8
LY_1
  6
CONTINUOUS
 62
     3
 10
19202.39360825778
 20
4669.539850604106
 30
0.0
 11
19110.80648722765
 21
4685.689131127128
 31
0.0
  0
LINE
  5
1AEE
  8
LY_1
  6
CONTINUOUS
 62
     3
 10
19138.4272388787
 20
4560.582643273894
 30
0.0
 11
19138.25378271954
 21
4560.613228274724
 31
0.0
  0
LINE
  5
1AEF
  8
LY_1
  6
CONTINUOUS
 62
     3
 10
19139.96858844689
 20
4569.325654719538
 30
0.0
 11
19139.79516281678
 21
4569.356234337272
 31
0.0
  0
LINE
  5
1AF0
  8
LY_1
  6
CONTINUOUS
 62
     3
 10
19139.96858844689
 20
4569.325654719538
 30
0.0
 11
19139.73886545239
 21
4568.022830877304
 31
0.0
  0
LINE
  5
1AF1
  8
LY_1
  6
CONTINUOUS
 62
     3
 10
19138.43130867289
 20
4566.468273509778
 30
0.0
 11
19138.0956814751
 21
4564.564837084752
 31
0.0
  0
LINE
  5
1AF2
  8
LY_1
  6
CONTINUOUS
 62
     3
 10
19138.43130867289
 20
4566.468273509778
 30
0.0
 11
19134.82974952801
 21
4567.103325559645
 31
0.0
  0
LINE
  5
1AF3
  8
LY_1
  6
CONTINUOUS
 62
     3
 10
19139.73886545239
 20
4568.022830877304
 30
0.0
 11
19135.1350221561
 21
4568.834612665396
 31
0.0
  0
LINE
  5
1AF4
  8
LY_1
  6
CONTINUOUS
 62
     3
 10
19140.81335423547
 20
4570.069180507195
 30
0.0
 11
19139.79010821147
 21
4564.266063934298
 31
0.0
  0
LINE
  5
1AF5
  8
LY_1
  6
CONTINUOUS
 62
     3
 10
19138.4272388787
 20
4560.582643273894
 30
0.0
 11
19137.83684149961
 21
4557.234333351542
 31
0.0
  0
LINE
  5
1AF6
  8
LY_1
  6
CONTINUOUS
 62
     3
 10
19133.16892934662
 20
4562.746121233267
 30
0.0
 11
19132.13613666675
 21
4556.888862884527
 31
0.0
  0
LINE
  5
1AF7
  8
LY_1
  6
CONTINUOUS
 62
     3
 10
19133.83063824851
 20
4556.59007653681
 30
0.0
 11
19134.40174869814
 21
4559.829004846844
 31
0.0
  0
LINE
  5
1AF8
  8
LY_1
  6
CONTINUOUS
 62
     3
 10
19136.69420597749
 20
4555.551549662257
 30
0.0
 11
19134.46010549049
 21
4559.838813308776
 31
0.0
  0
LINE
  5
1AF9
  8
LY_1
  6
CONTINUOUS
 62
     3
 10
19137.77839635036
 20
4557.22463998113
 30
0.0
 11
19134.77234924744
 21
4562.993278158505
 31
0.0
  0
LINE
  5
1AFA
  8
LY_1
  6
CONTINUOUS
 62
     3
 10
19139.2720631657
 20
4561.326235919139
 30
0.0
 11
19138.29739591399
 21
4555.798623254374
 31
0.0
  0
LINE
  5
1AFB
  8
LY_1
  6
CONTINUOUS
 62
     3
 10
19136.19373408391
 20
4574.838866373775
 30
0.0
 11
19140.62439204317
 21
4574.057621833261
 31
0.0
  0
LINE
  5
1AFC
  8
LY_1
  6
CONTINUOUS
 62
     3
 10
19140.31911924143
 20
4572.326333742694
 30
0.0
 11
19135.88846128216
 21
4573.107578283209
 31
0.0
  0
LINE
  5
1AFD
  8
LY_1
  6
CONTINUOUS
 62
     3
 10
19139.73972658946
 20
4578.977429307426
 30
0.0
 11
19140.66573521696
 21
4576.922633633363
 31
0.0
  0
LINE
  5
1AFE
  8
LY_1
  6
CONTINUOUS
 62
     3
 10
19139.73968638359
 20
4578.977454674485
 30
0.0
 11
19137.16324907761
 21
4576.333502746831
 31
0.0
  0
LINE
  5
1AFF
  8
LY_1
  6
CONTINUOUS
 62
     3
 10
19139.6431932871
 20
4581.300058089579
 30
0.0
 11
19141.77585458214
 21
4576.567721516058
 31
0.0
  0
LINE
  5
1B00
  8
LY_1
  6
CONTINUOUS
 62
     3
 10
19139.59263991999
 20
4581.308964904176
 30
0.0
 11
19135.922458741
 21
4577.542608764907
 31
0.0
  0
LINE
  5
1B01
  8
LY_1
  6
CONTINUOUS
 62
     3
 10
19141.83997077976
 20
4580.951160137378
 30
0.0
 11
19137.40917691703
 21
4581.732428641331
 31
0.0
  0
LINE
  5
1B02
  8
LY_1
  6
CONTINUOUS
 62
     3
 10
19142.14522500115
 20
4582.682342853517
 30
0.0
 11
19137.71443113841
 21
4583.463611357471
 31
0.0
  0
LINE
  5
1B0C
  8
LY_1
  6
CONTINUOUS
 62
     3
 10
19163.71675229186
 20
4648.870174333413
 30
0.0
 11
19153.10212305576
 21
4657.776906633833
 31
0.0
  0
LINE
  5
1B0D
  8
LY_1
  6
CONTINUOUS
 62
     3
 10
19161.31063082895
 20
4635.224289284666
 30
0.0
 11
19163.7167720427
 21
4648.870194205625
 31
0.0
  0
LINE
  5
1B0E
  8
LY_1
  6
CONTINUOUS
 62
     3
 10
19148.28984838776
 20
4630.48511776311
 30
0.0
 11
19161.31061982242
 21
4635.224290209986
 31
0.0
  0
LINE
  5
1B0F
  8
LY_1
  6
CONTINUOUS
 62
     3
 10
19137.6752354842
 20
4639.391873584751
 30
0.0
 11
19148.28986489396
 21
4630.485142269139
 31
0.0
  0
LINE
  5
1B10
  8
LY_1
  6
CONTINUOUS
 62
     3
 10
19140.08138718594
 20
4653.03775736329
 30
0.0
 11
19137.67524614584
 21
4639.39185342714
 31
0.0
  0
LINE
  5
1B11
  8
LY_1
  6
CONTINUOUS
 62
     3
 10
19153.10214767836
 20
4657.776885029958
 30
0.0
 11
19140.08137722851
 21
4653.037712409427
 31
0.0
  0
LINE
  5
1B12
  8
LY_1
  6
CONTINUOUS
 62
     3
 10
19121.37162935615
 20
4448.247237557367
 30
0.0
 11
19111.25571169183
 21
4450.030946776209
 31
0.0
  0
LINE
  5
1B13
  8
LY_1
  6
CONTINUOUS
 62
     3
 10
19151.97113846583
 20
4583.045938724736
 30
0.0
 11
19124.83153381372
 21
4450.599417349778
 31
0.0
  0
LINE
  5
1B14
  8
LY_1
  6
CONTINUOUS
 62
     3
 10
19153.93039811828
 20
4582.644466592723
 30
0.0
 11
19126.79079363982
 21
4450.197946202574
 31
0.0
  0
LINE
  5
1B15
  8
LY_1
  6
CONTINUOUS
 62
     3
 10
19172.79083239277
 20
4634.759340588436
 30
0.0
 11
19155.04118322341
 21
4592.91268712591
 31
0.0
  0
LINE
  5
1B16
  8
LY_1
  6
CONTINUOUS
 62
     3
 10
19174.63205063858
 20
4633.978370708046
 30
0.0
 11
19156.88240146922
 21
4592.13171724552
 31
0.0
  0
LINE
  5
1B17
  8
LY_1
  6
CONTINUOUS
 62
     3
 10
19165.82118590379
 20
4629.78666589814
 30
0.0
 11
19163.68023401686
 21
4624.694605451801
 31
0.0
  0
LINE
  5
1B18
  8
LY_1
  6
CONTINUOUS
 62
     3
 10
19165.82139103642
 20
4629.786608403763
 30
0.0
 11
19170.34318704439
 21
4628.989293766299
 31
0.0
  0
LINE
  5
1B19
  8
LY_1
  6
CONTINUOUS
 62
     3
 10
19131.57685189826
 20
4635.824842564896
 30
0.0
 11
19131.84710053302
 21
4630.307623426113
 31
0.0
  0
LINE
  5
1B1A
  8
LY_1
  6
CONTINUOUS
 62
     3
 10
19159.29848208516
 20
4622.305647043544
 30
0.0
 11
19135.14761021224
 21
4626.56409736237
 31
0.0
  0
LINE
  5
1B1B
  8
LY_1
  6
CONTINUOUS
 62
     3
 10
19131.57672028132
 20
4635.824867803367
 30
0.0
 11
19127.05492427336
 21
4636.622182440831
 31
0.0
  0
LINE
  5
1B1C
  8
LY_1
  6
CONTINUOUS
 62
     3
 10
19126.72855712005
 20
4642.881350326712
 30
0.0
 11
19129.09537061279
 21
4597.487659311224
 31
0.0
  0
LINE
  5
1B1D
  8
LY_1
  6
CONTINUOUS
 62
     3
 10
19128.60544877138
 20
4587.165962580115
 30
0.0
 11
19108.80895677037
 21
4453.424652322381
 31
0.0
  0
LINE
  5
1B1E
  8
LY_1
  6
CONTINUOUS
 62
     3
 10
19124.73126950598
 20
4642.777212595032
 30
0.0
 11
19127.09808398353
 21
4597.383521405896
 31
0.0
  0
LINE
  5
1B1F
  8
LY_1
  6
CONTINUOUS
 62
     3
 10
19126.62700565977
 20
4587.458812671994
 30
0.0
 11
19106.83051284759
 21
4453.717503572716
 31
0.0
  0
LINE
  5
1B20
  8
LY_1
  6
CENTER
 62
   110
 10
19162.59090987222
 20
4711.590358344543
 30
0.0
 11
19115.09813328032
 21
4442.245437895701
 31
0.0
  0
LINE
  5
1B21
  8
LY_1
  6
CONTINUOUS
 62
     3
 10
19151.97704536795
 20
4588.056697689743
 30
0.0
 11
19130.31367970221
 21
4591.876533549566
 31
0.0
  0
LINE
  5
1B22
  8
LY_1
  6
CONTINUOUS
 62
     3
 10
19121.02433300082
 20
4446.277622051344
 30
0.0
 11
19110.90841533649
 21
4448.061331270186
 31
0.0
  0
LINE
  5
1B23
  8
LY_1
  6
CENTER
 62
   110
 10
19203.41730748932
 20
4634.834840005346
 30
0.0
 11
19097.97471191476
 21
4653.427214521073
 31
0.0
  0
INSERT
  5
1B24
  8
0
  2
ALﾌｨｯﾃｨﾝｸﾞ平面図
 10
19175.09357866425
 20
4782.496516561436
 30
0.0
 50
169.9999999999871
  0
LINE
  5
1B25
  8
細線
 10
19126.87495425858
 20
4733.627157445248
 30
0.0
 11
19203.68995899354
 21
4720.082599587226
 31
0.0
  0
LINE
  5
1B26
  8
細線
 10
19123.7492870606
 20
4715.900617891028
 30
0.0
 11
19150.06671777145
 21
4711.260144793778
 31
0.0
  0
LINE
  5
1B27
  8
細線
 10
19174.24686108469
 20
4706.996533130256
 30
0.0
 11
19200.56429179554
 21
4702.356060033006
 31
0.0
  0
LINE
  5
1B28
  8
細線
 10
19203.68995899354
 20
4720.082599587226
 30
0.0
 11
19204.57451092444
 21
4719.340372388257
 31
0.0
  0
LINE
  5
1B29
  8
細線
 10
19200.56429179554
 20
4702.356060033006
 30
0.0
 11
19201.64935537067
 21
4702.750990876641
 31
0.0
  0
LINE
  5
1B2A
  8
細線
 10
19126.87495425859
 20
4733.627157445248
 30
0.0
 11
19125.78989068346
 21
4733.232226601613
 31
0.0
  0
LINE
  5
1B2B
  8
細線
 10
19123.74928706058
 20
4715.900617891028
 30
0.0
 11
19122.86473512969
 21
4716.642845089997
 31
0.0
  0
LINE
  5
1B2C
  8
細線
 10
19201.64935537067
 20
4702.750990876641
 30
0.0
 11
19204.57451092444
 21
4719.340372388257
 31
0.0
  0
LINE
  5
1B2D
  8
細線
 10
19122.86473512969
 20
4716.642845089997
 30
0.0
 11
19125.78989068346
 21
4733.232226601613
 31
0.0
  0
LINE
  5
1B2E
  8
細線
 10
19178.90428626637
 20
4708.693679836683
 30
0.0
 11
19181.16861799799
 21
4721.535343219887
 31
0.0
  0
LINE
  5
1B2F
  8
細線
 10
19146.27062805613
 20
4714.447874258367
 30
0.0
 11
19148.53495978775
 21
4727.289537641569
 31
0.0
  0
ARC
  5
1B30
  8
細線
 10
19171.98241879952
 20
4764.852252182636
 30
0.0
 40
56.58354440262278
 50
242.9734048203734
 51
249.5384173569913
  0
ARC
  5
1B31
  8
細線
 10
19171.98241879952
 20
4764.852252182636
 30
0.0
 40
56.58354440262278
 50
270.4615826431958
 51
277.0265951794988
  0
ARC
  5
1B32
  8
細線
 10
19195.03184065989
 20
4732.689392934946
 30
0.0
 40
28.91180135878851
 50
236.0948937241425
 51
283.9051062762299
  0
ARC
  5
1B33
  8
細線
 10
19139.32270143429
 20
4742.512417252467
 30
0.0
 40
28.91180135878851
 50
236.0948937241425
 51
283.9051062762299
  0
ARC
  5
1B34
  8
細線
 10
19155.45682725462
 20
4671.130965295628
 30
0.0
 40
56.58354440262278
 50
62.97340482037334
 51
97.02659517949876
  0
ARC
  5
1B35
  8
細線
 10
19188.11654461985
 20
4693.470800225792
 30
0.0
 40
28.91180135878851
 50
56.09489372414245
 51
103.9051062762299
  0
ARC
  5
1B36
  8
細線
 10
19132.40740539424
 20
4703.293824543318
 30
0.0
 40
28.91180135878851
 50
56.09489372414245
 51
103.9051062762299
  0
LINE
  5
1B37
  8
細線
 10
19203.68995899355
 20
4720.082599587218
 30
0.0
 11
19202.99413665072
 21
4720.205291840039
 31
0.0
  0
ARC
  5
1B38
  8
細線
 10
19124.37565013234
 20
4715.384002536999
 30
0.0
 40
0.4
 50
351.7899000000285
 51
79.9999999999448
  0
LINE
  5
1B39
  8
細線
 10
19125.92626264871
 20
4712.978191828775
 30
0.0
 11
19124.77155056161
 21
4715.326881173991
 31
0.0
  0
LINE
  5
1B3A
  8
細線
 10
19198.97560598576
 20
4700.097621675413
 30
0.0
 11
19189.81060736764
 21
4701.713658209947
 31
0.0
  0
LINE
  5
1B3B
  8
細線
 10
19133.63473060014
 20
4711.618980949012
 30
0.0
 11
19124.469731982
 21
4713.235017483545
 31
0.0
  0
ARC
  5
1B3C
  8
細線
 10
19199.79901018164
 20
4702.084829184621
 30
0.0
 40
0.4
 50
79.9999999999448
 51
168.2101000000596
  0
LINE
  5
1B3D
  8
細線
 10
19198.97560598576
 20
4700.097621675413
 30
0.0
 11
19199.40744881293
 21
4702.166558582867
 31
0.0
  0
LINE
  5
1B3E
  8
細線
 10
19124.469731982
 20
4713.235017483545
 30
0.0
 11
19124.77155056161
 21
4715.326881173991
 31
0.0
  0
LINE
  5
1B3F
  8
細線
 10
19197.51907531907
 20
4700.35444733018
 30
0.0
 11
19199.40744881293
 21
4702.166558582867
 31
0.0
  0
ARC
  5
1B40
  8
細線
 10
19127.64023587248
 20
4733.898388293641
 30
0.0
 40
0.4
 50
259.9999999999448
 51
348.2101000000596
  0
LINE
  5
1B41
  8
細線
 10
19129.92017073505
 20
4735.628770148069
 30
0.0
 11
19128.03179724119
 21
4733.816658895386
 31
0.0
  0
LINE
  5
1B42
  8
細線
 10
19202.96951407211
 20
4722.748199994709
 30
0.0
 11
19128.46364006835
 21
4735.885595802836
 31
0.0
  0
ARC
  5
1B43
  8
細線
 10
19203.06359592179
 20
4720.599214941254
 30
0.0
 40
0.4
 50
171.7899000000285
 51
259.9999999999448
  0
LINE
  5
1B44
  8
細線
 10
19202.96951407211
 20
4722.748199994709
 30
0.0
 11
19202.66769549251
 21
4720.656336304259
 31
0.0
  0
LINE
  5
1B45
  8
細線
 10
19128.46364006835
 20
4735.885595802836
 30
0.0
 11
19128.03179724119
 21
4733.816658895386
 31
0.0
  0
LINE
  5
1B46
  8
細線
 10
19201.51298340541
 20
4723.005025649475
 30
0.0
 11
19202.66769549252
 21
4720.656336304267
 31
0.0
  0
POLYLINE
  5
1B47
  8
0
  6
CENTER
 66
     1
 10
0.0
 20
0.0
 30
0.0
  0
VERTEX
  5
1D5C
  8
0
  6
CENTER
 10
19139.90332693229
 20
4582.922681686199
 30
0.0
  0
VERTEX
  5
1D5D
  8
0
  6
CENTER
 10
19180.10002759241
 20
4810.889499348608
 30
0.0
  0
SEQEND
  5
1D92
  8
0
  6
CENTER
  0
LINE
  5
1B48
  8
0
 10
19133.63473060014
 20
4711.618980949012
 30
0.0
 11
19189.81060736764
 21
4701.713658209947
 31
0.0
  0
LINE
  5
1B49
  8
0
 10
19150.06671777145
 20
4711.260144793778
 30
0.0
 11
19174.24686108469
 21
4706.996533130256
 31
0.0
  0
LINE
  5
1B4A
  8
0
 10
19175.09357866425
 20
4782.496516561437
 30
0.0
 11
19180.10002759242
 21
4810.889499348605
 31
0.0
  0
LINE
  5
1B4B
  8
0
 10
19121.78929541723
 20
4791.895499885225
 30
0.0
 11
19121.78929541723
 21
4791.895499885225
 31
0.0
  0
LINE
  5
1B4C
  8
0
 10
19121.78929541723
 20
4791.895499885225
 30
0.0
 11
19122.05419604258
 21
4793.397825985748
 31
0.0
  0
LINE
  5
1B4D
  8
0
 10
19228.39786191128
 20
4773.097533237647
 30
0.0
 11
19228.66276253663
 21
4774.599859338192
 31
0.0
  0
POLYLINE
  5
1BAE
  8
LY_1
  6
CONTINUOUS
 62
     3
 66
     1
 10
0.0
 20
0.0
 30
0.0
  0
VERTEX
  5
1D5E
  8
LY_1
  6
CONTINUOUS
 62
     3
 10
15307.29027426983
 20
2777.871337235054
 30
0.0
  0
VERTEX
  5
1D5F
  8
LY_1
  6
CONTINUOUS
 62
     3
 10
15307.28698126983
 20
2777.868762235055
 30
0.0
  0
VERTEX
  5
1D60
  8
LY_1
  6
CONTINUOUS
 62
     3
 10
15307.28408126983
 20
2777.865769235055
 30
0.0
  0
VERTEX
  5
1D61
  8
LY_1
  6
CONTINUOUS
 62
     3
 10
15307.28162826983
 20
2777.862415235055
 30
0.0
  0
VERTEX
  5
1D62
  8
LY_1
  6
CONTINUOUS
 62
     3
 10
15307.27966926983
 20
2777.858763235055
 30
0.0
  0
VERTEX
  5
1D63
  8
LY_1
  6
CONTINUOUS
 62
     3
 10
15307.27824026983
 20
2777.854883235055
 30
0.0
  0
VERTEX
  5
1D64
  8
LY_1
  6
CONTINUOUS
 62
     3
 10
15307.27736926983
 20
2777.850848235055
 30
0.0
  0
VERTEX
  5
1D65
  8
LY_1
  6
CONTINUOUS
 62
     3
 10
15307.27707226983
 20
2777.846733235055
 30
0.0
  0
VERTEX
  5
1D66
  8
LY_1
  6
CONTINUOUS
 62
     3
 10
15307.27735526983
 20
2777.842618235054
 30
0.0
  0
VERTEX
  5
1D67
  8
LY_1
  6
CONTINUOUS
 62
     3
 10
15307.27821226983
 20
2777.838580235055
 30
0.0
  0
VERTEX
  5
1D68
  8
LY_1
  6
CONTINUOUS
 62
     3
 10
15307.27962826983
 20
2777.834695235055
 30
0.0
  0
VERTEX
  5
1D69
  8
LY_1
  6
CONTINUOUS
 62
     3
 10
15307.28157526983
 20
2777.831037235055
 30
0.0
  0
VERTEX
  5
1D6A
  8
LY_1
  6
CONTINUOUS
 62
     3
 10
15307.28401626983
 20
2777.827675235054
 30
0.0
  0
VERTEX
  5
1D6B
  8
LY_1
  6
CONTINUOUS
 62
     3
 10
15307.28690626983
 20
2777.824672235055
 30
0.0
  0
VERTEX
  5
1D6C
  8
LY_1
  6
CONTINUOUS
 62
     3
 10
15307.29019026983
 20
2777.822086235055
 30
0.0
  0
SEQEND
  5
1D93
  8
LY_1
  6
CONTINUOUS
 62
     3
  0
ARC
  5
1BAF
  8
LY_1
  6
CONTINUOUS
 62
     3
 10
15311.96884526983
 20
2779.847828235055
 30
0.0
 40
1.000141
 50
90.77895100017771
 51
124.2590629999615
  0
ARC
  5
1BB0
  8
LY_1
  6
CONTINUOUS
 62
     3
 10
15311.94272226983
 20
2780.022846235055
 30
0.0
 40
0.825127
 50
213.5745139998458
 51
89.14320300019813
  0
ARC
  5
1BB1
  8
LY_1
  6
CONTINUOUS
 62
     3
 10
15311.92758526983
 20
2775.668903235055
 30
0.0
 40
0.8309979999999999
 50
235.7409370000385
 51
55.74095499984403
  0
ARC
  5
1BB2
  8
LY_1
  6
CONTINUOUS
 62
     3
 10
15306.41073926983
 20
2775.688678235054
 30
0.0
 40
0.8431790000000001
 50
179.9999639999755
 51
359.9999829999826
  0
ARC
  5
1BB3
  8
LY_1
  6
CONTINUOUS
 62
     3
 10
15306.41073926983
 20
2780.004764235055
 30
0.0
 40
0.8431790000000001
 50
0.0
 51
180.0000190000071
  0
ARC
  5
1BB4
  8
LY_1
  6
CONTINUOUS
 62
     3
 10
15285.99716526983
 20
2801.645496235055
 30
0.0
 40
1.0
 50
129.0680079998881
 51
169.6945200000166
  0
ARC
  5
1BB5
  8
LY_1
  6
CONTINUOUS
 62
     3
 10
15296.88315126983
 20
2803.645496235055
 30
0.0
 40
1.0
 50
198.4338970000626
 51
269.9967389998837
  0
ARC
  5
1BB6
  8
LY_1
  6
CONTINUOUS
 62
     3
 10
15298.67099326983
 20
2810.645496235055
 30
0.0
 40
2.0
 50
89.9992169999368
 51
164.0543680000897
  0
ARC
  5
1BB7
  8
LY_1
  6
CONTINUOUS
 62
     3
 10
15333.25741926983
 20
2782.645496235055
 30
0.0
 40
1.0
 50
269.9931880001947
 51
354.2887289999379
  0
ARC
  5
1BB8
  8
LY_1
  6
CONTINUOUS
 62
     3
 10
15332.32773126983
 20
2801.645496235055
 30
0.0
 40
1.0
 50
10.30549900006701
 51
50.93198299989372
  0
ARC
  5
1BB9
  8
LY_1
  6
CONTINUOUS
 62
     3
 10
15321.44174526983
 20
2803.645496235055
 30
0.0
 40
1.0
 50
270.0032419999007
 51
341.5660810000314
  0
ARC
  5
1BBA
  8
LY_1
  6
CONTINUOUS
 62
     3
 10
15319.65390326983
 20
2810.645496235055
 30
0.0
 40
2.0
 50
15.94561299994198
 51
90.00080199986188
  0
ARC
  5
1BBB
  8
LY_1
  6
CONTINUOUS
 62
     3
 10
15341.66244826983
 20
2767.342548235054
 30
0.0
 40
7.0
 50
180.0000359999724
 51
232.5927660000975
  0
ARC
  5
1BBC
  8
LY_1
  6
CONTINUOUS
 62
     3
 10
15333.16244826983
 20
2773.776569235055
 30
0.0
 40
8.0
 50
179.9999639999755
 51
243.8727239999822
  0
ARC
  5
1BBD
  8
LY_1
  6
CONTINUOUS
 62
     3
 10
15285.16244826983
 20
2773.776569235055
 30
0.0
 40
8.0
 50
296.1272949998403
 51
0.0000149999754545
  0
ARC
  5
1BBE
  8
LY_1
  6
CONTINUOUS
 62
     3
 10
15309.16244826983
 20
2724.845493235055
 30
0.0
 40
46.5
 50
116.1273129999569
 51
63.87268800019223
  0
CIRCLE
  5
1BBF
  8
LY_1
  6
CONTINUOUS
 62
   110
 10
15309.16244826983
 20
2724.845493235055
 30
0.0
 40
37.600006
  0
CIRCLE
  5
1BC0
  8
LY_1
  6
CONTINUOUS
 62
     3
 10
15309.16244826983
 20
2724.845493235055
 30
0.0
 40
36.100006
  0
LINE
  5
1BC1
  8
LY_1
  6
CONTINUOUS
 62
     3
 10
15309.46853826983
 20
2778.349491235055
 30
0.0
 11
15311.25552326983
 21
2779.566619235055
 31
0.0
  0
LINE
  5
1BC2
  8
LY_1
  6
CONTINUOUS
 62
     3
 10
15309.46835526983
 20
2778.349352235055
 30
0.0
 11
15312.39539926983
 21
2776.355723235054
 31
0.0
  0
LINE
  5
1BC3
  8
LY_1
  6
CONTINUOUS
 62
     3
 10
15307.29021526983
 20
2777.871293235055
 30
0.0
 11
15311.40577026983
 21
2780.674425235055
 31
0.0
  0
LINE
  5
1BC4
  8
LY_1
  6
CONTINUOUS
 62
     3
 10
15307.29015326983
 20
2777.822050235055
 30
0.0
 11
15311.45979826983
 21
2774.982076235055
 31
0.0
  0
LINE
  5
1BC5
  8
LY_1
  6
CONTINUOUS
 62
     3
 10
15307.25375726983
 20
2780.004764235055
 30
0.0
 11
15307.25375726983
 21
2775.688678235054
 31
0.0
  0
LINE
  5
1BC6
  8
LY_1
  6
CONTINUOUS
 62
     3
 10
15305.56747726983
 20
2780.004764235055
 30
0.0
 11
15305.56747726983
 21
2775.688678235054
 31
0.0
  0
LINE
  5
1BC7
  8
LY_1
  6
CONTINUOUS
 62
     3
 10
15301.16244826983
 20
2815.845493235055
 30
0.0
 11
15317.16244826983
 21
2815.845493235055
 31
0.0
  0
LINE
  5
1BC8
  8
LY_1
  6
CONTINUOUS
 62
     3
 10
15304.16244826983
 20
2785.845493235055
 30
0.0
 11
15314.16244826983
 21
2785.845493235055
 31
0.0
  0
LINE
  5
1BC9
  8
LY_1
  6
CONTINUOUS
 62
     3
 10
15314.16244826983
 20
2785.845493235055
 30
0.0
 11
15314.16244826983
 21
2770.445499235055
 31
0.0
  0
LINE
  5
1BCA
  8
LY_1
  6
CONTINUOUS
 62
   110
 10
15302.24496826983
 20
2815.845493235055
 30
0.0
 11
15302.24496826983
 21
2814.645496235055
 31
0.0
  0
LINE
  5
1BCB
  8
LY_1
  6
CONTINUOUS
 62
   110
 10
15316.07992926983
 20
2815.845493235055
 30
0.0
 11
15316.07992926983
 21
2814.645496235055
 31
0.0
  0
LINE
  5
1BCC
  8
LY_1
  6
CONTINUOUS
 62
     3
 10
15301.16244826983
 20
2815.845493235055
 30
0.0
 11
15301.16244826983
 21
2814.645496235055
 31
0.0
  0
LINE
  5
1BCD
  8
LY_1
  6
CONTINUOUS
 62
     3
 10
15317.16244826983
 20
2815.845493235055
 30
0.0
 11
15317.16244826983
 21
2814.645496235055
 31
0.0
  0
LINE
  5
1BCE
  8
LY_1
  6
CONTINUOUS
 62
     3
 10
15309.16244826983
 20
2814.645496235055
 30
0.0
 11
15309.16244826983
 21
2812.645496235055
 31
0.0
  0
LINE
  5
1BCF
  8
LY_1
  6
CONTINUOUS
 62
     3
 10
15321.16244826983
 20
2814.645496235055
 30
0.0
 11
15321.16244826983
 21
2811.996830235055
 31
0.0
  0
LINE
  5
1BD0
  8
LY_1
  6
CONTINUOUS
 62
     3
 10
15297.16244826983
 20
2814.645496235055
 30
0.0
 11
15297.16244826983
 21
2811.996967235055
 31
0.0
  0
LINE
  5
1BD1
  8
LY_1
  6
CONTINUOUS
 62
     3
 10
15297.16244826983
 20
2814.645496235055
 30
0.0
 11
15321.16244826983
 21
2814.645496235055
 31
0.0
  0
LINE
  5
1BD2
  8
LY_1
  6
CONTINUOUS
 62
     3
 10
15326.99286926983
 20
2788.645495235055
 30
0.0
 11
15327.49286926983
 21
2781.645492235055
 31
0.0
  0
LINE
  5
1BD3
  8
LY_1
  6
CONTINUOUS
 62
     3
 10
15325.16244826983
 20
2781.645496235055
 30
0.0
 11
15333.25741926983
 21
2781.645496235055
 31
0.0
  0
LINE
  5
1BD4
  8
LY_1
  6
CONTINUOUS
 62
     3
 10
15289.40516326983
 20
2791.645535235055
 30
0.0
 11
15296.16238826983
 21
2802.645545235055
 31
0.0
  0
LINE
  5
1BD5
  8
LY_1
  6
CONTINUOUS
 62
     3
 10
15285.36683826983
 20
2802.421870235055
 30
0.0
 11
15297.41055026983
 21
2812.198370235055
 31
0.0
  0
LINE
  5
1BD6
  8
LY_1
  6
CONTINUOUS
 62
     3
 10
15286.56225226983
 20
2791.645525235055
 30
0.0
 11
15295.16235026983
 21
2805.645525235055
 31
0.0
  0
LINE
  5
1BD7
  8
LY_1
  6
CONTINUOUS
 62
     3
 10
15295.16218426983
 20
2805.645438235055
 30
0.0
 11
15295.93425326983
 21
2803.329230235055
 31
0.0
  0
LINE
  5
1BD8
  8
LY_1
  6
CONTINUOUS
 62
     3
 10
15296.74782326983
 20
2811.195000235055
 30
0.0
 11
15295.16227426983
 21
2805.645580235055
 31
0.0
  0
LINE
  5
1BD9
  8
LY_1
  6
CONTINUOUS
 62
     3
 10
15285.01333226983
 20
2801.824405235055
 30
0.0
 11
15283.16262026983
 21
2791.645489235054
 31
0.0
  0
LINE
  5
1BDA
  8
LY_1
  6
CONTINUOUS
 62
     3
 10
15304.16244826983
 20
2788.645496235055
 30
0.0
 11
15334.86264326983
 21
2788.645496235055
 31
0.0
  0
LINE
  5
1BDB
  8
LY_1
  6
CONTINUOUS
 62
     3
 10
15328.91938926983
 20
2791.645352235055
 30
0.0
 11
15322.16216426983
 21
2802.645361235055
 31
0.0
  0
LINE
  5
1BDC
  8
LY_1
  6
CONTINUOUS
 62
     3
 10
15332.95785526983
 20
2802.421582235055
 30
0.0
 11
15320.91421526983
 21
2812.198025235055
 31
0.0
  0
LINE
  5
1BDD
  8
LY_1
  6
CONTINUOUS
 62
     3
 10
15331.76230026983
 20
2791.645341235055
 30
0.0
 11
15323.16220226983
 21
2805.645342235055
 31
0.0
  0
LINE
  5
1BDE
  8
LY_1
  6
CONTINUOUS
 62
     3
 10
15323.16256526983
 20
2805.645482235055
 30
0.0
 11
15322.39049626983
 21
2803.329274235055
 31
0.0
  0
LINE
  5
1BDF
  8
LY_1
  6
CONTINUOUS
 62
     3
 10
15321.57670026983
 20
2811.194879235054
 30
0.0
 11
15323.16224926983
 21
2805.645458235055
 31
0.0
  0
LINE
  5
1BE0
  8
LY_1
  6
CONTINUOUS
 62
     3
 10
15295.16244826983
 20
2805.645496235055
 30
0.0
 11
15323.16244826983
 21
2805.645496235055
 31
0.0
  0
LINE
  5
1BE1
  8
LY_1
  6
CONTINUOUS
 62
     3
 10
15298.67099326983
 20
2812.645496235055
 30
0.0
 11
15319.65390326983
 21
2812.645496235055
 31
0.0
  0
LINE
  5
1BE2
  8
LY_1
  6
CONTINUOUS
 62
     3
 10
15333.31220726983
 20
2801.824483235055
 30
0.0
 11
15335.16292026983
 21
2791.645562235055
 31
0.0
  0
LINE
  5
1BE3
  8
LY_1
  6
CONTINUOUS
 62
     3
 10
15334.25212226983
 20
2782.545990235054
 30
0.0
 11
15335.16207326983
 21
2791.645504235055
 31
0.0
  0
LINE
  5
1BE4
  8
LY_1
  6
CONTINUOUS
 62
     3
 10
15284.16219126983
 20
2781.645504235055
 30
0.0
 11
15283.16219226983
 21
2791.645494235055
 31
0.0
  0
LINE
  5
1BE5
  8
LY_1
  6
CONTINUOUS
 62
     3
 10
15296.88315126983
 20
2802.645496235055
 30
0.0
 11
15321.44174526983
 21
2802.645496235055
 31
0.0
  0
LINE
  5
1BE6
  8
LY_1
  6
CONTINUOUS
 62
     3
 10
15283.16244826983
 20
2791.645496235055
 30
0.0
 11
15335.16244826983
 21
2791.645496235055
 31
0.0
  0
LINE
  5
1BE7
  8
LY_1
  6
CONTINUOUS
 62
     3
 10
15284.16244826983
 20
2781.645496235055
 30
0.0
 11
15304.16244826983
 21
2781.645496235055
 31
0.0
  0
LINE
  5
1BE8
  8
LY_1
  6
CONTINUOUS
 62
     3
 10
15304.16244826983
 20
2788.645496235055
 30
0.0
 11
15304.16244826983
 21
2770.445499235055
 31
0.0
  0
LINE
  5
1BE9
  8
LY_1
  6
CENTER
 62
   110
 10
15309.16244826983
 20
2821.145496235055
 30
0.0
 11
15309.16244826983
 21
2672.792865235055
 31
0.0
  0
LINE
  5
1BEA
  8
LY_1
  6
CENTER
 62
   110
 10
15257.85235926983
 20
2724.845493235055
 30
0.0
 11
15360.47226326983
 21
2724.845493235055
 31
0.0
  0
LINE
  5
1BEB
  8
LY_1
  6
CONTINUOUS
 62
     3
 10
15334.66244826983
 20
2779.345493235055
 30
0.0
 11
15334.66244826983
 21
2767.342548235054
 31
0.0
  0
LINE
  5
1BEC
  8
LY_1
  6
CONTINUOUS
 62
     3
 10
15325.16244826983
 20
2779.345493235055
 30
0.0
 11
15334.66244826983
 21
2779.345493235055
 31
0.0
  0
LINE
  5
1BED
  8
LY_1
  6
CONTINUOUS
 62
     3
 10
15293.16244826983
 20
2781.645496235055
 30
0.0
 11
15293.16244826983
 21
2773.776569235055
 31
0.0
  0
LINE
  5
1BEE
  8
LY_1
  6
CONTINUOUS
 62
     3
 10
15325.16244826983
 20
2788.645496235055
 30
0.0
 11
15325.16244826983
 21
2773.776569235055
 31
0.0
  0
LINE
  5
1BEF
  8
LY_1
  6
CONTINUOUS
 62
     3
 10
15304.16244826983
 20
2787.845493235055
 30
0.0
 11
15325.16244826983
 21
2787.845493235055
 31
0.0
  0
LINE
  5
1BF0
  8
LY_1
  6
CONTINUOUS
 62
     3
 10
15341.96947726983
 20
2757.799264235055
 30
0.0
 11
15309.26623226983
 21
2771.345389235055
 31
0.0
  0
LINE
  5
1BF1
  8
LY_1
  6
CONTINUOUS
 62
     3
 10
15309.05870526983
 20
2678.345621235054
 30
0.0
 11
15276.35543226983
 21
2691.891758235055
 31
0.0
  0
LINE
  5
1BF2
  8
LY_1
  6
CONTINUOUS
 62
     3
 10
15355.66227226983
 20
2724.949239235055
 30
0.0
 11
15342.11615626983
 21
2757.652453235055
 31
0.0
  0
LINE
  5
1BF3
  8
LY_1
  6
CONTINUOUS
 62
     3
 10
15276.20868926983
 20
2692.038451235055
 30
0.0
 11
15262.66255026983
 21
2724.741722235055
 31
0.0
  0
LINE
  5
1BF4
  8
LY_1
  6
CONTINUOUS
 62
     3
 10
15342.11615126983
 20
2692.038512235055
 30
0.0
 11
15355.66228226983
 21
2724.741771235055
 31
0.0
  0
LINE
  5
1BF5
  8
LY_1
  6
CONTINUOUS
 62
     3
 10
15262.66257126983
 20
2724.949275235055
 30
0.0
 11
15276.20869026983
 21
2757.652505235055
 31
0.0
  0
LINE
  5
1BF6
  8
LY_1
  6
CONTINUOUS
 62
     3
 10
15309.26619126983
 20
2678.345587235055
 30
0.0
 11
15341.96947626983
 21
2691.891732235055
 31
0.0
  0
LINE
  5
1BF7
  8
LY_1
  6
CONTINUOUS
 62
     3
 10
15276.35542826983
 20
2757.799230235054
 30
0.0
 11
15309.05869926983
 21
2771.345369235054
 31
0.0
  0
LINE
  5
1C13
  8
0
 10
15309.16244926983
 20
2724.845493235441
 30
0.0
 11
15309.16244926983
 21
2670.193363235441
 31
0.0
  0
LINE
  5
1C14
  8
0
 10
15309.16244826983
 20
2724.845493235441
 30
0.0
 11
15363.81457926983
 21
2724.845493235441
 31
0.0
  0
TEXT
  5
1C1C
  8
0
 10
18653.24836108936
 20
3767.024306335214
 30
0.0
 40
75.0
  1
※KITZ　Tボール　６５Ａ仕様
  0
ENDSEC
  0
EOF
