  0
SECTION
  2
HEADER
  9
$ACADVER
  1
AC1006
  9
$DWGCODEPAGE
  3
ansi_932
  9
$INSBASE
 10
0.0
 20
0.0
 30
0.0
  9
$EXTMIN
 10
9713.716517502442
 20
-16687.66549142473
  9
$EXTMAX
 10
18173.71651750244
 20
-9173.615502408647
  9
$LIMMIN
 10
-144.1413879394531
 20
-67.9833984375
  9
$LIMMAX
 10
277.8586120605469
 20
231.0166015625
  9
$ORTHOMODE
 70
     0
  9
$REGENMODE
 70
     1
  9
$FILLMODE
 70
     1
  9
$QTEXTMODE
 70
     0
  9
$MIRRTEXT
 70
     0
  9
$DRAGMODE
 70
     2
  9
$LTSCALE
 40
25.0
  9
$OSMODE
 70
    37
  9
$ATTMODE
 70
     1
  9
$TEXTSIZE
 40
60.0
  9
$TRACEWID
 40
0.05
  9
$TEXTSTYLE
  7
STANDARD
  9
$CLAYER
  8
0
  9
$CELTYPE
  6
BYLAYER
  9
$CECOLOR
 62
   256
  9
$DIMSCALE
 40
20.0
  9
$DIMASZ
 40
3.0
  9
$DIMEXO
 40
2.0
  9
$DIMDLI
 40
0.38
  9
$DIMRND
 40
0.0
  9
$DIMDLE
 40
0.0
  9
$DIMEXE
 40
3.0
  9
$DIMTP
 40
0.0
  9
$DIMTM
 40
0.0
  9
$DIMTXT
 40
3.0
  9
$DIMCEN
 40
0.09
  9
$DIMTSZ
 40
0.0
  9
$DIMTOL
 70
     0
  9
$DIMLIM
 70
     0
  9
$DIMTIH
 70
     0
  9
$DIMTOH
 70
     0
  9
$DIMSE1
 70
     0
  9
$DIMSE2
 70
     0
  9
$DIMTAD
 70
     1
  9
$DIMZIN
 70
     8
  9
$DIMBLK
  1
OPEN30
  9
$DIMASO
 70
     1
  9
$DIMSHO
 70
     0
  9
$DIMPOST
  1

  9
$DIMAPOST
  1

  9
$DIMALT
 70
     0
  9
$DIMALTD
 70
     3
  9
$DIMALTF
 40
0.03937007874016
  9
$DIMLFAC
 40
1.0
  9
$DIMTOFL
 70
     1
  9
$DIMTVP
 40
0.0
  9
$DIMTIX
 70
     0
  9
$DIMSOXD
 70
     0
  9
$DIMSAH
 70
     0
  9
$DIMBLK1
  1

  9
$DIMBLK2
  1

  9
$LUNITS
 70
     2
  9
$LUPREC
 70
     4
  9
$SKETCHINC
 40
0.1
  9
$FILLETRAD
 40
0.0
  9
$AUNITS
 70
     0
  9
$AUPREC
 70
     0
  9
$MENU
  1
.
  9
$ELEVATION
 40
0.0
  9
$THICKNESS
 40
0.0
  9
$LIMCHECK
 70
     0
  9
$CHAMFERA
 40
0.0
  9
$CHAMFERB
 40
0.0
  9
$SKPOLY
 70
     0
  9
$TDCREATE
 40
2454617.129153819
  9
$TDUPDATE
 40
2459716.332277245
  9
$TDINDWG
 40
0.0983852431
  9
$TDUSRTIMER
 40
0.0983852431
  9
$USRTIMER
 70
     1
  9
$ANGBASE
 50
0.0
  9
$ANGDIR
 70
     0
  9
$PDMODE
 70
     0
  9
$PDSIZE
 40
0.0
  9
$PLINEWID
 40
0.0
  9
$COORDS
 70
     1
  9
$SPLFRAME
 70
     0
  9
$SPLINETYPE
 70
     6
  9
$SPLINESEGS
 70
     8
  9
$ATTDIA
 70
     0
  9
$ATTREQ
 70
     1
  9
$HANDLING
 70
     1
  9
$HANDSEED
  5
21BF
  9
$SURFTAB1
 70
     6
  9
$SURFTAB2
 70
     6
  9
$SURFTYPE
 70
     6
  9
$SURFU
 70
     6
  9
$SURFV
 70
     6
  9
$UCSNAME
  2

  9
$UCSORG
 10
0.0
 20
0.0
 30
0.0
  9
$UCSXDIR
 10
1.0
 20
0.0
 30
0.0
  9
$UCSYDIR
 10
0.0
 20
1.0
 30
0.0
  9
$USERI1
 70
     0
  9
$USERI2
 70
     0
  9
$USERI3
 70
     0
  9
$USERI4
 70
     0
  9
$USERI5
 70
     0
  9
$USERR1
 40
0.0
  9
$USERR2
 40
0.0
  9
$USERR3
 40
0.0
  9
$USERR4
 40
0.0
  9
$USERR5
 40
0.0
  9
$WORLDVIEW
 70
     1
  0
ENDSEC
  0
SECTION
  2
TABLES
  0
TABLE
  2
VPORT
 70
     1
  0
VPORT
  2
*ACTIVE
 70
     0
 10
0.0
 20
0.0
 11
1.0
 21
1.0
 12
29721.43148695839
 22
-11292.77016385148
 13
0.0
 23
0.0
 14
1.0
 24
1.0
 15
0.0
 25
0.0
 16
0.0
 26
0.0
 36
1.0
 17
0.0
 27
0.0
 37
0.0
 40
14731.90019285101
 41
2.786026200873363
 42
50.0
 43
0.0
 44
0.0
 50
0.0
 51
0.0
 71
     0
 72
  1000
 73
     1
 74
     1
 75
     0
 76
     0
 77
     0
 78
     0
  0
ENDTAB
  0
TABLE
  2
LTYPE
 70
     2
  0
LTYPE
  2
CONTINUOUS
 70
     0
  3
Solid line
 72
    65
 73
     0
 40
0.0
  0
LTYPE
  2
CENTER
 70
     0
  3
Center ____ _ ____ _ ____ _ ____ _ ____ _ ____
 72
    65
 73
     4
 40
12.0
 49
7.5
 49
-1.5
 49
1.5
 49
-1.5
  0
ENDTAB
  0
TABLE
  2
LAYER
 70
     8
  0
LAYER
  2
0
 70
     0
 62
     7
  6
CONTINUOUS
  0
LAYER
  2
1
 70
     0
 62
     7
  6
CONTINUOUS
  0
LAYER
  2
2
 70
     0
 62
     7
  6
CONTINUOUS
  0
LAYER
  2
DEFPOINTS
 70
     0
 62
     7
  6
CONTINUOUS
  0
LAYER
  2
寸法線
 70
     0
 62
     9
  6
CONTINUOUS
  0
LAYER
  2
細線
 70
     0
 62
     7
  6
CONTINUOUS
  0
LAYER
  2
4
 70
     0
 62
     7
  6
CONTINUOUS
  0
LAYER
  2
LY_1
 70
     0
 62
     7
  6
CONTINUOUS
  0
ENDTAB
  0
TABLE
  2
STYLE
 70
     2
  0
STYLE
  2
STANDARD
 70
     0
 40
0.0
 41
1.0
 50
0.0
 71
     0
 42
60.0
  3
txt.shx
  4
extfont2.shx
  0
STYLE
  2
ＭＳゴシック
 70
     0
 40
0.0
 41
1.0
 50
0.0
 71
     0
 42
3.0
  3

  4

  0
ENDTAB
  0
TABLE
  2
VIEW
 70
     0
  0
ENDTAB
  0
TABLE
  2
UCS
 70
     0
  0
ENDTAB
  0
ENDSEC
  0
SECTION
  2
BLOCKS
  0
BLOCK
  8
0
  2
*D0
 70
     1
 10
0.0
 20
0.0
 30
0.0
  0
LINE
  5
1B7E
  8
寸法線
 62
     0
 10
11342.40777938466
 20
-14037.04013277168
 30
0.0
 11
11006.53627129373
 21
-14037.04013277168
 31
0.0
  0
LINE
  5
1B7F
  8
寸法線
 62
     0
 10
11342.40777938466
 20
-11987.04013277169
 30
0.0
 11
11006.53627129373
 21
-11987.04013277169
 31
0.0
  0
LINE
  5
1B80
  8
寸法線
 62
     0
 10
11066.53627129373
 20
-13977.04013277168
 30
0.0
 11
11066.53627129373
 21
-12047.04013277169
 31
0.0
  0
INSERT
  5
1B81
  8
寸法線
 62
     0
  2
_OPEN30
 10
11066.53627129373
 20
-14037.04013277168
 30
0.0
 41
60.0
 42
60.0
 43
60.0
 50
270.0
  0
INSERT
  5
1B82
  8
寸法線
 62
     0
  2
_OPEN30
 10
11066.53627129373
 20
-11987.04013277169
 30
0.0
 41
60.0
 42
60.0
 43
60.0
 50
90.0
  0
TEXT
  5
1B83
  8
寸法線
  6
CONTINUOUS
 62
     0
 10
11032.53627129373
 20
-13112.04013277168
 30
0.0
 40
60.0
  1
2050
 50
90.0
  0
POINT
  5
1B84
  8
DEFPOINTS
 62
     0
 10
11382.40777938466
 20
-14037.04013277168
 30
0.0
  0
POINT
  5
1B85
  8
DEFPOINTS
 62
     0
 10
11382.40777938466
 20
-11987.04013277169
 30
0.0
  0
POINT
  5
1B86
  8
DEFPOINTS
 62
     0
 10
11066.53627129373
 20
-11987.04013277169
 30
0.0
  0
ENDBLK
  8
0
  0
BLOCK
  8
0
  2
*D1
 70
     1
 10
0.0
 20
0.0
 30
0.0
  0
LINE
  5
1B87
  8
寸法線
 62
     0
 10
12257.40773182019
 20
-11557.04016138193
 30
0.0
 11
11006.53627129373
 21
-11557.04016138193
 31
0.0
  0
LINE
  5
1B88
  8
寸法線
 62
     0
 10
11346.44982318982
 20
-11987.04013277169
 30
0.0
 11
11006.53627129373
 21
-11987.04013277169
 31
0.0
  0
LINE
  5
1B89
  8
寸法線
 62
     0
 10
11066.53627129373
 20
-11617.04016138193
 30
0.0
 11
11066.53627129373
 21
-11927.04013277169
 31
0.0
  0
INSERT
  5
1B8A
  8
寸法線
 62
     0
  2
_OPEN30
 10
11066.53627129373
 20
-11557.04016138193
 30
0.0
 41
60.0
 42
60.0
 43
60.0
 50
90.0
  0
INSERT
  5
1B8B
  8
寸法線
 62
     0
  2
_OPEN30
 10
11066.53627129373
 20
-11987.04013277169
 30
0.0
 41
60.0
 42
60.0
 43
60.0
 50
270.0
  0
TEXT
  5
1B8C
  8
寸法線
  6
CONTINUOUS
 62
     0
 10
11032.53627129373
 20
-11847.04014707681
 30
0.0
 40
60.0
  1
430
 50
90.0
  0
POINT
  5
1B8D
  8
DEFPOINTS
 62
     0
 10
12297.40773182019
 20
-11557.04016138193
 30
0.0
  0
POINT
  5
1B8E
  8
DEFPOINTS
 62
     0
 10
11386.44982318982
 20
-11987.04013277169
 30
0.0
  0
POINT
  5
1B8F
  8
DEFPOINTS
 62
     0
 10
11066.53627129373
 20
-11987.04013277169
 30
0.0
  0
ENDBLK
  8
0
  0
BLOCK
  8
0
  2
*D2
 70
     1
 10
0.0
 20
0.0
 30
0.0
  0
LINE
  5
1B90
  8
寸法線
 62
     0
 10
11382.40798589771
 20
-11807.04017091866
 30
0.0
 11
11382.40798589771
 21
-11636.38520361638
 31
0.0
  0
LINE
  5
1B91
  8
寸法線
 62
     0
 10
11682.40798589771
 20
-11807.04017091866
 30
0.0
 11
11682.40798589771
 21
-11636.38520361638
 31
0.0
  0
LINE
  5
1B92
  8
寸法線
 62
     0
 10
11442.40798589771
 20
-11696.38520361638
 30
0.0
 11
11622.40798589771
 21
-11696.38520361638
 31
0.0
  0
INSERT
  5
1B93
  8
寸法線
 62
     0
  2
_OPEN30
 10
11382.40798589771
 20
-11696.38520361638
 30
0.0
 41
60.0
 42
60.0
 43
60.0
 50
180.0
  0
INSERT
  5
1B94
  8
寸法線
 62
     0
  2
_OPEN30
 10
11682.40798589771
 20
-11696.38520361638
 30
0.0
 41
60.0
 42
60.0
 43
60.0
  0
TEXT
  5
1B95
  8
寸法線
  6
CONTINUOUS
 62
     0
 10
11462.40798589771
 20
-11662.38520361638
 30
0.0
 40
60.0
  1
300
  0
POINT
  5
1B96
  8
DEFPOINTS
 62
     0
 10
11382.40798589771
 20
-11847.04017091866
 30
0.0
  0
POINT
  5
1B97
  8
DEFPOINTS
 62
     0
 10
11682.40798589771
 20
-11847.04017091866
 30
0.0
  0
POINT
  5
1B98
  8
DEFPOINTS
 62
     0
 10
11682.40798589771
 20
-11696.38520361638
 30
0.0
  0
ENDBLK
  8
0
  0
BLOCK
  8
0
  2
*D3
 70
     1
 10
0.0
 20
0.0
 30
0.0
  0
LINE
  5
1B99
  8
寸法線
 62
     0
 10
11342.40777938466
 20
-14037.04013277168
 30
0.0
 11
10592.17949635362
 21
-14037.04013277168
 31
0.0
  0
LINE
  5
1B9A
  8
寸法線
 62
     0
 10
12257.4076092459
 20
-11557.04016138193
 30
0.0
 11
10592.17949635362
 21
-11557.04016138193
 31
0.0
  0
LINE
  5
1B9B
  8
寸法線
 62
     0
 10
10652.17949635362
 20
-13977.04013277168
 30
0.0
 11
10652.17949635362
 21
-11617.04016138193
 31
0.0
  0
INSERT
  5
1B9C
  8
寸法線
 62
     0
  2
_OPEN30
 10
10652.17949635362
 20
-14037.04013277168
 30
0.0
 41
60.0
 42
60.0
 43
60.0
 50
270.0
  0
INSERT
  5
1B9D
  8
寸法線
 62
     0
  2
_OPEN30
 10
10652.17949635362
 20
-11557.04016138193
 30
0.0
 41
60.0
 42
60.0
 43
60.0
 50
90.0
  0
TEXT
  5
1B9E
  8
寸法線
  6
CONTINUOUS
 62
     0
 10
10618.17949635362
 20
-12902.0401470768
 30
0.0
 40
60.0
  1
2480
 50
90.0
  0
POINT
  5
1B9F
  8
DEFPOINTS
 62
     0
 10
11382.40777938466
 20
-14037.04013277168
 30
0.0
  0
POINT
  5
1BA0
  8
DEFPOINTS
 62
     0
 10
12297.4076092459
 20
-11557.04016138193
 30
0.0
  0
POINT
  5
1BA1
  8
DEFPOINTS
 62
     0
 10
10652.17949635362
 20
-11557.04016138193
 30
0.0
  0
ENDBLK
  8
0
  0
BLOCK
  8
0
  2
*D4
 70
     1
 10
0.0
 20
0.0
 30
0.0
  0
LINE
  5
1BA2
  8
寸法線
 62
     0
 10
11352.40775089368
 20
-14047.04013455983
 30
0.0
 11
11352.40775089368
 21
-14625.08478488455
 31
0.0
  0
LINE
  5
1BA3
  8
寸法線
 62
     0
 10
13242.40769188508
 20
-14047.04013455983
 30
0.0
 11
13242.40769188508
 21
-14625.08478488455
 31
0.0
  0
LINE
  5
1BA4
  8
寸法線
 62
     0
 10
11412.40775089368
 20
-14565.08478488455
 30
0.0
 11
13182.40769188508
 21
-14565.08478488455
 31
0.0
  0
INSERT
  5
1BA5
  8
寸法線
 62
     0
  2
_OPEN30
 10
11352.40775089368
 20
-14565.08478488455
 30
0.0
 41
60.0
 42
60.0
 43
60.0
 50
180.0
  0
INSERT
  5
1BA6
  8
寸法線
 62
     0
  2
_OPEN30
 10
13242.40769188508
 20
-14565.08478488455
 30
0.0
 41
60.0
 42
60.0
 43
60.0
  0
TEXT
  5
1BA7
  8
寸法線
  6
CONTINUOUS
 62
     0
 10
12102.40772138938
 20
-14531.08478488455
 30
0.0
 40
60.0
  1
O.D\U+22051890
  0
POINT
  5
1BA8
  8
DEFPOINTS
 62
     0
 10
11352.40775089368
 20
-14007.04013455983
 30
0.0
  0
POINT
  5
1BA9
  8
DEFPOINTS
 62
     0
 10
13242.40769188508
 20
-14007.04013455983
 30
0.0
  0
POINT
  5
1BAA
  8
DEFPOINTS
 62
     0
 10
13242.40769188508
 20
-14565.08478488455
 30
0.0
  0
ENDBLK
  8
0
  0
BLOCK
  8
0
  2
_OPEN30
 70
     0
 10
0.0
 20
0.0
 30
0.0
  0
LINE
  5
727
  8
0
  6
BYBLOCK
 62
     0
 10
-1.0
 20
0.26794919
 30
0.0
 11
0.0
 21
0.0
 31
0.0
  0
LINE
  5
728
  8
0
  6
BYBLOCK
 62
     0
 10
0.0
 20
0.0
 30
0.0
 11
-1.0
 21
-0.26794919
 31
0.0
  0
LINE
  5
729
  8
0
  6
BYBLOCK
 62
     0
 10
0.0
 20
0.0
 30
0.0
 11
-1.0
 21
0.0
 31
0.0
  0
ENDBLK
  8
0
  0
BLOCK
  8
0
  2
*D6
 70
     1
 10
0.0
 20
0.0
 30
0.0
  0
LINE
  5
1BAB
  8
寸法線
 62
     0
 10
12062.40773707323
 20
-11577.04010416126
 30
0.0
 11
12062.40773707323
 21
-11311.48902226349
 31
0.0
  0
LINE
  5
1BAC
  8
寸法線
 62
     0
 10
12532.40772656715
 20
-11577.04010416127
 30
0.0
 11
12532.40772656715
 21
-11311.48902226349
 31
0.0
  0
LINE
  5
1BAD
  8
寸法線
 62
     0
 10
12122.40773707323
 20
-11371.48902226349
 30
0.0
 11
12472.40772656715
 21
-11371.48902226349
 31
0.0
  0
INSERT
  5
1BAE
  8
寸法線
 62
     0
  2
_OPEN30
 10
12062.40773707323
 20
-11371.48902226349
 30
0.0
 41
60.0
 42
60.0
 43
60.0
 50
180.0
  0
INSERT
  5
1BAF
  8
寸法線
 62
     0
  2
_OPEN30
 10
12532.40772656715
 20
-11371.48902226349
 30
0.0
 41
60.0
 42
60.0
 43
60.0
  0
TEXT
  5
1BB0
  8
寸法線
  6
CONTINUOUS
 62
     0
 10
12132.40773182019
 20
-11337.48902226349
 30
0.0
 40
60.0
  1
I.D\U+2205470
  0
POINT
  5
1BB1
  8
DEFPOINTS
 62
     0
 10
12062.40773707323
 20
-11617.04010416126
 30
0.0
  0
POINT
  5
1BB2
  8
DEFPOINTS
 62
     0
 10
12532.40772656715
 20
-11617.04010416127
 30
0.0
  0
POINT
  5
1BB3
  8
DEFPOINTS
 62
     0
 10
12532.40772656715
 20
-11371.48902226349
 30
0.0
  0
ENDBLK
  8
0
  0
BLOCK
  8
0
  2
*D7
 70
     1
 10
0.0
 20
0.0
 30
0.0
  0
LINE
  5
1A48
  8
寸法線
 62
     0
 10
15633.1777401315
 20
-11131.62686277095
 30
0.0
 11
16061.78570129664
 21
-10970.19819237483
 31
0.0
  0
TEXT
  5
1A49
  8
寸法線
  6
CONTINUOUS
 62
     0
 10
15653.01201062527
 20
-11087.82501675985
 30
0.0
 40
60.0
  1
I.D\U+2205470
 50
20.63811979693057
  0
INSERT
  5
1A4A
  8
寸法線
 62
     0
  2
_OPEN30
 10
16117.93521585976
 20
-10949.05033162424
 30
0.0
 41
60.0
 42
60.0
 43
60.0
 50
20.63811979693057
  0
POINT
  5
1A4B
  8
DEFPOINTS
 62
     0
 10
16117.93521585976
 20
-10949.05033162424
 30
0.0
  0
POINT
  5
1A4C
  8
DEFPOINTS
 62
     0
 10
15678.09735178199
 20
-11114.70857417049
 30
0.0
  0
ENDBLK
  8
0
  0
BLOCK
  8
0
  2
_DOTSMALL
 70
     0
 10
0.0
 20
0.0
 30
0.0
  0
POLYLINE
  5
104F
  8
0
  6
BYBLOCK
 62
     0
 66
     1
 10
0.0
 20
0.0
 30
0.0
 70
     1
 40
0.5
 41
0.5
  0
VERTEX
  5
2155
  8
0
  6
BYBLOCK
 62
     0
 10
-0.0625
 20
0.0
 30
0.0
 42
1.0
  0
VERTEX
  5
2156
  8
0
  6
BYBLOCK
 62
     0
 10
0.0625
 20
0.0
 30
0.0
 42
1.0
  0
SEQEND
  5
21B4
  8
0
  6
BYBLOCK
 62
     0
  0
ENDBLK
  8
0
  0
BLOCK
  8
0
  2
65Aバルブ平面図
 70
     0
 10
0.0
 20
0.0
 30
0.0
  0
LINE
  5
105F
  8
0
  6
CONTINUOUS
 10
-43.0
 20
41.0
 30
0.0
 11
-28.52123899999788
 21
41.0
 31
0.0
  0
LINE
  5
1060
  8
0
  6
CONTINUOUS
 10
-43.0
 20
29.0
 30
0.0
 11
-43.0
 21
41.0
 31
0.0
  0
LINE
  5
1061
  8
0
  6
CONTINUOUS
 10
-41.5
 20
22.5
 30
0.0
 11
-41.5
 21
26.40191699999923
 31
0.0
  0
LINE
  5
1062
  8
0
  6
CONTINUOUS
 10
-43.0
 20
29.0
 30
0.0
 11
-34.90667799999937
 21
29.0
 31
0.0
  0
LINE
  5
1063
  8
0
  6
CONTINUOUS
 10
-17.0
 20
6.363704999999754
 30
0.0
 11
-17.0
 21
9.814955000001646
 31
0.0
  0
LINE
  5
1064
  8
0
  6
CONTINUOUS
 10
-26.5
 20
6.133358999999473
 30
0.0
 11
-26.5
 21
15.29978299999857
 31
0.0
  0
LINE
  5
1065
  8
0
  6
CONTINUOUS
 10
-17.0
 20
9.814954000001308
 30
0.0
 11
-6.389382999997906
 21
15.94098999999915
 31
0.0
  0
LINE
  5
1066
  8
0
  6
CONTINUOUS
 10
-26.5
 20
15.29978599999959
 30
0.0
 11
-6.11962499999936
 21
27.06639200000063
 31
0.0
  0
ARC
  5
1067
  8
0
  6
CONTINUOUS
 10
-33.5
 20
22.5
 30
0.0
 40
8.0
 50
179.999982000092
 51
187.0636249999592
  0
ARC
  5
1068
  8
0
  6
CONTINUOUS
 10
-44.5
 20
26.40191699999923
 30
0.0
 40
3.0
 50
0.0000199998977924
 51
60.00027999987502
  0
LINE
  5
1069
  8
0
  6
CONTINUOUS
 10
43.0
 20
41.0
 30
0.0
 11
28.52123900000151
 21
41.0
 31
0.0
  0
LINE
  5
106A
  8
0
  6
CONTINUOUS
 10
43.0
 20
29.0
 30
0.0
 11
43.0
 21
41.0
 31
0.0
  0
LINE
  5
106B
  8
0
  6
CONTINUOUS
 10
41.5
 20
22.5
 30
0.0
 11
41.5
 21
26.40191699999923
 31
0.0
  0
LINE
  5
106C
  8
0
  6
CONTINUOUS
 10
43.0
 20
29.0
 30
0.0
 11
34.90667799999937
 21
29.0
 31
0.0
  0
LINE
  5
106D
  8
0
  6
CONTINUOUS
 10
17.0
 20
6.363704999999754
 30
0.0
 11
17.0
 21
9.814955000001646
 31
0.0
  0
LINE
  5
106E
  8
0
  6
CONTINUOUS
 10
26.5
 20
6.133358999999473
 30
0.0
 11
26.5
 21
15.29978299999857
 31
0.0
  0
LINE
  5
106F
  8
0
  6
CONTINUOUS
 10
17.0
 20
9.814954000001308
 30
0.0
 11
6.389383000001544
 21
15.94098999999915
 31
0.0
  0
LINE
  5
1070
  8
0
  6
CONTINUOUS
 10
26.5
 20
15.29978599999959
 30
0.0
 11
6.11962499999936
 21
27.06639200000063
 31
0.0
  0
ARC
  5
1071
  8
0
  6
CONTINUOUS
 10
33.5
 20
22.5
 30
0.0
 40
8.0
 50
352.9363750000408
 51
0.0000179999080132
  0
ARC
  5
1072
  8
0
  6
CONTINUOUS
 10
44.5
 20
26.40191699999923
 30
0.0
 40
3.0
 50
119.999720000125
 51
179.9999800001022
  0
LINE
  5
1073
  8
0
  6
CONTINUOUS
 10
-43.0
 20
-41.0
 30
0.0
 11
-28.52123900000151
 21
-41.0
 31
0.0
  0
LINE
  5
1074
  8
0
  6
CONTINUOUS
 10
-43.0
 20
-29.0
 30
0.0
 11
-43.0
 21
-41.0
 31
0.0
  0
LINE
  5
1075
  8
0
  6
CONTINUOUS
 10
-41.5
 20
-22.5
 30
0.0
 11
-41.5
 21
-26.40191699999923
 31
0.0
  0
LINE
  5
1076
  8
0
  6
CONTINUOUS
 10
-43.0
 20
-29.0
 30
0.0
 11
-34.90667799999937
 21
-29.0
 31
0.0
  0
LINE
  5
1077
  8
0
  6
CONTINUOUS
 10
-17.0
 20
-6.363704999999754
 30
0.0
 11
-17.0
 21
-9.814954999998008
 31
0.0
  0
LINE
  5
1078
  8
0
  6
CONTINUOUS
 10
-26.5
 20
-6.133358999999473
 30
0.0
 11
-26.5
 21
-15.29978299999857
 31
0.0
  0
LINE
  5
1079
  8
0
  6
CONTINUOUS
 10
-17.0
 20
-9.814954000001308
 30
0.0
 11
-6.389383000001544
 21
-15.94098999999915
 31
0.0
  0
LINE
  5
107A
  8
0
  6
CONTINUOUS
 10
-26.5
 20
-15.29978599999959
 30
0.0
 11
-6.11962499999936
 21
-27.06639200000063
 31
0.0
  0
ARC
  5
107B
  8
0
  6
CONTINUOUS
 10
-33.5
 20
-22.5
 30
0.0
 40
8.0
 50
172.9363750000408
 51
180.000017999908
  0
ARC
  5
107C
  8
0
  6
CONTINUOUS
 10
-44.5
 20
-26.40191699999923
 30
0.0
 40
3.0
 50
299.999720000125
 51
359.9999800001022
  0
LINE
  5
107D
  8
0
  6
CONTINUOUS
 10
43.0
 20
-41.0
 30
0.0
 11
28.52123900000151
 21
-41.0
 31
0.0
  0
LINE
  5
107E
  8
0
  6
CONTINUOUS
 10
43.0
 20
-29.0
 30
0.0
 11
43.0
 21
-41.0
 31
0.0
  0
LINE
  5
107F
  8
0
  6
CONTINUOUS
 10
41.5
 20
-22.5
 30
0.0
 11
41.5
 21
-26.40191699999923
 31
0.0
  0
LINE
  5
1080
  8
0
  6
CONTINUOUS
 10
43.0
 20
-29.0
 30
0.0
 11
34.90667799999937
 21
-29.0
 31
0.0
  0
LINE
  5
1081
  8
0
  6
CONTINUOUS
 10
17.0
 20
-6.363704999999754
 30
0.0
 11
17.0
 21
-9.814954999998008
 31
0.0
  0
LINE
  5
1082
  8
0
  6
CONTINUOUS
 10
26.5
 20
-6.133358999999473
 30
0.0
 11
26.5
 21
-15.29978299999857
 31
0.0
  0
LINE
  5
1083
  8
0
  6
CONTINUOUS
 10
17.0
 20
-9.814954000001308
 30
0.0
 11
6.389383000001544
 21
-15.94098999999915
 31
0.0
  0
LINE
  5
1084
  8
0
  6
CONTINUOUS
 10
26.5
 20
-15.29978599999959
 30
0.0
 11
6.11962499999936
 21
-27.06639200000063
 31
0.0
  0
ARC
  5
1085
  8
0
  6
CONTINUOUS
 10
33.5
 20
-22.5
 30
0.0
 40
8.0
 50
359.999982000092
 51
7.063624999959234
  0
ARC
  5
1086
  8
0
  6
CONTINUOUS
 10
44.5
 20
-26.40191699999923
 30
0.0
 40
3.0
 50
180.0000199998978
 51
240.000279999875
  0
CIRCLE
  5
1087
  8
0
  6
CONTINUOUS
 10
0.0
 20
0.0
 30
0.0
 40
32.0
  0
ARC
  5
1088
  8
0
  6
CONTINUOUS
 10
-39.94437399999879
 20
-12.97871400000076
 30
0.0
 40
8.0
 50
155.2494670000171
 51
240.7505330001607
  0
ARC
  5
1089
  8
0
  6
CONTINUOUS
 10
-24.68698099999892
 20
-33.97871400000076
 30
0.0
 40
8.0
 50
191.2494670000484
 51
276.7505330001021
  0
ARC
  5
108A
  8
0
  6
CONTINUOUS
 10
0.0
 20
-42.0
 30
0.0
 40
8.0
 50
227.2494669999631
 51
312.7505330000369
  0
ARC
  5
108B
  8
0
  6
CONTINUOUS
 10
-68.09669099999883
 20
0.0
 30
0.0
 40
23.0
 50
335.249467000017
 51
24.75053299998294
  0
ARC
  5
108C
  8
0
  6
CONTINUOUS
 10
-55.09138099999836
 20
-40.02623099999983
 30
0.0
 40
23.0
 50
11.24946700004833
 51
60.75053300016073
  0
ARC
  5
108D
  8
0
  6
CONTINUOUS
 10
-21.04303499999878
 20
-64.7638020000013
 30
0.0
 40
23.0
 50
47.2494669999631
 51
96.75053300010205
  0
LINE
  5
108E
  8
0
  6
CONTINUOUS
 10
-13.5436179999997
 20
-6.447511999998824
 30
0.0
 11
-30.18905000000086
 21
-6.043910000000324
 31
0.0
  0
ARC
  5
108F
  8
0
  6
CONTINUOUS
 10
-30.18905699999959
 20
-7.04420399999799
 30
0.0
 40
1.0
 50
88.61102100007285
 51
193.1341849999397
  0
LINE
  5
1090
  8
0
  6
CONTINUOUS
 10
-6.447511999998824
 20
-13.5436179999997
 30
0.0
 11
-6.043910000000324
 21
-30.18905000000086
 31
0.0
  0
ARC
  5
1091
  8
0
  6
CONTINUOUS
 10
-7.044204000001628
 20
-30.18905699999959
 30
0.0
 40
1.0
 50
256.8658150000543
 51
1.388978999929044
  0
ARC
  5
1092
  8
0
  6
CONTINUOUS
 10
-39.94437399999879
 20
12.97871400000076
 30
0.0
 40
8.0
 50
119.2494669998393
 51
204.7505329999829
  0
ARC
  5
1093
  8
0
  6
CONTINUOUS
 10
-24.68698099999892
 20
33.97871400000076
 30
0.0
 40
8.0
 50
83.24946699989796
 51
168.7505329999516
  0
ARC
  5
1094
  8
0
  6
CONTINUOUS
 10
0.0
 20
42.0
 30
0.0
 40
8.0
 50
47.2494669999631
 51
132.7505330000369
  0
ARC
  5
1095
  8
0
  6
CONTINUOUS
 10
-55.09138099999836
 20
40.02623099999983
 30
0.0
 40
23.0
 50
299.2494669998392
 51
348.7505329999517
  0
ARC
  5
1096
  8
0
  6
CONTINUOUS
 10
-21.04303499999878
 20
64.7638020000013
 30
0.0
 40
23.0
 50
263.2494669998979
 51
312.7505330000369
  0
LINE
  5
1097
  8
0
  6
CONTINUOUS
 10
-13.5436179999997
 20
6.447511999998824
 30
0.0
 11
-30.18905000000086
 21
6.043910000000324
 31
0.0
  0
ARC
  5
1098
  8
0
  6
CONTINUOUS
 10
-30.18905699999959
 20
7.044204000001628
 30
0.0
 40
1.0
 50
166.8658150000602
 51
271.3889789999271
  0
LINE
  5
1099
  8
0
  6
CONTINUOUS
 10
-6.447511999998824
 20
13.5436179999997
 30
0.0
 11
-6.043910000000324
 21
30.18905000000086
 31
0.0
  0
ARC
  5
109A
  8
0
  6
CONTINUOUS
 10
-7.04420399999799
 20
30.18905699999959
 30
0.0
 40
1.0
 50
358.611021000071
 51
103.1341849999457
  0
ARC
  5
109B
  8
0
  6
CONTINUOUS
 10
39.94437399999879
 20
-12.97871400000076
 30
0.0
 40
8.0
 50
299.2494669998392
 51
24.75053299998294
  0
ARC
  5
109C
  8
0
  6
CONTINUOUS
 10
24.68698099999892
 20
-33.97871400000076
 30
0.0
 40
8.0
 50
263.2494669998979
 51
348.7505329999517
  0
ARC
  5
109D
  8
0
  6
CONTINUOUS
 10
68.09669099999883
 20
0.0
 30
0.0
 40
23.0
 50
155.2494670000171
 51
204.7505329999829
  0
ARC
  5
109E
  8
0
  6
CONTINUOUS
 10
55.09138099999836
 20
-40.02623099999983
 30
0.0
 40
23.0
 50
119.2494669998393
 51
168.7505329999516
  0
ARC
  5
109F
  8
0
  6
CONTINUOUS
 10
21.04303499999878
 20
-64.7638020000013
 30
0.0
 40
23.0
 50
83.24946699989796
 51
132.7505330000369
  0
LINE
  5
10A0
  8
0
  6
CONTINUOUS
 10
13.5436179999997
 20
-6.447511999998824
 30
0.0
 11
30.18905000000086
 21
-6.043910000000324
 31
0.0
  0
ARC
  5
10A1
  8
0
  6
CONTINUOUS
 10
30.18905699999959
 20
-7.04420399999799
 30
0.0
 40
1.0
 50
346.8658150000603
 51
91.38897899992715
  0
LINE
  5
10A2
  8
0
  6
CONTINUOUS
 10
6.447511999998824
 20
-13.5436179999997
 30
0.0
 11
6.043910000000324
 21
-30.18905000000086
 31
0.0
  0
ARC
  5
10A3
  8
0
  6
CONTINUOUS
 10
7.044204000001628
 20
-30.18905699999959
 30
0.0
 40
1.0
 50
178.611021000071
 51
283.1341849999457
  0
ARC
  5
10A4
  8
0
  6
CONTINUOUS
 10
39.94437399999879
 20
12.97871400000076
 30
0.0
 40
8.0
 50
335.249467000017
 51
60.75053300016073
  0
ARC
  5
10A5
  8
0
  6
CONTINUOUS
 10
24.68698099999892
 20
33.97871400000076
 30
0.0
 40
8.0
 50
11.24946700004833
 51
96.75053300010205
  0
ARC
  5
10A6
  8
0
  6
CONTINUOUS
 10
55.09138099999836
 20
40.02623099999983
 30
0.0
 40
23.0
 50
191.2494670000484
 51
240.7505330001607
  0
ARC
  5
10A7
  8
0
  6
CONTINUOUS
 10
21.04303499999878
 20
64.7638020000013
 30
0.0
 40
23.0
 50
227.2494669999631
 51
276.7505330001021
  0
LINE
  5
10A8
  8
0
  6
CONTINUOUS
 10
13.5436179999997
 20
6.447511999998824
 30
0.0
 11
30.18905000000086
 21
6.043910000000324
 31
0.0
  0
ARC
  5
10A9
  8
0
  6
CONTINUOUS
 10
30.18905699999959
 20
7.044204000001628
 30
0.0
 40
1.0
 50
268.6110210000729
 51
13.13418499993977
  0
LINE
  5
10AA
  8
0
  6
CONTINUOUS
 10
6.447511999998824
 20
13.5436179999997
 30
0.0
 11
6.043910000000324
 21
30.18905000000086
 31
0.0
  0
ARC
  5
10AB
  8
0
  6
CONTINUOUS
 10
7.044204000001628
 20
30.18905699999959
 30
0.0
 40
1.0
 50
76.86581500005431
 51
181.388978999929
  0
LINE
  5
10AC
  8
0
  6
CENTER
 62
     4
 10
-53.0
 20
0.0
 30
0.0
 11
53.0
 21
0.0
 31
0.0
  0
CIRCLE
  5
10AD
  8
0
  6
CONTINUOUS
 10
0.0
 20
0.0
 30
0.0
 40
15.0
  0
LINE
  5
10AE
  8
0
  6
CONTINUOUS
 10
0.0
 20
7.505552999999054
 30
0.0
 11
-6.5
 21
3.752777000001515
 31
0.0
  0
LINE
  5
10AF
  8
0
  6
CONTINUOUS
 10
-6.5
 20
3.752777000001515
 30
0.0
 11
-6.5
 21
-3.752777000001515
 31
0.0
  0
LINE
  5
10B0
  8
0
  6
CONTINUOUS
 10
-6.5
 20
-3.752777000001515
 30
0.0
 11
0.0
 21
-7.505552999999054
 31
0.0
  0
LINE
  5
10B1
  8
0
  6
CONTINUOUS
 10
0.0
 20
-7.505552999999054
 30
0.0
 11
6.5
 21
-3.752777000001515
 31
0.0
  0
LINE
  5
10B2
  8
0
  6
CONTINUOUS
 10
6.5
 20
-3.752777000001515
 30
0.0
 11
6.5
 21
3.752777000001515
 31
0.0
  0
LINE
  5
10B3
  8
0
  6
CONTINUOUS
 10
6.5
 20
3.752777000001515
 30
0.0
 11
0.0
 21
7.505552999999054
 31
0.0
  0
CIRCLE
  5
10B4
  8
0
  6
CONTINUOUS
 10
0.0
 20
0.0
 30
0.0
 40
6.25
  0
CIRCLE
  5
10B5
  8
0
  6
CONTINUOUS
 10
0.0
 20
0.0
 30
0.0
 40
3.2
  0
CIRCLE
  5
10B6
  8
0
  6
CONTINUOUS
 10
0.0
 20
0.0
 30
0.0
 40
4.0
  0
ENDBLK
  8
0
  0
BLOCK
  8
0
  2
65Aバルブ側面図
 70
     0
 10
0.0
 20
0.0
 30
0.0
  0
LINE
  5
10BA
  8
0
  6
CONTINUOUS
 10
-17.0
 20
151.2999999999997
 30
0.0
 11
17.0
 21
151.2999999999997
 31
0.0
  0
LINE
  5
10BB
  8
0
  6
CONTINUOUS
 10
-17.0
 20
131.2999999999997
 30
0.0
 11
17.0
 21
131.2999999999997
 31
0.0
  0
LINE
  5
10BC
  8
0
  6
CONTINUOUS
 10
6.75
 20
160.0
 30
0.0
 11
6.75
 21
151.2999999999997
 31
0.0
  0
LINE
  5
10BD
  8
0
  6
CONTINUOUS
 10
-6.75
 20
160.0
 30
0.0
 11
-6.75
 21
151.2999999999997
 31
0.0
  0
LINE
  5
10BE
  8
0
  6
CONTINUOUS
 10
-17.0
 20
151.2999999999997
 30
0.0
 11
-17.0
 21
131.2999999999997
 31
0.0
  0
LINE
  5
10BF
  8
0
  6
CONTINUOUS
 10
17.0
 20
151.2999999999997
 30
0.0
 11
17.0
 21
131.2999999999997
 31
0.0
  0
LINE
  5
10C0
  8
0
  6
CENTER
 62
     4
 10
0.0
 20
187.0
 30
0.0
 11
0.0
 21
-54.65212999999994
 31
0.0
  0
LINE
  5
10C1
  8
0
  6
CENTER
 62
     4
 10
-54.65213199999926
 20
0.0
 30
0.0
 11
54.65212999999858
 21
0.0
 31
0.0
  0
LINE
  5
10C2
  8
0
  6
CONTINUOUS
 10
-43.00000200000068
 20
24.82606499999974
 30
0.0
 11
-43.00000200000068
 21
-24.8260650000002
 31
0.0
  0
LINE
  5
10C3
  8
0
  6
CONTINUOUS
 10
43.0
 20
24.82606499999974
 30
0.0
 11
43.0
 21
-24.8260650000002
 31
0.0
  0
LINE
  5
10C4
  8
0
  6
CONTINUOUS
 10
-42.99998699999924
 20
-24.82607300000018
 30
0.0
 11
0.0000099999997474
 21
-49.65212999999994
 31
0.0
  0
LINE
  5
10C5
  8
0
  6
CONTINUOUS
 10
4.500009999999747
 20
47.05403500000011
 30
0.0
 11
43.00000999999975
 21
24.82605400000011
 31
0.0
  0
LINE
  5
10C6
  8
0
  6
CONTINUOUS
 10
0.0000099999997474
 20
-49.65211100000033
 30
0.0
 11
43.00000999999975
 21
-24.82605400000011
 31
0.0
  0
LINE
  5
10C7
  8
0
  6
CONTINUOUS
 10
-42.99998699999924
 20
24.82607299999972
 30
0.0
 11
-4.247199999997974
 21
47.20000499999969
 31
0.0
  0
LINE
  5
10C8
  8
0
  6
CONTINUOUS
 10
37.06440999999904
 20
62.51973700000008
 30
0.0
 11
36.76685999999972
 21
28.42470599999979
 31
0.0
  0
LINE
  5
10C9
  8
0
  6
CONTINUOUS
 10
-39.00000200000068
 20
81.5
 30
0.0
 11
39.0
 21
81.5
 31
0.0
  0
LINE
  5
10CA
  8
0
  6
CONTINUOUS
 10
-39.00000200000068
 20
77.0
 30
0.0
 11
39.0
 21
77.0
 31
0.0
  0
LINE
  5
10CB
  8
0
  6
CONTINUOUS
 10
39.0
 20
84.84307899999976
 30
0.0
 11
39.0
 21
77.0
 31
0.0
  0
LINE
  5
10CC
  8
0
  6
CONTINUOUS
 10
38.5
 20
77.0
 30
0.0
 11
38.5
 21
66.73205599999983
 31
0.0
  0
LINE
  5
10CD
  8
0
  6
CONTINUOUS
 10
-37.30276700000104
 20
65.0
 30
0.0
 11
37.30275999999867
 21
65.0
 31
0.0
  0
LINE
  5
10CE
  8
0
  6
CONTINUOUS
 10
-26.50000200000068
 20
87.5
 30
0.0
 11
26.5
 21
87.5
 31
0.0
  0
LINE
  5
10CF
  8
0
  6
CONTINUOUS
 10
-26.50000200000068
 20
98.5
 30
0.0
 11
26.5
 21
98.5
 31
0.0
  0
LINE
  5
10D0
  8
0
  6
CONTINUOUS
 10
-14.5
 20
119.0
 30
0.0
 11
14.5
 21
119.0
 31
0.0
  0
LINE
  5
10D1
  8
0
  6
CONTINUOUS
 10
14.5
 20
131.2999999999997
 30
0.0
 11
14.5
 21
116.8303099999998
 31
0.0
  0
LINE
  5
10D2
  8
0
  6
CONTINUOUS
 10
13.64999000000171
 20
131.2999999999997
 30
0.0
 11
13.64999000000171
 21
119.0
 31
0.0
  0
LINE
  5
10D3
  8
0
  6
CONTINUOUS
 10
-13.65000000000146
 20
131.2999999999997
 30
0.0
 11
-13.65000000000146
 21
119.0
 31
0.0
  0
LINE
  5
10D4
  8
0
  6
CONTINUOUS
 10
26.5
 20
98.5
 30
0.0
 11
26.5
 21
87.5
 31
0.0
  0
LINE
  5
10D5
  8
0
  6
CONTINUOUS
 10
26.50003999999899
 20
87.50003100000004
 30
0.0
 11
39.0
 21
84.84307899999976
 31
0.0
  0
LINE
  5
10D6
  8
0
  6
CONTINUOUS
 10
-39.00000200000068
 20
84.84300200000007
 30
0.0
 11
-39.00000200000068
 21
77.0
 31
0.0
  0
LINE
  5
10D7
  8
0
  6
CONTINUOUS
 10
-14.5
 20
131.2999999999997
 30
0.0
 11
-14.5
 21
116.8303099999998
 31
0.0
  0
LINE
  5
10D8
  8
0
  6
CONTINUOUS
 10
-26.50000200000068
 20
98.5
 30
0.0
 11
-26.50000200000068
 21
87.5
 31
0.0
  0
LINE
  5
10D9
  8
0
  6
CONTINUOUS
 10
-26.4999710000011
 20
87.49996199999987
 30
0.0
 11
-38.99999399999797
 21
84.84300200000007
 31
0.0
  0
LINE
  5
10DA
  8
0
  6
CONTINUOUS
 10
-37.06447800000024
 20
62.51980599999979
 30
0.0
 11
-36.766939000001
 21
28.42477599999984
 31
0.0
  0
LINE
  5
10DB
  8
0
  6
CONTINUOUS
 10
-38.50000200000068
 20
77.0
 30
0.0
 11
-38.50000200000068
 21
66.73205599999983
 31
0.0
  0
LINE
  5
10DC
  8
0
  6
CONTINUOUS
 10
-4.24721000000136
 20
47.19999699999971
 30
0.0
 11
4.24721000000136
 21
47.19999699999971
 31
0.0
  0
LINE
  5
10DD
  8
0
  6
CONTINUOUS
 10
-2.5
 20
61.0
 30
0.0
 11
-2.5
 21
50.51814299999978
 31
0.0
  0
LINE
  5
10DE
  8
0
  6
CONTINUOUS
 10
0.0
 20
151.2999999999997
 30
0.0
 11
0.0
 21
131.2999999999997
 31
0.0
  0
LINE
  5
10DF
  8
0
  6
CONTINUOUS
 10
0.0
 20
98.5
 30
0.0
 11
0.0
 21
87.5
 31
0.0
  0
LINE
  5
10E0
  8
0
  6
CONTINUOUS
 10
2.5
 20
61.0
 30
0.0
 11
2.5
 21
50.51814299999978
 31
0.0
  0
LINE
  5
10E1
  8
0
  6
CONTINUOUS
 10
-39.00000899999941
 20
84.84301000000005
 30
0.0
 11
39.0
 21
84.84308599999986
 31
0.0
  0
CIRCLE
  5
10E2
  8
0
  6
CONTINUOUS
 10
0.0
 20
0.0
 30
0.0
 40
37.600006
  0
CIRCLE
  5
10E3
  8
0
  6
CONTINUOUS
 10
0.0
 20
0.0
 30
0.0
 40
36.100006
  0
ARC
  5
10E4
  8
0
  6
CONTINUOUS
 10
35.5
 20
66.73205599999983
 30
0.0
 40
3.0
 50
322.645680000067
 51
0.0
  0
ARC
  5
10E5
  8
0
  6
CONTINUOUS
 10
41.06427999999869
 20
62.48486299999968
 30
0.0
 40
4.0
 50
142.6456599998915
 51
179.4999400000095
  0
ARC
  5
10E6
  8
0
  6
CONTINUOUS
 10
34.5
 20
116.8303099999998
 30
0.0
 40
20.0
 50
180.0
 51
246.4218299999828
  0
ARC
  5
10E7
  8
0
  6
CONTINUOUS
 10
-34.50000200000068
 20
116.8303099999998
 30
0.0
 40
20.0
 50
293.5781600000327
 51
0.0
  0
ARC
  5
10E8
  8
0
  6
CONTINUOUS
 10
-35.50000200000068
 20
66.73205599999983
 30
0.0
 40
3.0
 50
180.0
 51
217.3543400001085
  0
ARC
  5
10E9
  8
0
  6
CONTINUOUS
 10
-41.06428700000106
 20
62.48486299999968
 30
0.0
 40
4.0
 50
0.5000609999958383
 51
37.35434199993992
  0
ARC
  5
10EA
  8
0
  6
CONTINUOUS
 10
-6.5
 20
50.51814299999978
 30
0.0
 40
4.0
 50
299.9999600000318
 51
0.0
  0
ARC
  5
10EB
  8
0
  6
CONTINUOUS
 10
-6.5
 20
61.0
 30
0.0
 40
4.0
 50
0.0
 51
90.00003699991512
  0
ARC
  5
10EC
  8
0
  6
CONTINUOUS
 10
6.5
 20
50.51814299999978
 30
0.0
 40
4.0
 50
180.0
 51
240.0000200000953
  0
ARC
  5
10ED
  8
0
  6
CONTINUOUS
 10
6.5
 20
61.0
 30
0.0
 40
4.0
 50
89.99998200009199
 51
180.0
  0
LINE
  5
10EE
  8
0
  6
CONTINUOUS
 10
-31.8094749999982
 20
176.5
 30
0.0
 11
31.80947500000184
 21
176.5
 31
0.0
  0
ARC
  5
10EF
  8
0
  6
CONTINUOUS
 10
-41.0
 20
180.0
 30
0.0
 40
7.0
 50
90.0
 51
145.6987590000096
  0
ARC
  5
10F0
  8
0
  6
CONTINUOUS
 10
-41.0
 20
178.0
 30
0.0
 40
9.0
 50
0.0
 51
90.0
  0
ARC
  5
10F1
  8
0
  6
CONTINUOUS
 10
-31.50000999999975
 20
173.519245
 30
0.0
 40
18.5
 50
145.6987590000096
 51
180.0596020000102
  0
LINE
  5
10F2
  8
0
  6
CONTINUOUS
 10
-50.0
 20
173.5
 30
0.0
 11
-49.62644799999907
 21
169.2302749999999
 31
0.0
  0
ARC
  5
10F3
  8
0
  6
CONTINUOUS
 10
-48.82949200000076
 20
169.2999999999997
 30
0.0
 40
0.8
 50
185.0000000000029
 51
270.0
  0
LINE
  5
10F4
  8
0
  6
CONTINUOUS
 10
-48.82949200000076
 20
168.5
 30
0.0
 11
48.82949200000076
 21
168.5
 31
0.0
  0
ARC
  5
10F5
  8
0
  6
CONTINUOUS
 10
-9.801035000000411
 20
161.0
 30
0.0
 40
1.0
 50
183.0000000000034
 51
270.0
  0
LINE
  5
10F6
  8
0
  6
CONTINUOUS
 10
-9.801035000000411
 20
160.0
 30
0.0
 11
9.801035000000411
 21
160.0
 31
0.0
  0
LINE
  5
10F7
  8
0
  6
CONTINUOUS
 10
-10.79966499999864
 20
160.9476639999998
 30
0.0
 11
-11.19022499999846
 21
168.4000000000001
 31
0.0
  0
ARC
  5
10F8
  8
0
  6
CONTINUOUS
 10
-26.0
 20
178.0
 30
0.0
 40
6.0
 50
180.0
 51
194.4775119999656
  0
ARC
  5
10F9
  8
0
  6
CONTINUOUS
 10
-11.31126899999799
 20
161.1559969999998
 30
0.0
 40
0.5
 50
3.000000000003379
 51
67.95690600008288
  0
LINE
  5
10FA
  8
0
  6
CONTINUOUS
 10
-11.12361800000144
 20
161.6194479999999
 30
0.0
 11
-28.11677200000122
 21
168.5
 31
0.0
  0
ARC
  5
10FB
  8
0
  6
CONTINUOUS
 10
41.0
 20
180.0
 30
0.0
 40
7.0
 50
34.30124099999035
 51
90.0
  0
ARC
  5
10FC
  8
0
  6
CONTINUOUS
 10
41.0
 20
178.0
 30
0.0
 40
9.0
 50
90.0
 51
180.0
  0
ARC
  5
10FD
  8
0
  6
CONTINUOUS
 10
31.50000999999975
 20
173.519245
 30
0.0
 40
18.5
 50
359.9403979999898
 51
34.30124099999035
  0
LINE
  5
10FE
  8
0
  6
CONTINUOUS
 10
50.0
 20
173.5
 30
0.0
 11
49.62644799999907
 21
169.2302749999999
 31
0.0
  0
ARC
  5
10FF
  8
0
  6
CONTINUOUS
 10
48.82949200000076
 20
169.2999999999997
 30
0.0
 40
0.8
 50
270.0
 51
354.9999999999972
  0
ARC
  5
1100
  8
0
  6
CONTINUOUS
 10
9.801035000000411
 20
161.0
 30
0.0
 40
1.0
 50
270.0
 51
356.9999999999966
  0
LINE
  5
1101
  8
0
  6
CONTINUOUS
 10
10.79966499999864
 20
160.9476639999998
 30
0.0
 11
11.19022499999846
 21
168.4000000000001
 31
0.0
  0
ARC
  5
1102
  8
0
  6
CONTINUOUS
 10
26.0
 20
178.0
 30
0.0
 40
6.0
 50
345.5224880000344
 51
0.0
  0
ARC
  5
1103
  8
0
  6
CONTINUOUS
 10
11.31126900000163
 20
161.1559969999998
 30
0.0
 40
0.5
 50
112.0430939999171
 51
176.9999999999966
  0
LINE
  5
1104
  8
0
  6
CONTINUOUS
 10
11.12361800000144
 20
161.6194479999999
 30
0.0
 11
28.11677200000122
 21
168.5
 31
0.0
  0
ENDBLK
  8
0
  0
BLOCK
  8
0
  2
ALﾌｨｯﾃｨﾝｸﾞ平面図
 70
     0
 10
0.0
 20
0.0
 30
0.0
  0
LINE
  5
1108
  8
0
 10
54.12658773652947
 20
8.000000000000455
 30
0.0
 11
54.12658773652947
 21
0.0000000000004547
 31
0.0
  0
LINE
  5
1109
  8
0
 10
54.12658773652947
 20
0.0000000000004547
 30
0.0
 11
-54.12658773652947
 21
0.0
 31
0.0
  0
LINE
  5
110A
  8
0
 10
-54.12658773652947
 20
0.0
 30
0.0
 11
-54.12658773652583
 21
8.0
 31
0.0
  0
LINE
  5
110B
  8
0
 10
-54.12658773652583
 20
8.0
 30
0.0
 11
54.12658773652947
 21
8.000000000000455
 31
0.0
  0
POLYLINE
  5
110C
  8
0
 66
     1
 10
0.0
 20
0.0
 30
0.0
  0
VERTEX
  5
2157
  8
0
 10
-43.5
 20
54.00000000000045
 30
0.0
  0
VERTEX
  5
2158
  8
0
 10
-43.5
 20
8.0
 30
0.0
  0
SEQEND
  5
21B5
  8
0
  0
POLYLINE
  5
110D
  8
0
 66
     1
 10
0.0
 20
0.0
 30
0.0
  0
VERTEX
  5
2159
  8
0
 10
43.5
 20
54.0
 30
0.0
  0
VERTEX
  5
215A
  8
0
 10
43.5
 20
8.000000000000455
 30
0.0
  0
SEQEND
  5
21B6
  8
0
  0
POLYLINE
  5
110E
  8
0
 66
     1
 10
0.0
 20
0.0
 30
0.0
  0
VERTEX
  5
215B
  8
0
 10
-43.5
 20
54.00000000000045
 30
0.0
  0
VERTEX
  5
215C
  8
0
 10
43.5
 20
54.00000000000045
 30
0.0
  0
SEQEND
  5
21B7
  8
0
  0
ENDBLK
  8
0
  0
BLOCK
  8
0
  2
液面計平面図
 70
     0
 10
0.0
 20
0.0
 30
0.0
  0
LINE
  5
1112
  8
4
  6
CENTER
 10
0.0000000061918399
 20
12.68536112816355
 30
0.0
 11
-0.0000000266700226
 21
-54.624178065877
 31
0.0
  0
LINE
  5
1113
  8
4
  6
CONTINUOUS
 10
13.95543432118211
 20
-4.957636454589647
 30
0.0
 11
-14.9878162764835
 21
-4.957636443673891
 31
0.0
  0
LINE
  5
1114
  8
4
  6
CONTINUOUS
 10
-14.98781625898118
 20
0.0
 30
0.0
 11
-14.9878162764835
 21
-4.957636443673891
 31
0.0
  0
LINE
  5
1115
  8
4
  6
CONTINUOUS
 10
13.95543433794228
 20
0.0000000000004547
 30
0.0
 11
13.95543432118211
 21
-4.957636454589647
 31
0.0
  0
LINE
  5
1116
  8
4
  6
CENTER
 10
13.95543432118211
 20
-29.95763645458965
 30
0.0
 11
-14.9878162764835
 21
-29.95763644367389
 31
0.0
  0
LINE
  5
1117
  8
0
 10
8.999999983672751
 20
-29.95763645272064
 30
0.0
 11
8.999999983672751
 21
-4.957636452720635
 31
0.0
  0
LINE
  5
1118
  8
0
 10
-9.000000016327249
 20
-29.95763644593217
 30
0.0
 11
-9.000000016327249
 21
-4.957636445932167
 31
0.0
  0
ARC
  5
1119
  8
0
 10
-0.0000000163272489
 20
-29.95763645102306
 30
0.0
 40
9.0
 50
179.9999999675875
 51
0.0000000108128681
  0
POLYLINE
  5
111A
  8
0
 66
     1
 10
0.0
 20
0.0
 30
0.0
  0
VERTEX
  5
215D
  8
0
 10
-14.98781625898118
 20
0.0
 30
0.0
  0
VERTEX
  5
215E
  8
0
 10
13.95543433794228
 20
0.0
 30
0.0
  0
SEQEND
  5
21B8
  8
0
  0
ENDBLK
  8
0
  0
BLOCK
  8
0
  2
６５ＡエアーＬ_正面図
 70
     0
 10
0.0
 20
0.0
 30
0.0
  0
LINE
  5
111E
  8
0
  6
CENTER
 10
43.5
 20
243.000020745058
 30
0.0
 11
176.5
 21
243.000020745058
 31
0.0
  0
LINE
  5
111F
  8
0
  6
CENTER
 10
220.0
 20
199.500020745058
 30
0.0
 11
220.0
 21
113.2213137450581
 31
0.0
  0
LINE
  5
1120
  8
0
  6
CONTINUOUS
 10
176.5
 20
199.500020745058
 30
0.0
 11
176.5
 21
133.0000007450581
 31
0.0
  0
LINE
  5
1121
  8
0
  6
CONTINUOUS
 10
263.5
 20
199.500020745058
 30
0.0
 11
263.5
 21
133.0000007450581
 31
0.0
  0
LINE
  5
1122
  8
0
  6
CONTINUOUS
 10
43.5
 20
286.500020745058
 30
0.0
 11
176.5
 21
286.500020745058
 31
0.0
  0
LINE
  5
1123
  8
0
  6
CONTINUOUS
 10
43.5
 20
199.500020745058
 30
0.0
 11
176.5
 21
199.500020745058
 31
0.0
  0
LINE
  5
1124
  8
0
  6
CENTER
 10
0.0
 20
199.500020745058
 30
0.0
 11
0.0
 21
17.39178574505786
 31
0.0
  0
LINE
  5
1125
  8
0
  6
CONTINUOUS
 10
-43.5
 20
199.500020745058
 30
0.0
 11
-43.5
 21
62.00000074505806
 31
0.0
  0
LINE
  5
1126
  8
0
  6
CONTINUOUS
 10
43.5
 20
199.500020745058
 30
0.0
 11
43.5
 21
62.00000074505806
 31
0.0
  0
LINE
  5
1127
  8
0
  6
CONTINUOUS
 10
176.5
 20
133.0000007450581
 30
0.0
 11
263.5
 21
133.0000007450581
 31
0.0
  0
LINE
  5
1128
  8
0
  6
CONTINUOUS
 10
-50.22952300000179
 20
50.00000074505806
 30
0.0
 11
50.22944599999755
 21
50.00000074505806
 31
0.0
  0
LINE
  5
1129
  8
0
  6
CONTINUOUS
 10
-25.11465499999758
 20
62.00000074505806
 30
0.0
 11
-25.11465499999758
 21
50.00000074505806
 31
0.0
  0
LINE
  5
112A
  8
0
  6
CONTINUOUS
 10
25.11471599999641
 20
62.00000074505806
 30
0.0
 11
25.11471599999641
 21
50.00000074505806
 31
0.0
  0
LINE
  5
112B
  8
0
  6
CONTINUOUS
 10
-50.22952300000179
 20
62.00000074505806
 30
0.0
 11
50.22944599999755
 21
62.00000074505806
 31
0.0
  0
LINE
  5
112C
  8
0
  6
CONTINUOUS
 10
-50.22952300000179
 20
62.00000074505806
 30
0.0
 11
-50.22952300000179
 21
50.00000074505806
 31
0.0
  0
LINE
  5
112D
  8
0
  6
CONTINUOUS
 10
50.22944599999755
 20
62.00000074505806
 30
0.0
 11
50.22944599999755
 21
50.00000074505806
 31
0.0
  0
LINE
  5
112E
  8
0
  6
CONTINUOUS
 10
43.5
 20
124.7500007450581
 30
0.0
 11
-43.5
 21
124.7500007450581
 31
0.0
  0
LINE
  5
112F
  8
0
  6
CONTINUOUS
 10
110.0
 20
199.500020745058
 30
0.0
 11
110.0
 21
286.500020745058
 31
0.0
  0
ARC
  5
1130
  8
0
  6
CONTINUOUS
 10
43.5
 20
199.500020745058
 30
0.0
 40
87.0
 50
89.99998199988354
 51
179.999959999996
  0
ARC
  5
1131
  8
0
  6
CONTINUOUS
 10
176.5
 20
199.500020745058
 30
0.0
 40
87.0
 50
0.0
 51
89.99998199988354
  0
ARC
  5
1132
  8
0
  6
CENTER
 10
43.5
 20
199.500020745058
 30
0.0
 40
43.5
 50
89.99998199988354
 51
179.999959999996
  0
ARC
  5
1133
  8
0
  6
CENTER
 10
176.5
 20
199.500020745058
 30
0.0
 40
43.5
 50
0.0
 51
89.99998199988354
  0
LINE
  5
1134
  8
0
  6
CONTINUOUS
 62
     1
 10
-64.00000095367432
 20
30.00000044703484
 30
0.0
 11
64.00000095367432
 21
30.00000044703484
 31
0.0
  0
LINE
  5
1135
  8
0
  6
CONTINUOUS
 62
     1
 10
-64.00000095367432
 20
30.00000044703484
 30
0.0
 11
-64.00000095367432
 21
0.0
 31
0.0
  0
LINE
  5
1136
  8
0
  6
CONTINUOUS
 62
     1
 10
-45.00000067055225
 20
50.00000074505806
 30
0.0
 11
-45.00000067055225
 21
30.00000044703484
 31
0.0
  0
LINE
  5
1137
  8
0
  6
CONTINUOUS
 62
     1
 10
45.00000067055225
 20
50.00000074505806
 30
0.0
 11
45.00000067055225
 21
30.00000044703484
 31
0.0
  0
LINE
  5
1138
  8
0
  6
CONTINUOUS
 62
     1
 10
64.00000095367432
 20
30.00000044703484
 30
0.0
 11
64.00000095367432
 21
0.0
 31
0.0
  0
LINE
  5
1139
  8
0
  6
CONTINUOUS
 62
     1
 10
-45.00000067055225
 20
50.00000074505806
 30
0.0
 11
45.00000067055225
 21
50.00000074505806
 31
0.0
  0
LINE
  5
113A
  8
0
  6
CENTER
 62
     1
 10
0.0
 20
80.0000011920929
 30
0.0
 11
0.0
 21
-20.00000029802322
 31
0.0
  0
LINE
  5
113B
  8
0
  6
CONTINUOUS
 62
     1
 10
-64.00000095367432
 20
15.00000022351742
 30
0.0
 11
64.00000095367432
 21
15.00000022351742
 31
0.0
  0
ENDBLK
  8
0
  0
BLOCK
  8
0
  2
６５ＡエアーＬ_平面図
 70
     0
 10
0.0
 20
0.0
 30
0.0
  0
LINE
  5
113F
  8
0
  6
CENTER
 62
     1
 10
0.0
 20
90.00000134110451
 30
0.0
 11
0.0
 21
-90.00000134110451
 31
0.0
  0
LINE
  5
1140
  8
0
  6
CONTINUOUS
 62
     1
 10
45.9817046700482
 20
43.50001525878906
 30
0.0
 11
45.25483467028971
 21
45.2548346702888
 31
0.0
  0
LINE
  5
1141
  8
0
  6
CONTINUOUS
 62
     1
 10
45.25483467028971
 20
45.2548346702888
 30
0.0
 11
0.0
 21
64.00000095367432
 31
0.0
  0
LINE
  5
1142
  8
0
  6
CONTINUOUS
 62
     1
 10
-45.25483467028971
 20
45.2548346702888
 30
0.0
 11
0.0
 21
64.00000095367432
 31
0.0
  0
LINE
  5
1143
  8
0
  6
CONTINUOUS
 62
     1
 10
-64.00000095367432
 20
0.0
 30
0.0
 11
-45.25483467028971
 21
45.2548346702888
 31
0.0
  0
LINE
  5
1144
  8
0
  6
CONTINUOUS
 62
     1
 10
-45.25483467028971
 20
-45.2548346702888
 30
0.0
 11
-64.00000095367432
 21
0.0
 31
0.0
  0
LINE
  5
1145
  8
0
  6
CONTINUOUS
 62
     1
 10
0.0
 20
-64.00000095367432
 30
0.0
 11
-45.25483467028971
 21
-45.2548346702888
 31
0.0
  0
LINE
  5
1146
  8
0
  6
CONTINUOUS
 62
     1
 10
45.25483467028971
 20
-45.2548346702888
 30
0.0
 11
0.0
 21
-64.00000095367432
 31
0.0
  0
LINE
  5
1147
  8
0
  6
CONTINUOUS
 10
0.0
 20
43.50001525878906
 30
0.0
 11
220.0
 21
43.50001525878906
 31
0.0
  0
LINE
  5
1148
  8
0
  6
CONTINUOUS
 10
0.0
 20
-43.49998474121094
 30
0.0
 11
220.0
 21
-43.49998474121094
 31
0.0
  0
LINE
  5
1149
  8
0
  6
CENTER
 10
220.0
 20
65.00001525878906
 30
0.0
 11
220.0
 21
-64.99998474121094
 31
0.0
  0
ARC
  5
114A
  8
0
  6
CONTINUOUS
 10
0.0
 20
0.0
 30
0.0
 40
43.5
 50
89.99998199988354
 51
270.0
  0
ARC
  5
114B
  8
0
  6
CONTINUOUS
 10
220.0
 20
0.0000152587890625
 30
0.0
 40
43.5
 50
270.0000199998978
 51
89.99998199988354
  0
ARC
  5
114C
  8
0
  6
CONTINUOUS
 10
0.0
 20
0.0000152587890625
 30
0.0
 40
50.229473
 50
60.00000200011934
 51
299.9999899999576
  0
POLYLINE
  5
114D
  8
0
  6
CENTER
 66
     1
 10
0.0
 20
0.0
 30
0.0
  0
VERTEX
  5
215F
  8
0
  6
CENTER
 10
-99.41334725918568
 20
0.0
 30
0.0
  0
VERTEX
  5
2160
  8
0
  6
CENTER
 10
292.4680340731502
 20
0.0000160179242812
 30
0.0
  0
SEQEND
  5
21B9
  8
0
  6
CENTER
  0
ENDBLK
  8
0
  0
BLOCK
  8
0
  2
出口
 70
     0
 10
0.0
 20
0.0
 30
0.0
  0
INSERT
  5
1151
  8
0
  2
65Aバルブ平面図
 10
-0.0000000000109139
 20
-118.0000000000191
 30
0.0
  0
INSERT
  5
1152
  8
0
  2
ALﾌｨｯﾃｨﾝｸﾞ平面図
 10
0.0
 20
0.0
 30
0.0
 50
180.0
  0
LINE
  5
1153
  8
細線
 10
-39.00000000002183
 20
-56.50000000001091
 30
0.0
 11
38.99999999999272
 21
-56.50000000001273
 31
0.0
  0
LINE
  5
1154
  8
細線
 10
-38.99999999999272
 20
-74.5000000000091
 30
0.0
 11
-12.27658049974707
 21
-74.50000000001091
 31
0.0
  0
LINE
  5
1155
  8
細線
 10
12.27658049973979
 20
-74.50000000001091
 30
0.0
 11
38.99999999999272
 21
-74.50000000001273
 31
0.0
  0
LINE
  5
1156
  8
細線
 10
38.99999999999272
 20
-56.50000000001273
 30
0.0
 11
39.99999999999272
 21
-57.07735026920091
 31
0.0
  0
LINE
  5
1157
  8
細線
 10
38.99999999999272
 20
-74.50000000001273
 30
0.0
 11
39.99999999998909
 21
-73.92264973082274
 31
0.0
  0
LINE
  5
1158
  8
細線
 10
-39.00000000001455
 20
-56.50000000001091
 30
0.0
 11
-40.00000000001455
 21
-57.07735026920273
 31
0.0
  0
LINE
  5
1159
  8
細線
 10
-39.00000000000728
 20
-74.50000000001091
 30
0.0
 11
-40.00000000001091
 21
-73.9226497308191
 31
0.0
  0
LINE
  5
115A
  8
細線
 10
39.99999999998909
 20
-73.92264973082274
 30
0.0
 11
39.99999999999272
 21
-57.07735026920091
 31
0.0
  0
LINE
  5
115B
  8
細線
 10
-40.00000000001091
 20
-73.9226497308191
 30
0.0
 11
-40.00000000001455
 21
-57.07735026920273
 31
0.0
  0
LINE
  5
115C
  8
細線
 10
16.5685424949188
 20
-72.01988337010334
 30
0.0
 11
16.56854249491516
 21
-58.9801166299203
 31
0.0
  0
LINE
  5
115D
  8
細線
 10
-16.56854249493335
 20
-72.01988337010334
 30
0.0
 11
-16.56854249494427
 21
-58.9801166299203
 31
0.0
  0
ARC
  5
115E
  8
細線
 10
-0.000000000003638
 20
-17.91645559738208
 30
0.0
 40
56.58354440262278
 50
252.9734048203697
 51
259.538417357061
  0
ARC
  5
115F
  8
細線
 10
-0.000000000003638
 20
-17.91645559738208
 30
0.0
 40
56.58354440262278
 50
280.4615826431535
 51
287.026595179431
  0
ARC
  5
1160
  8
細線
 10
28.2842712474594
 20
-45.58819864121779
 30
0.0
 40
28.91180135878851
 50
246.0948937241524
 51
293.905106276292
  0
ARC
  5
1161
  8
細線
 10
-28.2842712474594
 20
-45.58819864121415
 30
0.0
 40
28.91180135878851
 50
246.0948937241524
 51
293.905106276292
  0
ARC
  5
1162
  8
細線
 10
0.0
 20
-113.0835444026284
 30
0.0
 40
56.58354440262278
 50
72.9734048203697
 51
107.026595179431
  0
ARC
  5
1163
  8
細線
 10
28.2842712474594
 20
-85.4118013587995
 30
0.0
 40
28.91180135878851
 50
66.0948937241524
 51
113.9051062762921
  0
ARC
  5
1164
  8
細線
 10
-28.2842712474594
 20
-85.41180135879358
 30
0.0
 40
28.91180135878851
 50
66.0948937241524
 51
113.9051062762921
  0
LINE
  5
1165
  8
細線
 10
39.00000000000364
 20
-56.50000000001637
 30
0.0
 11
38.29344347594451
 21
-56.50000000002183
 31
0.0
  0
ARC
  5
1166
  8
細線
 10
-38.29344347595907
 20
-74.90000000001419
 30
0.0
 40
0.4
 50
1.789899999995269
 51
90.0
  0
LINE
  5
1167
  8
細線
 10
-36.34862360262923
 20
-77.00000000002001
 30
0.0
 11
-37.89363864320694
 21
-74.8875061730887
 31
0.0
  0
LINE
  5
1168
  8
細線
 10
37.82762360259949
 20
-77.00000000002183
 30
0.0
 11
28.52124010785337
 21
-77.00000000001819
 31
0.0
  0
LINE
  5
1169
  8
細線
 10
-28.52124010787156
 20
-77.00000000001819
 30
0.0
 11
-37.82762360263223
 21
-77.00000000002001
 31
0.0
  0
ARC
  5
116A
  8
細線
 10
38.29344347594088
 20
-74.90000000000964
 30
0.0
 40
0.4
 50
90.0
 51
178.2101000000047
  0
LINE
  5
116B
  8
細線
 10
37.82762360259949
 20
-77.00000000002183
 30
0.0
 11
37.89363864318875
 21
-74.88750617309233
 31
0.0
  0
LINE
  5
116C
  8
細線
 10
-37.82762360263223
 20
-77.00000000002001
 30
0.0
 11
-37.89363864320694
 21
-74.8875061730887
 31
0.0
  0
LINE
  5
116D
  8
細線
 10
36.34862360261104
 20
-77.00000000002183
 30
0.0
 11
37.89363864318875
 21
-74.88750617309233
 31
0.0
  0
ARC
  5
116E
  8
細線
 10
-38.29344347595543
 20
-56.09999999999945
 30
0.0
 40
0.4
 50
270.0
 51
358.2101000000047
  0
LINE
  5
116F
  8
細線
 10
-36.34862360262196
 20
-54.00000000000546
 30
0.0
 11
-37.89363864320694
 21
-56.11249382693131
 31
0.0
  0
LINE
  5
1170
  8
細線
 10
37.82762360260313
 20
-54.00000000000364
 30
0.0
 11
-37.82762360262495
 21
-54.00000000000728
 31
0.0
  0
ARC
  5
1171
  8
細線
 10
38.29344347594088
 20
-56.10000000000673
 30
0.0
 40
0.4
 50
181.7898999999953
 51
270.0
  0
LINE
  5
1172
  8
細線
 10
37.82762360260313
 20
-54.00000000000364
 30
0.0
 11
37.89363864318148
 21
-56.11249382694041
 31
0.0
  0
LINE
  5
1173
  8
細線
 10
-37.82762360262495
 20
-54.00000000000728
 30
0.0
 11
-37.89363864320694
 21
-56.11249382693131
 31
0.0
  0
LINE
  5
1174
  8
細線
 10
36.34862360261104
 20
-54.00000000000728
 30
0.0
 11
37.89363864319603
 21
-56.11249382693131
 31
0.0
  0
POLYLINE
  5
1175
  8
0
  6
CENTER
 66
     1
 10
0.0
 20
0.0
 30
0.0
  0
VERTEX
  5
2161
  8
0
  6
CENTER
 10
-0.000000000007276
 20
-202.6525829684088
 30
0.0
  0
VERTEX
  5
2162
  8
0
  6
CENTER
 10
-0.0000000000145519
 20
28.83099031290476
 30
0.0
  0
SEQEND
  5
21BA
  8
0
  6
CENTER
  0
ENDBLK
  8
0
  0
BLOCK
  8
0
  2
N-BALOON
 70
     2
 10
0.0
 20
0.0
 30
0.0
  0
CIRCLE
  5
1179
  8
0
 10
0.0
 20
0.0
 30
0.0
 40
80.0
  0
TEXT
  5
117A
  8
0
 10
-54.80747623446223
 20
-19.84838056682929
 30
0.0
 40
40.0
  1
N-
  0
ATTDEF
  5
117B
  8
0
 10
36.18295389930427
 20
-19.82969338686235
 30
0.0
 40
40.0
  1

  3
?
  2
NO.
 70
     0
  0
ENDBLK
  8
0
  0
BLOCK
  8
0
  2
BALOON
 70
     2
 10
0.0
 20
0.0
 30
0.0
  0
CIRCLE
  5
117F
  8
0
 10
0.0
 20
0.0
 30
0.0
 40
80.0
  0
ATTDEF
  5
1180
  8
0
 10
-13.54374865719001
 20
-19.82969338686235
 30
0.0
 40
40.0
  1

  3
?
  2
NO.
 70
     0
  0
ENDBLK
  8
0
  0
BLOCK
  8
0
  2
*D18
 70
     1
 10
0.0
 20
0.0
 30
0.0
  0
LINE
  5
1A4D
  8
寸法線
 62
     0
 10
15748.01710025114
 20
-10089.25817289149
 30
0.0
 11
15748.01710025114
 21
-9928.013556271713
 31
0.0
  0
LINE
  5
1A4E
  8
寸法線
 62
     0
 10
16048.01546739062
 20
-10089.25817289149
 30
0.0
 11
16048.01546739062
 21
-9928.013556271713
 31
0.0
  0
LINE
  5
1A4F
  8
寸法線
 62
     0
 10
15808.01710025114
 20
-9988.013556271713
 30
0.0
 11
15988.01546739062
 21
-9988.013556271713
 31
0.0
  0
INSERT
  5
1A50
  8
寸法線
 62
     0
  2
_OPEN30
 10
15748.01710025114
 20
-9988.013556271713
 30
0.0
 41
60.0
 42
60.0
 43
60.0
 50
180.0
  0
INSERT
  5
1A51
  8
寸法線
 62
     0
  2
_OPEN30
 10
16048.01546739062
 20
-9988.013556271713
 30
0.0
 41
60.0
 42
60.0
 43
60.0
  0
TEXT
  5
1A52
  8
寸法線
  6
CONTINUOUS
 62
     0
 10
15828.01628382088
 20
-9954.013556271713
 30
0.0
 40
60.0
  1
300
  0
POINT
  5
1A53
  8
DEFPOINTS
 62
     0
 10
15748.01710025114
 20
-10129.25817289149
 30
0.0
  0
POINT
  5
1A54
  8
DEFPOINTS
 62
     0
 10
16048.01546739062
 20
-10129.25817289149
 30
0.0
  0
POINT
  5
1A55
  8
DEFPOINTS
 62
     0
 10
16048.01546739062
 20
-9988.013556271713
 30
0.0
  0
ENDBLK
  8
0
  0
BLOCK
  8
0
  2
*D19
 70
     1
 10
0.0
 20
0.0
 30
0.0
  0
LINE
  5
1A56
  8
寸法線
 62
     0
 10
15738.01673222376
 20
-10060.52336574189
 30
0.0
 11
15738.01673222376
 21
-9799.210600029413
 31
0.0
  0
LINE
  5
1A57
  8
寸法線
 62
     0
 10
16058.01637536628
 20
-10060.52211210028
 30
0.0
 11
16058.01637536628
 21
-9799.210600029413
 31
0.0
  0
LINE
  5
1A58
  8
寸法線
 62
     0
 10
15798.01673222376
 20
-9859.210600029413
 30
0.0
 11
15998.01637536628
 21
-9859.210600029413
 31
0.0
  0
INSERT
  5
1A59
  8
寸法線
 62
     0
  2
_OPEN30
 10
15738.01673222376
 20
-9859.210600029413
 30
0.0
 41
60.0
 42
60.0
 43
60.0
 50
180.0
  0
INSERT
  5
1A5A
  8
寸法線
 62
     0
  2
_OPEN30
 10
16058.01637536628
 20
-9859.210600029413
 30
0.0
 41
60.0
 42
60.0
 43
60.0
  0
TEXT
  5
1A5B
  8
寸法線
  6
CONTINUOUS
 62
     0
 10
15823.01655379502
 20
-9825.210600029413
 30
0.0
 40
60.0
  1
320
  0
POINT
  5
1A5C
  8
DEFPOINTS
 62
     0
 10
15738.01673222376
 20
-10100.52336574189
 30
0.0
  0
POINT
  5
1A5D
  8
DEFPOINTS
 62
     0
 10
16058.01637536628
 20
-10100.52211210028
 30
0.0
  0
POINT
  5
1A5E
  8
DEFPOINTS
 62
     0
 10
16058.01637536628
 20
-9859.210600029413
 30
0.0
  0
ENDBLK
  8
0
  0
BLOCK
  8
0
  2
*D21
 70
     1
 10
0.0
 20
0.0
 30
0.0
  0
LINE
  5
1BBF
  8
寸法線
 62
     0
 10
12337.40773182019
 20
-13937.04013277169
 30
0.0
 11
12531.94563765529
 21
-13937.04013277169
 31
0.0
  0
LINE
  5
1BC0
  8
寸法線
 62
     0
 10
12337.40773182019
 20
-14037.04013277169
 30
0.0
 11
12531.94563765529
 21
-14037.04013277169
 31
0.0
  0
LINE
  5
1BC1
  8
寸法線
 62
     0
 10
12471.94563765529
 20
-13877.04013277169
 30
0.0
 11
12471.94563765529
 21
-13817.04013277169
 31
0.0
  0
LINE
  5
1BC2
  8
寸法線
 62
     0
 10
12471.94563765529
 20
-14097.04013277169
 30
0.0
 11
12471.94563765529
 21
-14345.04013277169
 31
0.0
  0
LINE
  5
1BC3
  8
寸法線
 62
     0
 10
12471.94563765529
 20
-13937.04013277169
 30
0.0
 11
12471.94563765529
 21
-14037.04013277169
 31
0.0
  0
INSERT
  5
1BC4
  8
寸法線
 62
     0
  2
_OPEN30
 10
12471.94563765529
 20
-13937.04013277169
 30
0.0
 41
60.0
 42
60.0
 43
60.0
 50
270.0
  0
INSERT
  5
1BC5
  8
寸法線
 62
     0
  2
_OPEN30
 10
12471.94563765529
 20
-14037.04013277169
 30
0.0
 41
60.0
 42
60.0
 43
60.0
 50
90.0
  0
TEXT
  5
1BC6
  8
寸法線
  6
CONTINUOUS
 62
     0
 10
12437.9456376553
 20
-14311.04013277168
 30
0.0
 40
60.0
  1
100
 50
90.0
  0
POINT
  5
1BC7
  8
DEFPOINTS
 62
     0
 10
12297.40773182019
 20
-13937.04013277169
 30
0.0
  0
POINT
  5
1BC8
  8
DEFPOINTS
 62
     0
 10
12297.40773182019
 20
-14037.04013277169
 30
0.0
  0
POINT
  5
1BC9
  8
DEFPOINTS
 62
     0
 10
12471.94563765529
 20
-14037.04013277169
 30
0.0
  0
ENDBLK
  8
0
  0
BLOCK
  8
0
  2
*D22
 70
     1
 10
0.0
 20
0.0
 30
0.0
  0
LINE
  5
1BCA
  8
寸法線
 62
     0
 10
12337.40773182019
 20
-13937.04013277169
 30
0.0
 11
12531.94563765529
 21
-13937.04013277169
 31
0.0
  0
LINE
  5
1BCB
  8
寸法線
 62
     0
 10
12337.40773182019
 20
-12087.04013277169
 30
0.0
 11
12531.9456376553
 21
-12087.04013277169
 31
0.0
  0
LINE
  5
1BCC
  8
寸法線
 62
     0
 10
12471.94563765529
 20
-13877.04013277169
 30
0.0
 11
12471.9456376553
 21
-12147.04013277169
 31
0.0
  0
INSERT
  5
1BCD
  8
寸法線
 62
     0
  2
_OPEN30
 10
12471.94563765529
 20
-13937.04013277169
 30
0.0
 41
60.0
 42
60.0
 43
60.0
 50
270.0
  0
INSERT
  5
1BCE
  8
寸法線
 62
     0
  2
_OPEN30
 10
12471.9456376553
 20
-12087.04013277169
 30
0.0
 41
60.0
 42
60.0
 43
60.0
 50
90.0
  0
TEXT
  5
1BCF
  8
寸法線
  6
CONTINUOUS
 62
     0
 10
12437.9456376553
 20
-13107.04013277168
 30
0.0
 40
60.0
  1
1850
 50
90.0
  0
POINT
  5
1BD0
  8
DEFPOINTS
 62
     0
 10
12297.40773182019
 20
-13937.04013277169
 30
0.0
  0
POINT
  5
1BD1
  8
DEFPOINTS
 62
     0
 10
12297.40773182019
 20
-12087.04013277169
 30
0.0
  0
POINT
  5
1BD2
  8
DEFPOINTS
 62
     0
 10
12471.9456376553
 20
-12087.04013277169
 30
0.0
  0
ENDBLK
  8
0
  0
BLOCK
  8
0
  2
*D25
 70
     1
 10
0.0
 20
0.0
 30
0.0
  0
LINE
  5
1EBF
  8
寸法線
 62
     0
 10
11955.51273746947
 20
-13907.0401327713
 30
0.0
 11
11857.38852706797
 21
-13907.0401327713
 31
0.0
  0
LINE
  5
1EC0
  8
寸法線
 62
     0
 10
11958.56383637242
 20
-14037.04041856527
 30
0.0
 11
11857.38852706797
 21
-14037.04041856527
 31
0.0
  0
LINE
  5
1EC1
  8
寸法線
 62
     0
 10
11917.38852706797
 20
-13847.0401327713
 30
0.0
 11
11917.38852706797
 21
-13787.0401327713
 31
0.0
  0
LINE
  5
1EC2
  8
寸法線
 62
     0
 10
11917.38852706797
 20
-14097.04041856527
 30
0.0
 11
11917.38852706797
 21
-14355.04041856527
 31
0.0
  0
LINE
  5
1EC3
  8
寸法線
 62
     0
 10
11917.38852706797
 20
-13907.0401327713
 30
0.0
 11
11917.38852706797
 21
-14037.04041856527
 31
0.0
  0
INSERT
  5
1EC4
  8
寸法線
 62
     0
  2
_OPEN30
 10
11917.38852706797
 20
-13907.0401327713
 30
0.0
 41
60.0
 42
60.0
 43
60.0
 50
270.0
  0
INSERT
  5
1EC5
  8
寸法線
 62
     0
  2
_OPEN30
 10
11917.38852706797
 20
-14037.04041856527
 30
0.0
 41
60.0
 42
60.0
 43
60.0
 50
90.0
  0
TEXT
  5
1EC6
  8
寸法線
  6
CONTINUOUS
 62
     0
 10
11883.38852706797
 20
-14321.04041856527
 30
0.0
 40
60.0
  1
130
 50
90.0
  0
POINT
  5
1EC7
  8
DEFPOINTS
 62
     0
 10
11995.51273746947
 20
-13907.0401327713
 30
0.0
  0
POINT
  5
1EC8
  8
DEFPOINTS
 62
     0
 10
11998.56383637242
 20
-14037.04041856527
 30
0.0
  0
POINT
  5
1EC9
  8
DEFPOINTS
 62
     0
 10
11917.38852706797
 20
-14037.04041856527
 30
0.0
  0
ENDBLK
  8
0
  0
BLOCK
  8
0
  2
A$C5E662D67
 70
     0
 10
0.0
 20
0.0
 30
0.0
  0
POLYLINE
  5
1FF8
  8
LY_1
  6
CONTINUOUS
 62
     3
 66
     1
 10
0.0
 20
0.0
 30
0.0
  0
VERTEX
  5
2163
  8
LY_1
  6
CONTINUOUS
 62
     3
 10
45.85660195580203
 20
-118.3076016896084
 30
0.0
  0
VERTEX
  5
2164
  8
LY_1
  6
CONTINUOUS
 62
     3
 10
45.85433643635406
 20
-118.3038878649459
 30
0.0
  0
VERTEX
  5
2165
  8
LY_1
  6
CONTINUOUS
 62
     3
 10
45.85159062396633
 20
-118.3005310622466
 30
0.0
  0
VERTEX
  5
2166
  8
LY_1
  6
CONTINUOUS
 62
     3
 10
45.848417705467
 20
-118.2975924465572
 30
0.0
  0
VERTEX
  5
2167
  8
LY_1
  6
CONTINUOUS
 62
     3
 10
45.84487550150152
 20
-118.2951299382621
 30
0.0
  0
VERTEX
  5
2168
  8
LY_1
  6
CONTINUOUS
 62
     3
 10
45.84103312708976
 20
-118.2931892332708
 30
0.0
  0
VERTEX
  5
2169
  8
LY_1
  6
CONTINUOUS
 62
     3
 10
45.83696143369525
 20
-118.291806179448
 30
0.0
  0
VERTEX
  5
216A
  8
LY_1
  6
CONTINUOUS
 62
     3
 10
45.83273874448423
 20
-118.2910088032222
 30
0.0
  0
VERTEX
  5
216B
  8
LY_1
  6
CONTINUOUS
 62
     3
 10
45.82844401772672
 20
-118.290810011662
 30
0.0
  0
VERTEX
  5
216C
  8
LY_1
  6
CONTINUOUS
 62
     3
 10
45.82415957049307
 20
-118.2912151806304
 30
0.0
  0
VERTEX
  5
216D
  8
LY_1
  6
CONTINUOUS
 62
     3
 10
45.81996505323696
 20
-118.2922160152812
 30
0.0
  0
VERTEX
  5
216E
  8
LY_1
  6
CONTINUOUS
 62
     3
 10
45.81594086809127
 20
-118.2937941990167
 30
0.0
  0
VERTEX
  5
216F
  8
LY_1
  6
CONTINUOUS
 62
     3
 10
45.81216243366725
 20
-118.2959193668357
 30
0.0
  0
VERTEX
  5
2170
  8
LY_1
  6
CONTINUOUS
 62
     3
 10
45.80870198100092
 20
-118.2985504374155
 30
0.0
  0
VERTEX
  5
2171
  8
LY_1
  6
CONTINUOUS
 62
     3
 10
45.80562374613146
 20
-118.3016398425461
 30
0.0
  0
VERTEX
  5
2172
  8
LY_1
  6
CONTINUOUS
 62
     3
 10
45.80298715518802
 20
-118.3051269807984
 30
0.0
  0
VERTEX
  5
2173
  8
LY_1
  6
CONTINUOUS
 62
     3
 10
45.80084132237607
 20
-118.3089463861979
 30
0.0
  0
VERTEX
  5
2174
  8
LY_1
  6
CONTINUOUS
 62
     3
 10
45.7992271932344
 20
-118.313027090684
 30
0.0
  0
VERTEX
  5
2175
  8
LY_1
  6
CONTINUOUS
 62
     3
 10
45.79817574863046
 20
-118.3172912920418
 30
0.0
  0
VERTEX
  5
2176
  8
LY_1
  6
CONTINUOUS
 62
     3
 10
45.79817574863046
 20
-118.3172912920418
 30
0.0
  0
SEQEND
  5
21BB
  8
LY_1
  6
CONTINUOUS
 62
     3
  0
POLYLINE
  5
1FF9
  8
LY_1
  6
CONTINUOUS
 62
     3
 66
     1
 10
0.0
 20
0.0
 30
0.0
  0
VERTEX
  5
2177
  8
LY_1
  6
CONTINUOUS
 62
     3
 10
49.17482658598965
 20
-120.9216496114022
 30
0.0
  0
VERTEX
  5
2178
  8
LY_1
  6
CONTINUOUS
 62
     3
 10
49.17725242481902
 20
-120.925588697457
 30
0.0
  0
VERTEX
  5
2179
  8
LY_1
  6
CONTINUOUS
 62
     3
 10
49.18021838951609
 20
-120.9291193706813
 30
0.0
  0
VERTEX
  5
217A
  8
LY_1
  6
CONTINUOUS
 62
     3
 10
49.18366057453022
 20
-120.9321663909141
 30
0.0
  0
VERTEX
  5
217B
  8
LY_1
  6
CONTINUOUS
 62
     3
 10
49.18750395360621
 20
-120.9346657576971
 30
0.0
  0
VERTEX
  5
217C
  8
LY_1
  6
CONTINUOUS
 62
     3
 10
49.19166863595092
 20
-120.9365637824449
 30
0.0
  0
VERTEX
  5
217D
  8
LY_1
  6
CONTINUOUS
 62
     3
 10
49.19606442121221
 20
-120.9378191747746
 30
0.0
  0
VERTEX
  5
217E
  8
LY_1
  6
CONTINUOUS
 62
     3
 10
49.20059653472345
 20
-120.9384050690787
 30
0.0
  0
VERTEX
  5
217F
  8
LY_1
  6
CONTINUOUS
 62
     3
 10
49.20516956669235
 20
-120.9383097191749
 30
0.0
  0
VERTEX
  5
2180
  8
LY_1
  6
CONTINUOUS
 62
     3
 10
49.20968469145373
 20
-120.9375349925176
 30
0.0
  0
VERTEX
  5
2181
  8
LY_1
  6
CONTINUOUS
 62
     3
 10
49.21404673476718
 20
-120.9360966009917
 30
0.0
  0
VERTEX
  5
2182
  8
LY_1
  6
CONTINUOUS
 62
     3
 10
49.21815971361139
 20
-120.9340263606719
 30
0.0
  0
VERTEX
  5
2183
  8
LY_1
  6
CONTINUOUS
 62
     3
 10
49.2219387110199
 20
-120.9313681931453
 30
0.0
  0
VERTEX
  5
2184
  8
LY_1
  6
CONTINUOUS
 62
     3
 10
49.22530066545369
 20
-120.9281785322892
 30
0.0
  0
VERTEX
  5
2185
  8
LY_1
  6
CONTINUOUS
 62
     3
 10
49.22817456622215
 20
-120.9245260911339
 30
0.0
  0
VERTEX
  5
2186
  8
LY_1
  6
CONTINUOUS
 62
     3
 10
49.23049901995182
 20
-120.9204883864804
 30
0.0
  0
VERTEX
  5
2187
  8
LY_1
  6
CONTINUOUS
 62
     3
 10
49.23222323545269
 20
-120.9161519125773
 30
0.0
  0
VERTEX
  5
2188
  8
LY_1
  6
CONTINUOUS
 62
     3
 10
49.23280796539984
 20
-120.9140738798815
 30
0.0
  0
VERTEX
  5
2189
  8
LY_1
  6
CONTINUOUS
 62
     3
 10
49.2332527931685
 20
-120.9119600089689
 30
0.0
  0
SEQEND
  5
21BC
  8
LY_1
  6
CONTINUOUS
 62
     3
  0
POLYLINE
  5
1FFA
  8
LY_1
  6
CONTINUOUS
 62
     3
 66
     1
 10
0.0
 20
0.0
 30
0.0
  0
VERTEX
  5
218A
  8
LY_1
  6
CONTINUOUS
 62
     3
 10
51.03965846449501
 20
-96.84630975940672
 30
0.0
  0
VERTEX
  5
218B
  8
LY_1
  6
CONTINUOUS
 62
     3
 10
51.03761102738281
 20
-96.84246481230366
 30
0.0
  0
VERTEX
  5
218C
  8
LY_1
  6
CONTINUOUS
 62
     3
 10
51.03506336563078
 20
-96.83894595613674
 30
0.0
  0
VERTEX
  5
218D
  8
LY_1
  6
CONTINUOUS
 62
     3
 10
51.03206530727402
 20
-96.83582188714354
 30
0.0
  0
VERTEX
  5
218E
  8
LY_1
  6
CONTINUOUS
 62
     3
 10
51.02867189219614
 20
-96.83314901994163
 30
0.0
  0
VERTEX
  5
218F
  8
LY_1
  6
CONTINUOUS
 62
     3
 10
51.02494789177945
 20
-96.83098040796904
 30
0.0
  0
VERTEX
  5
2190
  8
LY_1
  6
CONTINUOUS
 62
     3
 10
51.02096328926928
 20
-96.82935682310199
 30
0.0
  0
VERTEX
  5
2191
  8
LY_1
  6
CONTINUOUS
 62
     3
 10
51.0167942645603
 20
-96.8283069293102
 30
0.0
  0
VERTEX
  5
2192
  8
LY_1
  6
CONTINUOUS
 62
     3
 10
51.01251821308324
 20
-96.82785249692097
 30
0.0
  0
VERTEX
  5
2193
  8
LY_1
  6
CONTINUOUS
 62
     3
 10
51.00821907423597
 20
-96.82800121870969
 30
0.0
  0
VERTEX
  5
2194
  8
LY_1
  6
CONTINUOUS
 62
     3
 10
51.00397528293615
 20
-96.82875169347972
 30
0.0
  0
VERTEX
  5
2195
  8
LY_1
  6
CONTINUOUS
 62
     3
 10
50.99986787882153
 20
-96.83008774790505
 30
0.0
  0
VERTEX
  5
2196
  8
LY_1
  6
CONTINUOUS
 62
     3
 10
50.9959753514886
 20
-96.8319846356244
 30
0.0
  0
VERTEX
  5
2197
  8
LY_1
  6
CONTINUOUS
 62
     3
 10
50.99237085972345
 20
-96.8344075314235
 30
0.0
  0
VERTEX
  5
2198
  8
LY_1
  6
CONTINUOUS
 62
     3
 10
50.98912257876145
 20
-96.83730956171348
 30
0.0
  0
SEQEND
  5
21BD
  8
LY_1
  6
CONTINUOUS
 62
     3
  0
ARC
  5
1FFB
  8
LY_1
  6
CONTINUOUS
 62
     3
 10
115.482371442773
 20
-2.463935084650075
 30
0.0
 40
1.5
 50
170.0001820001404
 51
212.024557000039
  0
ARC
  5
1FFC
  8
LY_1
  6
CONTINUOUS
 62
     3
 10
112.5149967559955
 20
-4.319915389025482
 30
0.0
 40
2.0
 50
349.9999819999029
 51
32.02444199983187
  0
ARC
  5
1FFD
  8
LY_1
  6
CONTINUOUS
 62
     3
 10
48.85025240017785
 20
-122.1989286338976
 30
0.0
 40
0.8565649999999999
 50
207.5240970001206
 51
349.9999819999029
  0
ARC
  5
1FFE
  8
LY_1
  6
CONTINUOUS
 62
     3
 10
44.37981172975196
 20
-121.4068421851407
 30
0.0
 40
0.8603290000000001
 50
170.0000180001587
 51
349.9999819999029
  0
ARC
  5
1FFF
  8
LY_1
  6
CONTINUOUS
 62
     3
 10
45.40900082198277
 20
-115.5489321798541
 30
0.0
 40
0.856713
 50
27.52411200027721
 51
170.0000010001095
  0
ARC
  5
2000
  8
LY_1
  6
CONTINUOUS
 62
     3
 10
49.80283041397706
 20
-116.6674210405035
 30
0.0
 40
0.878975
 50
349.9999819999029
 51
259.9999830001279
  0
ARC
  5
2001
  8
LY_1
  6
CONTINUOUS
 62
     3
 10
50.33931401530936
 20
-113.7308442401754
 30
0.0
 40
0.8602920000000001
 50
170.0000180001587
 51
349.9999819999029
  0
ARC
  5
2002
  8
LY_1
  6
CONTINUOUS
 62
     3
 10
46.37879982716913
 20
-110.1773089834787
 30
0.0
 40
0.879
 50
80.00003600014927
 51
259.9999830001279
  0
ARC
  5
2003
  8
LY_1
  6
CONTINUOUS
 62
     3
 10
51.34419731395246
 20
-107.9244898233537
 30
0.0
 40
0.878926
 50
349.9999819999029
 51
259.9999830001279
  0
ARC
  5
2004
  8
LY_1
  6
CONTINUOUS
 62
     3
 10
47.43750897659993
 20
-104.173071032028
 30
0.0
 40
0.878991
 50
80.00003600014927
 51
259.9999830001279
  0
ARC
  5
2005
  8
LY_1
  6
CONTINUOUS
 62
     3
 10
51.86816693585934
 20
-104.9543155725369
 30
0.0
 40
0.878991
 50
259.9999999999448
 51
80.00001899991285
  0
ARC
  5
2006
  8
LY_1
  6
CONTINUOUS
 62
     3
 10
52.22180420827863
 20
-102.0069265788861
 30
0.0
 40
1.042553
 50
350.7789510001888
 51
24.25906300004173
  0
ARC
  5
2007
  8
LY_1
  6
CONTINUOUS
 62
     3
 10
52.40615912058638
 20
-102.0119934506183
 30
0.0
 40
0.860117
 50
113.574514000003
 51
349.1432030001883
  0
ARC
  5
2008
  8
LY_1
  6
CONTINUOUS
 62
     3
 10
47.93929448542985
 20
-101.2082356599622
 30
0.0
 40
0.866237
 50
135.7409370000307
 51
315.7409549998359
  0
ARC
  5
2009
  8
LY_1
  6
CONTINUOUS
 62
     3
 10
48.95821662364688
 20
-95.54826597505598
 30
0.0
 40
0.878936
 50
79.99996400015087
 51
259.9999830001279
  0
ARC
  5
200A
  8
LY_1
  6
CONTINUOUS
 62
     3
 10
53.38901048637854
 20
-96.32953447901309
 30
0.0
 40
0.878936
 50
259.9999999999448
 51
80.00001899991285
  0
CIRCLE
  5
200B
  8
LY_1
  6
CONTINUOUS
 62
     3
 10
62.09242099561015
 20
-34.015266097309
 30
0.0
 40
6.9175
  0
CIRCLE
  5
200C
  8
LY_1
  6
CONTINUOUS
 62
   110
 10
62.09242099561015
 20
-34.015266097309
 30
0.0
 40
8.0
  0
CIRCLE
  5
200D
  8
LY_1
  6
CONTINUOUS
 62
     3
 10
62.09242099561015
 20
-34.015266097309
 30
0.0
 40
11.5
  0
ARC
  5
200E
  8
LY_1
  6
CONTINUOUS
 62
     3
 10
23.17306751839715
 20
-225.1609233252675
 30
0.0
 40
5.0
 50
171.5801960000564
 51
259.9999430000316
  0
ARC
  5
200F
  8
LY_1
  6
CONTINUOUS
 62
     3
 10
33.28898518271671
 20
-226.9446325441131
 30
0.0
 40
5.0
 50
260.0000730002105
 51
348.419803999964
  0
ARC
  5
2010
  8
LY_1
  6
CONTINUOUS
 62
     3
 10
33.28898518271671
 20
-226.9446325441131
 30
0.0
 40
3.0
 50
260.0001219999203
 51
348.419803999964
  0
ARC
  5
2011
  8
LY_1
  6
CONTINUOUS
 62
     3
 10
23.17306751839715
 20
-225.1609233252675
 30
0.0
 40
3.0
 50
171.5801960000564
 51
259.9999050000864
  0
ARC
  5
2012
  8
LY_1
  6
CONTINUOUS
 62
     3
 10
114.3090493481104
 20
-105.5387437932131
 30
0.0
 40
52.0
 50
157.015337000058
 51
168.4198400001126
  0
ARC
  5
2013
  8
LY_1
  6
CONTINUOUS
 62
     3
 10
114.3090493481104
 20
-105.5387437932131
 30
0.0
 40
50.0
 50
157.015337000058
 51
168.4198400001126
  0
ARC
  5
2014
  8
LY_1
  6
CONTINUOUS
 62
     3
 10
71.38948608938881
 20
-51.90141530491746
 30
0.0
 40
4.0
 50
260.0000189999129
 51
337.1957269998744
  0
ARC
  5
2015
  8
LY_1
  6
CONTINUOUS
 62
     3
 10
47.23861421647962
 20
-47.6429649860911
 30
0.0
 40
4.0
 50
182.8042730001485
 51
259.9999809999767
  0
ARC
  5
2016
  8
LY_1
  6
CONTINUOUS
 62
     3
 10
-11.43767375861717
 20
-83.3662037738195
 30
0.0
 40
52.0
 50
351.5801599999315
 51
2.984662999943564
  0
ARC
  5
2017
  8
LY_1
  6
CONTINUOUS
 62
     3
 10
-11.43767375861717
 20
-83.3662037738195
 30
0.0
 40
50.0
 50
351.5801599999315
 51
2.984662999943564
  0
ARC
  5
2018
  8
LY_1
  6
CONTINUOUS
 62
     3
 10
62.09242099561015
 20
-34.015266097309
 30
0.0
 40
24.0
 50
337.0153010002013
 51
182.9846819999272
  0
ARC
  5
2019
  8
LY_1
  6
CONTINUOUS
 62
     3
 10
62.09242099561015
 20
-34.015266097309
 30
0.0
 40
26.0
 50
336.9581460001821
 51
182.9846819999272
  0
LINE
  5
201A
  8
LY_1
  6
CONTINUOUS
 62
     3
 10
37.50938763523664
 20
-94.16020390296035
 30
0.0
 11
6.158522267538501
 21
-88.6322004700778
 31
0.0
  0
LINE
  5
201B
  8
LY_1
  6
CONTINUOUS
 62
     3
 10
37.87278712998159
 20
-68.83861574151524
 30
0.0
 11
10.49972670921488
 21
-64.01200664477074
 31
0.0
  0
LINE
  5
201C
  8
LY_1
  6
CONTINUOUS
 62
     3
 10
36.34986756916987
 20
-39.63042549476086
 30
0.0
 11
14.5623787038603
 21
-35.78870336592081
 31
0.0
  0
LINE
  5
201D
  8
LY_1
  6
CONTINUOUS
 62
     3
 10
73.11908027744721
 20
28.52002621896827
 30
0.0
 11
69.03834810227636
 21
5.377044023181952
 31
0.0
  0
LINE
  5
201E
  8
LY_1
  6
CONTINUOUS
 62
     3
 10
105.5298587766265
 20
22.80513150379556
 30
0.0
 11
101.4491266014556
 21
-0.3378506919907522
 31
0.0
  0
LINE
  5
201F
  8
LY_1
  6
CONTINUOUS
 62
     3
 10
118.0263197236527
 20
20.60166827547073
 30
0.0
 11
114.0051598132522
 21
-2.203462818142725
 31
0.0
  0
LINE
  5
2020
  8
LY_1
  6
CONTINUOUS
 62
     3
 10
40.70830177826792
 20
34.23492093414097
 30
0.0
 11
36.62756960309707
 21
11.09193873835466
 31
0.0
  0
LINE
  5
2021
  8
LY_1
  6
CONTINUOUS
 62
     3
 10
28.21184083124172
 20
36.43838416247308
 30
0.0
 11
24.19068092084854
 21
13.63325306885963
 31
0.0
  0
LINE
  5
2022
  8
LY_1
  6
CONTINUOUS
 62
     3
 10
118.0263197236527
 20
20.60166827547073
 30
0.0
 11
28.21184083124172
 21
36.43838416247308
 31
0.0
  0
LINE
  5
2023
  8
LY_1
  6
CONTINUOUS
 62
     3
 10
112.8622931113168
 20
-2.350299882993568
 30
0.0
 11
25.21440309322861
 21
13.10438792936475
 31
0.0
  0
LINE
  5
2024
  8
LY_1
  6
CONTINUOUS
 62
     3
 10
87.81774465459966
 20
-77.64525930344826
 30
0.0
 11
83.47654021292328
 21
-102.2654531287553
 31
0.0
  0
LINE
  5
2025
  8
LY_1
  6
CONTINUOUS
 62
     3
 10
103.0282479559355
 20
-64.45662347010511
 30
0.0
 11
95.97300115994949
 21
-104.4689163570802
 31
0.0
  0
LINE
  5
2026
  8
LY_1
  6
CONTINUOUS
 62
     3
 10
106.1495244611397
 20
-51.93792427712469
 30
0.0
 11
103.0282610486502
 21
-64.45662984040973
 31
0.0
  0
LINE
  5
2027
  8
LY_1
  6
CONTINUOUS
 62
     3
 10
114.4846122620111
 20
-4.667211744352244
 30
0.0
 11
106.149511021129
 21
-51.93791987643635
 31
0.0
  0
LINE
  5
2028
  8
LY_1
  6
CONTINUOUS
 62
     3
 10
22.99618765624109
 20
-66.21546987310285
 30
0.0
 11
18.65498321457198
 21
-90.83566369840992
 31
0.0
  0
LINE
  5
2029
  8
LY_1
  6
CONTINUOUS
 62
     3
 10
100.3142056016259
 20
-79.84872253177309
 30
0.0
 11
72.9413707018357
 21
-75.02215320046525
 31
0.0
  0
LINE
  5
202A
  8
LY_1
  6
CONTINUOUS
 62
     3
 10
13.2137690635318
 20
-48.61990758310276
 30
0.0
 11
6.158522267538501
 21
-88.6322004700778
 31
0.0
  0
LINE
  5
202B
  8
LY_1
  6
CONTINUOUS
 62
     3
 10
14.56239920155713
 20
-35.78863894662936
 30
0.0
 11
13.21377810044578
 21
-48.61990816113394
 31
0.0
  0
LINE
  5
202C
  8
LY_1
  6
CONTINUOUS
 62
     3
 10
106.1494997339942
 20
-51.93798388894356
 30
0.0
 11
84.36222063273817
 21
-48.09629874716484
 31
0.0
  0
LINE
  5
202D
  8
LY_1
  6
CONTINUOUS
 62
     3
 10
22.89749123186994
 20
11.48206877867051
 30
0.0
 11
14.56238999098787
 21
-35.7886393534136
 31
0.0
  0
LINE
  5
202E
  8
LY_1
  6
CONTINUOUS
 62
     3
 10
95.97300115994949
 20
-104.4689163570802
 30
0.0
 11
64.62210526322087
 21
-98.94090754110948
 31
0.0
  0
LINE
  5
202F
  8
LY_1
  6
CONTINUOUS
 62
     3
 10
113.7900195513394
 20
-8.606442756405158
 30
0.0
 11
22.2028985212055
 21
7.542837766617595
 31
0.0
  0
LINE
  5
2030
  8
LY_1
  6
CONTINUOUS
 62
     3
 10
49.82365017225311
 20
-117.5636500866167
 30
0.0
 11
49.65019401310201
 21
-117.5330650857868
 31
0.0
  0
LINE
  5
2031
  8
LY_1
  6
CONTINUOUS
 62
     3
 10
51.36499974044636
 20
-108.8206386409729
 30
0.0
 11
51.19157411033302
 21
-108.7900590232384
 31
0.0
  0
LINE
  5
2032
  8
LY_1
  6
CONTINUOUS
 62
     3
 10
51.36499974044636
 20
-108.8206386409729
 30
0.0
 11
51.13527674595025
 21
-110.1234624832068
 31
0.0
  0
LINE
  5
2033
  8
LY_1
  6
CONTINUOUS
 62
     3
 10
49.82771996644806
 20
-111.6780198507331
 30
0.0
 11
49.49209276865804
 21
-113.5814562757587
 31
0.0
  0
LINE
  5
2034
  8
LY_1
  6
CONTINUOUS
 62
     3
 10
49.82771996644806
 20
-111.6780198507331
 30
0.0
 11
46.22616082156674
 21
-111.0429678008659
 31
0.0
  0
LINE
  5
2035
  8
LY_1
  6
CONTINUOUS
 62
     3
 10
51.13527674595025
 20
-110.1234624832068
 30
0.0
 11
46.53143344966156
 21
-109.3116806951148
 31
0.0
  0
LINE
  5
2036
  8
LY_1
  6
CONTINUOUS
 62
     3
 10
52.20976552902357
 20
-108.0771128533161
 30
0.0
 11
51.18651950502317
 21
-113.8802294262132
 31
0.0
  0
LINE
  5
2037
  8
LY_1
  6
CONTINUOUS
 62
     3
 10
49.82365017225311
 20
-117.5636500866167
 30
0.0
 11
49.2332527931685
 21
-120.9119600089689
 31
0.0
  0
LINE
  5
2038
  8
LY_1
  6
CONTINUOUS
 62
     3
 10
44.56534064017251
 20
-115.4001721272434
 30
0.0
 11
43.53254796030888
 21
-121.2574304759837
 31
0.0
  0
LINE
  5
2039
  8
LY_1
  6
CONTINUOUS
 62
     3
 10
45.22704954206347
 20
-121.5562168237011
 30
0.0
 11
45.79815999170023
 21
-118.3172885136664
 31
0.0
  0
LINE
  5
203A
  8
LY_1
  6
CONTINUOUS
 62
     3
 10
48.09061727104927
 20
-122.5947436982533
 30
0.0
 11
45.85651678404611
 21
-118.3074800517352
 31
0.0
  0
LINE
  5
203B
  8
LY_1
  6
CONTINUOUS
 62
     3
 10
49.17480764391439
 20
-120.9216533793806
 30
0.0
 11
46.16876054099339
 21
-115.1530152020059
 31
0.0
  0
LINE
  5
203C
  8
LY_1
  6
CONTINUOUS
 62
     3
 10
50.66847445925305
 20
-116.8200574413713
 30
0.0
 11
49.69380720754634
 21
-122.3476701061372
 31
0.0
  0
LINE
  5
203D
  8
LY_1
  6
CONTINUOUS
 62
     3
 10
47.59014537746771
 20
-103.3074269867357
 30
0.0
 11
52.02080333672711
 21
-104.08867152725
 31
0.0
  0
LINE
  5
203E
  8
LY_1
  6
CONTINUOUS
 62
     3
 10
51.71553053498428
 20
-105.8199596178165
 30
0.0
 11
47.2848725757176
 21
-105.0387150773022
 31
0.0
  0
LINE
  5
203F
  8
LY_1
  6
CONTINUOUS
 62
     3
 10
51.13613788301518
 20
-99.16886405308469
 30
0.0
 11
52.06214651051778
 21
-101.2236597271476
 31
0.0
  0
LINE
  5
2040
  8
LY_1
  6
CONTINUOUS
 62
     3
 10
51.13609767714297
 20
-99.16883868602599
 30
0.0
 11
48.55966037116377
 21
-101.8127906136797
 31
0.0
  0
LINE
  5
2041
  8
LY_1
  6
CONTINUOUS
 62
     3
 10
51.03960458065922
 20
-96.84623527093208
 30
0.0
 11
53.1722658756953
 21
-101.5785718444531
 31
0.0
  0
LINE
  5
2042
  8
LY_1
  6
CONTINUOUS
 62
     3
 10
50.98905121354983
 20
-96.83732845633494
 30
0.0
 11
47.31887003455995
 21
-100.6036845956041
 31
0.0
  0
LINE
  5
2043
  8
LY_1
  6
CONTINUOUS
 62
     3
 10
53.23638207331896
 20
-97.19513322313287
 30
0.0
 11
48.8055882105873
 21
-96.4138647191794
 31
0.0
  0
LINE
  5
2044
  8
LY_1
  6
CONTINUOUS
 62
     3
 10
53.54163629471077
 20
-95.46395050699357
 30
0.0
 11
49.11084243197183
 21
-94.6826820030401
 31
0.0
  0
LINE
  5
2045
  8
LY_1
  6
CONTINUOUS
 62
     3
 10
75.11316358542172
 20
-29.27611902709759
 30
0.0
 11
64.49853434932083
 21
-20.36938672667748
 31
0.0
  0
LINE
  5
2046
  8
LY_1
  6
CONTINUOUS
 62
     3
 10
72.70704212251076
 20
-42.9220040758446
 30
0.0
 11
75.11318333625604
 21
-29.27609915488574
 31
0.0
  0
LINE
  5
2047
  8
LY_1
  6
CONTINUOUS
 62
     3
 10
59.68625968131892
 20
-47.66117559740087
 30
0.0
 11
72.70703111597322
 21
-42.92200315052469
 31
0.0
  0
LINE
  5
2048
  8
LY_1
  6
CONTINUOUS
 62
     3
 10
49.07164677775654
 20
-38.75441977575974
 30
0.0
 11
59.6862761875127
 21
-47.66115109137172
 31
0.0
  0
LINE
  5
2049
  8
LY_1
  6
CONTINUOUS
 62
     3
 10
51.47779847949641
 20
-25.10853599722032
 30
0.0
 11
49.07165743939913
 21
-38.75443993337103
 31
0.0
  0
LINE
  5
204A
  8
LY_1
  6
CONTINUOUS
 62
     3
 10
64.4985589719181
 20
-20.36940833055269
 30
0.0
 11
51.47778852207193
 21
-25.10858095108415
 31
0.0
  0
LINE
  5
204B
  8
LY_1
  6
CONTINUOUS
 62
     3
 10
32.76804064970565
 20
-229.8990558031437
 30
0.0
 11
22.65212298538609
 21
-228.1153465843017
 31
0.0
  0
LINE
  5
204C
  8
LY_1
  6
CONTINUOUS
 62
     3
 10
63.36754975939039
 20
-95.10035463577515
 30
0.0
 11
36.22794510727908
 21
-227.5468760107324
 31
0.0
  0
LINE
  5
204D
  8
LY_1
  6
CONTINUOUS
 62
     3
 10
65.32680941183571
 20
-95.50182676778786
 30
0.0
 11
38.18720493337241
 21
-227.948347157937
 31
0.0
  0
LINE
  5
204E
  8
LY_1
  6
CONTINUOUS
 62
     3
 10
84.1872436863232
 20
-43.38695277207444
 30
0.0
 11
66.43759451697042
 21
-85.2336062346003
 31
0.0
  0
LINE
  5
204F
  8
LY_1
  6
CONTINUOUS
 62
     3
 10
86.02846193213554
 20
-44.16792265246477
 30
0.0
 11
68.27881276277549
 21
-86.01457611499063
 31
0.0
  0
LINE
  5
2050
  8
LY_1
  6
CONTINUOUS
 62
     3
 10
77.217597197352
 20
-48.35962746237055
 30
0.0
 11
75.07664531041883
 21
-53.45168790870957
 31
0.0
  0
LINE
  5
2051
  8
LY_1
  6
CONTINUOUS
 62
     3
 10
77.21780232998208
 20
-48.35968495674751
 30
0.0
 11
81.73959833794288
 21
-49.15699959421181
 31
0.0
  0
LINE
  5
2052
  8
LY_1
  6
CONTINUOUS
 62
     3
 10
42.97326319181957
 20
-42.32145079561451
 30
0.0
 11
43.24351182658211
 21
-47.83866993439733
 31
0.0
  0
LINE
  5
2053
  8
LY_1
  6
CONTINUOUS
 62
     3
 10
70.6948933787171
 20
-55.84064631696674
 30
0.0
 11
46.54402150580063
 21
-51.58219599814038
 31
0.0
  0
LINE
  5
2054
  8
LY_1
  6
CONTINUOUS
 62
     3
 10
42.97313157487588
 20
-42.32142555714381
 30
0.0
 11
38.45133556691508
 21
-41.52411091967952
 31
0.0
  0
LINE
  5
2055
  8
LY_1
  6
CONTINUOUS
 62
     3
 10
38.12496841360917
 20
-35.26494303379877
 30
0.0
 11
40.49178190635212
 21
-80.65863404928677
 31
0.0
  0
LINE
  5
2056
  8
LY_1
  6
CONTINUOUS
 62
     3
 10
40.00186006493823
 20
-90.98033078039589
 30
0.0
 11
20.20536806392556
 21
-224.7216410381297
 31
0.0
  0
LINE
  5
2057
  8
LY_1
  6
CONTINUOUS
 62
     3
 10
36.12768079953457
 20
-35.36908076547843
 30
0.0
 11
38.49449527708566
 21
-80.76277195461444
 31
0.0
  0
LINE
  5
2058
  8
LY_1
  6
CONTINUOUS
 62
     3
 10
38.02341695332507
 20
-90.6874806885171
 30
0.0
 11
18.22692414115227
 21
-224.4287897877948
 31
0.0
  0
LINE
  5
2059
  8
LY_1
  6
CENTER
 62
   110
 10
73.98732116577958
 20
33.44406498403259
 30
0.0
 11
26.49454457387401
 21
-235.9008554648099
 31
0.0
  0
LINE
  5
205A
  8
LY_1
  6
CONTINUOUS
 62
     3
 10
63.37345666150577
 20
-90.08959567076818
 30
0.0
 11
41.71009099576986
 21
-86.26975981094438
 31
0.0
  0
LINE
  5
205B
  8
LY_1
  6
CONTINUOUS
 62
     3
 10
32.42074429437707
 20
-231.8686713091665
 30
0.0
 11
22.30482663005023
 21
-230.0849620903246
 31
0.0
  0
LINE
  5
205C
  8
LY_1
  6
CENTER
 62
   110
 10
114.8137187828761
 20
-43.3114533551643
 30
0.0
 11
9.371123208315112
 21
-24.71907883943823
 31
0.0
  0
INSERT
  5
205D
  8
0
  2
ALﾌｨｯﾃｨﾝｸﾞ平面図
 10
86.48998995781221
 20
104.350223200925
 30
0.0
 50
169.9999999999871
  0
LINE
  5
205E
  8
細線
 10
38.2713655521402
 20
55.48086408473682
 30
0.0
 11
115.0863702870956
 21
41.93630622671481
 31
0.0
  0
LINE
  5
205F
  8
細線
 10
35.14569835415386
 20
37.7543245305169
 30
0.0
 11
61.46312906500316
 21
33.11385143326697
 31
0.0
  0
LINE
  5
2060
  8
細線
 10
85.64327237824546
 20
28.8502397697448
 30
0.0
 11
111.9607030890947
 21
24.20976667249488
 31
0.0
  0
LINE
  5
2061
  8
細線
 10
115.0863702870956
 20
41.93630622671481
 30
0.0
 11
115.970922217999
 21
41.19407902774583
 31
0.0
  0
LINE
  5
2062
  8
細線
 10
111.9607030890947
 20
24.20976667249488
 30
0.0
 11
113.0457666642287
 21
24.60469751612982
 31
0.0
  0
LINE
  5
2063
  8
細線
 10
38.27136555214747
 20
55.48086408473682
 30
0.0
 11
37.1863019770135
 21
55.08593324110188
 31
0.0
  0
LINE
  5
2064
  8
細線
 10
35.14569835413931
 20
37.7543245305169
 30
0.0
 11
34.26114642325047
 21
38.49655172948587
 31
0.0
  0
LINE
  5
2065
  8
細線
 10
113.0457666642287
 20
24.60469751612982
 30
0.0
 11
115.970922217999
 21
41.19407902774583
 31
0.0
  0
LINE
  5
2066
  8
細線
 10
34.26114642325047
 20
38.49655172948587
 30
0.0
 11
37.1863019770135
 21
55.08593324110188
 31
0.0
  0
LINE
  5
2067
  8
細線
 10
90.30069755992372
 20
30.54738647617251
 30
0.0
 11
92.56502929154885
 21
43.38904985937643
 31
0.0
  0
LINE
  5
2068
  8
細線
 10
57.66703934968609
 20
36.30158089785618
 30
0.0
 11
59.93137108131123
 21
49.14324428105829
 31
0.0
  0
ARC
  5
2069
  8
細線
 10
83.37883009307916
 20
86.70595882212547
 30
0.0
 40
56.58354440262278
 50
242.9734048203734
 51
249.5384173569913
  0
ARC
  5
206A
  8
細線
 10
83.37883009307916
 20
86.70595882212547
 30
0.0
 40
56.58354440262278
 50
270.4615826431958
 51
277.0265951794988
  0
ARC
  5
206B
  8
細線
 10
106.4282519534427
 20
54.54309957443547
 30
0.0
 40
28.91180135878851
 50
236.0948937241425
 51
283.9051062762299
  0
ARC
  5
206C
  8
細線
 10
50.71911272784564
 20
64.3661238919558
 30
0.0
 40
28.91180135878851
 50
236.0948937241425
 51
283.9051062762299
  0
ARC
  5
206D
  8
細線
 10
66.85323854817761
 20
-7.015328064882851
 30
0.0
 40
56.58354440262278
 50
62.97340482037334
 51
97.02659517949876
  0
ARC
  5
206E
  8
細線
 10
99.51295591340386
 20
15.32450686528136
 30
0.0
 40
28.91180135878851
 50
56.09489372414245
 51
103.9051062762299
  0
ARC
  5
206F
  8
細線
 10
43.80381668779955
 20
25.14753118280714
 30
0.0
 40
28.91180135878851
 50
56.09489372414245
 51
103.9051062762299
  0
LINE
  5
2070
  8
細線
 10
115.0863702871102
 20
41.93630622670753
 30
0.0
 11
114.3905479442728
 21
42.05899847952787
 31
0.0
  0
ARC
  5
2071
  8
細線
 10
35.77206142589785
 20
37.23770917648835
 30
0.0
 40
0.4
 50
351.7899000000285
 51
79.9999999999448
  0
LINE
  5
2072
  8
細線
 10
37.32267394226437
 20
34.83189846826463
 30
0.0
 11
36.16796185516796
 21
37.18058781348009
 31
0.0
  0
LINE
  5
2073
  8
細線
 10
110.3720172793219
 20
21.95132831490264
 30
0.0
 11
101.2070186612
 21
23.56736484943576
 31
0.0
  0
LINE
  5
2074
  8
細線
 10
45.03114189370172
 20
33.47268758850078
 30
0.0
 11
35.86614327555799
 21
35.0887241230339
 31
0.0
  0
ARC
  5
2075
  8
細線
 10
111.1954214752004
 20
23.93853582411066
 30
0.0
 40
0.4
 50
79.9999999999448
 51
168.2101000000596
  0
LINE
  5
2076
  8
細線
 10
110.3720172793219
 20
21.95132831490264
 30
0.0
 11
110.8038601064873
 21
24.0202652223561
 31
0.0
  0
LINE
  5
2077
  8
細線
 10
35.86614327555799
 20
35.0887241230339
 30
0.0
 11
36.16796185516796
 21
37.18058781348009
 31
0.0
  0
LINE
  5
2078
  8
細線
 10
108.91548661263
 20
22.20815396966918
 30
0.0
 11
110.8038601064873
 21
24.0202652223561
 31
0.0
  0
ARC
  5
2079
  8
細線
 10
39.0366471660418
 20
55.75209493313014
 30
0.0
 40
0.4
 50
259.9999999999448
 51
348.2101000000596
  0
LINE
  5
207A
  8
細線
 10
41.31658202861217
 20
57.48247678755797
 30
0.0
 11
39.42820853474768
 21
55.6703655348756
 31
0.0
  0
LINE
  5
207B
  8
細線
 10
114.3659253656697
 20
44.6019066341978
 30
0.0
 11
39.86005136190579
 21
57.73930244232542
 31
0.0
  0
ARC
  5
207C
  8
細線
 10
114.4600072153444
 20
42.45292158074335
 30
0.0
 40
0.4
 50
171.7899000000285
 51
259.9999999999448
  0
LINE
  5
207D
  8
細線
 10
114.3659253656697
 20
44.6019066341978
 30
0.0
 11
114.064106786067
 21
42.51004294374798
 31
0.0
  0
LINE
  5
207E
  8
細線
 10
39.86005136190579
 20
57.73930244232542
 30
0.0
 11
39.42820853474768
 21
55.6703655348756
 31
0.0
  0
LINE
  5
207F
  8
細線
 10
112.9093946989706
 20
44.85873228896435
 30
0.0
 11
114.0641067860815
 21
42.51004294375616
 31
0.0
  0
POLYLINE
  5
2080
  8
0
  6
CENTER
 66
     1
 10
0.0
 20
0.0
 30
0.0
  0
VERTEX
  5
2199
  8
0
  6
CENTER
 10
51.29973822584361
 20
-95.22361167431154
 30
0.0
  0
VERTEX
  5
219A
  8
0
  6
CENTER
 10
91.49643888596984
 20
132.7432059880975
 30
0.0
  0
SEQEND
  5
21BE
  8
0
  6
CENTER
  0
LINE
  5
2081
  8
0
 10
45.03114189370172
 20
33.47268758850078
 30
0.0
 11
101.2070186612
 21
23.56736484943576
 31
0.0
  0
LINE
  5
2082
  8
0
 10
61.46312906500316
 20
33.11385143326697
 30
0.0
 11
85.64327237824546
 21
28.8502397697448
 31
0.0
  0
ENDBLK
  8
0
  0
BLOCK
  8
0
  2
*X30
 70
     1
 10
0.0
 20
0.0
 30
0.0
  0
TEXT
  5
20F2
  8
0
  6
CONTINUOUS
 10
16307.6714366877
 20
-13096.92697374401
 30
0.0
 40
33.59999999999999
  1
\U+2205
  0
TEXT
  5
20F3
  8
0
  6
CONTINUOUS
 10
16341.2714366877
 20
-13108.12697374401
 30
0.0
 40
48.0
  1
13×
  0
TEXT
  5
20F4
  8
0
  6
CONTINUOUS
 10
16461.2714366877
 20
-13096.92697374401
 30
0.0
 40
33.59999999999999
  1
\U+2205
  0
TEXT
  5
20F5
  8
0
  6
CONTINUOUS
 10
16494.8714366877
 20
-13108.12697374401
 30
0.0
 40
48.0
  1
9
  0
ENDBLK
  8
0
  0
BLOCK
  8
0
  2
*X31
 70
     1
 10
0.0
 20
0.0
 30
0.0
  0
INSERT
  5
20F7
  8
0
  2
_OPEN30
 10
12134.53190687837
 20
-11584.88965417558
 30
0.0
 41
59.99999999999999
 42
59.99999999999999
 43
60.0
 50
304.7455796471793
  0
LINE
  5
20F8
  8
0
 10
12100.33590461378
 20
-11535.58819954064
 30
0.0
 11
11744.17176915061
 21
-11022.09513589924
 31
0.0
  0
ENDBLK
  8
0
  0
BLOCK
  8
0
  2
*X32
 70
     1
 10
0.0
 20
0.0
 30
0.0
  0
INSERT
  5
20FA
  8
0
  2
_DOTSMALL
 10
12711.12759892431
 20
-11895.09271136323
 30
0.0
 41
59.99999999999999
 42
59.99999999999999
 43
60.0
 50
257.872452162708
  0
LINE
  5
20FB
  8
0
 10
12711.12759892431
 20
-11895.09271136323
 30
0.0
 11
12896.03952670111
 21
-11034.57445017617
 31
0.0
  0
ENDBLK
  8
0
  0
BLOCK
  8
0
  2
*X33
 70
     1
 10
0.0
 20
0.0
 30
0.0
  0
INSERT
  5
20FD
  8
0
  2
_OPEN30
 10
13238.90753027039
 20
-11560.54015017361
 30
0.0
 41
60.0
 42
60.0
 43
60.0
 50
262.8613388945226
  0
LINE
  5
20FE
  8
0
 10
13246.36379255071
 20
-11501.00525156105
 30
0.0
 11
13304.63451872116
 21
-11035.7397278694
 31
0.0
  0
ENDBLK
  8
0
  0
BLOCK
  8
0
  2
*X34
 70
     1
 10
0.0
 20
0.0
 30
0.0
  0
INSERT
  5
2100
  8
0
  2
_OPEN30
 10
12290.40773182019
 20
-13922.04013277169
 30
0.0
 41
59.99999999999999
 42
59.99999999999999
 43
60.0
 50
284.0835223463343
  0
LINE
  5
2101
  8
0
 10
12275.80756720665
 20
-13863.84361059675
 30
0.0
 11
12081.57661489876
 21
-13089.6354956716
 31
0.0
  0
ENDBLK
  8
0
  0
BLOCK
  8
0
  2
*X35
 70
     1
 10
0.0
 20
0.0
 30
0.0
  0
INSERT
  5
2103
  8
0
  2
_OPEN30
 10
12290.40773182019
 20
-12102.04013277169
 30
0.0
 41
60.0
 42
60.0
 43
60.0
 50
75.9164776536657
  0
LINE
  5
2104
  8
0
 10
12275.80756720665
 20
-12160.23665494662
 30
0.0
 11
12081.57661489876
 21
-12934.44476987177
 31
0.0
  0
ENDBLK
  8
0
  0
BLOCK
  8
0
  2
*X36
 70
     1
 10
0.0
 20
0.0
 30
0.0
  0
TEXT
  5
2106
  8
0
  6
CONTINUOUS
 10
12393.0269689516
 20
-10397.90418163188
 30
0.0
 40
45.0
  1
融着フランジ（ＰＥ）は、ＪＩＳ１０
  0
TEXT
  5
2107
  8
0
  6
CONTINUOUS
 10
13030.5269689516
 20
-10370.15418163188
 30
0.0
 40
31.5
  1
Ｋ
  0
TEXT
  5
2108
  8
0
  6
CONTINUOUS
 10
13056.7769689516
 20
-10397.90418163188
 30
0.0
 40
45.0
  1
相当とする。
  0
ENDBLK
  8
0
  0
BLOCK
  8
0
  2
*X37
 70
     1
 10
0.0
 20
0.0
 30
0.0
  0
INSERT
  5
210A
  8
0
  2
_OPEN30
 10
15898.01628382088
 20
-11976.87943382388
 30
0.0
 41
59.99999999999999
 42
59.99999999999999
 43
60.0
 50
132.5458169772901
  0
LINE
  5
210B
  8
0
 10
15938.58705745757
 20
-12021.08364546169
 30
0.0
 11
16152.09723454353
 21
-12253.71537043821
 31
0.0
  0
LINE
  5
210C
  8
0
 10
16152.09723454353
 20
-12253.71537043821
 30
0.0
 11
16704.70280638514
 21
-12253.71537043821
 31
0.0
  0
ENDBLK
  8
0
  0
BLOCK
  8
0
  2
*X38
 70
     1
 10
0.0
 20
0.0
 30
0.0
  0
INSERT
  5
210E
  8
0
  2
_OPEN30
 10
12026.51273846948
 20
-13817.24012977169
 30
0.0
 41
60.00000000000001
 42
60.00000000000001
 43
60.0
 50
300.2352717456282
  0
LINE
  5
210F
  8
0
 10
11996.29962411879
 20
-13765.40223126844
 30
0.0
 11
11851.23760130273
 21
-13516.51327767917
 31
0.0
  0
ENDBLK
  8
0
  0
ENDSEC
  0
SECTION
  2
ENTITIES
  0
POINT
  5
119
  8
0
  6
CONTINUOUS
 10
12297.40773182019
 20
-14037.04013277169
 30
0.0
  0
LINE
  5
11A
  8
0
  6
CENTER
 10
12297.40773182019
 20
-11453.84978631271
 30
0.0
 11
12297.40773182019
 21
-14198.38601995583
 31
0.0
  0
LINE
  5
11B
  8
0
 10
11382.40776996716
 20
-14037.04013277169
 30
0.0
 11
13212.40769367322
 21
-14037.04013277169
 31
0.0
  0
LINE
  5
11C
  8
0
 10
11352.40775089368
 20
-11987.04013277169
 30
0.0
 11
13242.4077127467
 21
-11987.04013277169
 31
0.0
  0
LINE
  5
11D
  8
0
 10
11352.40775089368
 20
-14007.04013455983
 30
0.0
 11
11352.40775089368
 21
-11987.04013277169
 31
0.0
  0
LINE
  5
11F
  8
0
 10
11382.40798589771
 20
-11847.04017091866
 30
0.0
 11
11682.40798589771
 21
-11847.04017091866
 31
0.0
  0
LINE
  5
120
  8
0
 10
11377.51898636354
 20
-11850.99239210269
 30
0.0
 11
11352.40771782594
 21
-11987.04009582435
 31
0.0
  0
LINE
  5
121
  8
0
 10
11452.40775089368
 20
-11977.04009462471
 30
0.0
 11
12131.83505277737
 21
-11977.04009462471
 31
0.0
  0
LINE
  5
122
  8
0
  6
CONTINUOUS
 10
11452.40775089368
 20
-11977.04009462471
 30
0.0
 11
11452.40775089368
 21
-11987.04013277169
 31
0.0
  0
LINE
  5
126
  8
0
 10
12152.06333141431
 20
-11847.04017091866
 30
0.0
 11
12442.75213222607
 21
-11847.04017091866
 31
0.0
  0
LINE
  5
127
  8
0
 10
12147.07603924726
 20
-11851.68375300841
 30
0.0
 11
12139.39802461973
 21
-11959.17756847494
 31
0.0
  0
LINE
  5
128
  8
0
 10
12447.73942439312
 20
-11851.68375300841
 30
0.0
 11
12455.41743902065
 21
-11959.17756847494
 31
0.0
  0
LINE
  5
129
  8
0
 10
12462.98041086301
 20
-11977.04009462471
 30
0.0
 11
13142.4077127467
 21
-11977.04009462471
 31
0.0
  0
LINE
  5
12C
  8
0
 10
13217.29650059278
 20
-11850.99246665127
 30
0.0
 11
13242.40771594514
 21
-11987.04008205533
 31
0.0
  0
LINE
  5
12D
  8
0
 10
13242.4077127467
 20
-14007.04013455983
 30
0.0
 11
13242.4077127467
 21
-11987.04013277169
 31
0.0
  0
LINE
  5
12E
  8
0
 10
13212.40750293835
 20
-11847.04017091866
 30
0.0
 11
12912.40750293835
 21
-11847.04017091866
 31
0.0
  0
LINE
  5
12F
  8
0
  6
CONTINUOUS
 10
13142.4077127467
 20
-11977.04009462471
 30
0.0
 11
13142.4077127467
 21
-11987.04013277169
 31
0.0
  0
ARC
  5
16F
  8
0
 10
11382.40776996716
 20
-14007.04013455983
 30
0.0
 40
29.99999821186065
 50
179.9999813306654
 51
270.0000179860899
  0
ARC
  5
170
  8
0
 10
11382.40798589771
 20
-11852.04009462471
 30
0.0
 40
4.999999701976775
 50
89.9999820139103
 51
167.9045732719417
  0
ARC
  5
171
  8
0
 10
12261.86982041224
 20
-13140.65715629731
 30
0.0
 40
1417.474236545882
 50
100.7153685837426
 51
124.8241441768873
  0
ARC
  5
172
  8
0
 10
11992.40774757817
 20
-11718.48754088804
 30
0.0
 40
29.99999821186065
 50
281.3632124629436
 51
0.0
  0
ARC
  5
173
  8
0
  6
CONTINUOUS
 10
12152.06333141431
 20
-11852.04009462471
 30
0.0
 40
4.999999701976775
 50
89.99998201391054
 51
175.9137350549712
  0
ARC
  5
174
  8
0
 10
12442.75213222607
 20
-11852.04009462471
 30
0.0
 40
4.999999701976775
 50
4.086278491725231
 51
89.99998201391054
  0
ARC
  5
175
  8
0
 10
12485.34118871793
 20
-11957.04020906563
 30
0.0
 40
29.99999821186065
 50
184.0855272846009
 51
270.0000179860899
  0
ARC
  5
176
  8
0
 10
12109.47427492246
 20
-11957.04020906563
 30
0.0
 40
29.99999821186065
 50
270.0000179860899
 51
355.9144527654052
  0
ARC
  5
177
  8
0
 10
12332.94583615147
 20
-13140.65681084592
 30
0.0
 40
1417.473842954281
 50
55.17581821441235
 51
79.28463710193354
  0
ARC
  5
178
  8
0
 10
12602.40771606221
 20
-11718.48755972303
 30
0.0
 40
29.99999821186065
 50
179.9999640278213
 51
258.6367515648792
  0
ARC
  5
179
  8
0
 10
13212.40769367322
 20
-14007.04013455983
 30
0.0
 40
29.99999821186065
 50
269.9999633445767
 51
0.0
  0
ARC
  5
17B
  8
0
  6
CONTINUOUS
 10
13212.40750136877
 20
-11852.04017062064
 30
0.0
 40
4.999999701976775
 50
12.09544368984622
 51
89.9999820139103
  0
LINE
  5
21E
  8
2
  6
CENTER
 10
16918.01628337384
 20
-11031.87945289737
 30
0.0
 11
14918.01609263898
 21
-11031.87945289737
 31
0.0
  0
LINE
  5
21F
  8
2
  6
CENTER
 10
15898.01628382088
 20
-12031.87945289737
 30
0.0
 11
15898.01628382088
 21
-10031.87945289737
 31
0.0
  0
LINE
  5
220
  8
2
 10
15748.01666529061
 20
-10416.87930030948
 30
0.0
 11
15748.01666529061
 21
-10129.25837440616
 31
0.0
  0
LINE
  5
221
  8
2
 10
16048.0166652906
 20
-10416.87930030948
 30
0.0
 11
16048.0166652906
 21
-10129.25837440616
 31
0.0
  0
LINE
  5
222
  8
2
 10
16058.01625437835
 20
-10100.52327731571
 30
0.0
 11
16048.01651411988
 21
-10129.25830454704
 31
0.0
  0
LINE
  5
223
  8
2
 10
15738.01673222376
 20
-10100.52336574189
 30
0.0
 11
15748.01671352847
 21
-10129.25911690619
 31
0.0
  0
LINE
  5
224
  8
2
 10
16058.01637536628
 20
-10100.52211210028
 30
0.0
 11
16048.01646561552
 21
-10416.87831065206
 31
0.0
  0
LINE
  5
225
  8
2
 10
15738.01616010975
 20
-10100.52231534195
 30
0.0
 11
15748.0159405608
 21
-10416.87889964107
 31
0.0
  0
LINE
  5
226
  8
2
 10
15283.01632196785
 20
-10881.87945289737
 30
0.0
 11
14995.39520532967
 21
-10881.87945289737
 31
0.0
  0
LINE
  5
227
  8
2
 10
14966.65996715106
 20
-10871.87954877934
 30
0.0
 11
15283.01635857651
 21
-10881.87939388029
 31
0.0
  0
LINE
  5
228
  8
2
 10
14966.65975383457
 20
-10871.87963957001
 30
0.0
 11
14995.39514303236
 21
-10881.87950035166
 31
0.0
  0
LINE
  5
229
  8
2
 10
15283.01632196785
 20
-11181.87945289737
 30
0.0
 11
14995.39520532967
 21
-11181.87945289737
 31
0.0
  0
LINE
  5
22A
  8
2
 10
14966.65982469032
 20
-11191.87916168543
 30
0.0
 11
15283.01640675543
 21
-11181.87931055847
 31
0.0
  0
LINE
  5
22B
  8
2
 10
14966.65972252578
 20
-11191.87949193516
 30
0.0
 11
14995.39511172358
 21
-11181.87963115352
 31
0.0
  0
LINE
  5
22C
  8
2
 10
15748.01590235115
 20
-11646.8794147504
 30
0.0
 11
15748.01590235115
 21
-11934.50053138858
 31
0.0
  0
LINE
  5
22D
  8
2
 10
15738.01613364655
 20
-11963.23552756889
 30
0.0
 11
15748.0159962801
 21
-11646.87932752776
 31
0.0
  0
LINE
  5
22E
  8
2
 10
15738.01634601521
 20
-11963.23599697803
 30
0.0
 11
15748.01620841447
 21
-11934.50060834316
 31
0.0
  0
LINE
  5
22F
  8
2
 10
16048.01590235115
 20
-11646.8794147504
 30
0.0
 11
16048.01590235115
 21
-11934.50053138858
 31
0.0
  0
LINE
  5
230
  8
2
 10
16058.01595551333
 20
-11963.23617125364
 30
0.0
 11
16048.01612794501
 21
-11646.87958844386
 31
0.0
  0
LINE
  5
231
  8
2
 10
16058.01584446505
 20
-11963.23560911796
 30
0.0
 11
16048.01598530102
 21
-11934.50021935723
 31
0.0
  0
LINE
  5
232
  8
2
 10
16513.01643640877
 20
-11181.88021583682
 30
0.0
 11
16800.63736231209
 21
-11181.88021583682
 31
0.0
  0
LINE
  5
233
  8
2
 10
16829.37332049946
 20
-11191.87962616596
 30
0.0
 11
16513.017121203
 21
-11181.87973997381
 31
0.0
  0
LINE
  5
234
  8
2
 10
16829.37268810005
 20
-11191.87944311477
 30
0.0
 11
16800.63730002811
 21
-11181.8795790979
 31
0.0
  0
LINE
  5
235
  8
2
 10
16513.01643640877
 20
-10881.88021583682
 30
0.0
 11
16800.63736231209
 21
-10881.88021583682
 31
0.0
  0
LINE
  5
236
  8
2
 10
16829.37339223424
 20
-10871.87966156618
 30
0.0
 11
16513.01680867979
 21
-10881.87946557587
 31
0.0
  0
LINE
  5
237
  8
2
 10
16829.37202702644
 20
-10871.8805335524
 30
0.0
 11
16800.63627642507
 21
-10881.88051647473
 31
0.0
  0
ARC
  5
24B
  8
2
 10
15898.01628382088
 20
-11031.87945289737
 30
0.0
 40
944.9999809265137
 50
2.638358055967549
 51
357.3616437962906
  0
ARC
  5
24C
  8
2
 10
15898.01628382088
 20
-11031.87945289737
 30
0.0
 40
844.9999809265139
 50
10.69433283445431
 51
79.30566796247658
  0
ARC
  5
24F
  8
2
 10
15898.01628382088
 20
-11031.87945289737
 30
0.0
 40
914.9999618530273
 50
80.564676732185
 51
99.43528729563631
  0
ARC
  5
250
  8
2
 10
15898.01628382088
 20
-11031.87945289737
 30
0.0
 40
844.9999809265139
 50
190.6943090424785
 51
259.3056219723859
  0
ARC
  5
251
  8
2
 10
15898.01628382088
 20
-11031.87945289737
 30
0.0
 40
914.9999618530273
 50
170.5646860668524
 51
189.4352966303044
  0
ARC
  5
252
  8
2
 10
15898.01628382088
 20
-11031.87945289737
 30
0.0
 40
914.9999618530273
 50
260.5646853836077
 51
279.4352959470591
  0
ARC
  5
253
  8
2
 10
15898.01628382088
 20
-11031.87945289737
 30
0.0
 40
914.9999618530273
 50
350.5646810578967
 51
357.2750760159764
  0
ARC
  5
254
  8
2
 10
15898.01628382088
 20
-11031.87945289737
 30
0.0
 40
844.9999809265139
 50
100.6943780276148
 51
169.3056909575222
  0
ARC
  5
255
  8
2
 10
15898.01628382088
 20
-11031.87945289737
 30
0.0
 40
844.9999809265139
 50
280.6943320375241
 51
349.3056364296951
  0
CIRCLE
  5
256
  8
2
  6
CENTER
 10
15898.01628382088
 20
-11031.87945289737
 30
0.0
 40
764.9999618530272
  0
LINE
  5
4B8
  8
0
  6
CONTINUOUS
 10
9913.716517502442
 20
-9373.61550240867
 30
0.0
 11
10053.71651750244
 21
-9373.61550240867
 31
0.0
  0
LINE
  5
4B9
  8
0
  6
CONTINUOUS
 10
10053.71651750244
 20
-9373.61550240867
 30
0.0
 11
10156.11651750242
 21
-9373.61550240867
 31
0.0
  0
LINE
  5
4BA
  8
0
  6
CONTINUOUS
 10
9913.716517502442
 20
-9373.61550240867
 30
0.0
 11
9913.716517502442
 21
-9509.348835742006
 31
0.0
  0
LINE
  5
4BB
  8
0
  6
CONTINUOUS
 10
10156.11651750242
 20
-9373.61550240867
 30
0.0
 11
10296.11651750242
 21
-9373.61550240867
 31
0.0
  0
LINE
  5
4BC
  8
0
  6
CONTINUOUS
 10
10296.11651750242
 20
-9373.61550240867
 30
0.0
 11
10436.11651750242
 21
-9373.61550240867
 31
0.0
  0
LINE
  5
4BD
  8
0
  6
CONTINUOUS
 10
10436.11651750242
 20
-9373.61550240867
 30
0.0
 11
10576.11651750242
 21
-9373.61550240867
 31
0.0
  0
LINE
  5
4BE
  8
0
  6
CONTINUOUS
 10
10576.11651750242
 20
-9373.61550240867
 30
0.0
 11
10716.11651750242
 21
-9373.61550240867
 31
0.0
  0
LINE
  5
4BF
  8
0
  6
CONTINUOUS
 10
10716.11651750242
 20
-9373.61550240867
 30
0.0
 11
10856.11651750242
 21
-9373.61550240867
 31
0.0
  0
LINE
  5
4C0
  8
0
  6
CONTINUOUS
 10
10856.11651750242
 20
-9373.61550240867
 30
0.0
 11
10996.11651750242
 21
-9373.61550240867
 31
0.0
  0
LINE
  5
4C1
  8
0
  6
CONTINUOUS
 10
10996.11651750242
 20
-9373.61550240867
 30
0.0
 11
11136.11651750242
 21
-9373.61550240867
 31
0.0
  0
LINE
  5
4C2
  8
0
  6
CONTINUOUS
 10
11136.11651750242
 20
-9373.61550240867
 30
0.0
 11
11276.11651750242
 21
-9373.61550240867
 31
0.0
  0
LINE
  5
4C3
  8
0
  6
CONTINUOUS
 10
10156.11651750242
 20
-9373.61550240867
 30
0.0
 11
10156.11651750242
 21
-9509.348835742006
 31
0.0
  0
LINE
  5
4C4
  8
0
  6
CONTINUOUS
 10
11276.11651750242
 20
-9373.61550240867
 30
0.0
 11
11416.11651750242
 21
-9373.61550240867
 31
0.0
  0
LINE
  5
4C5
  8
0
  6
CONTINUOUS
 10
11416.11651750242
 20
-9373.61550240867
 30
0.0
 11
11556.11651750242
 21
-9373.61550240867
 31
0.0
  0
LINE
  5
4C6
  8
0
  6
CONTINUOUS
 10
11556.11651750242
 20
-9373.61550240867
 30
0.0
 11
11696.11651750242
 21
-9373.61550240867
 31
0.0
  0
LINE
  5
4C7
  8
0
  6
CONTINUOUS
 10
11276.11651750242
 20
-9373.61550240867
 30
0.0
 11
11276.11651750242
 21
-9509.348835742006
 31
0.0
  0
LINE
  5
4C8
  8
0
  6
CONTINUOUS
 10
11696.11651750242
 20
-9373.61550240867
 30
0.0
 11
11836.11651750242
 21
-9373.61550240867
 31
0.0
  0
LINE
  5
4C9
  8
0
  6
CONTINUOUS
 10
11836.11651750242
 20
-9373.61550240867
 30
0.0
 11
11976.11651750242
 21
-9373.61550240867
 31
0.0
  0
LINE
  5
4CA
  8
0
  6
CONTINUOUS
 10
11696.11651750242
 20
-9373.61550240867
 30
0.0
 11
11696.11651750242
 21
-9509.348835742006
 31
0.0
  0
LINE
  5
4CB
  8
0
  6
CONTINUOUS
 10
11976.11651750242
 20
-9373.61550240867
 30
0.0
 11
11976.11651750242
 21
-9509.348835742006
 31
0.0
  0
LINE
  5
4CC
  8
0
  6
CONTINUOUS
 10
9913.716517502442
 20
-9509.348835742006
 30
0.0
 11
10053.71651750244
 21
-9509.348835742006
 31
0.0
  0
LINE
  5
4CD
  8
0
  6
CONTINUOUS
 10
10053.71651750244
 20
-9509.348835742006
 30
0.0
 11
10156.11651750242
 21
-9509.348835742006
 31
0.0
  0
LINE
  5
4CE
  8
0
  6
CONTINUOUS
 10
10156.11651750242
 20
-9509.348835742006
 30
0.0
 11
10296.11651750242
 21
-9509.348835742006
 31
0.0
  0
LINE
  5
4CF
  8
0
  6
CONTINUOUS
 10
10296.11651750242
 20
-9509.348835742006
 30
0.0
 11
10436.11651750242
 21
-9509.348835742006
 31
0.0
  0
LINE
  5
4D0
  8
0
  6
CONTINUOUS
 10
10436.11651750242
 20
-9509.348835742006
 30
0.0
 11
10576.11651750242
 21
-9509.348835742006
 31
0.0
  0
LINE
  5
4D1
  8
0
  6
CONTINUOUS
 10
10576.11651750242
 20
-9509.348835742006
 30
0.0
 11
10716.11651750242
 21
-9509.348835742006
 31
0.0
  0
LINE
  5
4D2
  8
0
  6
CONTINUOUS
 10
10716.11651750242
 20
-9509.348835742006
 30
0.0
 11
10856.11651750242
 21
-9509.348835742006
 31
0.0
  0
LINE
  5
4D3
  8
0
  6
CONTINUOUS
 10
10856.11651750242
 20
-9509.348835742006
 30
0.0
 11
10996.11651750242
 21
-9509.348835742006
 31
0.0
  0
LINE
  5
4D4
  8
0
  6
CONTINUOUS
 10
10996.11651750242
 20
-9509.348835742006
 30
0.0
 11
11136.11651750242
 21
-9509.348835742006
 31
0.0
  0
LINE
  5
4D5
  8
0
  6
CONTINUOUS
 10
11136.11651750242
 20
-9509.348835742006
 30
0.0
 11
11276.11651750242
 21
-9509.348835742006
 31
0.0
  0
LINE
  5
4D6
  8
0
  6
CONTINUOUS
 10
11276.11651750242
 20
-9509.348835742006
 30
0.0
 11
11416.11651750242
 21
-9509.348835742006
 31
0.0
  0
LINE
  5
4D7
  8
0
  6
CONTINUOUS
 10
11416.11651750242
 20
-9509.348835742006
 30
0.0
 11
11556.11651750242
 21
-9509.348835742006
 31
0.0
  0
LINE
  5
4D8
  8
0
  6
CONTINUOUS
 10
11556.11651750242
 20
-9509.348835742006
 30
0.0
 11
11696.11651750242
 21
-9509.348835742006
 31
0.0
  0
LINE
  5
4D9
  8
0
  6
CONTINUOUS
 10
11696.11651750242
 20
-9509.348835742006
 30
0.0
 11
11836.11651750242
 21
-9509.348835742006
 31
0.0
  0
LINE
  5
4DA
  8
0
  6
CONTINUOUS
 10
11836.11651750242
 20
-9509.348835742006
 30
0.0
 11
11976.11651750242
 21
-9509.348835742006
 31
0.0
  0
TEXT
  5
4DB
  8
0
  6
CONTINUOUS
 10
9950.047522652647
 20
-9470.689217779931
 30
0.0
 40
64.0
  1
記 号
  0
TEXT
  5
4DC
  8
0
  6
CONTINUOUS
 10
10330.99567480062
 20
-9472.531025122247
 30
0.0
 40
64.0
  1
来　　　　　　　　歴
  0
TEXT
  5
4DD
  8
0
  6
CONTINUOUS
 10
11303.89548480344
 20
-9471.23872002276
 30
0.0
 40
64.0
  1
年・月・日
  0
TEXT
  5
4DE
  8
0
  6
CONTINUOUS
 10
11746.99899669006
 20
-9469.714598490595
 30
0.0
 40
64.0
  1
記 入
  0
POLYLINE
  5
4DF
  8
0
  6
CONTINUOUS
 66
     1
 10
0.0
 20
0.0
 30
0.0
 70
     1
  0
VERTEX
  5
20E7
  8
0
  6
CONTINUOUS
 10
9913.716517502442
 20
-9373.615502408647
 30
0.0
  0
VERTEX
  5
20E8
  8
0
  6
CONTINUOUS
 10
17973.71651750244
 20
-9373.615502408647
 30
0.0
  0
VERTEX
  5
20E9
  8
0
  6
CONTINUOUS
 10
17973.71651750244
 20
-14973.61550240865
 30
0.0
  0
VERTEX
  5
20EA
  8
0
  6
CONTINUOUS
 10
9913.716517502442
 20
-14973.61550240865
 30
0.0
  0
SEQEND
  5
21AD
  8
0
  6
CONTINUOUS
  0
POLYLINE
  5
4E0
  8
0
  6
CONTINUOUS
 66
     1
 10
0.0
 20
0.0
 30
0.0
 70
     1
  0
VERTEX
  5
20EB
  8
0
  6
CONTINUOUS
 10
9713.716517502442
 20
-9173.615502408647
 30
0.0
  0
VERTEX
  5
20EC
  8
0
  6
CONTINUOUS
 10
18173.71651750244
 20
-9173.615502408647
 30
0.0
  0
VERTEX
  5
20ED
  8
0
  6
CONTINUOUS
 10
18173.71651750244
 20
-15173.61550240865
 30
0.0
  0
VERTEX
  5
20EE
  8
0
  6
CONTINUOUS
 10
9713.716517502442
 20
-15173.61550240865
 30
0.0
  0
SEQEND
  5
21AE
  8
0
  6
CONTINUOUS
  0
LINE
  5
4E1
  8
0
  6
CONTINUOUS
 10
15313.71651750244
 20
-14023.48216907535
 30
0.0
 11
15313.71651750244
 21
-14159.21550240868
 31
0.0
  0
LINE
  5
4E2
  8
0
  6
CONTINUOUS
 10
15593.71651750244
 20
-14023.48216907535
 30
0.0
 11
15593.71651750244
 21
-14159.21550240868
 31
0.0
  0
LINE
  5
4E3
  8
0
  6
CONTINUOUS
 10
15873.71651750244
 20
-14023.48216907535
 30
0.0
 11
15873.71651750244
 21
-14159.21550240868
 31
0.0
  0
LINE
  5
4E4
  8
0
  6
CONTINUOUS
 10
16153.71651750244
 20
-14023.48216907535
 30
0.0
 11
16153.71651750244
 21
-14159.21550240868
 31
0.0
  0
LINE
  5
4E5
  8
0
  6
CONTINUOUS
 10
16433.71651750244
 20
-14023.48216907535
 30
0.0
 11
16433.71651750244
 21
-14159.21550240868
 31
0.0
  0
LINE
  5
4E6
  8
0
  6
CONTINUOUS
 10
16433.71651750244
 20
-14159.21550240868
 30
0.0
 11
16433.71651750244
 21
-14294.94883574202
 31
0.0
  0
LINE
  5
4E7
  8
0
  6
CONTINUOUS
 10
16433.71651750244
 20
-14294.94883574202
 30
0.0
 11
16433.71651750244
 21
-14430.68216907532
 31
0.0
  0
LINE
  5
4E8
  8
0
  6
CONTINUOUS
 10
16433.71651750244
 20
-14430.68216907532
 30
0.0
 11
16433.71651750244
 21
-14566.41550240866
 31
0.0
  0
LINE
  5
4E9
  8
0
  6
CONTINUOUS
 10
16433.71651750244
 20
-14566.41550240866
 30
0.0
 11
16433.71651750244
 21
-14702.14883574199
 31
0.0
  0
LINE
  5
4EA
  8
0
  6
CONTINUOUS
 10
16573.71651750244
 20
-14023.48216907535
 30
0.0
 11
16573.71651750244
 21
-14159.21550240868
 31
0.0
  0
LINE
  5
4EB
  8
0
  6
CONTINUOUS
 10
17973.71651750244
 20
-14023.48216907535
 30
0.0
 11
17973.71651750244
 21
-14159.21550240868
 31
0.0
  0
LINE
  5
4EC
  8
0
  6
CONTINUOUS
 10
16573.71651750244
 20
-14159.21550240868
 30
0.0
 11
16573.71651750244
 21
-14294.94883574202
 31
0.0
  0
LINE
  5
4ED
  8
0
  6
CONTINUOUS
 10
17973.71651750244
 20
-14159.21550240868
 30
0.0
 11
17973.71651750244
 21
-14294.94883574202
 31
0.0
  0
LINE
  5
4EE
  8
0
  6
CONTINUOUS
 10
16573.71651750244
 20
-14294.94883574202
 30
0.0
 11
16573.71651750244
 21
-14430.68216907532
 31
0.0
  0
LINE
  5
4EF
  8
0
  6
CONTINUOUS
 10
17973.71651750244
 20
-14294.94883574202
 30
0.0
 11
17973.71651750244
 21
-14430.68216907532
 31
0.0
  0
LINE
  5
4F0
  8
0
  6
CONTINUOUS
 10
16573.71651750244
 20
-14430.68216907532
 30
0.0
 11
16573.71651750244
 21
-14566.41550240866
 31
0.0
  0
LINE
  5
4F1
  8
0
  6
CONTINUOUS
 10
17973.71651750244
 20
-14430.68216907532
 30
0.0
 11
17973.71651750244
 21
-14566.41550240866
 31
0.0
  0
LINE
  5
4F2
  8
0
  6
CONTINUOUS
 10
16573.71651750244
 20
-14566.41550240866
 30
0.0
 11
16573.71651750244
 21
-14702.14883574199
 31
0.0
  0
LINE
  5
4F3
  8
0
  6
CONTINUOUS
 10
17973.71651750244
 20
-14566.41550240866
 30
0.0
 11
17973.71651750244
 21
-14702.14883574199
 31
0.0
  0
LINE
  5
4F4
  8
0
  6
CONTINUOUS
 10
15313.71651750244
 20
-14159.21550240868
 30
0.0
 11
15453.71651750244
 21
-14159.21550240868
 31
0.0
  0
LINE
  5
4F5
  8
0
  6
CONTINUOUS
 10
15453.71651750244
 20
-14159.21550240868
 30
0.0
 11
15593.71651750244
 21
-14159.21550240868
 31
0.0
  0
LINE
  5
4F6
  8
0
  6
CONTINUOUS
 10
15313.71651750244
 20
-14159.21550240868
 30
0.0
 11
15313.71651750244
 21
-14294.94883574202
 31
0.0
  0
LINE
  5
4F7
  8
0
  6
CONTINUOUS
 10
15313.71651750244
 20
-14294.94883574202
 30
0.0
 11
15313.71651750244
 21
-14430.68216907532
 31
0.0
  0
LINE
  5
4F8
  8
0
  6
CONTINUOUS
 10
15593.71651750244
 20
-14159.21550240868
 30
0.0
 11
15733.71651750244
 21
-14159.21550240868
 31
0.0
  0
LINE
  5
4F9
  8
0
  6
CONTINUOUS
 10
15733.71651750244
 20
-14159.21550240868
 30
0.0
 11
15873.71651750244
 21
-14159.21550240868
 31
0.0
  0
LINE
  5
4FA
  8
0
  6
CONTINUOUS
 10
15593.71651750244
 20
-14159.21550240868
 30
0.0
 11
15593.71651750244
 21
-14294.94883574202
 31
0.0
  0
LINE
  5
4FB
  8
0
  6
CONTINUOUS
 10
15593.71651750244
 20
-14294.94883574202
 30
0.0
 11
15593.71651750244
 21
-14430.68216907532
 31
0.0
  0
LINE
  5
4FC
  8
0
  6
CONTINUOUS
 10
15873.71651750244
 20
-14159.21550240868
 30
0.0
 11
16013.71651750244
 21
-14159.21550240868
 31
0.0
  0
LINE
  5
4FD
  8
0
  6
CONTINUOUS
 10
16013.71651750244
 20
-14159.21550240868
 30
0.0
 11
16153.71651750244
 21
-14159.21550240868
 31
0.0
  0
LINE
  5
4FE
  8
0
  6
CONTINUOUS
 10
15873.71651750244
 20
-14159.21550240868
 30
0.0
 11
15873.71651750244
 21
-14294.94883574202
 31
0.0
  0
LINE
  5
4FF
  8
0
  6
CONTINUOUS
 10
15873.71651750244
 20
-14294.94883574202
 30
0.0
 11
15873.71651750244
 21
-14430.68216907532
 31
0.0
  0
LINE
  5
500
  8
0
  6
CONTINUOUS
 10
16153.71651750244
 20
-14159.21550240868
 30
0.0
 11
16293.71651750244
 21
-14159.21550240868
 31
0.0
  0
LINE
  5
501
  8
0
  6
CONTINUOUS
 10
16293.71651750244
 20
-14159.21550240868
 30
0.0
 11
16433.71651750244
 21
-14159.21550240868
 31
0.0
  0
LINE
  5
502
  8
0
  6
CONTINUOUS
 10
16153.71651750244
 20
-14159.21550240868
 30
0.0
 11
16153.71651750244
 21
-14294.94883574202
 31
0.0
  0
LINE
  5
503
  8
0
  6
CONTINUOUS
 10
16153.71651750244
 20
-14294.94883574202
 30
0.0
 11
16153.71651750244
 21
-14430.68216907532
 31
0.0
  0
LINE
  5
504
  8
0
  6
CONTINUOUS
 10
15313.71651750244
 20
-14430.68216907532
 30
0.0
 11
15453.71651750244
 21
-14430.68216907532
 31
0.0
  0
LINE
  5
505
  8
0
  6
CONTINUOUS
 10
15313.71651750244
 20
-14430.68216907532
 30
0.0
 11
15313.71651750244
 21
-14566.41550240866
 31
0.0
  0
LINE
  5
506
  8
0
  6
CONTINUOUS
 10
15313.71651750244
 20
-14566.41550240866
 30
0.0
 11
15313.71651750244
 21
-14702.14883574199
 31
0.0
  0
LINE
  5
507
  8
0
  6
CONTINUOUS
 10
15453.71651750244
 20
-14430.68216907532
 30
0.0
 11
15593.71651750244
 21
-14430.68216907532
 31
0.0
  0
LINE
  5
508
  8
0
  6
CONTINUOUS
 10
15593.71651750244
 20
-14430.68216907532
 30
0.0
 11
15733.71651750244
 21
-14430.68216907532
 31
0.0
  0
LINE
  5
509
  8
0
  6
CONTINUOUS
 10
15733.71651750244
 20
-14430.68216907532
 30
0.0
 11
15873.71651750244
 21
-14430.68216907532
 31
0.0
  0
LINE
  5
50A
  8
0
  6
CONTINUOUS
 10
15453.71651750244
 20
-14430.68216907532
 30
0.0
 11
15453.71651750244
 21
-14566.41550240866
 31
0.0
  0
LINE
  5
50B
  8
0
  6
CONTINUOUS
 10
15453.71651750244
 20
-14566.41550240866
 30
0.0
 11
15453.71651750244
 21
-14702.14883574199
 31
0.0
  0
LINE
  5
50C
  8
0
  6
CONTINUOUS
 10
15873.71651750244
 20
-14430.68216907532
 30
0.0
 11
16013.71651750244
 21
-14430.68216907532
 31
0.0
  0
LINE
  5
50D
  8
0
  6
CONTINUOUS
 10
15873.71651750244
 20
-14430.68216907532
 30
0.0
 11
15873.71651750244
 21
-14566.41550240866
 31
0.0
  0
LINE
  5
50E
  8
0
  6
CONTINUOUS
 10
15873.71651750244
 20
-14566.41550240866
 30
0.0
 11
15873.71651750244
 21
-14702.14883574199
 31
0.0
  0
LINE
  5
50F
  8
0
  6
CONTINUOUS
 10
16013.71651750244
 20
-14430.68216907532
 30
0.0
 11
16153.71651750244
 21
-14430.68216907532
 31
0.0
  0
LINE
  5
510
  8
0
  6
CONTINUOUS
 10
16153.71651750244
 20
-14430.68216907532
 30
0.0
 11
16293.71651750244
 21
-14430.68216907532
 31
0.0
  0
LINE
  5
511
  8
0
  6
CONTINUOUS
 10
16293.71651750244
 20
-14430.68216907532
 30
0.0
 11
16433.71651750244
 21
-14430.68216907532
 31
0.0
  0
LINE
  5
512
  8
0
  6
CONTINUOUS
 10
16013.71651750244
 20
-14430.68216907532
 30
0.0
 11
16013.71651750244
 21
-14566.41550240866
 31
0.0
  0
LINE
  5
513
  8
0
  6
CONTINUOUS
 10
16013.71651750244
 20
-14566.41550240866
 30
0.0
 11
16013.71651750244
 21
-14702.14883574199
 31
0.0
  0
LINE
  5
514
  8
0
  6
CONTINUOUS
 10
15313.71651750244
 20
-14702.14883574199
 30
0.0
 11
15453.71651750244
 21
-14702.14883574199
 31
0.0
  0
LINE
  5
515
  8
0
  6
CONTINUOUS
 10
15313.71651750244
 20
-14973.61550240867
 30
0.0
 11
15453.71651750244
 21
-14973.61550240867
 31
0.0
  0
LINE
  5
516
  8
0
  6
CONTINUOUS
 10
15453.71651750244
 20
-14702.14883574199
 30
0.0
 11
15593.71651750244
 21
-14702.14883574199
 31
0.0
  0
LINE
  5
517
  8
0
  6
CONTINUOUS
 10
15453.71651750244
 20
-14973.61550240867
 30
0.0
 11
15593.71651750244
 21
-14973.61550240867
 31
0.0
  0
LINE
  5
518
  8
0
  6
CONTINUOUS
 10
15593.71651750244
 20
-14702.14883574199
 30
0.0
 11
15733.71651750244
 21
-14702.14883574199
 31
0.0
  0
LINE
  5
519
  8
0
  6
CONTINUOUS
 10
15593.71651750244
 20
-14973.61550240867
 30
0.0
 11
15733.71651750244
 21
-14973.61550240867
 31
0.0
  0
LINE
  5
51A
  8
0
  6
CONTINUOUS
 10
15733.71651750244
 20
-14702.14883574199
 30
0.0
 11
15873.71651750244
 21
-14702.14883574199
 31
0.0
  0
LINE
  5
51B
  8
0
  6
CONTINUOUS
 10
15733.71651750244
 20
-14973.61550240867
 30
0.0
 11
15873.71651750244
 21
-14973.61550240867
 31
0.0
  0
LINE
  5
51C
  8
0
  6
CONTINUOUS
 10
15873.71651750244
 20
-14702.14883574199
 30
0.0
 11
16013.71651750244
 21
-14702.14883574199
 31
0.0
  0
LINE
  5
51D
  8
0
  6
CONTINUOUS
 10
15873.71651750244
 20
-14973.61550240867
 30
0.0
 11
16013.71651750244
 21
-14973.61550240867
 31
0.0
  0
LINE
  5
51E
  8
0
  6
CONTINUOUS
 10
16013.71651750244
 20
-14702.14883574199
 30
0.0
 11
16153.71651750244
 21
-14702.14883574199
 31
0.0
  0
LINE
  5
51F
  8
0
  6
CONTINUOUS
 10
16013.71651750244
 20
-14973.61550240867
 30
0.0
 11
16153.71651750244
 21
-14973.61550240867
 31
0.0
  0
LINE
  5
520
  8
0
  6
CONTINUOUS
 10
16153.71651750244
 20
-14702.14883574199
 30
0.0
 11
16293.71651750244
 21
-14702.14883574199
 31
0.0
  0
LINE
  5
521
  8
0
  6
CONTINUOUS
 10
16153.71651750244
 20
-14973.61550240867
 30
0.0
 11
16293.71651750244
 21
-14973.61550240867
 31
0.0
  0
LINE
  5
522
  8
0
  6
CONTINUOUS
 10
16293.71651750244
 20
-14702.14883574199
 30
0.0
 11
16433.71651750244
 21
-14702.14883574199
 31
0.0
  0
LINE
  5
523
  8
0
  6
CONTINUOUS
 10
16293.71651750244
 20
-14973.61550240867
 30
0.0
 11
16433.71651750244
 21
-14973.61550240867
 31
0.0
  0
LINE
  5
524
  8
0
  6
CONTINUOUS
 10
15313.71651750244
 20
-14702.14883574199
 30
0.0
 11
15313.71651750244
 21
-14837.88216907533
 31
0.0
  0
LINE
  5
525
  8
0
  6
CONTINUOUS
 10
15313.71651750244
 20
-14837.88216907533
 30
0.0
 11
15313.71651750244
 21
-14973.61550240867
 31
0.0
  0
LINE
  5
526
  8
0
  6
CONTINUOUS
 10
16433.71651750244
 20
-14702.14883574199
 30
0.0
 11
16573.71651750244
 21
-14702.14883574199
 31
0.0
  0
LINE
  5
527
  8
0
  6
CONTINUOUS
 10
16433.71651750244
 20
-14973.61550240867
 30
0.0
 11
16573.71651750244
 21
-14973.61550240867
 31
0.0
  0
LINE
  5
528
  8
0
  6
CONTINUOUS
 10
16433.71651750244
 20
-14702.14883574199
 30
0.0
 11
16433.71651750244
 21
-14837.88216907533
 31
0.0
  0
LINE
  5
529
  8
0
  6
CONTINUOUS
 10
16433.71651750244
 20
-14837.88216907533
 30
0.0
 11
16433.71651750244
 21
-14973.61550240867
 31
0.0
  0
LINE
  5
52A
  8
0
  6
CONTINUOUS
 10
16573.71651750244
 20
-14702.14883574199
 30
0.0
 11
16713.71651750244
 21
-14702.14883574199
 31
0.0
  0
LINE
  5
52B
  8
0
  6
CONTINUOUS
 10
16573.71651750244
 20
-14973.61550240867
 30
0.0
 11
16713.71651750244
 21
-14973.61550240867
 31
0.0
  0
LINE
  5
52C
  8
0
  6
CONTINUOUS
 10
16713.71651750244
 20
-14702.14883574199
 30
0.0
 11
16853.71651750244
 21
-14702.14883574199
 31
0.0
  0
LINE
  5
52D
  8
0
  6
CONTINUOUS
 10
16713.71651750244
 20
-14973.61550240867
 30
0.0
 11
16853.71651750244
 21
-14973.61550240867
 31
0.0
  0
LINE
  5
52E
  8
0
  6
CONTINUOUS
 10
16853.71651750244
 20
-14702.14883574199
 30
0.0
 11
16993.71651750244
 21
-14702.14883574199
 31
0.0
  0
LINE
  5
52F
  8
0
  6
CONTINUOUS
 10
16853.71651750244
 20
-14973.61550240867
 30
0.0
 11
16993.71651750244
 21
-14973.61550240867
 31
0.0
  0
LINE
  5
530
  8
0
  6
CONTINUOUS
 10
16993.71651750244
 20
-14702.14883574199
 30
0.0
 11
17133.71651750244
 21
-14702.14883574199
 31
0.0
  0
LINE
  5
531
  8
0
  6
CONTINUOUS
 10
16993.71651750244
 20
-14973.61550240867
 30
0.0
 11
17133.71651750244
 21
-14973.61550240867
 31
0.0
  0
LINE
  5
532
  8
0
  6
CONTINUOUS
 10
17133.71651750244
 20
-14702.14883574199
 30
0.0
 11
17273.71651750244
 21
-14702.14883574199
 31
0.0
  0
LINE
  5
533
  8
0
  6
CONTINUOUS
 10
17133.71651750244
 20
-14973.61550240867
 30
0.0
 11
17273.71651750244
 21
-14973.61550240867
 31
0.0
  0
LINE
  5
534
  8
0
  6
CONTINUOUS
 10
17273.71651750244
 20
-14702.14883574199
 30
0.0
 11
17413.71651750244
 21
-14702.14883574199
 31
0.0
  0
LINE
  5
535
  8
0
  6
CONTINUOUS
 10
17273.71651750244
 20
-14973.61550240867
 30
0.0
 11
17413.71651750244
 21
-14973.61550240867
 31
0.0
  0
LINE
  5
536
  8
0
  6
CONTINUOUS
 10
17413.71651750244
 20
-14702.14883574199
 30
0.0
 11
17553.71651750244
 21
-14702.14883574199
 31
0.0
  0
LINE
  5
537
  8
0
  6
CONTINUOUS
 10
17413.71651750244
 20
-14973.61550240867
 30
0.0
 11
17553.71651750244
 21
-14973.61550240867
 31
0.0
  0
LINE
  5
538
  8
0
  6
CONTINUOUS
 10
17553.71651750244
 20
-14702.14883574199
 30
0.0
 11
17693.71651750244
 21
-14702.14883574199
 31
0.0
  0
LINE
  5
539
  8
0
  6
CONTINUOUS
 10
17553.71651750244
 20
-14973.61550240867
 30
0.0
 11
17693.71651750244
 21
-14973.61550240867
 31
0.0
  0
LINE
  5
53A
  8
0
  6
CONTINUOUS
 10
17693.71651750244
 20
-14702.14883574199
 30
0.0
 11
17833.71651750244
 21
-14702.14883574199
 31
0.0
  0
LINE
  5
53B
  8
0
  6
CONTINUOUS
 10
17693.71651750244
 20
-14973.61550240867
 30
0.0
 11
17833.71651750244
 21
-14973.61550240867
 31
0.0
  0
LINE
  5
53C
  8
0
  6
CONTINUOUS
 10
17833.71651750244
 20
-14702.14883574199
 30
0.0
 11
17973.71651750244
 21
-14702.14883574199
 31
0.0
  0
LINE
  5
53D
  8
0
  6
CONTINUOUS
 10
17833.71651750244
 20
-14973.61550240867
 30
0.0
 11
17973.71651750244
 21
-14973.61550240867
 31
0.0
  0
LINE
  5
53E
  8
0
  6
CONTINUOUS
 10
16573.71651750244
 20
-14702.14883574199
 30
0.0
 11
16573.71651750244
 21
-14837.88216907533
 31
0.0
  0
LINE
  5
53F
  8
0
  6
CONTINUOUS
 10
17973.71651750244
 20
-14702.14883574199
 30
0.0
 11
17973.71651750244
 21
-14837.88216907533
 31
0.0
  0
LINE
  5
540
  8
0
  6
CONTINUOUS
 10
16573.71651750244
 20
-14837.88216907533
 30
0.0
 11
16573.71651750244
 21
-14973.61550240867
 31
0.0
  0
LINE
  5
541
  8
0
  6
CONTINUOUS
 10
17973.71651750244
 20
-14837.88216907533
 30
0.0
 11
17973.71651750244
 21
-14973.61550240867
 31
0.0
  0
TEXT
  5
545
  8
0
  6
CONTINUOUS
 10
16466.44481699564
 20
-14811.38993714447
 30
0.0
 40
70.0
  1
図
  0
TEXT
  5
546
  8
0
  6
CONTINUOUS
 10
16463.1721829733
 20
-14937.31299512723
 30
0.0
 40
70.0
  1
番
  0
TEXT
  5
547
  8
0
  6
CONTINUOUS
 10
16463.1721829733
 20
-14229.21550240865
 30
0.0
 40
70.0
  1
名
  0
TEXT
  5
548
  8
0
  6
CONTINUOUS
 10
16462.72926401586
 20
-14563.78032172058
 30
0.0
 40
70.0
  1
称
  0
TEXT
  5
549
  8
0
  6
CONTINUOUS
 10
15356.26369869761
 20
-14487.22235264239
 30
0.0
 40
50.0
  1
年
  0
TEXT
  5
54A
  8
0
  6
CONTINUOUS
 10
15379.1734430338
 20
-14542.0086521749
 30
0.0
 40
50.0
  1
・
  0
TEXT
  5
54B
  8
0
  6
CONTINUOUS
 10
15352.99073813029
 20
-14586.98467635689
 30
0.0
 40
50.0
  1
月
  0
TEXT
  5
54C
  8
0
  6
CONTINUOUS
 10
15375.90048246653
 20
-14631.9607005388
 30
0.0
 40
50.0
  1
・
  0
TEXT
  5
54D
  8
0
  6
CONTINUOUS
 10
15362.80929328728
 20
-14677.74198550824
 30
0.0
 40
50.0
  1
日
  0
TEXT
  5
54E
  8
0
  6
CONTINUOUS
 10
15905.45166673028
 20
-14526.82953095803
 30
0.0
 40
60.0
  1
尺
  0
TEXT
  5
54F
  8
0
  6
CONTINUOUS
 10
15905.3343023379
 20
-14647.32202369871
 30
0.0
 40
60.0
  1
度
  0
TEXT
  5
550
  8
0
  6
CONTINUOUS
 10
15343.17250951834
 20
-14119.45317869421
 30
0.0
 40
60.0
  1
設　計
  0
TEXT
  5
551
  8
0
  6
CONTINUOUS
 10
15619.89922240595
 20
-14119.45317869424
 30
0.0
 40
60.0
  1
製　図
  0
TEXT
  5
552
  8
0
  6
CONTINUOUS
 10
15899.89922240595
 20
-14116.18308691069
 30
0.0
 40
60.0
  1
検　図
  0
TEXT
  5
553
  8
0
  6
CONTINUOUS
 10
16186.44481699559
 20
-14119.45317869421
 30
0.0
 40
60.0
  1
承　認
  0
LINE
  5
554
  8
0
 10
15313.71651750244
 20
-14023.48216907535
 30
0.0
 11
15453.71651750244
 21
-14023.48216907535
 31
0.0
  0
LINE
  5
555
  8
0
 10
15453.71651750244
 20
-14023.48216907535
 30
0.0
 11
15593.71651750244
 21
-14023.48216907535
 31
0.0
  0
LINE
  5
556
  8
0
 10
15593.71651750244
 20
-14023.48216907535
 30
0.0
 11
15733.71651750244
 21
-14023.48216907535
 31
0.0
  0
LINE
  5
557
  8
0
 10
15733.71651750244
 20
-14023.48216907535
 30
0.0
 11
15873.71651750244
 21
-14023.48216907535
 31
0.0
  0
LINE
  5
558
  8
0
 10
15873.71651750244
 20
-14023.48216907535
 30
0.0
 11
16013.71651750244
 21
-14023.48216907535
 31
0.0
  0
LINE
  5
559
  8
0
 10
16013.71651750244
 20
-14023.48216907535
 30
0.0
 11
16153.71651750244
 21
-14023.48216907535
 31
0.0
  0
LINE
  5
55A
  8
0
 10
16153.71651750244
 20
-14023.48216907535
 30
0.0
 11
16293.71651750244
 21
-14023.48216907535
 31
0.0
  0
LINE
  5
55B
  8
0
 10
16293.71651750244
 20
-14023.48216907535
 30
0.0
 11
16433.71651750244
 21
-14023.48216907535
 31
0.0
  0
LINE
  5
55C
  8
0
 10
16433.71651750244
 20
-14023.48216907535
 30
0.0
 11
16573.71651750244
 21
-14023.48216907535
 31
0.0
  0
LINE
  5
55D
  8
0
 10
16573.71651750244
 20
-14023.48216907535
 30
0.0
 11
16713.71651750244
 21
-14023.48216907535
 31
0.0
  0
LINE
  5
55E
  8
0
 10
16713.71651750244
 20
-14023.48216907535
 30
0.0
 11
16853.71651750244
 21
-14023.48216907535
 31
0.0
  0
LINE
  5
55F
  8
0
 10
16853.71651750244
 20
-14023.48216907535
 30
0.0
 11
16993.71651750244
 21
-14023.48216907535
 31
0.0
  0
LINE
  5
560
  8
0
 10
16993.71651750244
 20
-14023.48216907535
 30
0.0
 11
17133.71651750244
 21
-14023.48216907535
 31
0.0
  0
LINE
  5
561
  8
0
 10
17133.71651750244
 20
-14023.48216907535
 30
0.0
 11
17273.71651750244
 21
-14023.48216907535
 31
0.0
  0
LINE
  5
562
  8
0
 10
17273.71651750244
 20
-14023.48216907535
 30
0.0
 11
17413.71651750244
 21
-14023.48216907535
 31
0.0
  0
LINE
  5
563
  8
0
 10
17413.71651750244
 20
-14023.48216907535
 30
0.0
 11
17553.71651750244
 21
-14023.48216907535
 31
0.0
  0
LINE
  5
564
  8
0
 10
17553.71651750244
 20
-14023.48216907535
 30
0.0
 11
17693.71651750244
 21
-14023.48216907535
 31
0.0
  0
LINE
  5
565
  8
0
 10
17693.71651750244
 20
-14023.48216907535
 30
0.0
 11
17833.71651750244
 21
-14023.48216907535
 31
0.0
  0
LINE
  5
566
  8
0
 10
17833.71651750244
 20
-14023.48216907535
 30
0.0
 11
17973.71651750244
 21
-14023.48216907535
 31
0.0
  0
LINE
  5
567
  8
0
 10
15313.71651750244
 20
-13743.48216907535
 30
0.0
 11
15453.71651750244
 21
-13743.48216907535
 31
0.0
  0
LINE
  5
568
  8
0
 10
15313.71651750244
 20
-14023.48216907535
 30
0.0
 11
15453.71651750244
 21
-14023.48216907535
 31
0.0
  0
LINE
  5
569
  8
0
 10
15453.71651750244
 20
-13743.48216907535
 30
0.0
 11
15593.71651750244
 21
-13743.48216907535
 31
0.0
  0
LINE
  5
56A
  8
0
 10
15453.71651750244
 20
-14023.48216907535
 30
0.0
 11
15593.71651750244
 21
-14023.48216907535
 31
0.0
  0
LINE
  5
56B
  8
0
 10
15593.71651750244
 20
-13743.48216907535
 30
0.0
 11
15733.71651750244
 21
-13743.48216907535
 31
0.0
  0
LINE
  5
56C
  8
0
 10
15593.71651750244
 20
-14023.48216907535
 30
0.0
 11
15733.71651750244
 21
-14023.48216907535
 31
0.0
  0
LINE
  5
56D
  8
0
 10
15733.71651750244
 20
-13743.48216907535
 30
0.0
 11
15873.71651750244
 21
-13743.48216907535
 31
0.0
  0
LINE
  5
56E
  8
0
 10
15733.71651750244
 20
-14023.48216907535
 30
0.0
 11
15873.71651750244
 21
-14023.48216907535
 31
0.0
  0
LINE
  5
56F
  8
0
 10
15313.71651750244
 20
-13743.48216907535
 30
0.0
 11
15313.71651750244
 21
-13883.48216907535
 31
0.0
  0
LINE
  5
570
  8
0
 10
15313.71651750244
 20
-13883.48216907535
 30
0.0
 11
15313.71651750244
 21
-14023.48216907535
 31
0.0
  0
LINE
  5
571
  8
0
 10
15873.71651750244
 20
-13743.48216907535
 30
0.0
 11
16013.71651750244
 21
-13743.48216907535
 31
0.0
  0
LINE
  5
572
  8
0
 10
15873.71651750244
 20
-14023.48216907535
 30
0.0
 11
16013.71651750244
 21
-14023.48216907535
 31
0.0
  0
LINE
  5
573
  8
0
 10
16013.71651750244
 20
-13743.48216907535
 30
0.0
 11
16153.71651750244
 21
-13743.48216907535
 31
0.0
  0
LINE
  5
574
  8
0
 10
16013.71651750244
 20
-14023.48216907535
 30
0.0
 11
16153.71651750244
 21
-14023.48216907535
 31
0.0
  0
LINE
  5
575
  8
0
 10
16153.71651750244
 20
-13743.48216907535
 30
0.0
 11
16293.71651750244
 21
-13743.48216907535
 31
0.0
  0
LINE
  5
576
  8
0
 10
16153.71651750244
 20
-14023.48216907535
 30
0.0
 11
16293.71651750244
 21
-14023.48216907535
 31
0.0
  0
LINE
  5
577
  8
0
 10
16293.71651750244
 20
-13743.48216907535
 30
0.0
 11
16433.71651750244
 21
-13743.48216907535
 31
0.0
  0
LINE
  5
578
  8
0
 10
16293.71651750244
 20
-14023.48216907535
 30
0.0
 11
16433.71651750244
 21
-14023.48216907535
 31
0.0
  0
LINE
  5
579
  8
0
 10
16433.71651750244
 20
-13743.48216907535
 30
0.0
 11
16573.71651750244
 21
-13743.48216907535
 31
0.0
  0
LINE
  5
57A
  8
0
 10
16433.71651750244
 20
-14023.48216907535
 30
0.0
 11
16573.71651750244
 21
-14023.48216907535
 31
0.0
  0
LINE
  5
57B
  8
0
 10
16573.71651750244
 20
-13743.48216907535
 30
0.0
 11
16713.71651750244
 21
-13743.48216907535
 31
0.0
  0
LINE
  5
57C
  8
0
 10
16573.71651750244
 20
-14023.48216907535
 30
0.0
 11
16713.71651750244
 21
-14023.48216907535
 31
0.0
  0
LINE
  5
57D
  8
0
 10
16713.71651750244
 20
-13743.48216907535
 30
0.0
 11
16853.71651750244
 21
-13743.48216907535
 31
0.0
  0
LINE
  5
57E
  8
0
 10
16713.71651750244
 20
-14023.48216907535
 30
0.0
 11
16853.71651750244
 21
-14023.48216907535
 31
0.0
  0
LINE
  5
57F
  8
0
 10
16853.71651750244
 20
-13743.48216907535
 30
0.0
 11
16993.71651750244
 21
-13743.48216907535
 31
0.0
  0
LINE
  5
580
  8
0
 10
16853.71651750244
 20
-14023.48216907535
 30
0.0
 11
16993.71651750244
 21
-14023.48216907535
 31
0.0
  0
LINE
  5
581
  8
0
 10
16993.71651750244
 20
-13743.48216907535
 30
0.0
 11
17133.71651750244
 21
-13743.48216907535
 31
0.0
  0
LINE
  5
582
  8
0
 10
16993.71651750244
 20
-14023.48216907535
 30
0.0
 11
17133.71651750244
 21
-14023.48216907535
 31
0.0
  0
LINE
  5
583
  8
0
 10
17133.71651750244
 20
-13743.48216907535
 30
0.0
 11
17273.71651750244
 21
-13743.48216907535
 31
0.0
  0
LINE
  5
584
  8
0
 10
17133.71651750244
 20
-14023.48216907535
 30
0.0
 11
17273.71651750244
 21
-14023.48216907535
 31
0.0
  0
LINE
  5
585
  8
0
 10
17273.71651750244
 20
-13743.48216907535
 30
0.0
 11
17413.71651750244
 21
-13743.48216907535
 31
0.0
  0
LINE
  5
586
  8
0
 10
17273.71651750244
 20
-14023.48216907535
 30
0.0
 11
17413.71651750244
 21
-14023.48216907535
 31
0.0
  0
LINE
  5
587
  8
0
 10
17413.71651750244
 20
-13743.48216907535
 30
0.0
 11
17553.71651750244
 21
-13743.48216907535
 31
0.0
  0
LINE
  5
588
  8
0
 10
17413.71651750244
 20
-14023.48216907535
 30
0.0
 11
17553.71651750244
 21
-14023.48216907535
 31
0.0
  0
LINE
  5
589
  8
0
 10
17553.71651750244
 20
-13743.48216907535
 30
0.0
 11
17693.71651750244
 21
-13743.48216907535
 31
0.0
  0
LINE
  5
58A
  8
0
 10
17553.71651750244
 20
-14023.48216907535
 30
0.0
 11
17693.71651750244
 21
-14023.48216907535
 31
0.0
  0
LINE
  5
58B
  8
0
 10
17693.71651750244
 20
-13743.48216907535
 30
0.0
 11
17833.71651750244
 21
-13743.48216907535
 31
0.0
  0
LINE
  5
58C
  8
0
 10
17693.71651750244
 20
-14023.48216907535
 30
0.0
 11
17833.71651750244
 21
-14023.48216907535
 31
0.0
  0
LINE
  5
58D
  8
0
 10
17833.71651750244
 20
-13743.48216907535
 30
0.0
 11
17973.71651750244
 21
-13743.48216907535
 31
0.0
  0
LINE
  5
58E
  8
0
 10
17833.71651750244
 20
-14023.48216907535
 30
0.0
 11
17973.71651750244
 21
-14023.48216907535
 31
0.0
  0
LINE
  5
58F
  8
0
 10
15873.71651750244
 20
-13743.48216907535
 30
0.0
 11
15873.71651750244
 21
-13883.48216907535
 31
0.0
  0
LINE
  5
590
  8
0
 10
17973.71651750244
 20
-13743.48216907535
 30
0.0
 11
17973.71651750244
 21
-13883.48216907535
 31
0.0
  0
LINE
  5
591
  8
0
 10
15873.71651750244
 20
-13883.48216907535
 30
0.0
 11
15873.71651750244
 21
-14023.48216907535
 31
0.0
  0
LINE
  5
592
  8
0
 10
17973.71651750244
 20
-13883.48216907535
 30
0.0
 11
17973.71651750244
 21
-14023.48216907535
 31
0.0
  0
TEXT
  5
593
  8
0
  6
CONTINUOUS
 10
15382.74816670775
 20
-13918.75296829641
 30
0.0
 40
70.0
  1
納　入　先
  0
TEXT
  5
598
  8
0
 10
16072.90871397895
 20
-14600.15996348959
 30
0.0
 40
60.0
  1
１／２０
  0
TEXT
  5
599
  8
0
 10
16688.5016593662
 20
-14305.42533250582
 30
0.0
 40
120.0
  1
ＷＴ－５０００
  0
TEXT
  5
59A
  8
0
 10
16705.30447692957
 20
-14535.48326850649
 30
0.0
 40
96.0
  1
製品図
  0
DIMENSION
  5
5AC
  8
寸法線
  2
*D0
 10
11066.53627129373
 20
-11987.04013277169
 30
0.0
 11
11002.53627129373
 21
-13012.04013277168
 31
0.0
 70
    32
 13
11382.40777938466
 23
-14037.04013277168
 33
0.0
 14
11382.40777938466
 24
-11987.04013277169
 34
0.0
 50
90.0
  0
DIMENSION
  5
5B9
  8
寸法線
  2
*D1
 10
11066.53627129373
 20
-11987.04013277169
 30
0.0
 11
11066.53627129373
 21
-11772.04014707681
 31
0.0
 70
   160
 13
12297.40773182019
 23
-11557.04016138193
 33
0.0
 14
11386.44982318982
 24
-11987.04013277169
 34
0.0
 50
90.0
  0
POLYLINE
  5
5D3
  8
寸法線
 66
     1
 10
0.0
 20
0.0
 30
0.0
  0
VERTEX
  5
20EF
  8
寸法線
 10
11682.40798589771
 20
-11847.04017091866
 30
0.0
  0
VERTEX
  5
20F0
  8
寸法線
 10
11682.40798589771
 20
-11845.85287148761
 30
0.0
  0
SEQEND
  5
21AF
  8
寸法線
  0
DIMENSION
  5
5D5
  8
寸法線
  2
*D2
 10
11682.40798589771
 20
-11696.38520361638
 30
0.0
 11
11532.40798589771
 21
-11632.38520361638
 31
0.0
 70
    32
 13
11382.40798589771
 23
-11847.04017091866
 33
0.0
 14
11682.40798589771
 24
-11847.04017091866
 34
0.0
  0
DIMENSION
  5
5E4
  8
寸法線
  2
*D3
 10
10652.17949635362
 20
-11557.04016138193
 30
0.0
 11
10588.17949635362
 21
-12797.0401470768
 31
0.0
 70
    32
 13
11382.40777938466
 23
-14037.04013277168
 33
0.0
 14
12297.4076092459
 24
-11557.04016138193
 34
0.0
 50
90.0
  0
DIMENSION
  5
605
  8
寸法線
  2
*D4
 10
13242.40769188508
 20
-14565.08478488455
 30
0.0
 11
12297.40772138938
 21
-14501.08478488455
 31
0.0
 70
    32
  1
O.D%%c<>
 13
11352.40775089368
 23
-14007.04013455983
 33
0.0
 14
13242.40769188508
 24
-14007.04013455983
 34
0.0
  0
LINE
  5
6AD
  8
0
  6
CENTER
 10
11532.40773182019
 20
-11736.11358179804
 30
0.0
 11
11532.40773182019
 21
-11916.57916821455
 31
0.0
  0
LINE
  5
6AE
  8
0
  6
CENTER
 10
13062.40773182019
 20
-11736.11358179804
 30
0.0
 11
13062.40773182019
 21
-11916.57916821455
 31
0.0
  0
DIMENSION
  5
87F
  8
寸法線
  2
*D6
 10
12532.40772656715
 20
-11371.48902226349
 30
0.0
 11
12297.40773182019
 21
-11371.48902226349
 31
0.0
 70
   160
  1
I.D%%c<>
 13
12062.40773707323
 23
-11617.04010416126
 33
0.0
 14
12532.40772656715
 24
-11617.04010416127
 34
0.0
  0
LINE
  5
E23
  8
0
 10
11982.40774556651
 20
-11617.04010416147
 30
0.0
 11
12612.40771807387
 21
-11617.04010416147
 31
0.0
  0
LINE
  5
E24
  8
0
 10
11982.40774556651
 20
-11652.04014230844
 30
0.0
 11
12612.40771807387
 21
-11652.04014230844
 31
0.0
  0
LINE
  5
E25
  8
0
 10
12022.40774579003
 20
-11652.04014230844
 30
0.0
 11
12022.40774579003
 21
-11718.48754088804
 31
0.0
  0
LINE
  5
E26
  8
0
 10
12572.40771785035
 20
-11652.04014230844
 30
0.0
 11
12572.40771785035
 21
-11718.48754088804
 31
0.0
  0
LINE
  5
E27
  8
0
 10
11982.40774556651
 20
-11652.04014230844
 30
0.0
 11
11982.40774556651
 21
-11617.04010416147
 31
0.0
  0
LINE
  5
E28
  8
0
 10
12612.40771807387
 20
-11652.04014230844
 30
0.0
 11
12612.40771807387
 21
-11617.04010416147
 31
0.0
  0
ARC
  5
E29
  8
0
 10
12297.40773182019
 20
-12047.24888442138
 30
0.0
 40
490.208723039455
 50
61.35458562419835
 51
118.6454143758017
  0
CIRCLE
  5
E85
  8
0
 10
15898.01628382088
 20
-11031.87945289737
 30
0.0
 40
235.0
  0
CIRCLE
  5
E86
  8
0
 10
15898.01628382088
 20
-11031.87945289737
 30
0.0
 40
315.0
  0
DIMENSION
  5
E8F
  8
寸法線
  2
*D7
 10
15678.09735178199
 20
-11114.70857417049
 30
0.0
 11
15819.40696343251
 21
-11061.48645794818
 31
0.0
 70
   163
  1
I.D<>
 15
16117.93521585976
 25
-10949.05033162424
 35
0.0
 40
0.0
  0
TEXT
  5
F47
  8
0
 10
15628.98649663469
 20
-14881.60564709642
 30
0.0
 40
80.0
  1
北海道スイコー株式会社
 41
0.75
  0
LINE
  5
17A9
  8
0
 10
15313.71651750244
 20
-13023.48216907535
 30
0.0
 11
15453.71651750244
 21
-13023.48216907535
 31
0.0
  0
LINE
  5
17AA
  8
0
 10
15313.71651750244
 20
-13023.48216907535
 30
0.0
 11
15313.71651750244
 21
-13143.48216907535
 31
0.0
  0
LINE
  5
17AB
  8
0
 10
15453.71651750244
 20
-13023.48216907535
 30
0.0
 11
15593.71651750244
 21
-13023.48216907535
 31
0.0
  0
LINE
  5
17AC
  8
0
 10
15593.71651750244
 20
-13023.48216907535
 30
0.0
 11
15733.71651750244
 21
-13023.48216907535
 31
0.0
  0
LINE
  5
17AD
  8
0
 10
15593.71651750244
 20
-13023.48216907535
 30
0.0
 11
15593.71651750244
 21
-13143.48216907535
 31
0.0
  0
LINE
  5
17AE
  8
0
 10
15733.71651750244
 20
-13023.48216907535
 30
0.0
 11
15873.71651750244
 21
-13023.48216907535
 31
0.0
  0
LINE
  5
17AF
  8
0
 10
15873.71651750244
 20
-13023.48216907535
 30
0.0
 11
16013.71651750244
 21
-13023.48216907535
 31
0.0
  0
LINE
  5
17B0
  8
0
 10
16013.71651750244
 20
-13023.48216907535
 30
0.0
 11
16153.71651750244
 21
-13023.48216907535
 31
0.0
  0
LINE
  5
17B1
  8
0
 10
16153.71651750244
 20
-13023.48216907535
 30
0.0
 11
16293.71651750244
 21
-13023.48216907535
 31
0.0
  0
LINE
  5
17B2
  8
0
 10
16293.71651750244
 20
-13023.48216907535
 30
0.0
 11
16433.71651750244
 21
-13023.48216907535
 31
0.0
  0
LINE
  5
17B3
  8
0
 10
16293.71651750244
 20
-13023.48216907535
 30
0.0
 11
16293.71651750244
 21
-13143.48216907535
 31
0.0
  0
LINE
  5
17B4
  8
0
 10
16433.71651750244
 20
-13023.48216907535
 30
0.0
 11
16573.71651750244
 21
-13023.48216907535
 31
0.0
  0
LINE
  5
17B5
  8
0
 10
16573.71651750244
 20
-13023.48216907535
 30
0.0
 11
16713.71651750244
 21
-13023.48216907535
 31
0.0
  0
LINE
  5
17B6
  8
0
 10
16573.71651750244
 20
-13023.48216907535
 30
0.0
 11
16573.71651750244
 21
-13143.48216907535
 31
0.0
  0
LINE
  5
17B7
  8
0
 10
16713.71651750244
 20
-13023.48216907535
 30
0.0
 11
16853.71651750244
 21
-13023.48216907535
 31
0.0
  0
LINE
  5
17B8
  8
0
 10
16853.71651750244
 20
-13023.48216907535
 30
0.0
 11
16993.71651750244
 21
-13023.48216907535
 31
0.0
  0
LINE
  5
17B9
  8
0
 10
16853.71651750244
 20
-13023.48216907535
 30
0.0
 11
16853.71651750244
 21
-13143.48216907535
 31
0.0
  0
LINE
  5
17BA
  8
0
 10
16993.71651750244
 20
-13023.48216907535
 30
0.0
 11
17133.71651750244
 21
-13023.48216907535
 31
0.0
  0
LINE
  5
17BB
  8
0
 10
17133.71651750244
 20
-13023.48216907535
 30
0.0
 11
17273.71651750244
 21
-13023.48216907535
 31
0.0
  0
LINE
  5
17BC
  8
0
 10
17133.71651750244
 20
-13023.48216907535
 30
0.0
 11
17133.71651750244
 21
-13143.48216907535
 31
0.0
  0
LINE
  5
17BD
  8
0
 10
17273.71651750244
 20
-13023.48216907535
 30
0.0
 11
17413.71651750244
 21
-13023.48216907535
 31
0.0
  0
LINE
  5
17BE
  8
0
 10
17413.71651750244
 20
-13023.48216907535
 30
0.0
 11
17553.71651750244
 21
-13023.48216907535
 31
0.0
  0
LINE
  5
17BF
  8
0
 10
17553.71651750244
 20
-13023.48216907535
 30
0.0
 11
17693.71651750244
 21
-13023.48216907535
 31
0.0
  0
LINE
  5
17C0
  8
0
 10
17693.71651750244
 20
-13023.48216907535
 30
0.0
 11
17833.71651750244
 21
-13023.48216907535
 31
0.0
  0
LINE
  5
17C1
  8
0
 10
17833.71651750244
 20
-13023.48216907535
 30
0.0
 11
17973.71651750244
 21
-13023.48216907535
 31
0.0
  0
LINE
  5
17C2
  8
0
 10
15313.71651750244
 20
-13143.48216907535
 30
0.0
 11
15453.71651750244
 21
-13143.48216907535
 31
0.0
  0
LINE
  5
17C3
  8
0
 10
15313.71651750244
 20
-13143.48216907535
 30
0.0
 11
15313.71651750244
 21
-13263.48216907535
 31
0.0
  0
LINE
  5
17C4
  8
0
 10
15453.71651750244
 20
-13143.48216907535
 30
0.0
 11
15593.71651750244
 21
-13143.48216907535
 31
0.0
  0
LINE
  5
17C5
  8
0
 10
15593.71651750244
 20
-13143.48216907535
 30
0.0
 11
15733.71651750244
 21
-13143.48216907535
 31
0.0
  0
LINE
  5
17C6
  8
0
 10
15593.71651750244
 20
-13143.48216907535
 30
0.0
 11
15593.71651750244
 21
-13263.48216907535
 31
0.0
  0
LINE
  5
17C7
  8
0
 10
15733.71651750244
 20
-13143.48216907535
 30
0.0
 11
15873.71651750244
 21
-13143.48216907535
 31
0.0
  0
LINE
  5
17C8
  8
0
 10
15873.71651750244
 20
-13143.48216907535
 30
0.0
 11
16013.71651750244
 21
-13143.48216907535
 31
0.0
  0
LINE
  5
17C9
  8
0
 10
16013.71651750244
 20
-13143.48216907535
 30
0.0
 11
16153.71651750244
 21
-13143.48216907535
 31
0.0
  0
LINE
  5
17CA
  8
0
 10
16153.71651750244
 20
-13143.48216907535
 30
0.0
 11
16293.71651750244
 21
-13143.48216907535
 31
0.0
  0
LINE
  5
17CB
  8
0
 10
16293.71651750244
 20
-13143.48216907535
 30
0.0
 11
16433.71651750244
 21
-13143.48216907535
 31
0.0
  0
LINE
  5
17CC
  8
0
 10
16293.71651750244
 20
-13143.48216907535
 30
0.0
 11
16293.71651750244
 21
-13263.48216907535
 31
0.0
  0
LINE
  5
17CD
  8
0
 10
16433.71651750244
 20
-13143.48216907535
 30
0.0
 11
16573.71651750244
 21
-13143.48216907535
 31
0.0
  0
LINE
  5
17CE
  8
0
 10
16573.71651750244
 20
-13143.48216907535
 30
0.0
 11
16713.71651750244
 21
-13143.48216907535
 31
0.0
  0
LINE
  5
17CF
  8
0
 10
16573.71651750244
 20
-13143.48216907535
 30
0.0
 11
16573.71651750244
 21
-13263.48216907535
 31
0.0
  0
LINE
  5
17D0
  8
0
 10
16713.71651750244
 20
-13143.48216907535
 30
0.0
 11
16853.71651750244
 21
-13143.48216907535
 31
0.0
  0
LINE
  5
17D1
  8
0
 10
16853.71651750244
 20
-13143.48216907535
 30
0.0
 11
16993.71651750244
 21
-13143.48216907535
 31
0.0
  0
LINE
  5
17D2
  8
0
 10
16853.71651750244
 20
-13143.48216907535
 30
0.0
 11
16853.71651750244
 21
-13263.48216907535
 31
0.0
  0
LINE
  5
17D3
  8
0
 10
16993.71651750244
 20
-13143.48216907535
 30
0.0
 11
17133.71651750244
 21
-13143.48216907535
 31
0.0
  0
LINE
  5
17D4
  8
0
 10
17133.71651750244
 20
-13143.48216907535
 30
0.0
 11
17273.71651750244
 21
-13143.48216907535
 31
0.0
  0
LINE
  5
17D5
  8
0
 10
17133.71651750244
 20
-13143.48216907535
 30
0.0
 11
17133.71651750244
 21
-13263.48216907535
 31
0.0
  0
LINE
  5
17D6
  8
0
 10
17273.71651750244
 20
-13143.48216907535
 30
0.0
 11
17413.71651750244
 21
-13143.48216907535
 31
0.0
  0
LINE
  5
17D7
  8
0
 10
17413.71651750244
 20
-13143.48216907535
 30
0.0
 11
17553.71651750244
 21
-13143.48216907535
 31
0.0
  0
LINE
  5
17D8
  8
0
 10
17553.71651750244
 20
-13143.48216907535
 30
0.0
 11
17693.71651750244
 21
-13143.48216907535
 31
0.0
  0
LINE
  5
17D9
  8
0
 10
17693.71651750244
 20
-13143.48216907535
 30
0.0
 11
17833.71651750244
 21
-13143.48216907535
 31
0.0
  0
LINE
  5
17DA
  8
0
 10
17833.71651750244
 20
-13143.48216907535
 30
0.0
 11
17973.71651750244
 21
-13143.48216907535
 31
0.0
  0
LINE
  5
17DB
  8
0
 10
15313.71651750244
 20
-13263.48216907535
 30
0.0
 11
15453.71651750244
 21
-13263.48216907535
 31
0.0
  0
LINE
  5
17DC
  8
0
 10
15313.71651750244
 20
-13263.48216907535
 30
0.0
 11
15313.71651750244
 21
-13383.48216907535
 31
0.0
  0
LINE
  5
17DD
  8
0
 10
15453.71651750244
 20
-13263.48216907535
 30
0.0
 11
15593.71651750244
 21
-13263.48216907535
 31
0.0
  0
LINE
  5
17DE
  8
0
 10
15593.71651750244
 20
-13263.48216907535
 30
0.0
 11
15733.71651750244
 21
-13263.48216907535
 31
0.0
  0
LINE
  5
17DF
  8
0
 10
15593.71651750244
 20
-13263.48216907535
 30
0.0
 11
15593.71651750244
 21
-13383.48216907535
 31
0.0
  0
LINE
  5
17E0
  8
0
 10
15733.71651750244
 20
-13263.48216907535
 30
0.0
 11
15873.71651750244
 21
-13263.48216907535
 31
0.0
  0
LINE
  5
17E1
  8
0
 10
15873.71651750244
 20
-13263.48216907535
 30
0.0
 11
16013.71651750244
 21
-13263.48216907535
 31
0.0
  0
LINE
  5
17E2
  8
0
 10
16013.71651750244
 20
-13263.48216907535
 30
0.0
 11
16153.71651750244
 21
-13263.48216907535
 31
0.0
  0
LINE
  5
17E3
  8
0
 10
16153.71651750244
 20
-13263.48216907535
 30
0.0
 11
16293.71651750244
 21
-13263.48216907535
 31
0.0
  0
LINE
  5
17E4
  8
0
 10
16293.71651750244
 20
-13263.48216907535
 30
0.0
 11
16433.71651750244
 21
-13263.48216907535
 31
0.0
  0
LINE
  5
17E5
  8
0
 10
16293.71651750244
 20
-13263.48216907535
 30
0.0
 11
16293.71651750244
 21
-13383.48216907535
 31
0.0
  0
LINE
  5
17E6
  8
0
 10
16433.71651750244
 20
-13263.48216907535
 30
0.0
 11
16573.71651750244
 21
-13263.48216907535
 31
0.0
  0
LINE
  5
17E7
  8
0
 10
16573.71651750244
 20
-13263.48216907535
 30
0.0
 11
16713.71651750244
 21
-13263.48216907535
 31
0.0
  0
LINE
  5
17E8
  8
0
 10
16573.71651750244
 20
-13263.48216907535
 30
0.0
 11
16573.71651750244
 21
-13383.48216907535
 31
0.0
  0
LINE
  5
17E9
  8
0
 10
16713.71651750244
 20
-13263.48216907535
 30
0.0
 11
16853.71651750244
 21
-13263.48216907535
 31
0.0
  0
LINE
  5
17EA
  8
0
 10
16853.71651750244
 20
-13263.48216907535
 30
0.0
 11
16993.71651750244
 21
-13263.48216907535
 31
0.0
  0
LINE
  5
17EB
  8
0
 10
16853.71651750244
 20
-13263.48216907535
 30
0.0
 11
16853.71651750244
 21
-13383.48216907535
 31
0.0
  0
LINE
  5
17EC
  8
0
 10
16993.71651750244
 20
-13263.48216907535
 30
0.0
 11
17133.71651750244
 21
-13263.48216907535
 31
0.0
  0
LINE
  5
17ED
  8
0
 10
17133.71651750244
 20
-13263.48216907535
 30
0.0
 11
17273.71651750244
 21
-13263.48216907535
 31
0.0
  0
LINE
  5
17EE
  8
0
 10
17133.71651750244
 20
-13263.48216907535
 30
0.0
 11
17133.71651750244
 21
-13383.48216907535
 31
0.0
  0
LINE
  5
17EF
  8
0
 10
17273.71651750244
 20
-13263.48216907535
 30
0.0
 11
17413.71651750244
 21
-13263.48216907535
 31
0.0
  0
LINE
  5
17F0
  8
0
 10
17413.71651750244
 20
-13263.48216907535
 30
0.0
 11
17553.71651750244
 21
-13263.48216907535
 31
0.0
  0
LINE
  5
17F1
  8
0
 10
17553.71651750244
 20
-13263.48216907535
 30
0.0
 11
17693.71651750244
 21
-13263.48216907535
 31
0.0
  0
LINE
  5
17F2
  8
0
 10
17693.71651750244
 20
-13263.48216907535
 30
0.0
 11
17833.71651750244
 21
-13263.48216907535
 31
0.0
  0
LINE
  5
17F3
  8
0
 10
17833.71651750244
 20
-13263.48216907535
 30
0.0
 11
17973.71651750244
 21
-13263.48216907535
 31
0.0
  0
LINE
  5
17F4
  8
0
 10
15313.71651750244
 20
-13383.48216907535
 30
0.0
 11
15453.71651750244
 21
-13383.48216907535
 31
0.0
  0
LINE
  5
17F5
  8
0
 10
15453.71651750244
 20
-13383.48216907535
 30
0.0
 11
15593.71651750244
 21
-13383.48216907535
 31
0.0
  0
LINE
  5
17F6
  8
0
 10
15593.71651750244
 20
-13383.48216907535
 30
0.0
 11
15733.71651750244
 21
-13383.48216907535
 31
0.0
  0
LINE
  5
17F7
  8
0
 10
15733.71651750244
 20
-13383.48216907535
 30
0.0
 11
15873.71651750244
 21
-13383.48216907535
 31
0.0
  0
LINE
  5
17F8
  8
0
 10
15873.71651750244
 20
-13383.48216907535
 30
0.0
 11
16013.71651750244
 21
-13383.48216907535
 31
0.0
  0
LINE
  5
17F9
  8
0
 10
16013.71651750244
 20
-13383.48216907535
 30
0.0
 11
16153.71651750244
 21
-13383.48216907535
 31
0.0
  0
LINE
  5
17FA
  8
0
 10
16153.71651750244
 20
-13383.48216907535
 30
0.0
 11
16293.71651750244
 21
-13383.48216907535
 31
0.0
  0
LINE
  5
17FB
  8
0
 10
16293.71651750244
 20
-13383.48216907535
 30
0.0
 11
16433.71651750244
 21
-13383.48216907535
 31
0.0
  0
LINE
  5
17FC
  8
0
 10
16433.71651750244
 20
-13383.48216907535
 30
0.0
 11
16573.71651750244
 21
-13383.48216907535
 31
0.0
  0
LINE
  5
17FD
  8
0
 10
16573.71651750244
 20
-13383.48216907535
 30
0.0
 11
16713.71651750244
 21
-13383.48216907535
 31
0.0
  0
LINE
  5
17FE
  8
0
 10
16713.71651750244
 20
-13383.48216907535
 30
0.0
 11
16853.71651750244
 21
-13383.48216907535
 31
0.0
  0
LINE
  5
17FF
  8
0
 10
16853.71651750244
 20
-13383.48216907535
 30
0.0
 11
16993.71651750244
 21
-13383.48216907535
 31
0.0
  0
LINE
  5
1800
  8
0
 10
16993.71651750244
 20
-13383.48216907535
 30
0.0
 11
17133.71651750244
 21
-13383.48216907535
 31
0.0
  0
LINE
  5
1801
  8
0
 10
17133.71651750244
 20
-13383.48216907535
 30
0.0
 11
17273.71651750244
 21
-13383.48216907535
 31
0.0
  0
LINE
  5
1802
  8
0
 10
17273.71651750244
 20
-13383.48216907535
 30
0.0
 11
17413.71651750244
 21
-13383.48216907535
 31
0.0
  0
LINE
  5
1803
  8
0
 10
17413.71651750244
 20
-13383.48216907535
 30
0.0
 11
17553.71651750244
 21
-13383.48216907535
 31
0.0
  0
LINE
  5
1804
  8
0
 10
17553.71651750244
 20
-13383.48216907535
 30
0.0
 11
17693.71651750244
 21
-13383.48216907535
 31
0.0
  0
LINE
  5
1805
  8
0
 10
17693.71651750244
 20
-13383.48216907535
 30
0.0
 11
17833.71651750244
 21
-13383.48216907535
 31
0.0
  0
LINE
  5
1806
  8
0
 10
17833.71651750244
 20
-13383.48216907535
 30
0.0
 11
17973.71651750244
 21
-13383.48216907535
 31
0.0
  0
LINE
  5
1807
  8
0
 10
15313.71651750244
 20
-13383.48216907535
 30
0.0
 11
15453.71651750244
 21
-13383.48216907535
 31
0.0
  0
LINE
  5
1808
  8
0
 10
15313.71651750244
 20
-13383.48216907535
 30
0.0
 11
15313.71651750244
 21
-13503.48216907535
 31
0.0
  0
LINE
  5
1809
  8
0
 10
15453.71651750244
 20
-13383.48216907535
 30
0.0
 11
15593.71651750244
 21
-13383.48216907535
 31
0.0
  0
LINE
  5
180A
  8
0
 10
15593.71651750244
 20
-13383.48216907535
 30
0.0
 11
15733.71651750244
 21
-13383.48216907535
 31
0.0
  0
LINE
  5
180B
  8
0
 10
15593.71651750244
 20
-13383.48216907535
 30
0.0
 11
15593.71651750244
 21
-13503.48216907535
 31
0.0
  0
LINE
  5
180C
  8
0
 10
15733.71651750244
 20
-13383.48216907535
 30
0.0
 11
15873.71651750244
 21
-13383.48216907535
 31
0.0
  0
LINE
  5
180D
  8
0
 10
15873.71651750244
 20
-13383.48216907535
 30
0.0
 11
16013.71651750244
 21
-13383.48216907535
 31
0.0
  0
LINE
  5
180E
  8
0
 10
16013.71651750244
 20
-13383.48216907535
 30
0.0
 11
16153.71651750244
 21
-13383.48216907535
 31
0.0
  0
LINE
  5
180F
  8
0
 10
16153.71651750244
 20
-13383.48216907535
 30
0.0
 11
16293.71651750244
 21
-13383.48216907535
 31
0.0
  0
LINE
  5
1810
  8
0
 10
16293.71651750244
 20
-13383.48216907535
 30
0.0
 11
16433.71651750244
 21
-13383.48216907535
 31
0.0
  0
LINE
  5
1811
  8
0
 10
16293.71651750244
 20
-13383.48216907535
 30
0.0
 11
16293.71651750244
 21
-13503.48216907535
 31
0.0
  0
LINE
  5
1812
  8
0
 10
16433.71651750244
 20
-13383.48216907535
 30
0.0
 11
16573.71651750244
 21
-13383.48216907535
 31
0.0
  0
LINE
  5
1813
  8
0
 10
16573.71651750244
 20
-13383.48216907535
 30
0.0
 11
16713.71651750244
 21
-13383.48216907535
 31
0.0
  0
LINE
  5
1814
  8
0
 10
16573.71651750244
 20
-13383.48216907535
 30
0.0
 11
16573.71651750244
 21
-13503.48216907535
 31
0.0
  0
LINE
  5
1815
  8
0
 10
16713.71651750244
 20
-13383.48216907535
 30
0.0
 11
16853.71651750244
 21
-13383.48216907535
 31
0.0
  0
LINE
  5
1816
  8
0
 10
16853.71651750244
 20
-13383.48216907535
 30
0.0
 11
16993.71651750244
 21
-13383.48216907535
 31
0.0
  0
LINE
  5
1817
  8
0
 10
16853.71651750244
 20
-13383.48216907535
 30
0.0
 11
16853.71651750244
 21
-13503.48216907535
 31
0.0
  0
LINE
  5
1818
  8
0
 10
16993.71651750244
 20
-13383.48216907535
 30
0.0
 11
17133.71651750244
 21
-13383.48216907535
 31
0.0
  0
LINE
  5
1819
  8
0
 10
17133.71651750244
 20
-13383.48216907535
 30
0.0
 11
17273.71651750244
 21
-13383.48216907535
 31
0.0
  0
LINE
  5
181A
  8
0
 10
17133.71651750244
 20
-13383.48216907535
 30
0.0
 11
17133.71651750244
 21
-13503.48216907535
 31
0.0
  0
LINE
  5
181B
  8
0
 10
17273.71651750244
 20
-13383.48216907535
 30
0.0
 11
17413.71651750244
 21
-13383.48216907535
 31
0.0
  0
LINE
  5
181C
  8
0
 10
17413.71651750244
 20
-13383.48216907535
 30
0.0
 11
17553.71651750244
 21
-13383.48216907535
 31
0.0
  0
LINE
  5
181D
  8
0
 10
17553.71651750244
 20
-13383.48216907535
 30
0.0
 11
17693.71651750244
 21
-13383.48216907535
 31
0.0
  0
LINE
  5
181E
  8
0
 10
17693.71651750244
 20
-13383.48216907535
 30
0.0
 11
17833.71651750244
 21
-13383.48216907535
 31
0.0
  0
LINE
  5
181F
  8
0
 10
17833.71651750244
 20
-13383.48216907535
 30
0.0
 11
17973.71651750244
 21
-13383.48216907535
 31
0.0
  0
LINE
  5
1820
  8
0
 10
15313.71651750244
 20
-13503.48216907535
 30
0.0
 11
15453.71651750244
 21
-13503.48216907535
 31
0.0
  0
LINE
  5
1821
  8
0
 10
15313.71651750244
 20
-13503.48216907535
 30
0.0
 11
15313.71651750244
 21
-13623.48216907535
 31
0.0
  0
LINE
  5
1822
  8
0
 10
15453.71651750244
 20
-13503.48216907535
 30
0.0
 11
15593.71651750244
 21
-13503.48216907535
 31
0.0
  0
LINE
  5
1823
  8
0
 10
15593.71651750244
 20
-13503.48216907535
 30
0.0
 11
15733.71651750244
 21
-13503.48216907535
 31
0.0
  0
LINE
  5
1824
  8
0
 10
15593.71651750244
 20
-13503.48216907535
 30
0.0
 11
15593.71651750244
 21
-13623.48216907535
 31
0.0
  0
LINE
  5
1825
  8
0
 10
15733.71651750244
 20
-13503.48216907535
 30
0.0
 11
15873.71651750244
 21
-13503.48216907535
 31
0.0
  0
LINE
  5
1826
  8
0
 10
15873.71651750244
 20
-13503.48216907535
 30
0.0
 11
16013.71651750244
 21
-13503.48216907535
 31
0.0
  0
LINE
  5
1827
  8
0
 10
16013.71651750244
 20
-13503.48216907535
 30
0.0
 11
16153.71651750244
 21
-13503.48216907535
 31
0.0
  0
LINE
  5
1828
  8
0
 10
16153.71651750244
 20
-13503.48216907535
 30
0.0
 11
16293.71651750244
 21
-13503.48216907535
 31
0.0
  0
LINE
  5
1829
  8
0
 10
16293.71651750244
 20
-13503.48216907535
 30
0.0
 11
16433.71651750244
 21
-13503.48216907535
 31
0.0
  0
LINE
  5
182A
  8
0
 10
16293.71651750244
 20
-13503.48216907535
 30
0.0
 11
16293.71651750244
 21
-13623.48216907535
 31
0.0
  0
LINE
  5
182B
  8
0
 10
16433.71651750244
 20
-13503.48216907535
 30
0.0
 11
16573.71651750244
 21
-13503.48216907535
 31
0.0
  0
LINE
  5
182C
  8
0
 10
16573.71651750244
 20
-13503.48216907535
 30
0.0
 11
16713.71651750244
 21
-13503.48216907535
 31
0.0
  0
LINE
  5
182D
  8
0
 10
16573.71651750244
 20
-13503.48216907535
 30
0.0
 11
16573.71651750244
 21
-13623.48216907535
 31
0.0
  0
LINE
  5
182E
  8
0
 10
16713.71651750244
 20
-13503.48216907535
 30
0.0
 11
16853.71651750244
 21
-13503.48216907535
 31
0.0
  0
LINE
  5
182F
  8
0
 10
16853.71651750244
 20
-13503.48216907535
 30
0.0
 11
16993.71651750244
 21
-13503.48216907535
 31
0.0
  0
LINE
  5
1830
  8
0
 10
16853.71651750244
 20
-13503.48216907535
 30
0.0
 11
16853.71651750244
 21
-13623.48216907535
 31
0.0
  0
LINE
  5
1831
  8
0
 10
16993.71651750244
 20
-13503.48216907535
 30
0.0
 11
17133.71651750244
 21
-13503.48216907535
 31
0.0
  0
LINE
  5
1832
  8
0
 10
17133.71651750244
 20
-13503.48216907535
 30
0.0
 11
17273.71651750244
 21
-13503.48216907535
 31
0.0
  0
LINE
  5
1833
  8
0
 10
17133.71651750244
 20
-13503.48216907535
 30
0.0
 11
17133.71651750244
 21
-13623.48216907535
 31
0.0
  0
LINE
  5
1834
  8
0
 10
17273.71651750244
 20
-13503.48216907535
 30
0.0
 11
17413.71651750244
 21
-13503.48216907535
 31
0.0
  0
LINE
  5
1835
  8
0
 10
17413.71651750244
 20
-13503.48216907535
 30
0.0
 11
17553.71651750244
 21
-13503.48216907535
 31
0.0
  0
LINE
  5
1836
  8
0
 10
17553.71651750244
 20
-13503.48216907535
 30
0.0
 11
17693.71651750244
 21
-13503.48216907535
 31
0.0
  0
LINE
  5
1837
  8
0
 10
17693.71651750244
 20
-13503.48216907535
 30
0.0
 11
17833.71651750244
 21
-13503.48216907535
 31
0.0
  0
LINE
  5
1838
  8
0
 10
17833.71651750244
 20
-13503.48216907535
 30
0.0
 11
17973.71651750244
 21
-13503.48216907535
 31
0.0
  0
LINE
  5
1839
  8
0
 10
15313.71651750244
 20
-13623.48216907535
 30
0.0
 11
15453.71651750244
 21
-13623.48216907535
 31
0.0
  0
LINE
  5
183A
  8
0
 10
15313.71651750244
 20
-13623.48216907535
 30
0.0
 11
15313.71651750244
 21
-13743.48216907535
 31
0.0
  0
LINE
  5
183B
  8
0
 10
15453.71651750244
 20
-13623.48216907535
 30
0.0
 11
15593.71651750244
 21
-13623.48216907535
 31
0.0
  0
LINE
  5
183C
  8
0
 10
15593.71651750244
 20
-13623.48216907535
 30
0.0
 11
15733.71651750244
 21
-13623.48216907535
 31
0.0
  0
LINE
  5
183D
  8
0
 10
15593.71651750244
 20
-13623.48216907535
 30
0.0
 11
15593.71651750244
 21
-13743.48216907535
 31
0.0
  0
LINE
  5
183E
  8
0
 10
15733.71651750244
 20
-13623.48216907535
 30
0.0
 11
15873.71651750244
 21
-13623.48216907535
 31
0.0
  0
LINE
  5
183F
  8
0
 10
15873.71651750244
 20
-13623.48216907535
 30
0.0
 11
16013.71651750244
 21
-13623.48216907535
 31
0.0
  0
LINE
  5
1840
  8
0
 10
16013.71651750244
 20
-13623.48216907535
 30
0.0
 11
16153.71651750244
 21
-13623.48216907535
 31
0.0
  0
LINE
  5
1841
  8
0
 10
16153.71651750244
 20
-13623.48216907535
 30
0.0
 11
16293.71651750244
 21
-13623.48216907535
 31
0.0
  0
LINE
  5
1842
  8
0
 10
16293.71651750244
 20
-13623.48216907535
 30
0.0
 11
16433.71651750244
 21
-13623.48216907535
 31
0.0
  0
LINE
  5
1843
  8
0
 10
16293.71651750244
 20
-13623.48216907535
 30
0.0
 11
16293.71651750244
 21
-13743.48216907535
 31
0.0
  0
LINE
  5
1844
  8
0
 10
16433.71651750244
 20
-13623.48216907535
 30
0.0
 11
16573.71651750244
 21
-13623.48216907535
 31
0.0
  0
LINE
  5
1845
  8
0
 10
16573.71651750244
 20
-13623.48216907535
 30
0.0
 11
16713.71651750244
 21
-13623.48216907535
 31
0.0
  0
LINE
  5
1846
  8
0
 10
16573.71651750244
 20
-13623.48216907535
 30
0.0
 11
16573.71651750244
 21
-13743.48216907535
 31
0.0
  0
LINE
  5
1847
  8
0
 10
16713.71651750244
 20
-13623.48216907535
 30
0.0
 11
16853.71651750244
 21
-13623.48216907535
 31
0.0
  0
LINE
  5
1848
  8
0
 10
16853.71651750244
 20
-13623.48216907535
 30
0.0
 11
16993.71651750244
 21
-13623.48216907535
 31
0.0
  0
LINE
  5
1849
  8
0
 10
16853.71651750244
 20
-13623.48216907535
 30
0.0
 11
16853.71651750244
 21
-13743.48216907535
 31
0.0
  0
LINE
  5
184A
  8
0
 10
16993.71651750244
 20
-13623.48216907535
 30
0.0
 11
17133.71651750244
 21
-13623.48216907535
 31
0.0
  0
LINE
  5
184B
  8
0
 10
17133.71651750244
 20
-13623.48216907535
 30
0.0
 11
17273.71651750244
 21
-13623.48216907535
 31
0.0
  0
LINE
  5
184C
  8
0
 10
17133.71651750244
 20
-13623.48216907535
 30
0.0
 11
17133.71651750244
 21
-13743.48216907535
 31
0.0
  0
LINE
  5
184D
  8
0
 10
17273.71651750244
 20
-13623.48216907535
 30
0.0
 11
17413.71651750244
 21
-13623.48216907535
 31
0.0
  0
LINE
  5
184E
  8
0
 10
17413.71651750244
 20
-13623.48216907535
 30
0.0
 11
17553.71651750244
 21
-13623.48216907535
 31
0.0
  0
LINE
  5
184F
  8
0
 10
17553.71651750244
 20
-13623.48216907535
 30
0.0
 11
17693.71651750244
 21
-13623.48216907535
 31
0.0
  0
LINE
  5
1850
  8
0
 10
17693.71651750244
 20
-13623.48216907535
 30
0.0
 11
17833.71651750244
 21
-13623.48216907535
 31
0.0
  0
LINE
  5
1851
  8
0
 10
17833.71651750244
 20
-13623.48216907535
 30
0.0
 11
17973.71651750244
 21
-13623.48216907535
 31
0.0
  0
TEXT
  5
1852
  8
0
  6
CONTINUOUS
 10
15350.71300357278
 20
-13712.85368312518
 30
0.0
 40
60.0
  1
品　番
  0
TEXT
  5
1853
  8
0
  6
CONTINUOUS
 10
15758.2680511066
 20
-13710.26086590367
 30
0.0
 40
60.0
  1
名　　　称
  0
TEXT
  5
1854
  8
0
  6
CONTINUOUS
 10
16330.1439014686
 20
-13710.80573042853
 30
0.0
 40
60.0
  1
サイズ
  0
TEXT
  5
1855
  8
0
  6
CONTINUOUS
 10
16605.94959593745
 20
-13711.51617679992
 30
0.0
 40
60.0
  1
材　質
  0
TEXT
  5
1856
  8
0
  6
CONTINUOUS
 10
16888.29079401621
 20
-13712.11132881106
 30
0.0
 40
60.0
  1
個　数
  0
TEXT
  5
1857
  8
0
  6
CONTINUOUS
 10
17362.94270705443
 20
-13712.00129627497
 30
0.0
 40
60.0
  1
摘　　　要
  0
TEXT
  5
1858
  8
0
  6
CONTINUOUS
 10
15443.28925168584
 20
-13595.96826715563
 30
0.0
 40
60.0
  1
１
  0
TEXT
  5
1859
  8
0
  6
CONTINUOUS
 10
15774.87128348456
 20
-13591.21681765897
 30
0.0
 40
60.0
  1
タ　ン　ク
  0
TEXT
  5
185A
  8
0
  6
CONTINUOUS
 10
16609.24229041371
 20
-13593.84318784099
 30
0.0
 40
60.0
  1
Ｐ　Ｅ
  0
TEXT
  5
185B
  8
0
  6
CONTINUOUS
 10
16982.86984718661
 20
-13595.02380741635
 30
0.0
 40
60.0
  1
１
  0
TEXT
  5
185C
  8
0
  6
CONTINUOUS
 10
17170.99108461326
 20
-13588.99932308444
 30
0.0
 40
60.0
  1
（茶）　ｔ＝6
  0
TEXT
  5
185D
  8
0
  6
CONTINUOUS
 10
15435.03533508326
 20
-13472.7568518541
 30
0.0
 40
60.0
  1
２
  0
TEXT
  5
185E
  8
0
  6
CONTINUOUS
 10
15768.69828101021
 20
-13467.60232479505
 30
0.0
 40
60.0
  1
マンホール
  0
TEXT
  5
185F
  8
0
  6
CONTINUOUS
 10
16610.06131431588
 20
-13469.27777446854
 30
0.0
 40
60.0
  1
Ｐ　Ｅ
  0
TEXT
  5
1860
  8
0
  6
CONTINUOUS
 10
17173.88991548098
 20
-13469.16881592531
 30
0.0
 40
60.0
  1
捻込式
  0
TEXT
  5
1861
  8
0
  6
CONTINUOUS
 10
15365.22611892049
 20
-13349.35710773785
 30
0.0
 40
60.0
  1
Ｎ－１
  0
TEXT
  5
1862
  8
0
  6
CONTINUOUS
 10
15363.95035859419
 20
-13230.87328089965
 30
0.0
 40
60.0
  1
Ｎ－２
  0
TEXT
  5
1863
  8
0
  6
CONTINUOUS
 10
15362.34543836652
 20
-13112.54332655383
 30
0.0
 40
60.0
  1
Ｎ－３
  0
TEXT
  5
1864
  8
0
  6
CONTINUOUS
 10
16982.86984718661
 20
-13474.26867124861
 30
0.0
 40
60.0
  1
１
  0
TEXT
  5
1865
  8
0
  6
CONTINUOUS
 10
16982.86984718661
 20
-13354.04870278151
 30
0.0
 40
60.0
  1
１
  0
TEXT
  5
1866
  8
0
  6
CONTINUOUS
 10
16982.86984718661
 20
-13233.66189746413
 30
0.0
 40
60.0
  1
１
  0
TEXT
  5
1867
  8
0
  6
CONTINUOUS
 10
16982.86984718661
 20
-13114.88333699559
 30
0.0
 40
60.0
  1
１
  0
TEXT
  5
1868
  8
0
 10
16343.28374298083
 20
-13356.04302535951
 30
0.0
 40
60.0
  1
６５
  0
TEXT
  5
1869
  8
0
 10
16492.81717713687
 20
-13327.89899208731
 30
0.0
 40
40.0
  1
Ａ
  0
TEXT
  5
186A
  8
0
 10
16343.28374298083
 20
-13237.41465762993
 30
0.0
 40
60.0
  1
６５
  0
TEXT
  5
186B
  8
0
 10
16492.81717713687
 20
-13209.27062435774
 30
0.0
 40
40.0
  1
Ａ
  0
TEXT
  5
186C
  8
0
 10
16337.6214679988
 20
-13590.2772192169
 30
0.0
 40
60.0
  1
５ｍ
  0
TEXT
  5
186D
  8
0
 10
16487.15490215484
 20
-13562.1331859447
 30
0.0
 40
40.0
  1
３
  0
TEXT
  5
186E
  8
0
 10
16315.76431792299
 20
-13468.70702389301
 30
0.0
 40
60.0
  1
φ470
  0
TEXT
  5
186F
  8
0
  6
CONTINUOUS
 10
15774.87128348456
 20
-13356.27211435068
 30
0.0
 40
60.0
  1
液　出　口
  0
TEXT
  5
1870
  8
0
  6
CONTINUOUS
 10
15774.87128348456
 20
-13230.9931921083
 30
0.0
 40
60.0
  1
エアー抜き
  0
TEXT
  5
1871
  8
0
  6
CONTINUOUS
 10
15774.87128348456
 20
-13113.51859396713
 30
0.0
 40
60.0
  1
ゲ　ー　ジ
  0
TEXT
  5
1872
  8
0
 10
16608.70318590093
 20
-13356.90612670651
 30
0.0
 40
60.0
  1
AL/SS
 41
0.7
  0
TEXT
  5
1873
  8
0
 10
16586.65162084505
 20
-13234.49760731166
 30
0.0
 40
60.0
  1
PE/PVC
 41
0.7
  0
TEXT
  5
1875
  8
0
 10
17163.52293908055
 20
-13231.24777422245
 30
0.0
 40
60.0
  1
L型ベント管付
  0
TEXT
  5
1876
  8
0
 10
17162.27002860262
 20
-13112.62394962707
 30
0.0
 40
60.0
  1
ﾁｭｰﾌﾞ式液面計
  0
INSERT
  5
1878
  8
0
  2
*X30
 10
0.0
 20
0.0
 30
0.0
  0
INSERT
  5
1A0B
  8
0
  2
６５ＡエアーＬ_平面図
 10
16663.01624567391
 20
-11031.87945289737
 30
0.0
  0
INSERT
  5
1A0D
  8
0
  2
液面計平面図
 10
15898.01628382088
 20
-11976.87943382388
 30
0.0
  0
INSERT
  5
1A1B
  8
0
 66
     1
  2
N-BALOON
 10
17079.57031861789
 20
-11031.87943687944
 30
0.0
  0
ATTRIB
  5
1A1C
  8
0
 10
17115.75327251719
 20
-11051.70913026631
 30
0.0
 40
40.0
  1
2
  2
NO.
 70
     0
  0
SEQEND
  5
1A1D
  8
0
  0
INSERT
  5
1A1E
  8
0
 66
     1
  2
N-BALOON
 10
15642.95934615084
 20
-12412.97255093642
 30
0.0
  0
ATTRIB
  5
1A1F
  8
0
 10
15679.14230005015
 20
-12432.80224432328
 30
0.0
 40
40.0
  1
1
  2
NO.
 70
     0
  0
SEQEND
  5
1A20
  8
0
  0
INSERT
  5
1A21
  8
0
 66
     1
  2
N-BALOON
 10
15898.01628382088
 20
-12147.53940629668
 30
0.0
  0
ATTRIB
  5
1A22
  8
0
 10
15934.19923772018
 20
-12167.36909968354
 30
0.0
 40
40.0
  1
3
  2
NO.
 70
     0
  0
SEQEND
  5
1A23
  8
0
  0
DIMENSION
  5
1A24
  8
寸法線
  2
*D18
 10
16048.01546739062
 20
-9988.013556271713
 30
0.0
 11
15898.01628382088
 21
-9924.013556271713
 31
0.0
 70
    32
 13
15748.01710025114
 23
-10129.25817289149
 33
0.0
 14
16048.01546739062
 24
-10129.25817289149
 34
0.0
  0
DIMENSION
  5
1A31
  8
寸法線
  2
*D19
 10
16058.01637536628
 20
-9859.210600029413
 30
0.0
 11
15898.01655379502
 21
-9795.210600029413
 31
0.0
 70
    32
 13
15738.01673222376
 23
-10100.52336574189
 33
0.0
 14
16058.01637536628
 24
-10100.52211210028
 34
0.0
  0
TEXT
  5
1A3E
  8
0
 10
15873.26453655763
 20
-9676.44409271997
 30
0.0
 40
60.0
  1
０°
  0
TEXT
  5
1A3F
  8
0
 10
17238.50215552206
 20
-11059.51719418763
 30
0.0
 40
60.0
  1
９０°
  0
TEXT
  5
1A40
  8
0
 10
15799.88279924603
 20
-12318.70206845598
 30
0.0
 40
60.0
  1
１８０°
  0
TEXT
  5
1A41
  8
0
 10
15457.48556562409
 20
-12572.06653376598
 30
0.0
 40
60.0
  1
１９０°
  0
TEXT
  5
1A42
  8
0
 10
14645.6767200527
 20
-11063.11885948207
 30
0.0
 40
60.0
  1
２７０°
  0
INSERT
  5
1A62
  8
0
  2
６５ＡエアーＬ_正面図
 10
13062.40750293835
 20
-11847.04017091866
 30
0.0
  0
LINE
  5
1AD2
  8
細線
  6
CENTER
 10
12297.40773182019
 20
-12059.45596033848
 30
0.0
 11
12297.40773182019
 21
-13957.63695752474
 31
0.0
  0
POINT
  5
1AD3
  8
細線
  6
CONTINUOUS
 10
12305.42917669294
 20
-12108.11449026417
 30
0.0
  0
LINE
  5
1AD4
  8
細線
  6
CONTINUOUS
 10
12290.40773182019
 20
-12102.04013277169
 30
0.0
 11
12304.40773182019
 21
-12102.04013277169
 31
0.0
  0
LINE
  5
1AD5
  8
細線
  6
CONTINUOUS
 10
12290.40773182019
 20
-12087.04013277169
 30
0.0
 11
12290.40773182019
 21
-12102.04013277169
 31
0.0
  0
LINE
  5
1AD6
  8
細線
  6
CONTINUOUS
 10
12304.40773182019
 20
-12087.04013277169
 30
0.0
 11
12304.40773182019
 21
-12102.04013277169
 31
0.0
  0
LINE
  5
1AD7
  8
細線
  6
CENTER
 10
12284.66995707811
 20
-12087.04013277169
 30
0.0
 11
12309.71339168602
 21
-12087.04013277169
 31
0.0
  0
LINE
  5
1AD8
  8
細線
  6
CONTINUOUS
 10
12293.90773182019
 20
-12117.04013277169
 30
0.0
 11
12300.90773182019
 21
-12117.04013277169
 31
0.0
  0
LINE
  5
1AD9
  8
細線
  6
CONTINUOUS
 10
12293.40773182019
 20
-12103.04013277169
 30
0.0
 11
12293.40773182019
 21
-12104.99472455338
 31
0.0
  0
LINE
  5
1ADA
  8
細線
  6
CONTINUOUS
 10
12293.40773182018
 20
-12106.99472455338
 30
0.0
 11
12293.40773182018
 21
-12109.22262813988
 31
0.0
  0
LINE
  5
1ADB
  8
細線
  6
CONTINUOUS
 10
12293.40773182018
 20
-12111.22262813988
 30
0.0
 11
12293.40773182019
 21
-12116.54013277169
 31
0.0
  0
LINE
  5
1ADC
  8
細線
  6
CONTINUOUS
 10
12301.40773182019
 20
-12103.04013277169
 30
0.0
 11
12301.40773182019
 21
-12104.99472455338
 31
0.0
  0
LINE
  5
1ADD
  8
細線
  6
CONTINUOUS
 10
12301.40773182018
 20
-12106.99472455338
 30
0.0
 11
12301.40773182018
 21
-12109.22262813988
 31
0.0
  0
LINE
  5
1ADE
  8
細線
  6
CONTINUOUS
 10
12301.40773182018
 20
-12111.22262813988
 30
0.0
 11
12301.40773182019
 21
-12116.54013277169
 31
0.0
  0
LINE
  5
1ADF
  8
細線
  6
CONTINUOUS
 10
12290.63010625723
 20
-12105.99472455338
 30
0.0
 11
12303.30630285511
 21
-12105.99472455338
 31
0.0
  0
LINE
  5
1AE0
  8
細線
  6
CONTINUOUS
 10
12290.35208475839
 20
-12110.22262813988
 30
0.0
 11
12302.40773182019
 21
-12110.22262813988
 31
0.0
  0
LINE
  5
1AE1
  8
細線
  6
CONTINUOUS
 10
12292.40773182019
 20
-12109.22262813988
 30
0.0
 11
12302.64134053412
 21
-12109.22262813988
 31
0.0
  0
LINE
  5
1AE2
  8
細線
  6
CONTINUOUS
 10
12292.40773182019
 20
-12111.22262813988
 30
0.0
 11
12305.47645429569
 21
-12111.22262813988
 31
0.0
  0
LINE
  5
1AE3
  8
細線
  6
CONTINUOUS
 10
12292.40773182019
 20
-12106.99472455338
 30
0.0
 11
12302.64599061347
 21
-12106.99472455338
 31
0.0
  0
LINE
  5
1AE4
  8
細線
  6
CONTINUOUS
 10
12292.40773182019
 20
-12104.99472455338
 30
0.0
 11
12305.36524569615
 21
-12104.99472455338
 31
0.0
  0
LINE
  5
1AE5
  8
細線
  6
CENTER
 10
12307.40773182019
 20
-12103.99472455338
 30
0.0
 11
12307.40773182019
 21
-12105.85942494174
 31
0.0
  0
LINE
  5
1AE6
  8
細線
  6
CONTINUOUS
 10
12301.40773182019
 20
-12114.22262813988
 30
0.0
 11
12305.40773182019
 21
-12114.22262813988
 31
0.0
  0
LINE
  5
1AE7
  8
細線
  6
CONTINUOUS
 10
12301.40773182019
 20
-12101.99472455338
 30
0.0
 11
12305.40773182019
 21
-12101.99472455338
 31
0.0
  0
LINE
  5
1AE8
  8
細線
  6
CONTINUOUS
 10
12303.49268501984
 20
-12108.61449026417
 30
0.0
 11
12304.42917669294
 21
-12108.61449026417
 31
0.0
  0
LINE
  5
1AE9
  8
細線
  6
CONTINUOUS
 10
12303.49268501984
 20
-12107.61449026417
 30
0.0
 11
12304.42917669294
 21
-12107.61449026417
 31
0.0
  0
LINE
  5
1AEA
  8
細線
  6
CONTINUOUS
 10
12305.92917669294
 20
-12106.17799859107
 30
0.0
 11
12305.92917669294
 21
-12107.11449026417
 31
0.0
  0
LINE
  5
1AEB
  8
細線
  6
CONTINUOUS
 10
12304.92917669294
 20
-12106.17799859107
 30
0.0
 11
12304.92917669294
 21
-12107.11449026417
 31
0.0
  0
LINE
  5
1AEC
  8
細線
  6
CENTER
 10
12307.40773182019
 20
-12110.36955558661
 30
0.0
 11
12307.40773182019
 21
-12112.22262813988
 31
0.0
  0
LINE
  5
1AED
  8
細線
  6
CONTINUOUS
 10
12304.92917669294
 20
-12109.11449026417
 30
0.0
 11
12304.92917669294
 21
-12110.05098193728
 31
0.0
  0
LINE
  5
1AEE
  8
細線
  6
CONTINUOUS
 10
12306.42917669294
 20
-12108.61449026417
 30
0.0
 11
12307.36566836604
 21
-12108.61449026417
 31
0.0
  0
LINE
  5
1AEF
  8
細線
  6
CONTINUOUS
 10
12306.42917669294
 20
-12107.61449026417
 30
0.0
 11
12307.36566836604
 21
-12107.61449026417
 31
0.0
  0
LINE
  5
1AF0
  8
細線
  6
CONTINUOUS
 10
12305.92917669294
 20
-12109.11449026417
 30
0.0
 11
12305.92917669294
 21
-12110.05098193728
 31
0.0
  0
ARC
  5
1AF1
  8
細線
  6
CONTINUOUS
 10
12297.40773182019
 20
-12087.04013277169
 30
0.0
 40
7.0
 50
0.0
 51
180.0
  0
ARC
  5
1AF2
  8
細線
  6
CONTINUOUS
 10
12292.40773182019
 20
-12105.99472455338
 30
0.0
 40
0.9999999999999432
 50
90.0
 51
270.0
  0
ARC
  5
1AF3
  8
細線
  6
CONTINUOUS
 10
12292.40773182019
 20
-12110.22262813988
 30
0.0
 40
0.9999999999999432
 50
90.0
 51
270.0
  0
CIRCLE
  5
1AF4
  8
細線
  6
CONTINUOUS
 10
12305.42917669294
 20
-12108.11449026417
 30
0.0
 40
3.0
  0
ARC
  5
1AF5
  8
細線
  6
CONTINUOUS
 10
12305.40773182019
 20
-12103.99472455338
 30
0.0
 40
2.0
 50
0.0
 51
90.0
  0
ARC
  5
1AF6
  8
細線
  6
CONTINUOUS
 10
12305.40773182019
 20
-12112.22262813988
 30
0.0
 40
2.0
 50
270.0
 51
0.0
  0
ARC
  5
1AF7
  8
細線
  6
CONTINUOUS
 10
12305.42917669294
 20
-12108.11449026417
 30
0.0
 40
2.000000000000001
 50
345.5224878140901
 51
14.47751218590991
  0
ARC
  5
1AF8
  8
細線
  6
CONTINUOUS
 10
12305.42917669294
 20
-12108.11449026417
 30
0.0
 40
2.000000000000001
 50
255.522487814064
 51
284.477512185936
  0
ARC
  5
1AF9
  8
細線
  6
CONTINUOUS
 10
12305.42917669294
 20
-12108.11449026417
 30
0.0
 40
2.000000000000001
 50
75.52248781406404
 51
104.477512185936
  0
ARC
  5
1AFA
  8
細線
  6
CONTINUOUS
 10
12305.42917669294
 20
-12108.11449026417
 30
0.0
 40
2.000000000000001
 50
165.5224878140901
 51
194.4775121859099
  0
ARC
  5
1AFB
  8
細線
  6
CONTINUOUS
 10
12304.42917669294
 20
-12107.11449026417
 30
0.0
 40
0.5
 50
270.0
 51
0.0
  0
ARC
  5
1AFC
  8
細線
  6
CONTINUOUS
 10
12304.42917669294
 20
-12109.11449026417
 30
0.0
 40
0.5
 50
0.0
 51
90.0
  0
ARC
  5
1AFD
  8
細線
  6
CONTINUOUS
 10
12306.42917669294
 20
-12109.11449026417
 30
0.0
 40
0.5
 50
90.0
 51
180.0
  0
ARC
  5
1AFE
  8
細線
  6
CONTINUOUS
 10
12306.42917669294
 20
-12107.11449026417
 30
0.0
 40
0.5
 50
180.0
 51
270.0
  0
ARC
  5
1AFF
  8
細線
  6
CONTINUOUS
 10
12293.90773182019
 20
-12116.54013277169
 30
0.0
 40
0.5
 50
180.0
 51
270.0
  0
ARC
  5
1B00
  8
細線
  6
CONTINUOUS
 10
12300.90773182019
 20
-12116.54013277169
 30
0.0
 40
0.5
 50
270.0
 51
0.0
  0
ARC
  5
1B01
  8
細線
  6
CONTINUOUS
 10
12292.40773182019
 20
-12103.04013277168
 30
0.0
 40
1.0
 50
0.0
 51
90.0
  0
ARC
  5
1B02
  8
細線
  6
CONTINUOUS
 10
12302.40773182019
 20
-12103.04013277168
 30
0.0
 40
1.0
 50
90.0
 51
180.0
  0
POINT
  5
1B03
  8
細線
  6
CONTINUOUS
 10
12305.42917669294
 20
-13915.9657752792
 30
0.0
  0
LINE
  5
1B04
  8
細線
 10
12292.40773182019
 20
-13922.04013277169
 30
0.0
 11
12292.40773182018
 21
-13919.08554098999
 31
0.0
  0
LINE
  5
1B05
  8
細線
 10
12292.40773182019
 20
-13917.08554098999
 30
0.0
 11
12292.40773182019
 21
-13914.85763740349
 31
0.0
  0
LINE
  5
1B06
  8
細線
 10
12292.40773182018
 20
-13912.85763740349
 30
0.0
 11
12292.40773182018
 21
-12111.22262813988
 31
0.0
  0
LINE
  5
1B07
  8
細線
 10
12292.40773182018
 20
-12109.22262813988
 30
0.0
 11
12292.40773182018
 21
-12106.99472455338
 31
0.0
  0
LINE
  5
1B08
  8
細線
 10
12292.40773182019
 20
-12104.99472455338
 30
0.0
 11
12292.40773182019
 21
-12102.04013277169
 31
0.0
  0
LINE
  5
1B09
  8
細線
 10
12302.40773182019
 20
-13922.04013277169
 30
0.0
 11
12302.40773182019
 21
-13919.08554098999
 31
0.0
  0
LINE
  5
1B0A
  8
細線
 10
12302.40773182018
 20
-13917.08554098999
 30
0.0
 11
12302.40773182019
 21
-13914.85763740349
 31
0.0
  0
LINE
  5
1B0B
  8
細線
 10
12302.40773182019
 20
-13912.85763740349
 30
0.0
 11
12302.40773182018
 21
-12114.22262813988
 31
0.0
  0
LINE
  5
1B0C
  8
細線
  6
CONTINUOUS
 10
12290.40773182019
 20
-13922.04013277169
 30
0.0
 11
12304.40773182019
 21
-13922.04013277169
 31
0.0
  0
LINE
  5
1B0D
  8
細線
  6
CONTINUOUS
 10
12290.40773182019
 20
-13937.04013277169
 30
0.0
 11
12290.40773182019
 21
-13922.04013277169
 31
0.0
  0
LINE
  5
1B0E
  8
細線
  6
CONTINUOUS
 10
12304.40773182019
 20
-13937.04013277169
 30
0.0
 11
12304.40773182019
 21
-13922.04013277169
 31
0.0
  0
LINE
  5
1B0F
  8
細線
  6
CENTER
 10
12284.66995707811
 20
-13937.04013277169
 30
0.0
 11
12309.71339168602
 21
-13937.04013277169
 31
0.0
  0
LINE
  5
1B10
  8
細線
  6
CONTINUOUS
 10
12293.90773182019
 20
-13907.04013277169
 30
0.0
 11
12300.90773182019
 21
-13907.04013277169
 31
0.0
  0
LINE
  5
1B11
  8
細線
  6
CONTINUOUS
 10
12293.40773182019
 20
-13921.04013277169
 30
0.0
 11
12293.4077318202
 21
-13919.08554098999
 31
0.0
  0
LINE
  5
1B12
  8
細線
  6
CONTINUOUS
 10
12293.40773182019
 20
-13917.08554098999
 30
0.0
 11
12293.40773182019
 21
-13914.85763740349
 31
0.0
  0
LINE
  5
1B13
  8
細線
  6
CONTINUOUS
 10
12293.40773182019
 20
-13912.85763740349
 30
0.0
 11
12293.40773182019
 21
-13907.54013277169
 31
0.0
  0
LINE
  5
1B14
  8
細線
  6
CONTINUOUS
 10
12301.40773182019
 20
-13921.04013277169
 30
0.0
 11
12301.40773182019
 21
-13919.08554098999
 31
0.0
  0
LINE
  5
1B15
  8
細線
  6
CONTINUOUS
 10
12301.40773182019
 20
-13917.08554098999
 30
0.0
 11
12301.40773182019
 21
-13914.85763740349
 31
0.0
  0
LINE
  5
1B16
  8
細線
  6
CONTINUOUS
 10
12301.40773182018
 20
-13912.85763740349
 30
0.0
 11
12301.40773182019
 21
-13907.54013277169
 31
0.0
  0
LINE
  5
1B17
  8
細線
  6
CONTINUOUS
 10
12290.63010625723
 20
-13918.08554098999
 30
0.0
 11
12303.30630285511
 21
-13918.08554098999
 31
0.0
  0
LINE
  5
1B18
  8
細線
  6
CONTINUOUS
 10
12290.35208475839
 20
-13913.85763740349
 30
0.0
 11
12302.40773182019
 21
-13913.85763740349
 31
0.0
  0
LINE
  5
1B19
  8
細線
  6
CONTINUOUS
 10
12292.40773182019
 20
-13914.85763740349
 30
0.0
 11
12302.64134053412
 21
-13914.85763740349
 31
0.0
  0
LINE
  5
1B1A
  8
細線
  6
CONTINUOUS
 10
12292.40773182019
 20
-13912.85763740349
 30
0.0
 11
12305.47645429569
 21
-13912.85763740349
 31
0.0
  0
LINE
  5
1B1B
  8
細線
  6
CONTINUOUS
 10
12292.40773182019
 20
-13917.08554098999
 30
0.0
 11
12302.64599061347
 21
-13917.08554098999
 31
0.0
  0
LINE
  5
1B1C
  8
細線
  6
CONTINUOUS
 10
12292.40773182019
 20
-13919.08554098999
 30
0.0
 11
12305.36524569615
 21
-13919.08554098999
 31
0.0
  0
LINE
  5
1B1D
  8
細線
  6
CENTER
 10
12307.40773182019
 20
-13920.08554098999
 30
0.0
 11
12307.40773182019
 21
-13918.22084060163
 31
0.0
  0
LINE
  5
1B1E
  8
細線
  6
CONTINUOUS
 10
12301.40773182019
 20
-13909.85763740349
 30
0.0
 11
12305.40773182019
 21
-13909.85763740349
 31
0.0
  0
LINE
  5
1B1F
  8
細線
  6
CONTINUOUS
 10
12301.40773182019
 20
-13922.08554098999
 30
0.0
 11
12305.40773182019
 21
-13922.08554098999
 31
0.0
  0
LINE
  5
1B20
  8
細線
  6
CONTINUOUS
 10
12303.49268501984
 20
-13915.4657752792
 30
0.0
 11
12304.42917669294
 21
-13915.4657752792
 31
0.0
  0
LINE
  5
1B21
  8
細線
  6
CONTINUOUS
 10
12303.49268501984
 20
-13916.4657752792
 30
0.0
 11
12304.42917669294
 21
-13916.4657752792
 31
0.0
  0
LINE
  5
1B22
  8
細線
  6
CONTINUOUS
 10
12305.92917669294
 20
-13917.9022669523
 30
0.0
 11
12305.92917669294
 21
-13916.9657752792
 31
0.0
  0
LINE
  5
1B23
  8
細線
  6
CONTINUOUS
 10
12304.92917669294
 20
-13917.9022669523
 30
0.0
 11
12304.92917669294
 21
-13916.9657752792
 31
0.0
  0
LINE
  5
1B24
  8
細線
  6
CENTER
 10
12307.40773182019
 20
-13913.71070995677
 30
0.0
 11
12307.40773182019
 21
-13911.85763740349
 31
0.0
  0
LINE
  5
1B25
  8
細線
  6
CONTINUOUS
 10
12304.92917669294
 20
-13914.9657752792
 30
0.0
 11
12304.92917669294
 21
-13914.0292836061
 31
0.0
  0
LINE
  5
1B26
  8
細線
  6
CONTINUOUS
 10
12306.42917669294
 20
-13915.4657752792
 30
0.0
 11
12307.36566836604
 21
-13915.4657752792
 31
0.0
  0
LINE
  5
1B27
  8
細線
  6
CONTINUOUS
 10
12306.42917669294
 20
-13916.4657752792
 30
0.0
 11
12307.36566836604
 21
-13916.4657752792
 31
0.0
  0
LINE
  5
1B28
  8
細線
  6
CONTINUOUS
 10
12305.92917669294
 20
-13914.9657752792
 30
0.0
 11
12305.92917669294
 21
-13914.0292836061
 31
0.0
  0
ARC
  5
1B29
  8
細線
  6
CONTINUOUS
 10
12297.40773182019
 20
-13937.04013277169
 30
0.0
 40
7.0
 50
180.0
 51
0.0
  0
ARC
  5
1B2A
  8
細線
  6
CONTINUOUS
 10
12292.40773182019
 20
-13918.08554098999
 30
0.0
 40
0.9999999999999432
 50
90.0
 51
270.0
  0
ARC
  5
1B2B
  8
細線
  6
CONTINUOUS
 10
12292.40773182019
 20
-13913.85763740349
 30
0.0
 40
0.9999999999999432
 50
90.0
 51
270.0
  0
CIRCLE
  5
1B2C
  8
細線
  6
CONTINUOUS
 10
12305.42917669294
 20
-13915.9657752792
 30
0.0
 40
3.0
  0
ARC
  5
1B2D
  8
細線
  6
CONTINUOUS
 10
12305.40773182019
 20
-13920.08554098999
 30
0.0
 40
2.0
 50
270.0
 51
0.0
  0
ARC
  5
1B2E
  8
細線
  6
CONTINUOUS
 10
12305.40773182019
 20
-13911.85763740349
 30
0.0
 40
2.0
 50
0.0
 51
90.0
  0
ARC
  5
1B2F
  8
細線
  6
CONTINUOUS
 10
12305.42917669294
 20
-13915.9657752792
 30
0.0
 40
2.000000000000001
 50
345.5224878140901
 51
14.47751218590991
  0
ARC
  5
1B30
  8
細線
  6
CONTINUOUS
 10
12305.42917669294
 20
-13915.9657752792
 30
0.0
 40
2.000000000000001
 50
75.52248781406404
 51
104.477512185936
  0
ARC
  5
1B31
  8
細線
  6
CONTINUOUS
 10
12305.42917669294
 20
-13915.9657752792
 30
0.0
 40
2.000000000000001
 50
255.522487814064
 51
284.477512185936
  0
ARC
  5
1B32
  8
細線
  6
CONTINUOUS
 10
12305.42917669294
 20
-13915.9657752792
 30
0.0
 40
2.000000000000001
 50
165.5224878140901
 51
194.4775121859099
  0
ARC
  5
1B33
  8
細線
  6
CONTINUOUS
 10
12304.42917669294
 20
-13916.9657752792
 30
0.0
 40
0.5
 50
0.0
 51
90.0
  0
ARC
  5
1B34
  8
細線
  6
CONTINUOUS
 10
12304.42917669294
 20
-13914.9657752792
 30
0.0
 40
0.5
 50
270.0
 51
0.0
  0
ARC
  5
1B35
  8
細線
  6
CONTINUOUS
 10
12306.42917669294
 20
-13914.9657752792
 30
0.0
 40
0.5
 50
180.0
 51
270.0
  0
ARC
  5
1B36
  8
細線
  6
CONTINUOUS
 10
12306.42917669294
 20
-13916.9657752792
 30
0.0
 40
0.5
 50
90.0
 51
180.0
  0
ARC
  5
1B37
  8
細線
  6
CONTINUOUS
 10
12293.90773182019
 20
-13907.54013277169
 30
0.0
 40
0.5
 50
90.0
 51
180.0
  0
ARC
  5
1B38
  8
細線
  6
CONTINUOUS
 10
12300.90773182019
 20
-13907.54013277169
 30
0.0
 40
0.5
 50
0.0
 51
90.0
  0
ARC
  5
1B39
  8
細線
  6
CONTINUOUS
 10
12292.40773182019
 20
-13921.04013277169
 30
0.0
 40
1.0
 50
270.0
 51
0.0
  0
ARC
  5
1B3A
  8
細線
  6
CONTINUOUS
 10
12302.40773182019
 20
-13921.04013277169
 30
0.0
 40
1.0
 50
180.0
 51
270.0
  0
DIMENSION
  5
1B4D
  8
寸法線
  2
*D21
 10
12471.94563765529
 20
-14037.04013277169
 30
0.0
 11
12407.9456376553
 21
-14251.04013277168
 31
0.0
 70
    32
 13
12297.40773182019
 23
-13937.04013277169
 33
0.0
 14
12297.40773182019
 24
-14037.04013277169
 34
0.0
 50
90.0
  0
DIMENSION
  5
1B5C
  8
寸法線
  2
*D22
 10
12471.9456376553
 20
-12087.04013277169
 30
0.0
 11
12407.9456376553
 21
-13012.04013277168
 31
0.0
 70
    32
 13
12297.40773182019
 23
-13937.04013277169
 33
0.0
 14
12297.40773182019
 24
-12087.04013277169
 34
0.0
 50
90.0
  0
INSERT
  5
1B6C
  8
0
 66
     1
  2
N-BALOON
 10
13314.5762017616
 20
-10956.35986305266
 30
0.0
  0
ATTRIB
  5
1B6D
  8
0
 10
13350.7591556609
 20
-10976.18955643952
 30
0.0
 40
40.0
  1
2
  2
NO.
 70
     0
  0
SEQEND
  5
1B6E
  8
0
  0
INSERT
  5
1B6F
  8
0
 66
     1
  2
N-BALOON
 10
12062.10972874738
 20
-13012.04013277169
 30
0.0
  0
ATTRIB
  5
1B70
  8
0
 10
12098.29268264668
 20
-13031.86982615855
 30
0.0
 40
40.0
  1
3
  2
NO.
 70
     0
  0
SEQEND
  5
1B71
  8
0
  0
INSERT
  5
1B72
  8
0
 66
     1
  2
BALOON
 10
12912.84661928427
 20
-10956.35986305266
 30
0.0
  0
ATTRIB
  5
1B73
  8
0
 10
12899.30287062708
 20
-10976.18955643952
 30
0.0
 40
40.0
  1
1
  2
NO.
 70
     0
  0
SEQEND
  5
1B74
  8
0
  0
INSERT
  5
1B75
  8
0
 66
     1
  2
BALOON
 10
11698.5770994645
 20
-10956.35986305266
 30
0.0
  0
ATTRIB
  5
1B76
  8
0
 10
11685.03335080731
 20
-10976.18955643952
 30
0.0
 40
40.0
  1
2
  2
NO.
 70
     0
  0
SEQEND
  5
1B77
  8
0
  0
INSERT
  5
1B78
  8
0
  2
*X31
 10
0.0
 20
0.0
 30
0.0
  0
INSERT
  5
1B79
  8
0
  2
*X32
 10
0.0
 20
0.0
 30
0.0
  0
INSERT
  5
1B7A
  8
0
  2
*X33
 10
0.0
 20
0.0
 30
0.0
  0
INSERT
  5
1B7C
  8
0
  2
*X34
 10
0.0
 20
0.0
 30
0.0
  0
INSERT
  5
1B7D
  8
0
  2
*X35
 10
0.0
 20
0.0
 30
0.0
  0
LINE
  5
1CBC
  8
0
 10
12237.13663045587
 20
-9509.411062992982
 30
0.0
 11
12342.13663045587
 21
-9509.411062992982
 31
0.0
  0
LINE
  5
1CBD
  8
0
 10
12342.13663045587
 20
-9509.411062992982
 30
0.0
 11
12447.13663045587
 21
-9509.411062992982
 31
0.0
  0
LINE
  5
1CBE
  8
0
 10
12447.13663045587
 20
-9509.411062992982
 30
0.0
 11
12552.13663045587
 21
-9509.411062992982
 31
0.0
  0
LINE
  5
1CBF
  8
0
 10
12552.13663045587
 20
-9509.411062992982
 30
0.0
 11
12657.13663045587
 21
-9509.411062992982
 31
0.0
  0
LINE
  5
1CC0
  8
0
 10
12657.13663045587
 20
-9509.411062992982
 30
0.0
 11
12762.13663045587
 21
-9509.411062992982
 31
0.0
  0
LINE
  5
1CC1
  8
0
 10
12762.13663045587
 20
-9509.411062992982
 30
0.0
 11
12867.13663045587
 21
-9509.411062992982
 31
0.0
  0
LINE
  5
1CC2
  8
0
 10
12867.13663045587
 20
-9509.411062992982
 30
0.0
 11
12972.13663045587
 21
-9509.411062992982
 31
0.0
  0
LINE
  5
1CC3
  8
0
 10
12972.13663045587
 20
-9509.411062992982
 30
0.0
 11
13077.13663045587
 21
-9509.411062992982
 31
0.0
  0
LINE
  5
1CC4
  8
0
 10
13077.13663045587
 20
-9509.411062992982
 30
0.0
 11
13182.13663045587
 21
-9509.411062992982
 31
0.0
  0
LINE
  5
1CC5
  8
0
 10
13182.13663045587
 20
-9509.411062992982
 30
0.0
 11
13287.13663045587
 21
-9509.411062992982
 31
0.0
  0
LINE
  5
1CC6
  8
0
 10
13287.13663045587
 20
-9509.411062992982
 30
0.0
 11
13392.13663045587
 21
-9509.411062992982
 31
0.0
  0
LINE
  5
1CC7
  8
0
 10
13392.13663045587
 20
-9509.411062992982
 30
0.0
 11
13497.13663045587
 21
-9509.411062992982
 31
0.0
  0
LINE
  5
1CC8
  8
0
 10
13497.13663045587
 20
-9509.411062992982
 30
0.0
 11
13602.13663045587
 21
-9509.411062992982
 31
0.0
  0
LINE
  5
1CC9
  8
0
 10
13602.13663045587
 20
-9509.411062992982
 30
0.0
 11
13707.13663045587
 21
-9509.411062992982
 31
0.0
  0
LINE
  5
1CCA
  8
0
 10
13707.13663045587
 20
-9509.411062992982
 30
0.0
 11
13812.13663045587
 21
-9509.411062992982
 31
0.0
  0
LINE
  5
1CCB
  8
0
 10
13812.13663045587
 20
-9509.411062992982
 30
0.0
 11
13917.13663045587
 21
-9509.411062992982
 31
0.0
  0
LINE
  5
1CCC
  8
0
 10
13917.13663045587
 20
-9509.411062992982
 30
0.0
 11
14022.13663045587
 21
-9509.411062992982
 31
0.0
  0
LINE
  5
1CCD
  8
0
 10
12237.13663045587
 20
-9509.411062992982
 30
0.0
 11
12237.13663045587
 21
-9611.211062992985
 31
0.0
  0
LINE
  5
1CCE
  8
0
 10
14022.13663045587
 20
-9509.411062992982
 30
0.0
 11
14022.13663045587
 21
-9611.211062992985
 31
0.0
  0
LINE
  5
1CCF
  8
0
 10
12237.13663045587
 20
-9611.211062992985
 30
0.0
 11
12342.13663045587
 21
-9611.211062992985
 31
0.0
  0
LINE
  5
1CD0
  8
0
 10
12342.13663045587
 20
-9611.211062992985
 30
0.0
 11
12447.13663045587
 21
-9611.211062992985
 31
0.0
  0
LINE
  5
1CD1
  8
0
 10
12447.13663045587
 20
-9611.211062992985
 30
0.0
 11
12552.13663045587
 21
-9611.211062992985
 31
0.0
  0
LINE
  5
1CD2
  8
0
 10
12552.13663045587
 20
-9611.211062992985
 30
0.0
 11
12657.13663045587
 21
-9611.211062992985
 31
0.0
  0
LINE
  5
1CD3
  8
0
 10
12657.13663045587
 20
-9611.211062992985
 30
0.0
 11
12762.13663045587
 21
-9611.211062992985
 31
0.0
  0
LINE
  5
1CD4
  8
0
 10
12762.13663045587
 20
-9611.211062992985
 30
0.0
 11
12867.13663045587
 21
-9611.211062992985
 31
0.0
  0
LINE
  5
1CD5
  8
0
 10
12867.13663045587
 20
-9611.211062992985
 30
0.0
 11
12972.13663045587
 21
-9611.211062992985
 31
0.0
  0
LINE
  5
1CD6
  8
0
 10
12972.13663045587
 20
-9611.211062992985
 30
0.0
 11
13077.13663045587
 21
-9611.211062992985
 31
0.0
  0
LINE
  5
1CD7
  8
0
 10
13077.13663045587
 20
-9611.211062992985
 30
0.0
 11
13182.13663045587
 21
-9611.211062992985
 31
0.0
  0
LINE
  5
1CD8
  8
0
 10
13182.13663045587
 20
-9611.211062992985
 30
0.0
 11
13287.13663045587
 21
-9611.211062992985
 31
0.0
  0
LINE
  5
1CD9
  8
0
 10
13287.13663045587
 20
-9611.211062992985
 30
0.0
 11
13392.13663045587
 21
-9611.211062992985
 31
0.0
  0
LINE
  5
1CDA
  8
0
 10
13392.13663045587
 20
-9611.211062992985
 30
0.0
 11
13497.13663045587
 21
-9611.211062992985
 31
0.0
  0
LINE
  5
1CDB
  8
0
 10
13497.13663045587
 20
-9611.211062992985
 30
0.0
 11
13602.13663045587
 21
-9611.211062992985
 31
0.0
  0
LINE
  5
1CDC
  8
0
 10
13602.13663045587
 20
-9611.211062992985
 30
0.0
 11
13707.13663045587
 21
-9611.211062992985
 31
0.0
  0
LINE
  5
1CDD
  8
0
 10
13707.13663045587
 20
-9611.211062992985
 30
0.0
 11
13812.13663045587
 21
-9611.211062992985
 31
0.0
  0
LINE
  5
1CDE
  8
0
 10
13812.13663045587
 20
-9611.211062992985
 30
0.0
 11
13917.13663045587
 21
-9611.211062992985
 31
0.0
  0
LINE
  5
1CDF
  8
0
 10
13917.13663045587
 20
-9611.211062992985
 30
0.0
 11
14022.13663045587
 21
-9611.211062992985
 31
0.0
  0
LINE
  5
1CE0
  8
0
 10
12237.13663045587
 20
-9611.211062992985
 30
0.0
 11
12237.13663045587
 21
-9713.011062992988
 31
0.0
  0
LINE
  5
1CE1
  8
0
 10
14022.13663045587
 20
-9611.211062992985
 30
0.0
 11
14022.13663045587
 21
-9713.011062992988
 31
0.0
  0
LINE
  5
1CE2
  8
0
 10
12237.13663045587
 20
-9713.011062992988
 30
0.0
 11
12342.13663045587
 21
-9713.011062992988
 31
0.0
  0
LINE
  5
1CE3
  8
0
 10
12342.13663045587
 20
-9713.011062992988
 30
0.0
 11
12447.13663045587
 21
-9713.011062992988
 31
0.0
  0
LINE
  5
1CE4
  8
0
 10
12447.13663045587
 20
-9713.011062992988
 30
0.0
 11
12552.13663045587
 21
-9713.011062992988
 31
0.0
  0
LINE
  5
1CE5
  8
0
 10
12552.13663045587
 20
-9713.011062992988
 30
0.0
 11
12657.13663045587
 21
-9713.011062992988
 31
0.0
  0
LINE
  5
1CE6
  8
0
 10
12657.13663045587
 20
-9713.011062992988
 30
0.0
 11
12762.13663045587
 21
-9713.011062992988
 31
0.0
  0
LINE
  5
1CE7
  8
0
 10
12762.13663045587
 20
-9713.011062992988
 30
0.0
 11
12867.13663045587
 21
-9713.011062992988
 31
0.0
  0
LINE
  5
1CE8
  8
0
 10
12867.13663045587
 20
-9713.011062992988
 30
0.0
 11
12972.13663045587
 21
-9713.011062992988
 31
0.0
  0
LINE
  5
1CE9
  8
0
 10
12972.13663045587
 20
-9713.011062992988
 30
0.0
 11
13077.13663045587
 21
-9713.011062992988
 31
0.0
  0
LINE
  5
1CEA
  8
0
 10
12237.13663045587
 20
-9713.011062992988
 30
0.0
 11
12237.13663045587
 21
-9814.81106299299
 31
0.0
  0
LINE
  5
1CEB
  8
0
 10
13077.13663045587
 20
-9713.011062992988
 30
0.0
 11
13182.13663045587
 21
-9713.011062992988
 31
0.0
  0
LINE
  5
1CEC
  8
0
 10
13182.13663045587
 20
-9713.011062992988
 30
0.0
 11
13287.13663045587
 21
-9713.011062992988
 31
0.0
  0
LINE
  5
1CED
  8
0
 10
13287.13663045587
 20
-9713.011062992988
 30
0.0
 11
13392.13663045587
 21
-9713.011062992988
 31
0.0
  0
LINE
  5
1CEE
  8
0
 10
13392.13663045587
 20
-9713.011062992988
 30
0.0
 11
13497.13663045587
 21
-9713.011062992988
 31
0.0
  0
LINE
  5
1CEF
  8
0
 10
13497.13663045587
 20
-9713.011062992988
 30
0.0
 11
13602.13663045587
 21
-9713.011062992988
 31
0.0
  0
LINE
  5
1CF0
  8
0
 10
13602.13663045587
 20
-9713.011062992988
 30
0.0
 11
13707.13663045587
 21
-9713.011062992988
 31
0.0
  0
LINE
  5
1CF1
  8
0
 10
13707.13663045587
 20
-9713.011062992988
 30
0.0
 11
13812.13663045587
 21
-9713.011062992988
 31
0.0
  0
LINE
  5
1CF2
  8
0
 10
13812.13663045587
 20
-9713.011062992988
 30
0.0
 11
13917.13663045587
 21
-9713.011062992988
 31
0.0
  0
LINE
  5
1CF3
  8
0
 10
13917.13663045587
 20
-9713.011062992988
 30
0.0
 11
14022.13663045587
 21
-9713.011062992988
 31
0.0
  0
LINE
  5
1CF4
  8
0
 10
13077.13663045587
 20
-9713.011062992988
 30
0.0
 11
13077.13663045587
 21
-9814.81106299299
 31
0.0
  0
LINE
  5
1CF5
  8
0
 10
14022.13663045587
 20
-9713.011062992988
 30
0.0
 11
14022.13663045587
 21
-9814.81106299299
 31
0.0
  0
LINE
  5
1CF6
  8
0
 10
12237.13663045587
 20
-9814.81106299299
 30
0.0
 11
12342.13663045587
 21
-9814.81106299299
 31
0.0
  0
LINE
  5
1CF7
  8
0
 10
12342.13663045587
 20
-9814.81106299299
 30
0.0
 11
12447.13663045587
 21
-9814.81106299299
 31
0.0
  0
LINE
  5
1CF8
  8
0
 10
12447.13663045587
 20
-9814.81106299299
 30
0.0
 11
12552.13663045587
 21
-9814.81106299299
 31
0.0
  0
LINE
  5
1CF9
  8
0
 10
12552.13663045587
 20
-9814.81106299299
 30
0.0
 11
12657.13663045587
 21
-9814.81106299299
 31
0.0
  0
LINE
  5
1CFA
  8
0
 10
12657.13663045587
 20
-9814.81106299299
 30
0.0
 11
12762.13663045587
 21
-9814.81106299299
 31
0.0
  0
LINE
  5
1CFB
  8
0
 10
12762.13663045587
 20
-9814.81106299299
 30
0.0
 11
12867.13663045587
 21
-9814.81106299299
 31
0.0
  0
LINE
  5
1CFC
  8
0
 10
12237.13663045587
 20
-9814.81106299299
 30
0.0
 11
12237.13663045587
 21
-9916.61106299298
 31
0.0
  0
LINE
  5
1CFD
  8
0
 10
12867.13663045587
 20
-9814.81106299299
 30
0.0
 11
12972.13663045587
 21
-9814.81106299299
 31
0.0
  0
LINE
  5
1CFE
  8
0
 10
12972.13663045587
 20
-9814.81106299299
 30
0.0
 11
13077.13663045587
 21
-9814.81106299299
 31
0.0
  0
LINE
  5
1CFF
  8
0
 10
13077.13663045587
 20
-9814.81106299299
 30
0.0
 11
13182.13663045587
 21
-9814.81106299299
 31
0.0
  0
LINE
  5
1D00
  8
0
 10
13182.13663045587
 20
-9814.81106299299
 30
0.0
 11
13287.13663045587
 21
-9814.81106299299
 31
0.0
  0
LINE
  5
1D01
  8
0
 10
13287.13663045587
 20
-9814.81106299299
 30
0.0
 11
13392.13663045587
 21
-9814.81106299299
 31
0.0
  0
LINE
  5
1D02
  8
0
 10
13392.13663045587
 20
-9814.81106299299
 30
0.0
 11
13497.13663045587
 21
-9814.81106299299
 31
0.0
  0
LINE
  5
1D03
  8
0
 10
13497.13663045587
 20
-9814.81106299299
 30
0.0
 11
13602.13663045587
 21
-9814.81106299299
 31
0.0
  0
LINE
  5
1D04
  8
0
 10
13602.13663045587
 20
-9814.81106299299
 30
0.0
 11
13707.13663045587
 21
-9814.81106299299
 31
0.0
  0
LINE
  5
1D05
  8
0
 10
13707.13663045587
 20
-9814.81106299299
 30
0.0
 11
13812.13663045587
 21
-9814.81106299299
 31
0.0
  0
LINE
  5
1D06
  8
0
 10
13812.13663045587
 20
-9814.81106299299
 30
0.0
 11
13917.13663045587
 21
-9814.81106299299
 31
0.0
  0
LINE
  5
1D07
  8
0
 10
13917.13663045587
 20
-9814.81106299299
 30
0.0
 11
14022.13663045587
 21
-9814.81106299299
 31
0.0
  0
LINE
  5
1D08
  8
0
 10
12867.13663045587
 20
-9814.81106299299
 30
0.0
 11
12867.13663045587
 21
-9916.61106299298
 31
0.0
  0
LINE
  5
1D09
  8
0
 10
14022.13663045587
 20
-9814.81106299299
 30
0.0
 11
14022.13663045587
 21
-9916.61106299298
 31
0.0
  0
LINE
  5
1D0A
  8
0
 10
12237.13663045587
 20
-9916.61106299298
 30
0.0
 11
12342.13663045587
 21
-9916.61106299298
 31
0.0
  0
LINE
  5
1D0B
  8
0
 10
12342.13663045587
 20
-9916.61106299298
 30
0.0
 11
12447.13663045587
 21
-9916.61106299298
 31
0.0
  0
LINE
  5
1D0C
  8
0
 10
12447.13663045587
 20
-9916.61106299298
 30
0.0
 11
12552.13663045587
 21
-9916.61106299298
 31
0.0
  0
LINE
  5
1D0D
  8
0
 10
12237.13663045587
 20
-9916.61106299298
 30
0.0
 11
12237.13663045587
 21
-10018.41106299298
 31
0.0
  0
LINE
  5
1D0E
  8
0
 10
12237.13663045587
 20
-10018.41106299298
 30
0.0
 11
12237.13663045587
 21
-10120.21106299299
 31
0.0
  0
LINE
  5
1D0F
  8
0
 10
12237.13663045587
 20
-10120.21106299299
 30
0.0
 11
12237.13663045587
 21
-10222.01106299299
 31
0.0
  0
LINE
  5
1D10
  8
0
 10
12237.13663045587
 20
-10222.01106299299
 30
0.0
 11
12237.13663045587
 21
-10323.81106299298
 31
0.0
  0
LINE
  5
1D11
  8
0
 10
12552.13663045587
 20
-9916.61106299298
 30
0.0
 11
12657.13663045587
 21
-9916.61106299298
 31
0.0
  0
LINE
  5
1D12
  8
0
 10
12657.13663045587
 20
-9916.61106299298
 30
0.0
 11
12762.13663045587
 21
-9916.61106299298
 31
0.0
  0
LINE
  5
1D13
  8
0
 10
12762.13663045587
 20
-9916.61106299298
 30
0.0
 11
12867.13663045587
 21
-9916.61106299298
 31
0.0
  0
LINE
  5
1D14
  8
0
 10
12552.13663045587
 20
-9916.61106299298
 30
0.0
 11
12552.13663045587
 21
-10018.41106299298
 31
0.0
  0
LINE
  5
1D15
  8
0
 10
12552.13663045587
 20
-10018.41106299298
 30
0.0
 11
12552.13663045587
 21
-10120.21106299299
 31
0.0
  0
LINE
  5
1D16
  8
0
 10
12867.13663045587
 20
-9916.61106299298
 30
0.0
 11
12972.13663045587
 21
-9916.61106299298
 31
0.0
  0
LINE
  5
1D17
  8
0
 10
12972.13663045587
 20
-9916.61106299298
 30
0.0
 11
13077.13663045587
 21
-9916.61106299298
 31
0.0
  0
LINE
  5
1D18
  8
0
 10
12867.13663045587
 20
-9916.61106299298
 30
0.0
 11
12867.13663045587
 21
-10018.41106299298
 31
0.0
  0
LINE
  5
1D19
  8
0
 10
13077.13663045587
 20
-9916.61106299298
 30
0.0
 11
13182.13663045587
 21
-9916.61106299298
 31
0.0
  0
LINE
  5
1D1A
  8
0
 10
13182.13663045587
 20
-9916.61106299298
 30
0.0
 11
13287.13663045587
 21
-9916.61106299298
 31
0.0
  0
LINE
  5
1D1B
  8
0
 10
13287.13663045587
 20
-9916.61106299298
 30
0.0
 11
13392.13663045587
 21
-9916.61106299298
 31
0.0
  0
LINE
  5
1D1C
  8
0
 10
13392.13663045587
 20
-9916.61106299298
 30
0.0
 11
13497.13663045587
 21
-9916.61106299298
 31
0.0
  0
LINE
  5
1D1D
  8
0
 10
13497.13663045587
 20
-9916.61106299298
 30
0.0
 11
13602.13663045587
 21
-9916.61106299298
 31
0.0
  0
LINE
  5
1D1E
  8
0
 10
13602.13663045587
 20
-9916.61106299298
 30
0.0
 11
13707.13663045587
 21
-9916.61106299298
 31
0.0
  0
LINE
  5
1D1F
  8
0
 10
13707.13663045587
 20
-9916.61106299298
 30
0.0
 11
13812.13663045587
 21
-9916.61106299298
 31
0.0
  0
LINE
  5
1D20
  8
0
 10
13812.13663045587
 20
-9916.61106299298
 30
0.0
 11
13917.13663045587
 21
-9916.61106299298
 31
0.0
  0
LINE
  5
1D21
  8
0
 10
13917.13663045587
 20
-9916.61106299298
 30
0.0
 11
14022.13663045587
 21
-9916.61106299298
 31
0.0
  0
LINE
  5
1D22
  8
0
 10
13077.13663045587
 20
-9916.61106299298
 30
0.0
 11
13077.13663045587
 21
-10018.41106299298
 31
0.0
  0
LINE
  5
1D23
  8
0
 10
14022.13663045587
 20
-9916.61106299298
 30
0.0
 11
14022.13663045587
 21
-10018.41106299298
 31
0.0
  0
LINE
  5
1D24
  8
0
 10
12867.13663045587
 20
-10018.41106299298
 30
0.0
 11
12972.13663045587
 21
-10018.41106299298
 31
0.0
  0
LINE
  5
1D25
  8
0
 10
12972.13663045587
 20
-10018.41106299298
 30
0.0
 11
13077.13663045587
 21
-10018.41106299298
 31
0.0
  0
LINE
  5
1D26
  8
0
 10
12867.13663045587
 20
-10018.41106299298
 30
0.0
 11
12867.13663045587
 21
-10120.21106299299
 31
0.0
  0
LINE
  5
1D27
  8
0
 10
13077.13663045587
 20
-10018.41106299298
 30
0.0
 11
13182.13663045587
 21
-10018.41106299298
 31
0.0
  0
LINE
  5
1D28
  8
0
 10
13182.13663045587
 20
-10018.41106299298
 30
0.0
 11
13287.13663045587
 21
-10018.41106299298
 31
0.0
  0
LINE
  5
1D29
  8
0
 10
13287.13663045587
 20
-10018.41106299298
 30
0.0
 11
13392.13663045587
 21
-10018.41106299298
 31
0.0
  0
LINE
  5
1D2A
  8
0
 10
13392.13663045587
 20
-10018.41106299298
 30
0.0
 11
13497.13663045587
 21
-10018.41106299298
 31
0.0
  0
LINE
  5
1D2B
  8
0
 10
13497.13663045587
 20
-10018.41106299298
 30
0.0
 11
13602.13663045587
 21
-10018.41106299298
 31
0.0
  0
LINE
  5
1D2C
  8
0
 10
13602.13663045587
 20
-10018.41106299298
 30
0.0
 11
13707.13663045587
 21
-10018.41106299298
 31
0.0
  0
LINE
  5
1D2D
  8
0
 10
13707.13663045587
 20
-10018.41106299298
 30
0.0
 11
13812.13663045587
 21
-10018.41106299298
 31
0.0
  0
LINE
  5
1D2E
  8
0
 10
13812.13663045587
 20
-10018.41106299298
 30
0.0
 11
13917.13663045587
 21
-10018.41106299298
 31
0.0
  0
LINE
  5
1D2F
  8
0
 10
13917.13663045587
 20
-10018.41106299298
 30
0.0
 11
14022.13663045587
 21
-10018.41106299298
 31
0.0
  0
LINE
  5
1D30
  8
0
 10
13077.13663045587
 20
-10018.41106299298
 30
0.0
 11
13077.13663045587
 21
-10120.21106299299
 31
0.0
  0
LINE
  5
1D31
  8
0
 10
14022.13663045587
 20
-10018.41106299298
 30
0.0
 11
14022.13663045587
 21
-10120.21106299299
 31
0.0
  0
LINE
  5
1D32
  8
0
 10
12552.13663045587
 20
-10120.21106299299
 30
0.0
 11
12657.13663045587
 21
-10120.21106299299
 31
0.0
  0
LINE
  5
1D33
  8
0
 10
12657.13663045587
 20
-10120.21106299299
 30
0.0
 11
12762.13663045587
 21
-10120.21106299299
 31
0.0
  0
LINE
  5
1D34
  8
0
 10
12762.13663045587
 20
-10120.21106299299
 30
0.0
 11
12867.13663045587
 21
-10120.21106299299
 31
0.0
  0
LINE
  5
1D35
  8
0
 10
12552.13663045587
 20
-10120.21106299299
 30
0.0
 11
12552.13663045587
 21
-10222.01106299299
 31
0.0
  0
LINE
  5
1D36
  8
0
 10
12552.13663045587
 20
-10222.01106299299
 30
0.0
 11
12552.13663045587
 21
-10323.81106299298
 31
0.0
  0
LINE
  5
1D37
  8
0
 10
12867.13663045587
 20
-10120.21106299299
 30
0.0
 11
12972.13663045587
 21
-10120.21106299299
 31
0.0
  0
LINE
  5
1D38
  8
0
 10
12972.13663045587
 20
-10120.21106299299
 30
0.0
 11
13077.13663045587
 21
-10120.21106299299
 31
0.0
  0
LINE
  5
1D39
  8
0
 10
12867.13663045587
 20
-10120.21106299299
 30
0.0
 11
12867.13663045587
 21
-10222.01106299299
 31
0.0
  0
LINE
  5
1D3A
  8
0
 10
13077.13663045587
 20
-10120.21106299299
 30
0.0
 11
13182.13663045587
 21
-10120.21106299299
 31
0.0
  0
LINE
  5
1D3B
  8
0
 10
13182.13663045587
 20
-10120.21106299299
 30
0.0
 11
13287.13663045587
 21
-10120.21106299299
 31
0.0
  0
LINE
  5
1D3C
  8
0
 10
13287.13663045587
 20
-10120.21106299299
 30
0.0
 11
13392.13663045587
 21
-10120.21106299299
 31
0.0
  0
LINE
  5
1D3D
  8
0
 10
13392.13663045587
 20
-10120.21106299299
 30
0.0
 11
13497.13663045587
 21
-10120.21106299299
 31
0.0
  0
LINE
  5
1D3E
  8
0
 10
13497.13663045587
 20
-10120.21106299299
 30
0.0
 11
13602.13663045587
 21
-10120.21106299299
 31
0.0
  0
LINE
  5
1D3F
  8
0
 10
13602.13663045587
 20
-10120.21106299299
 30
0.0
 11
13707.13663045587
 21
-10120.21106299299
 31
0.0
  0
LINE
  5
1D40
  8
0
 10
13707.13663045587
 20
-10120.21106299299
 30
0.0
 11
13812.13663045587
 21
-10120.21106299299
 31
0.0
  0
LINE
  5
1D41
  8
0
 10
13812.13663045587
 20
-10120.21106299299
 30
0.0
 11
13917.13663045587
 21
-10120.21106299299
 31
0.0
  0
LINE
  5
1D42
  8
0
 10
13917.13663045587
 20
-10120.21106299299
 30
0.0
 11
14022.13663045587
 21
-10120.21106299299
 31
0.0
  0
LINE
  5
1D43
  8
0
 10
13077.13663045587
 20
-10120.21106299299
 30
0.0
 11
13077.13663045587
 21
-10222.01106299299
 31
0.0
  0
LINE
  5
1D44
  8
0
 10
14022.13663045587
 20
-10120.21106299299
 30
0.0
 11
14022.13663045587
 21
-10222.01106299299
 31
0.0
  0
LINE
  5
1D45
  8
0
 10
12867.13663045587
 20
-10222.01106299299
 30
0.0
 11
12972.13663045587
 21
-10222.01106299299
 31
0.0
  0
LINE
  5
1D46
  8
0
 10
12972.13663045587
 20
-10222.01106299299
 30
0.0
 11
13077.13663045587
 21
-10222.01106299299
 31
0.0
  0
LINE
  5
1D47
  8
0
 10
12867.13663045587
 20
-10222.01106299299
 30
0.0
 11
12867.13663045587
 21
-10323.81106299298
 31
0.0
  0
LINE
  5
1D48
  8
0
 10
13077.13663045587
 20
-10222.01106299299
 30
0.0
 11
13182.13663045587
 21
-10222.01106299299
 31
0.0
  0
LINE
  5
1D49
  8
0
 10
13182.13663045587
 20
-10222.01106299299
 30
0.0
 11
13287.13663045587
 21
-10222.01106299299
 31
0.0
  0
LINE
  5
1D4A
  8
0
 10
13287.13663045587
 20
-10222.01106299299
 30
0.0
 11
13392.13663045587
 21
-10222.01106299299
 31
0.0
  0
LINE
  5
1D4B
  8
0
 10
13392.13663045587
 20
-10222.01106299299
 30
0.0
 11
13497.13663045587
 21
-10222.01106299299
 31
0.0
  0
LINE
  5
1D4C
  8
0
 10
13497.13663045587
 20
-10222.01106299299
 30
0.0
 11
13602.13663045587
 21
-10222.01106299299
 31
0.0
  0
LINE
  5
1D4D
  8
0
 10
13602.13663045587
 20
-10222.01106299299
 30
0.0
 11
13707.13663045587
 21
-10222.01106299299
 31
0.0
  0
LINE
  5
1D4E
  8
0
 10
13707.13663045587
 20
-10222.01106299299
 30
0.0
 11
13812.13663045587
 21
-10222.01106299299
 31
0.0
  0
LINE
  5
1D4F
  8
0
 10
13812.13663045587
 20
-10222.01106299299
 30
0.0
 11
13917.13663045587
 21
-10222.01106299299
 31
0.0
  0
LINE
  5
1D50
  8
0
 10
13917.13663045587
 20
-10222.01106299299
 30
0.0
 11
14022.13663045587
 21
-10222.01106299299
 31
0.0
  0
LINE
  5
1D51
  8
0
 10
13077.13663045587
 20
-10222.01106299299
 30
0.0
 11
13077.13663045587
 21
-10323.81106299298
 31
0.0
  0
LINE
  5
1D52
  8
0
 10
14022.13663045587
 20
-10222.01106299299
 30
0.0
 11
14022.13663045587
 21
-10323.81106299298
 31
0.0
  0
LINE
  5
1D53
  8
0
 10
12237.13663045587
 20
-10323.81106299298
 30
0.0
 11
12342.13663045587
 21
-10323.81106299298
 31
0.0
  0
LINE
  5
1D54
  8
0
 10
12237.13663045587
 20
-10425.61106299298
 30
0.0
 11
12342.13663045587
 21
-10425.61106299298
 31
0.0
  0
LINE
  5
1D55
  8
0
 10
12342.13663045587
 20
-10323.81106299298
 30
0.0
 11
12447.13663045587
 21
-10323.81106299298
 31
0.0
  0
LINE
  5
1D56
  8
0
 10
12342.13663045587
 20
-10425.61106299298
 30
0.0
 11
12447.13663045587
 21
-10425.61106299298
 31
0.0
  0
LINE
  5
1D57
  8
0
 10
12447.13663045587
 20
-10323.81106299298
 30
0.0
 11
12552.13663045587
 21
-10323.81106299298
 31
0.0
  0
LINE
  5
1D58
  8
0
 10
12447.13663045587
 20
-10425.61106299298
 30
0.0
 11
12552.13663045587
 21
-10425.61106299298
 31
0.0
  0
LINE
  5
1D59
  8
0
 10
12552.13663045587
 20
-10323.81106299298
 30
0.0
 11
12657.13663045587
 21
-10323.81106299298
 31
0.0
  0
LINE
  5
1D5A
  8
0
 10
12552.13663045587
 20
-10425.61106299298
 30
0.0
 11
12657.13663045587
 21
-10425.61106299298
 31
0.0
  0
LINE
  5
1D5B
  8
0
 10
12657.13663045587
 20
-10323.81106299298
 30
0.0
 11
12762.13663045587
 21
-10323.81106299298
 31
0.0
  0
LINE
  5
1D5C
  8
0
 10
12657.13663045587
 20
-10425.61106299298
 30
0.0
 11
12762.13663045587
 21
-10425.61106299298
 31
0.0
  0
LINE
  5
1D5D
  8
0
 10
12762.13663045587
 20
-10323.81106299298
 30
0.0
 11
12867.13663045587
 21
-10323.81106299298
 31
0.0
  0
LINE
  5
1D5E
  8
0
 10
12762.13663045587
 20
-10425.61106299298
 30
0.0
 11
12867.13663045587
 21
-10425.61106299298
 31
0.0
  0
LINE
  5
1D5F
  8
0
 10
12867.13663045587
 20
-10323.81106299298
 30
0.0
 11
12972.13663045587
 21
-10323.81106299298
 31
0.0
  0
LINE
  5
1D60
  8
0
 10
12867.13663045587
 20
-10425.61106299298
 30
0.0
 11
12972.13663045587
 21
-10425.61106299298
 31
0.0
  0
LINE
  5
1D61
  8
0
 10
12972.13663045587
 20
-10323.81106299298
 30
0.0
 11
13077.13663045587
 21
-10323.81106299298
 31
0.0
  0
LINE
  5
1D62
  8
0
 10
12972.13663045587
 20
-10425.61106299298
 30
0.0
 11
13077.13663045587
 21
-10425.61106299298
 31
0.0
  0
LINE
  5
1D63
  8
0
 10
13077.13663045587
 20
-10323.81106299298
 30
0.0
 11
13182.13663045587
 21
-10323.81106299298
 31
0.0
  0
LINE
  5
1D64
  8
0
 10
13077.13663045587
 20
-10425.61106299298
 30
0.0
 11
13182.13663045587
 21
-10425.61106299298
 31
0.0
  0
LINE
  5
1D65
  8
0
 10
13182.13663045587
 20
-10323.81106299298
 30
0.0
 11
13287.13663045587
 21
-10323.81106299298
 31
0.0
  0
LINE
  5
1D66
  8
0
 10
13182.13663045587
 20
-10425.61106299298
 30
0.0
 11
13287.13663045587
 21
-10425.61106299298
 31
0.0
  0
LINE
  5
1D67
  8
0
 10
13287.13663045587
 20
-10323.81106299298
 30
0.0
 11
13392.13663045587
 21
-10323.81106299298
 31
0.0
  0
LINE
  5
1D68
  8
0
 10
13287.13663045587
 20
-10425.61106299298
 30
0.0
 11
13392.13663045587
 21
-10425.61106299298
 31
0.0
  0
LINE
  5
1D69
  8
0
 10
13392.13663045587
 20
-10323.81106299298
 30
0.0
 11
13497.13663045587
 21
-10323.81106299298
 31
0.0
  0
LINE
  5
1D6A
  8
0
 10
13392.13663045587
 20
-10425.61106299298
 30
0.0
 11
13497.13663045587
 21
-10425.61106299298
 31
0.0
  0
LINE
  5
1D6B
  8
0
 10
13497.13663045587
 20
-10323.81106299298
 30
0.0
 11
13602.13663045587
 21
-10323.81106299298
 31
0.0
  0
LINE
  5
1D6C
  8
0
 10
13497.13663045587
 20
-10425.61106299298
 30
0.0
 11
13602.13663045587
 21
-10425.61106299298
 31
0.0
  0
LINE
  5
1D6D
  8
0
 10
13602.13663045587
 20
-10323.81106299298
 30
0.0
 11
13707.13663045587
 21
-10323.81106299298
 31
0.0
  0
LINE
  5
1D6E
  8
0
 10
13602.13663045587
 20
-10425.61106299298
 30
0.0
 11
13707.13663045587
 21
-10425.61106299298
 31
0.0
  0
LINE
  5
1D6F
  8
0
 10
13707.13663045587
 20
-10323.81106299298
 30
0.0
 11
13812.13663045587
 21
-10323.81106299298
 31
0.0
  0
LINE
  5
1D70
  8
0
 10
13707.13663045587
 20
-10425.61106299298
 30
0.0
 11
13812.13663045587
 21
-10425.61106299298
 31
0.0
  0
LINE
  5
1D71
  8
0
 10
13812.13663045587
 20
-10323.81106299298
 30
0.0
 11
13917.13663045587
 21
-10323.81106299298
 31
0.0
  0
LINE
  5
1D72
  8
0
 10
13812.13663045587
 20
-10425.61106299298
 30
0.0
 11
13917.13663045587
 21
-10425.61106299298
 31
0.0
  0
LINE
  5
1D73
  8
0
 10
13917.13663045587
 20
-10323.81106299298
 30
0.0
 11
14022.13663045587
 21
-10323.81106299298
 31
0.0
  0
LINE
  5
1D74
  8
0
 10
13917.13663045587
 20
-10425.61106299298
 30
0.0
 11
14022.13663045587
 21
-10425.61106299298
 31
0.0
  0
LINE
  5
1D75
  8
0
 10
12237.13663045587
 20
-10323.81106299298
 30
0.0
 11
12237.13663045587
 21
-10425.61106299298
 31
0.0
  0
LINE
  5
1D76
  8
0
 10
14022.13663045587
 20
-10323.81106299298
 30
0.0
 11
14022.13663045587
 21
-10425.61106299298
 31
0.0
  0
TEXT
  5
1D77
  8
0
 10
12353.80637401943
 20
-9584.48414188674
 30
0.0
 40
48.0
  1
タンク本体寸法差：\U+00B1１．５％
  0
TEXT
  5
1D78
  8
0
 10
12350.46967390347
 20
-9682.360034199466
 30
0.0
 40
48.0
  1
付属品取付位置は平面図による。
  0
TEXT
  5
1D79
  8
0
 10
12282.41698234536
 20
-9886.799523014708
 30
0.0
 40
48.0
  1
フィッティング材質
  0
TEXT
  5
1D7A
  8
0
 10
12983.6787940109
 20
-9894.94830085539
 30
0.0
 40
48.0
  1
Ｐ　Ｅ　・　Ａ　Ｌ　・　ＳＵＳ
  0
TEXT
  5
1D7B
  8
0
 10
12286.27043000218
 20
-9983.461129779742
 30
0.0
 40
48.0
  1
ガ
  0
TEXT
  5
1D7C
  8
0
 10
12289.19428787019
 20
-10063.46112977975
 30
0.0
 40
48.0
  1
ス
  0
TEXT
  5
1D7D
  8
0
 10
12288.70697822554
 20
-10143.46112977975
 30
0.0
 40
48.0
  1
ケ
  0
TEXT
  5
1D7E
  8
0
 10
12308.20193593228
 20
-10216.60539359051
 30
0.0
 40
48.0
  1
ッ
  0
TEXT
  5
1D7F
  8
0
 10
12284.82471901824
 20
-10303.86903957423
 30
0.0
 40
48.0
  1
ト
  0
TEXT
  5
1D80
  8
0
 10
12403.11808502907
 20
-9980.537271911733
 30
0.0
 40
48.0
  1
材
  0
TEXT
  5
1D81
  8
0
 10
12400.925191628
 20
-10061.99920084573
 30
0.0
 40
48.0
  1
質
  0
TEXT
  5
1D82
  8
0
 10
12563.70173555152
 20
-10034.64984071459
 30
0.0
 40
30.0
  1
フィッティング用
  0
TEXT
  5
1D83
  8
0
 10
12596.92381597061
 20
-10243.42134386295
 30
0.0
 40
37.5
  1
フランジ用
  0
TEXT
  5
1D84
  8
0
 10
12345.69492312104
 20
-9788.240463583032
 30
0.0
 40
48.0
  1
フランジ規格：ＪＩＳ
  0
TEXT
  5
1D85
  8
0
 10
13278.97666028658
 20
-9790.689073035739
 30
0.0
 40
48.0
  1
製作数：　　１　基
  0
TEXT
  5
1D86
  8
0
 10
12917.56205453615
 20
-9989.131334790665
 30
0.0
 40
48.0
  1
天板
  0
TEXT
  5
1D87
  8
0
 10
12915.05382645736
 20
-10091.57869511184
 30
0.0
 40
48.0
  1
側面
  0
TEXT
  5
1D88
  8
0
 10
12919.72923415087
 20
-10192.8996680208
 30
0.0
 40
48.0
  1
天板
  0
TEXT
  5
1D89
  8
0
 10
12917.22076116335
 20
-10294.21208614073
 30
0.0
 40
48.0
  1
側面
  0
TEXT
  5
1D8A
  8
0
 10
13271.46691521114
 20
-9995.33424938914
 30
0.0
 40
48.0
  1
ＩＩＲ　・　ＦＫＭ
  0
TEXT
  5
1D8B
  8
0
 10
13274.63211592737
 20
-10097.93759874652
 30
0.0
 40
48.0
  1
ＩＩＲ　・　ＦＫＭ
  0
TEXT
  5
1D8C
  8
0
 10
13215.52435848436
 20
-10299.85545612827
 30
0.0
 40
48.0
  1
ＥＰＤＭ　・　ＦＫＭ
  0
TEXT
  5
1D8D
  8
0
 10
13216.66930690194
 20
-10198.1654565822
 30
0.0
 40
48.0
  1
ＥＰＤＭ　・　ＦＫＭ
  0
LINE
  5
1D8E
  8
0
 10
13632.05826852323
 20
-9861.609078639936
 30
0.0
 11
13978.92571838763
 21
-9861.609078639936
 31
0.0
  0
LINE
  5
1D8F
  8
0
 10
13635.59768981318
 20
-9879.291449316777
 30
0.0
 11
13982.46513967758
 21
-9879.291449316777
 31
0.0
  0
LINE
  5
1D90
  8
0
 10
13547.11117792928
 20
-9959.418148175871
 30
0.0
 11
13964.76778831903
 21
-9959.418148175871
 31
0.0
  0
LINE
  5
1D91
  8
0
 10
13550.65084412802
 20
-9984.942665503637
 30
0.0
 11
13968.30745451777
 21
-9984.942665503637
 31
0.0
  0
LINE
  5
1D92
  8
0
 10
13547.14228134087
 20
-10086.08098276468
 30
0.0
 11
13964.79889173062
 21
-10086.08098276468
 31
0.0
  0
LINE
  5
1D93
  8
0
 10
13131.07365930172
 20
-10164.0648586457
 30
0.0
 11
13545.19109331031
 21
-10164.0648586457
 31
0.0
  0
LINE
  5
1D94
  8
0
 10
13545.19109331031
 20
-10164.0648586457
 30
0.0
 11
13962.84770370006
 21
-10164.0648586457
 31
0.0
  0
LINE
  5
1D95
  8
0
 10
13133.02484733228
 20
-10191.3591811746
 30
0.0
 11
13547.14228134087
 21
-10191.3591811746
 31
0.0
  0
LINE
  5
1D96
  8
0
 10
13547.14228134087
 20
-10191.3591811746
 30
0.0
 11
13964.79889173062
 21
-10191.3591811746
 31
0.0
  0
LINE
  5
1D97
  8
0
 10
13126.3858608717
 20
-10264.11382312088
 30
0.0
 11
13540.50329488028
 21
-10264.11382312088
 31
0.0
  0
LINE
  5
1D98
  8
0
 10
13540.50329488028
 20
-10264.11382312088
 30
0.0
 11
13958.15990527003
 21
-10264.11382312088
 31
0.0
  0
LINE
  5
1D99
  8
0
 10
13128.31623165824
 20
-10291.11821493475
 30
0.0
 11
13542.43366566682
 21
-10291.11821493475
 31
0.0
  0
LINE
  5
1D9A
  8
0
 10
13542.43366566682
 20
-10291.11821493475
 30
0.0
 11
13960.09027605657
 21
-10291.11821493475
 31
0.0
  0
LINE
  5
1D9B
  8
0
 10
13548.22526784402
 20
-10063.50953630191
 30
0.0
 11
13965.88187823377
 21
-10063.50953630191
 31
0.0
  0
LINE
  5
1D9C
  8
0
 10
12346.6907748187
 20
-10366.15376616576
 30
0.0
 11
13885.62094417436
 21
-10366.15376616576
 31
0.0
  0
LINE
  5
1D9D
  8
0
 10
12349.35788913822
 20
-10384.80794990688
 30
0.0
 11
13888.28805849388
 21
-10384.80794990688
 31
0.0
  0
INSERT
  5
1D9E
  8
0
  2
*X36
 10
0.0
 20
0.0
 30
0.0
  0
ARC
  5
1D9F
  8
2
 10
15898.01628382088
 20
-11031.87945289737
 30
0.0
 40
914.9999618530273
 50
2.72492589714687
 51
9.435291621347316
  0
INSERT
  5
1DBB
  8
0
  2
*X37
 10
0.0
 20
0.0
 30
0.0
  0
TEXT
  5
1DBC
  8
0
  6
CONTINUOUS
 10
16406.07319477975
 20
-12233.83659368242
 30
0.0
 40
60.0
  1
目盛位置
  0
INSERT
  5
1E4A
  8
0
 66
     1
  2
N-BALOON
 10
11804.54877765877
 20
-13451.55056724662
 30
0.0
  0
ATTRIB
  5
1E4B
  8
0
 10
11840.73173155807
 20
-13471.38026063349
 30
0.0
 40
40.0
  1
1
  2
NO.
 70
     0
  0
SEQEND
  5
1E4C
  8
0
  0
DIMENSION
  5
1E4D
  8
寸法線
  2
*D25
 10
11917.38852706797
 20
-14037.04041856527
 30
0.0
 11
11853.38852706797
 21
-14256.04041856527
 31
0.0
 70
    32
 13
11995.51273746947
 23
-13907.0401327713
 33
0.0
 14
11998.56383637242
 24
-14037.04041856527
 34
0.0
 50
90.0
  0
INSERT
  5
1E4E
  8
0
  2
*X38
 10
0.0
 20
0.0
 30
0.0
  0
POLYLINE
  5
1E4F
  8
LY_1
  6
CONTINUOUS
 62
     3
 66
     1
 10
0.0
 20
0.0
 30
0.0
  0
VERTEX
  5
2110
  8
LY_1
  6
CONTINUOUS
 62
     3
 10
12036.64056446947
 20
-13854.01428877169
 30
0.0
  0
VERTEX
  5
2111
  8
LY_1
  6
CONTINUOUS
 62
     3
 10
12036.63727146947
 20
-13854.01686377169
 30
0.0
  0
VERTEX
  5
2112
  8
LY_1
  6
CONTINUOUS
 62
     3
 10
12036.63437146947
 20
-13854.01985677169
 30
0.0
  0
VERTEX
  5
2113
  8
LY_1
  6
CONTINUOUS
 62
     3
 10
12036.63191846947
 20
-13854.02321077169
 30
0.0
  0
VERTEX
  5
2114
  8
LY_1
  6
CONTINUOUS
 62
     3
 10
12036.62995946948
 20
-13854.02686277169
 30
0.0
  0
VERTEX
  5
2115
  8
LY_1
  6
CONTINUOUS
 62
     3
 10
12036.62853046947
 20
-13854.03074277169
 30
0.0
  0
VERTEX
  5
2116
  8
LY_1
  6
CONTINUOUS
 62
     3
 10
12036.62765946948
 20
-13854.03477777169
 30
0.0
  0
VERTEX
  5
2117
  8
LY_1
  6
CONTINUOUS
 62
     3
 10
12036.62736246947
 20
-13854.03889277168
 30
0.0
  0
VERTEX
  5
2118
  8
LY_1
  6
CONTINUOUS
 62
     3
 10
12036.62764546947
 20
-13854.04300777169
 30
0.0
  0
VERTEX
  5
2119
  8
LY_1
  6
CONTINUOUS
 62
     3
 10
12036.62850246947
 20
-13854.04704577169
 30
0.0
  0
VERTEX
  5
211A
  8
LY_1
  6
CONTINUOUS
 62
     3
 10
12036.62991846948
 20
-13854.05093077169
 30
0.0
  0
VERTEX
  5
211B
  8
LY_1
  6
CONTINUOUS
 62
     3
 10
12036.63186546947
 20
-13854.05458877169
 30
0.0
  0
VERTEX
  5
211C
  8
LY_1
  6
CONTINUOUS
 62
     3
 10
12036.63430646947
 20
-13854.05795077169
 30
0.0
  0
VERTEX
  5
211D
  8
LY_1
  6
CONTINUOUS
 62
     3
 10
12036.63719646947
 20
-13854.06095377169
 30
0.0
  0
VERTEX
  5
211E
  8
LY_1
  6
CONTINUOUS
 62
     3
 10
12036.64048046947
 20
-13854.06353977169
 30
0.0
  0
SEQEND
  5
21B0
  8
LY_1
  6
CONTINUOUS
 62
     3
  0
ARC
  5
1E50
  8
LY_1
  6
CONTINUOUS
 62
     3
 10
12041.31913546948
 20
-13852.03779777169
 30
0.0
 40
1.000141
 50
90.77895100017876
 51
124.2590629999321
  0
ARC
  5
1E51
  8
LY_1
  6
CONTINUOUS
 62
     3
 10
12041.29301246947
 20
-13851.86277977169
 30
0.0
 40
0.825127
 50
213.57451399986
 51
89.14320300019695
  0
ARC
  5
1E52
  8
LY_1
  6
CONTINUOUS
 62
     3
 10
12041.27787546947
 20
-13856.21672277169
 30
0.0
 40
0.8309979999999999
 50
235.7409370000679
 51
55.7409549998587
  0
ARC
  5
1E53
  8
LY_1
  6
CONTINUOUS
 62
     3
 10
12035.76102946947
 20
-13856.19694777169
 30
0.0
 40
0.8431790000000001
 50
179.9999639999755
 51
359.9999829999826
  0
ARC
  5
1E54
  8
LY_1
  6
CONTINUOUS
 62
     3
 10
12035.76102946947
 20
-13851.88086177169
 30
0.0
 40
0.8431790000000001
 50
0.0
 51
180.0000190000071
  0
ARC
  5
1E55
  8
LY_1
  6
CONTINUOUS
 62
     3
 10
12015.34745546947
 20
-13830.24012977169
 30
0.0
 40
1.0
 50
129.0680079999045
 51
169.6945200000679
  0
ARC
  5
1E56
  8
LY_1
  6
CONTINUOUS
 62
     3
 10
12026.23344146947
 20
-13828.24012977169
 30
0.0
 40
1.0
 50
198.4338970000049
 51
269.9967389998837
  0
ARC
  5
1E57
  8
LY_1
  6
CONTINUOUS
 62
     3
 10
12028.02128346947
 20
-13821.24012977169
 30
0.0
 40
2.0
 50
89.9992169999368
 51
164.0543680001363
  0
ARC
  5
1E58
  8
LY_1
  6
CONTINUOUS
 62
     3
 10
12062.60770946947
 20
-13849.24012977169
 30
0.0
 40
1.0
 50
269.9931880001947
 51
354.2887289998602
  0
ARC
  5
1E59
  8
LY_1
  6
CONTINUOUS
 62
     3
 10
12061.67802146947
 20
-13830.24012977169
 30
0.0
 40
1.0
 50
10.30549900004138
 51
50.93198299987729
  0
ARC
  5
1E5A
  8
LY_1
  6
CONTINUOUS
 62
     3
 10
12050.79203546948
 20
-13828.24012977169
 30
0.0
 40
1.0
 50
270.0032419999007
 51
341.566080999982
  0
ARC
  5
1E5B
  8
LY_1
  6
CONTINUOUS
 62
     3
 10
12049.00419346947
 20
-13821.24012977169
 30
0.0
 40
2.0
 50
15.94561299999567
 51
90.00080199986188
  0
ARC
  5
1E5C
  8
LY_1
  6
CONTINUOUS
 62
     3
 10
12071.01273846948
 20
-13864.54307777169
 30
0.0
 40
7.0
 50
180.0000360000245
 51
232.5927660000659
  0
ARC
  5
1E5D
  8
LY_1
  6
CONTINUOUS
 62
     3
 10
12062.51273846948
 20
-13858.10905677169
 30
0.0
 40
8.0
 50
179.9999639999755
 51
243.8727239999707
  0
ARC
  5
1E5E
  8
LY_1
  6
CONTINUOUS
 62
     3
 10
12014.51273846948
 20
-13858.10905677169
 30
0.0
 40
8.0
 50
296.1272949998174
 51
0.0000150000275647
  0
ARC
  5
1E5F
  8
LY_1
  6
CONTINUOUS
 62
     3
 10
12038.51273846948
 20
-13907.04013277169
 30
0.0
 40
46.5
 50
116.1273130000027
 51
63.87268800015781
  0
CIRCLE
  5
1E60
  8
LY_1
  6
CONTINUOUS
 62
   110
 10
12038.51273846948
 20
-13907.04013277169
 30
0.0
 40
37.600006
  0
CIRCLE
  5
1E61
  8
LY_1
  6
CONTINUOUS
 62
     3
 10
12038.51273846948
 20
-13907.04013277169
 30
0.0
 40
36.100006
  0
LINE
  5
1E62
  8
LY_1
  6
CONTINUOUS
 62
     3
 10
12038.81882846947
 20
-13853.53613477169
 30
0.0
 11
12040.60581346947
 21
-13852.31900677169
 31
0.0
  0
LINE
  5
1E63
  8
LY_1
  6
CONTINUOUS
 62
     3
 10
12038.81864546947
 20
-13853.53627377169
 30
0.0
 11
12041.74568946947
 21
-13855.52990277169
 31
0.0
  0
LINE
  5
1E64
  8
LY_1
  6
CONTINUOUS
 62
     3
 10
12036.64050546947
 20
-13854.01433277169
 30
0.0
 11
12040.75606046947
 21
-13851.21120077169
 31
0.0
  0
LINE
  5
1E65
  8
LY_1
  6
CONTINUOUS
 62
     3
 10
12036.64044346947
 20
-13854.06357577169
 30
0.0
 11
12040.81008846948
 21
-13856.90354977168
 31
0.0
  0
LINE
  5
1E66
  8
LY_1
  6
CONTINUOUS
 62
     3
 10
12036.60404746947
 20
-13851.88086177169
 30
0.0
 11
12036.60404746947
 21
-13856.19694777169
 31
0.0
  0
LINE
  5
1E67
  8
LY_1
  6
CONTINUOUS
 62
     3
 10
12034.91776746948
 20
-13851.88086177169
 30
0.0
 11
12034.91776746948
 21
-13856.19694777169
 31
0.0
  0
LINE
  5
1E68
  8
LY_1
  6
CONTINUOUS
 62
     3
 10
12030.51273846948
 20
-13816.04013277169
 30
0.0
 11
12046.51273846948
 21
-13816.04013277169
 31
0.0
  0
LINE
  5
1E69
  8
LY_1
  6
CONTINUOUS
 62
     3
 10
12033.51273846948
 20
-13846.04013277169
 30
0.0
 11
12043.51273846948
 21
-13846.04013277169
 31
0.0
  0
LINE
  5
1E6A
  8
LY_1
  6
CONTINUOUS
 62
     3
 10
12043.51273846948
 20
-13846.04013277169
 30
0.0
 11
12043.51273846948
 21
-13861.44012677169
 31
0.0
  0
LINE
  5
1E6B
  8
LY_1
  6
CONTINUOUS
 62
   110
 10
12031.59525846947
 20
-13816.04013277169
 30
0.0
 11
12031.59525846947
 21
-13817.24012977169
 31
0.0
  0
LINE
  5
1E6C
  8
LY_1
  6
CONTINUOUS
 62
   110
 10
12045.43021946947
 20
-13816.04013277169
 30
0.0
 11
12045.43021946947
 21
-13817.24012977169
 31
0.0
  0
LINE
  5
1E6D
  8
LY_1
  6
CONTINUOUS
 62
     3
 10
12030.51273846948
 20
-13816.04013277169
 30
0.0
 11
12030.51273846948
 21
-13817.24012977169
 31
0.0
  0
LINE
  5
1E6E
  8
LY_1
  6
CONTINUOUS
 62
     3
 10
12046.51273846948
 20
-13816.04013277169
 30
0.0
 11
12046.51273846948
 21
-13817.24012977169
 31
0.0
  0
LINE
  5
1E6F
  8
LY_1
  6
CONTINUOUS
 62
     3
 10
12038.51273846948
 20
-13817.24012977169
 30
0.0
 11
12038.51273846948
 21
-13819.24012977169
 31
0.0
  0
LINE
  5
1E70
  8
LY_1
  6
CONTINUOUS
 62
     3
 10
12050.51273846948
 20
-13817.24012977169
 30
0.0
 11
12050.51273846948
 21
-13819.88879577169
 31
0.0
  0
LINE
  5
1E71
  8
LY_1
  6
CONTINUOUS
 62
     3
 10
12026.51273846948
 20
-13817.24012977169
 30
0.0
 11
12026.51273846948
 21
-13819.88865877169
 31
0.0
  0
LINE
  5
1E72
  8
LY_1
  6
CONTINUOUS
 62
     3
 10
12026.51273846948
 20
-13817.24012977169
 30
0.0
 11
12050.51273846948
 21
-13817.24012977169
 31
0.0
  0
LINE
  5
1E73
  8
LY_1
  6
CONTINUOUS
 62
     3
 10
12056.34315946947
 20
-13843.24013077169
 30
0.0
 11
12056.84315946947
 21
-13850.24013377169
 31
0.0
  0
LINE
  5
1E74
  8
LY_1
  6
CONTINUOUS
 62
     3
 10
12054.51273846948
 20
-13850.24012977169
 30
0.0
 11
12062.60770946947
 21
-13850.24012977169
 31
0.0
  0
LINE
  5
1E75
  8
LY_1
  6
CONTINUOUS
 62
     3
 10
12018.75545346948
 20
-13840.24009077169
 30
0.0
 11
12025.51267846947
 21
-13829.24008077169
 31
0.0
  0
LINE
  5
1E76
  8
LY_1
  6
CONTINUOUS
 62
     3
 10
12014.71712846947
 20
-13829.46375577169
 30
0.0
 11
12026.76084046947
 21
-13819.68725577169
 31
0.0
  0
LINE
  5
1E77
  8
LY_1
  6
CONTINUOUS
 62
     3
 10
12015.91254246948
 20
-13840.24010077169
 30
0.0
 11
12024.51264046947
 21
-13826.24010077169
 31
0.0
  0
LINE
  5
1E78
  8
LY_1
  6
CONTINUOUS
 62
     3
 10
12024.51247446947
 20
-13826.24018777169
 30
0.0
 11
12025.28454346947
 21
-13828.55639577169
 31
0.0
  0
LINE
  5
1E79
  8
LY_1
  6
CONTINUOUS
 62
     3
 10
12026.09811346947
 20
-13820.69062577169
 30
0.0
 11
12024.51256446947
 21
-13826.24004577168
 31
0.0
  0
LINE
  5
1E7A
  8
LY_1
  6
CONTINUOUS
 62
     3
 10
12014.36362246947
 20
-13830.06122077169
 30
0.0
 11
12012.51291046948
 21
-13840.24013677169
 31
0.0
  0
LINE
  5
1E7B
  8
LY_1
  6
CONTINUOUS
 62
     3
 10
12033.51273846948
 20
-13843.24012977169
 30
0.0
 11
12064.21293346947
 21
-13843.24012977169
 31
0.0
  0
LINE
  5
1E7C
  8
LY_1
  6
CONTINUOUS
 62
     3
 10
12058.26967946947
 20
-13840.24027377169
 30
0.0
 11
12051.51245446947
 21
-13829.24026477169
 31
0.0
  0
LINE
  5
1E7D
  8
LY_1
  6
CONTINUOUS
 62
     3
 10
12062.30814546947
 20
-13829.46404377169
 30
0.0
 11
12050.26450546947
 21
-13819.68760077169
 31
0.0
  0
LINE
  5
1E7E
  8
LY_1
  6
CONTINUOUS
 62
     3
 10
12061.11259046947
 20
-13840.24028477169
 30
0.0
 11
12052.51249246947
 21
-13826.24028377169
 31
0.0
  0
LINE
  5
1E7F
  8
LY_1
  6
CONTINUOUS
 62
     3
 10
12052.51285546947
 20
-13826.24014377169
 30
0.0
 11
12051.74078646947
 21
-13828.55635177169
 31
0.0
  0
LINE
  5
1E80
  8
LY_1
  6
CONTINUOUS
 62
     3
 10
12050.92699046947
 20
-13820.69074677169
 30
0.0
 11
12052.51253946947
 21
-13826.24016777169
 31
0.0
  0
LINE
  5
1E81
  8
LY_1
  6
CONTINUOUS
 62
     3
 10
12024.51273846948
 20
-13826.24012977169
 30
0.0
 11
12052.51273846948
 21
-13826.24012977169
 31
0.0
  0
LINE
  5
1E82
  8
LY_1
  6
CONTINUOUS
 62
     3
 10
12028.02128346947
 20
-13819.24012977169
 30
0.0
 11
12049.00419346947
 21
-13819.24012977169
 31
0.0
  0
LINE
  5
1E83
  8
LY_1
  6
CONTINUOUS
 62
     3
 10
12062.66249746948
 20
-13830.06114277168
 30
0.0
 11
12064.51321046947
 21
-13840.24006377169
 31
0.0
  0
LINE
  5
1E84
  8
LY_1
  6
CONTINUOUS
 62
     3
 10
12063.60241246947
 20
-13849.33963577169
 30
0.0
 11
12064.51236346947
 21
-13840.24012177169
 31
0.0
  0
LINE
  5
1E85
  8
LY_1
  6
CONTINUOUS
 62
     3
 10
12013.51248146948
 20
-13850.24012177169
 30
0.0
 11
12012.51248246948
 21
-13840.24013177168
 31
0.0
  0
LINE
  5
1E86
  8
LY_1
  6
CONTINUOUS
 62
     3
 10
12026.23344146947
 20
-13829.24012977169
 30
0.0
 11
12050.79203546948
 21
-13829.24012977169
 31
0.0
  0
LINE
  5
1E87
  8
LY_1
  6
CONTINUOUS
 62
     3
 10
12012.51273846948
 20
-13840.24012977169
 30
0.0
 11
12064.51273846948
 21
-13840.24012977169
 31
0.0
  0
LINE
  5
1E88
  8
LY_1
  6
CONTINUOUS
 62
     3
 10
12013.51273846948
 20
-13850.24012977169
 30
0.0
 11
12033.51273846948
 21
-13850.24012977169
 31
0.0
  0
LINE
  5
1E89
  8
LY_1
  6
CONTINUOUS
 62
     3
 10
12033.51273846948
 20
-13843.24012977169
 30
0.0
 11
12033.51273846948
 21
-13861.44012677169
 31
0.0
  0
LINE
  5
1E8A
  8
LY_1
  6
CENTER
 62
   110
 10
12038.51273846948
 20
-13810.74012977169
 30
0.0
 11
12038.51273846948
 21
-13959.09276077169
 31
0.0
  0
LINE
  5
1E8B
  8
LY_1
  6
CENTER
 62
   110
 10
11987.20264946948
 20
-13907.04013277169
 30
0.0
 11
12089.82255346948
 21
-13907.04013277169
 31
0.0
  0
LINE
  5
1E8C
  8
LY_1
  6
CONTINUOUS
 62
     3
 10
12064.01273846948
 20
-13852.54013277169
 30
0.0
 11
12064.01273846948
 21
-13864.54307777169
 31
0.0
  0
LINE
  5
1E8D
  8
LY_1
  6
CONTINUOUS
 62
     3
 10
12054.51273846948
 20
-13852.54013277169
 30
0.0
 11
12064.01273846948
 21
-13852.54013277169
 31
0.0
  0
LINE
  5
1E8E
  8
LY_1
  6
CONTINUOUS
 62
     3
 10
12022.51273846948
 20
-13850.24012977169
 30
0.0
 11
12022.51273846948
 21
-13858.10905677169
 31
0.0
  0
LINE
  5
1E8F
  8
LY_1
  6
CONTINUOUS
 62
     3
 10
12054.51273846948
 20
-13843.24012977169
 30
0.0
 11
12054.51273846948
 21
-13858.10905677169
 31
0.0
  0
LINE
  5
1E90
  8
LY_1
  6
CONTINUOUS
 62
     3
 10
12033.51273846948
 20
-13844.04013277169
 30
0.0
 11
12054.51273846948
 21
-13844.04013277169
 31
0.0
  0
LINE
  5
1E91
  8
LY_1
  6
CONTINUOUS
 62
     3
 10
12071.31976746947
 20
-13874.08636177169
 30
0.0
 11
12038.61652246947
 21
-13860.54023677169
 31
0.0
  0
LINE
  5
1E92
  8
LY_1
  6
CONTINUOUS
 62
     3
 10
12038.40899546948
 20
-13953.54000477169
 30
0.0
 11
12005.70572246948
 21
-13939.99386777169
 31
0.0
  0
LINE
  5
1E93
  8
LY_1
  6
CONTINUOUS
 62
     3
 10
12085.01256246947
 20
-13906.93638677169
 30
0.0
 11
12071.46644646948
 21
-13874.23317277169
 31
0.0
  0
LINE
  5
1E94
  8
LY_1
  6
CONTINUOUS
 62
     3
 10
12005.55897946947
 20
-13939.84717477168
 30
0.0
 11
11992.01284046947
 21
-13907.14390377169
 31
0.0
  0
LINE
  5
1E95
  8
LY_1
  6
CONTINUOUS
 62
     3
 10
12071.46644146947
 20
-13939.84711377169
 30
0.0
 11
12085.01257246947
 21
-13907.14385477169
 31
0.0
  0
LINE
  5
1E96
  8
LY_1
  6
CONTINUOUS
 62
     3
 10
11992.01286146947
 20
-13906.93635077169
 30
0.0
 11
12005.55898046947
 21
-13874.23312077169
 31
0.0
  0
LINE
  5
1E97
  8
LY_1
  6
CONTINUOUS
 62
     3
 10
12038.61648146947
 20
-13953.54003877169
 30
0.0
 11
12071.31976646947
 21
-13939.99389377169
 31
0.0
  0
LINE
  5
1E98
  8
LY_1
  6
CONTINUOUS
 62
     3
 10
12005.70571846947
 20
-13874.08639577169
 30
0.0
 11
12038.40898946947
 21
-13860.54025677169
 31
0.0
  0
LINE
  5
1E99
  8
0
 10
12038.51273946948
 20
-13907.0401327713
 30
0.0
 11
12038.51273946948
 21
-13961.6922627713
 31
0.0
  0
LINE
  5
1E9A
  8
0
 10
12038.51273846948
 20
-13907.0401327713
 30
0.0
 11
12093.16486946947
 21
-13907.0401327713
 31
0.0
  0
TEXT
  5
1ED1
  8
0
 10
17162.78204166975
 20
-13348.03037531296
 30
0.0
 40
60.0
  1
ﾌｨｯﾃｨﾝｸﾞ・六角ﾆｯﾌﾟﾙ・Tボール付
 41
0.7
  0
TEXT
  5
1ED9
  8
0
 10
15301.21654696313
 20
-12938.8100610308
 30
0.0
 40
75.0
  1
※KITZ　Tボール　６５Ａ仕様
  0
LINE
  5
1EDA
  8
0
 10
15738.92520816586
 20
-11934.12977792302
 30
0.0
 11
15689.7577872443
 21
-12212.97207831305
 31
0.0
  0
POLYLINE
  5
1F6C
  8
LY_1
  6
CONTINUOUS
 62
     3
 66
     1
 10
0.0
 20
0.0
 30
0.0
  0
VERTEX
  5
211F
  8
LY_1
  6
CONTINUOUS
 62
     3
 10
15693.28537123569
 20
-12185.18058560072
 30
0.0
  0
VERTEX
  5
2120
  8
LY_1
  6
CONTINUOUS
 62
     3
 10
15693.28310571625
 20
-12185.17687177606
 30
0.0
  0
VERTEX
  5
2121
  8
LY_1
  6
CONTINUOUS
 62
     3
 10
15693.28035990386
 20
-12185.17351497336
 30
0.0
  0
VERTEX
  5
2122
  8
LY_1
  6
CONTINUOUS
 62
     3
 10
15693.27718698536
 20
-12185.17057635767
 30
0.0
  0
VERTEX
  5
2123
  8
LY_1
  6
CONTINUOUS
 62
     3
 10
15693.27364478139
 20
-12185.16811384938
 30
0.0
  0
VERTEX
  5
2124
  8
LY_1
  6
CONTINUOUS
 62
     3
 10
15693.26980240698
 20
-12185.16617314438
 30
0.0
  0
VERTEX
  5
2125
  8
LY_1
  6
CONTINUOUS
 62
     3
 10
15693.26573071359
 20
-12185.16479009056
 30
0.0
  0
VERTEX
  5
2126
  8
LY_1
  6
CONTINUOUS
 62
     3
 10
15693.26150802438
 20
-12185.16399271434
 30
0.0
  0
VERTEX
  5
2127
  8
LY_1
  6
CONTINUOUS
 62
     3
 10
15693.25721329762
 20
-12185.16379392277
 30
0.0
  0
VERTEX
  5
2128
  8
LY_1
  6
CONTINUOUS
 62
     3
 10
15693.25292885038
 20
-12185.16419909174
 30
0.0
  0
VERTEX
  5
2129
  8
LY_1
  6
CONTINUOUS
 62
     3
 10
15693.24873433313
 20
-12185.16519992639
 30
0.0
  0
VERTEX
  5
212A
  8
LY_1
  6
CONTINUOUS
 62
     3
 10
15693.24471014798
 20
-12185.16677811013
 30
0.0
  0
VERTEX
  5
212B
  8
LY_1
  6
CONTINUOUS
 62
     3
 10
15693.24093171356
 20
-12185.16890327795
 30
0.0
  0
VERTEX
  5
212C
  8
LY_1
  6
CONTINUOUS
 62
     3
 10
15693.23747126089
 20
-12185.17153434853
 30
0.0
  0
VERTEX
  5
212D
  8
LY_1
  6
CONTINUOUS
 62
     3
 10
15693.23439302602
 20
-12185.17462375366
 30
0.0
  0
VERTEX
  5
212E
  8
LY_1
  6
CONTINUOUS
 62
     3
 10
15693.23175643508
 20
-12185.17811089191
 30
0.0
  0
VERTEX
  5
212F
  8
LY_1
  6
CONTINUOUS
 62
     3
 10
15693.22961060227
 20
-12185.18193029731
 30
0.0
  0
VERTEX
  5
2130
  8
LY_1
  6
CONTINUOUS
 62
     3
 10
15693.22799647313
 20
-12185.1860110018
 30
0.0
  0
VERTEX
  5
2131
  8
LY_1
  6
CONTINUOUS
 62
     3
 10
15693.22694502852
 20
-12185.19027520315
 30
0.0
  0
VERTEX
  5
2132
  8
LY_1
  6
CONTINUOUS
 62
     3
 10
15693.22694502852
 20
-12185.19027520315
 30
0.0
  0
SEQEND
  5
21B1
  8
LY_1
  6
CONTINUOUS
 62
     3
  0
POLYLINE
  5
1F6D
  8
LY_1
  6
CONTINUOUS
 62
     3
 66
     1
 10
0.0
 20
0.0
 30
0.0
  0
VERTEX
  5
2133
  8
LY_1
  6
CONTINUOUS
 62
     3
 10
15696.60359586588
 20
-12187.79463352252
 30
0.0
  0
VERTEX
  5
2134
  8
LY_1
  6
CONTINUOUS
 62
     3
 10
15696.60602170471
 20
-12187.79857260857
 30
0.0
  0
VERTEX
  5
2135
  8
LY_1
  6
CONTINUOUS
 62
     3
 10
15696.60898766941
 20
-12187.80210328179
 30
0.0
  0
VERTEX
  5
2136
  8
LY_1
  6
CONTINUOUS
 62
     3
 10
15696.61242985442
 20
-12187.80515030203
 30
0.0
  0
VERTEX
  5
2137
  8
LY_1
  6
CONTINUOUS
 62
     3
 10
15696.6162732335
 20
-12187.80764966881
 30
0.0
  0
VERTEX
  5
2138
  8
LY_1
  6
CONTINUOUS
 62
     3
 10
15696.62043791584
 20
-12187.80954769356
 30
0.0
  0
VERTEX
  5
2139
  8
LY_1
  6
CONTINUOUS
 62
     3
 10
15696.6248337011
 20
-12187.81080308589
 30
0.0
  0
VERTEX
  5
213A
  8
LY_1
  6
CONTINUOUS
 62
     3
 10
15696.62936581462
 20
-12187.81138898019
 30
0.0
  0
VERTEX
  5
213B
  8
LY_1
  6
CONTINUOUS
 62
     3
 10
15696.63393884658
 20
-12187.81129363029
 30
0.0
  0
VERTEX
  5
213C
  8
LY_1
  6
CONTINUOUS
 62
     3
 10
15696.63845397135
 20
-12187.81051890363
 30
0.0
  0
VERTEX
  5
213D
  8
LY_1
  6
CONTINUOUS
 62
     3
 10
15696.64281601466
 20
-12187.8090805121
 30
0.0
  0
VERTEX
  5
213E
  8
LY_1
  6
CONTINUOUS
 62
     3
 10
15696.6469289935
 20
-12187.80701027178
 30
0.0
  0
VERTEX
  5
213F
  8
LY_1
  6
CONTINUOUS
 62
     3
 10
15696.65070799091
 20
-12187.80435210426
 30
0.0
  0
VERTEX
  5
2140
  8
LY_1
  6
CONTINUOUS
 62
     3
 10
15696.65406994535
 20
-12187.8011624434
 30
0.0
  0
VERTEX
  5
2141
  8
LY_1
  6
CONTINUOUS
 62
     3
 10
15696.65694384611
 20
-12187.79751000225
 30
0.0
  0
VERTEX
  5
2142
  8
LY_1
  6
CONTINUOUS
 62
     3
 10
15696.65926829984
 20
-12187.79347229759
 30
0.0
  0
VERTEX
  5
2143
  8
LY_1
  6
CONTINUOUS
 62
     3
 10
15696.66099251534
 20
-12187.78913582369
 30
0.0
  0
VERTEX
  5
2144
  8
LY_1
  6
CONTINUOUS
 62
     3
 10
15696.66157724529
 20
-12187.78705779099
 30
0.0
  0
VERTEX
  5
2145
  8
LY_1
  6
CONTINUOUS
 62
     3
 10
15696.66202207306
 20
-12187.78494392008
 30
0.0
  0
SEQEND
  5
21B2
  8
LY_1
  6
CONTINUOUS
 62
     3
  0
POLYLINE
  5
1F6E
  8
LY_1
  6
CONTINUOUS
 62
     3
 66
     1
 10
0.0
 20
0.0
 30
0.0
  0
VERTEX
  5
2146
  8
LY_1
  6
CONTINUOUS
 62
     3
 10
15698.46842774439
 20
-12163.71929367052
 30
0.0
  0
VERTEX
  5
2147
  8
LY_1
  6
CONTINUOUS
 62
     3
 10
15698.46638030727
 20
-12163.71544872342
 30
0.0
  0
VERTEX
  5
2148
  8
LY_1
  6
CONTINUOUS
 62
     3
 10
15698.46383264552
 20
-12163.71192986725
 30
0.0
  0
VERTEX
  5
2149
  8
LY_1
  6
CONTINUOUS
 62
     3
 10
15698.46083458717
 20
-12163.70880579826
 30
0.0
  0
VERTEX
  5
214A
  8
LY_1
  6
CONTINUOUS
 62
     3
 10
15698.45744117209
 20
-12163.70613293105
 30
0.0
  0
VERTEX
  5
214B
  8
LY_1
  6
CONTINUOUS
 62
     3
 10
15698.45371717167
 20
-12163.70396431908
 30
0.0
  0
VERTEX
  5
214C
  8
LY_1
  6
CONTINUOUS
 62
     3
 10
15698.44973256916
 20
-12163.70234073421
 30
0.0
  0
VERTEX
  5
214D
  8
LY_1
  6
CONTINUOUS
 62
     3
 10
15698.44556354445
 20
-12163.70129084042
 30
0.0
  0
VERTEX
  5
214E
  8
LY_1
  6
CONTINUOUS
 62
     3
 10
15698.44128749297
 20
-12163.70083640803
 30
0.0
  0
VERTEX
  5
214F
  8
LY_1
  6
CONTINUOUS
 62
     3
 10
15698.43698835413
 20
-12163.70098512982
 30
0.0
  0
VERTEX
  5
2150
  8
LY_1
  6
CONTINUOUS
 62
     3
 10
15698.43274456283
 20
-12163.70173560459
 30
0.0
  0
VERTEX
  5
2151
  8
LY_1
  6
CONTINUOUS
 62
     3
 10
15698.42863715871
 20
-12163.70307165902
 30
0.0
  0
VERTEX
  5
2152
  8
LY_1
  6
CONTINUOUS
 62
     3
 10
15698.42474463138
 20
-12163.70496854674
 30
0.0
  0
VERTEX
  5
2153
  8
LY_1
  6
CONTINUOUS
 62
     3
 10
15698.42114013962
 20
-12163.70739144254
 30
0.0
  0
VERTEX
  5
2154
  8
LY_1
  6
CONTINUOUS
 62
     3
 10
15698.41789185865
 20
-12163.71029347283
 30
0.0
  0
SEQEND
  5
21B3
  8
LY_1
  6
CONTINUOUS
 62
     3
  0
ARC
  5
1F6F
  8
LY_1
  6
CONTINUOUS
 62
     3
 10
15762.91114072266
 20
-12069.33691899576
 30
0.0
 40
1.5
 50
170.0001820001404
 51
212.0245569999948
  0
ARC
  5
1F70
  8
LY_1
  6
CONTINUOUS
 62
     3
 10
15759.94376603589
 20
-12071.19289930014
 30
0.0
 40
2.0
 50
349.9999819999543
 51
32.0244419997877
  0
ARC
  5
1F71
  8
LY_1
  6
CONTINUOUS
 62
     3
 10
15696.27902168007
 20
-12189.07191254501
 30
0.0
 40
0.8565649999999999
 50
207.5240970001206
 51
349.9999819999543
  0
ARC
  5
1F72
  8
LY_1
  6
CONTINUOUS
 62
     3
 10
15691.80858100964
 20
-12188.27982609625
 30
0.0
 40
0.8603290000000001
 50
170.0000180001587
 51
349.9999819999543
  0
ARC
  5
1F73
  8
LY_1
  6
CONTINUOUS
 62
     3
 10
15692.83777010187
 20
-12182.42191609097
 30
0.0
 40
0.856713
 50
27.52411200027721
 51
170.0000010001095
  0
ARC
  5
1F74
  8
LY_1
  6
CONTINUOUS
 62
     3
 10
15697.23159969387
 20
-12183.54040495162
 30
0.0
 40
0.878975
 50
349.9999819999543
 51
259.9999830001279
  0
ARC
  5
1F75
  8
LY_1
  6
CONTINUOUS
 62
     3
 10
15697.7680832952
 20
-12180.60382815129
 30
0.0
 40
0.8602920000000001
 50
170.0000180001587
 51
349.9999819999543
  0
ARC
  5
1F76
  8
LY_1
  6
CONTINUOUS
 62
     3
 10
15693.80756910706
 20
-12177.05029289459
 30
0.0
 40
0.879
 50
80.00003600014023
 51
259.9999830001279
  0
ARC
  5
1F77
  8
LY_1
  6
CONTINUOUS
 62
     3
 10
15698.77296659384
 20
-12174.79747373447
 30
0.0
 40
0.878926
 50
349.9999819999543
 51
259.9999830001279
  0
ARC
  5
1F78
  8
LY_1
  6
CONTINUOUS
 62
     3
 10
15694.86627825649
 20
-12171.04605494314
 30
0.0
 40
0.878991
 50
80.00003600014023
 51
259.9999830001279
  0
ARC
  5
1F79
  8
LY_1
  6
CONTINUOUS
 62
     3
 10
15699.29693621575
 20
-12171.82729948365
 30
0.0
 40
0.878991
 50
259.9999999999357
 51
80.0000189999038
  0
ARC
  5
1F7A
  8
LY_1
  6
CONTINUOUS
 62
     3
 10
15699.65057348817
 20
-12168.87991049
 30
0.0
 40
1.042553
 50
350.7789510001888
 51
24.25906300004173
  0
ARC
  5
1F7B
  8
LY_1
  6
CONTINUOUS
 62
     3
 10
15699.83492840048
 20
-12168.88497736173
 30
0.0
 40
0.860117
 50
113.5745140000238
 51
349.1432030001883
  0
ARC
  5
1F7C
  8
LY_1
  6
CONTINUOUS
 62
     3
 10
15695.36806376532
 20
-12168.08121957108
 30
0.0
 40
0.866237
 50
135.740937000068
 51
315.7409549997986
  0
ARC
  5
1F7D
  8
LY_1
  6
CONTINUOUS
 62
     3
 10
15696.38698590354
 20
-12162.42124988617
 30
0.0
 40
0.878936
 50
79.99996400015992
 51
259.9999830001279
  0
ARC
  5
1F7E
  8
LY_1
  6
CONTINUOUS
 62
     3
 10
15700.81777976627
 20
-12163.20251839013
 30
0.0
 40
0.878936
 50
259.9999999999357
 51
80.0000189999038
  0
CIRCLE
  5
1F7F
  8
LY_1
  6
CONTINUOUS
 62
     3
 10
15709.5211902755
 20
-12100.88825000842
 30
0.0
 40
6.9175
  0
CIRCLE
  5
1F80
  8
LY_1
  6
CONTINUOUS
 62
   110
 10
15709.5211902755
 20
-12100.88825000842
 30
0.0
 40
8.0
  0
CIRCLE
  5
1F81
  8
LY_1
  6
CONTINUOUS
 62
     3
 10
15709.5211902755
 20
-12100.88825000842
 30
0.0
 40
11.5
  0
ARC
  5
1F82
  8
LY_1
  6
CONTINUOUS
 62
     3
 10
15670.60183679829
 20
-12292.03390723638
 30
0.0
 40
5.0
 50
171.5801960000564
 51
259.9999430000316
  0
ARC
  5
1F83
  8
LY_1
  6
CONTINUOUS
 62
     3
 10
15680.71775446261
 20
-12293.81761645523
 30
0.0
 40
5.0
 50
260.0000730002105
 51
348.419804000015
  0
ARC
  5
1F84
  8
LY_1
  6
CONTINUOUS
 62
     3
 10
15680.71775446261
 20
-12293.81761645523
 30
0.0
 40
3.0
 50
260.0001219999203
 51
348.419804000015
  0
ARC
  5
1F85
  8
LY_1
  6
CONTINUOUS
 62
     3
 10
15670.60183679829
 20
-12292.03390723638
 30
0.0
 40
3.0
 50
171.5801960000564
 51
259.9999050000774
  0
ARC
  5
1F86
  8
LY_1
  6
CONTINUOUS
 62
     3
 10
15761.737818628
 20
-12172.41172770433
 30
0.0
 40
52.0
 50
157.015337000058
 51
168.4198400001637
  0
ARC
  5
1F87
  8
LY_1
  6
CONTINUOUS
 62
     3
 10
15761.737818628
 20
-12172.41172770433
 30
0.0
 40
50.0
 50
157.015337000058
 51
168.4198400001637
  0
ARC
  5
1F88
  8
LY_1
  6
CONTINUOUS
 62
     3
 10
15718.81825536928
 20
-12118.77439921603
 30
0.0
 40
4.0
 50
260.0000189999038
 51
337.1957269999224
  0
ARC
  5
1F89
  8
LY_1
  6
CONTINUOUS
 62
     3
 10
15694.66738349637
 20
-12114.5159488972
 30
0.0
 40
4.0
 50
182.8042730002005
 51
259.9999809999677
  0
ARC
  5
1F8A
  8
LY_1
  6
CONTINUOUS
 62
     3
 10
15635.99109552127
 20
-12150.23918768493
 30
0.0
 40
52.0
 50
351.5801599999315
 51
2.984662999943564
  0
ARC
  5
1F8B
  8
LY_1
  6
CONTINUOUS
 62
     3
 10
15635.99109552127
 20
-12150.23918768493
 30
0.0
 40
50.0
 50
351.5801599999315
 51
2.984662999943564
  0
ARC
  5
1F8C
  8
LY_1
  6
CONTINUOUS
 62
     3
 10
15709.5211902755
 20
-12100.88825000842
 30
0.0
 40
24.0
 50
337.0153010002013
 51
182.9846819998752
  0
ARC
  5
1F8D
  8
LY_1
  6
CONTINUOUS
 62
     3
 10
15709.5211902755
 20
-12100.88825000842
 30
0.0
 40
26.0
 50
336.9581460001821
 51
182.9846819998752
  0
LINE
  5
1F8E
  8
LY_1
  6
CONTINUOUS
 62
     3
 10
15684.93815691513
 20
-12161.03318781407
 30
0.0
 11
15653.58729154743
 21
-12155.50518438119
 31
0.0
  0
LINE
  5
1F8F
  8
LY_1
  6
CONTINUOUS
 62
     3
 10
15685.30155640987
 20
-12135.71159965263
 30
0.0
 11
15657.92849598911
 21
-12130.88499055588
 31
0.0
  0
LINE
  5
1F90
  8
LY_1
  6
CONTINUOUS
 62
     3
 10
15683.77863684906
 20
-12106.50340940587
 30
0.0
 11
15661.99114798375
 21
-12102.66168727703
 31
0.0
  0
LINE
  5
1F91
  8
LY_1
  6
CONTINUOUS
 62
     3
 10
15720.54784955734
 20
-12038.35295769214
 30
0.0
 11
15716.46711738217
 21
-12061.49593988793
 31
0.0
  0
LINE
  5
1F92
  8
LY_1
  6
CONTINUOUS
 62
     3
 10
15752.95862805652
 20
-12044.06785240732
 30
0.0
 11
15748.87789588135
 21
-12067.2108346031
 31
0.0
  0
LINE
  5
1F93
  8
LY_1
  6
CONTINUOUS
 62
     3
 10
15765.45508900354
 20
-12046.27131563564
 30
0.0
 11
15761.43392909314
 21
-12069.07644672926
 31
0.0
  0
LINE
  5
1F94
  8
LY_1
  6
CONTINUOUS
 62
     3
 10
15688.13707105816
 20
-12032.63806297697
 30
0.0
 11
15684.05633888299
 21
-12055.78104517276
 31
0.0
  0
LINE
  5
1F95
  8
LY_1
  6
CONTINUOUS
 62
     3
 10
15675.64061011113
 20
-12030.43459974864
 30
0.0
 11
15671.61945020074
 21
-12053.23973084225
 31
0.0
  0
LINE
  5
1F96
  8
LY_1
  6
CONTINUOUS
 62
     3
 10
15765.45508900354
 20
-12046.27131563564
 30
0.0
 11
15675.64061011113
 21
-12030.43459974864
 31
0.0
  0
LINE
  5
1F97
  8
LY_1
  6
CONTINUOUS
 62
     3
 10
15760.29106239121
 20
-12069.22328379411
 30
0.0
 11
15672.64317237312
 21
-12053.76859598175
 31
0.0
  0
LINE
  5
1F98
  8
LY_1
  6
CONTINUOUS
 62
     3
 10
15735.24651393449
 20
-12144.51824321456
 30
0.0
 11
15730.90530949281
 21
-12169.13843703987
 31
0.0
  0
LINE
  5
1F99
  8
LY_1
  6
CONTINUOUS
 62
     3
 10
15750.45701723583
 20
-12131.32960738122
 30
0.0
 11
15743.40177043984
 21
-12171.34190026819
 31
0.0
  0
LINE
  5
1F9A
  8
LY_1
  6
CONTINUOUS
 62
     3
 10
15753.57829374103
 20
-12118.81090818824
 30
0.0
 11
15750.45703032854
 21
-12131.32961375152
 31
0.0
  0
LINE
  5
1F9B
  8
LY_1
  6
CONTINUOUS
 62
     3
 10
15761.9133815419
 20
-12071.54019565547
 30
0.0
 11
15753.57828030102
 21
-12118.81090378755
 31
0.0
  0
LINE
  5
1F9C
  8
LY_1
  6
CONTINUOUS
 62
     3
 10
15670.42495693613
 20
-12133.08845378422
 30
0.0
 11
15666.08375249446
 21
-12157.70864760952
 31
0.0
  0
LINE
  5
1F9D
  8
LY_1
  6
CONTINUOUS
 62
     3
 10
15747.74297488152
 20
-12146.72170644289
 30
0.0
 11
15720.37013998173
 21
-12141.89513711158
 31
0.0
  0
LINE
  5
1F9E
  8
LY_1
  6
CONTINUOUS
 62
     3
 10
15660.64253834342
 20
-12115.49289149422
 30
0.0
 11
15653.58729154743
 21
-12155.50518438119
 31
0.0
  0
LINE
  5
1F9F
  8
LY_1
  6
CONTINUOUS
 62
     3
 10
15661.99116848145
 20
-12102.66162285774
 30
0.0
 11
15660.64254738034
 21
-12115.49289207225
 31
0.0
  0
LINE
  5
1FA0
  8
LY_1
  6
CONTINUOUS
 62
     3
 10
15753.57826901389
 20
-12118.81096780006
 30
0.0
 11
15731.79098991263
 21
-12114.96928265828
 31
0.0
  0
LINE
  5
1FA1
  8
LY_1
  6
CONTINUOUS
 62
     3
 10
15670.32626051176
 20
-12055.39091513244
 30
0.0
 11
15661.99115927088
 21
-12102.66162326453
 31
0.0
  0
LINE
  5
1FA2
  8
LY_1
  6
CONTINUOUS
 62
     3
 10
15743.40177043984
 20
-12171.34190026819
 30
0.0
 11
15712.05087454311
 21
-12165.81389145222
 31
0.0
  0
LINE
  5
1FA3
  8
LY_1
  6
CONTINUOUS
 62
     3
 10
15761.21878883123
 20
-12075.47942666752
 30
0.0
 11
15669.6316678011
 21
-12059.3301461445
 31
0.0
  0
LINE
  5
1FA4
  8
LY_1
  6
CONTINUOUS
 62
     3
 10
15697.25241945214
 20
-12184.43663399773
 30
0.0
 11
15697.07896329299
 21
-12184.4060489969
 31
0.0
  0
LINE
  5
1FA5
  8
LY_1
  6
CONTINUOUS
 62
     3
 10
15698.79376902034
 20
-12175.69362255209
 30
0.0
 11
15698.62034339022
 21
-12175.66304293435
 31
0.0
  0
LINE
  5
1FA6
  8
LY_1
  6
CONTINUOUS
 62
     3
 10
15698.79376902034
 20
-12175.69362255209
 30
0.0
 11
15698.56404602584
 21
-12176.99644639432
 31
0.0
  0
LINE
  5
1FA7
  8
LY_1
  6
CONTINUOUS
 62
     3
 10
15697.25648924634
 20
-12178.55100376185
 30
0.0
 11
15696.92086204855
 21
-12180.45444018687
 31
0.0
  0
LINE
  5
1FA8
  8
LY_1
  6
CONTINUOUS
 62
     3
 10
15697.25648924634
 20
-12178.55100376185
 30
0.0
 11
15693.65493010146
 21
-12177.91595171198
 31
0.0
  0
LINE
  5
1FA9
  8
LY_1
  6
CONTINUOUS
 62
     3
 10
15698.56404602584
 20
-12176.99644639432
 30
0.0
 11
15693.96020272955
 21
-12176.18466460623
 31
0.0
  0
LINE
  5
1FAA
  8
LY_1
  6
CONTINUOUS
 62
     3
 10
15699.63853480892
 20
-12174.95009676443
 30
0.0
 11
15698.61528878491
 21
-12180.75321333733
 31
0.0
  0
LINE
  5
1FAB
  8
LY_1
  6
CONTINUOUS
 62
     3
 10
15697.25241945214
 20
-12184.43663399773
 30
0.0
 11
15696.66202207306
 21
-12187.78494392008
 31
0.0
  0
LINE
  5
1FAC
  8
LY_1
  6
CONTINUOUS
 62
     3
 10
15691.99410992006
 20
-12182.27315603836
 30
0.0
 11
15690.9613172402
 21
-12188.1304143871
 31
0.0
  0
LINE
  5
1FAD
  8
LY_1
  6
CONTINUOUS
 62
     3
 10
15692.65581882196
 20
-12188.42920073481
 30
0.0
 11
15693.22692927159
 21
-12185.19027242478
 31
0.0
  0
LINE
  5
1FAE
  8
LY_1
  6
CONTINUOUS
 62
     3
 10
15695.51938655094
 20
-12189.46772760937
 30
0.0
 11
15693.28528606394
 21
-12185.18046396285
 31
0.0
  0
LINE
  5
1FAF
  8
LY_1
  6
CONTINUOUS
 62
     3
 10
15696.60357692381
 20
-12187.79463729049
 30
0.0
 11
15693.59752982089
 21
-12182.02599911312
 31
0.0
  0
LINE
  5
1FB0
  8
LY_1
  6
CONTINUOUS
 62
     3
 10
15698.09724373914
 20
-12183.69304135248
 30
0.0
 11
15697.12257648744
 21
-12189.22065401725
 31
0.0
  0
LINE
  5
1FB1
  8
LY_1
  6
CONTINUOUS
 62
     3
 10
15695.01891465736
 20
-12170.18041089785
 30
0.0
 11
15699.44957261662
 21
-12170.96165543836
 31
0.0
  0
LINE
  5
1FB2
  8
LY_1
  6
CONTINUOUS
 62
     3
 10
15699.14429981488
 20
-12172.69294352893
 30
0.0
 11
15694.71364185561
 21
-12171.91169898842
 31
0.0
  0
LINE
  5
1FB3
  8
LY_1
  6
CONTINUOUS
 62
     3
 10
15698.56490716291
 20
-12166.0418479642
 30
0.0
 11
15699.49091579041
 21
-12168.09664363826
 31
0.0
  0
LINE
  5
1FB4
  8
LY_1
  6
CONTINUOUS
 62
     3
 10
15698.56486695703
 20
-12166.04182259714
 30
0.0
 11
15695.98842965106
 21
-12168.68577452479
 31
0.0
  0
LINE
  5
1FB5
  8
LY_1
  6
CONTINUOUS
 62
     3
 10
15698.46837386055
 20
-12163.71921918204
 30
0.0
 11
15700.60103515559
 21
-12168.45155575557
 31
0.0
  0
LINE
  5
1FB6
  8
LY_1
  6
CONTINUOUS
 62
     3
 10
15698.41782049344
 20
-12163.71031236745
 30
0.0
 11
15694.74763931445
 21
-12167.47666850672
 31
0.0
  0
LINE
  5
1FB7
  8
LY_1
  6
CONTINUOUS
 62
     3
 10
15700.66515135321
 20
-12164.06811713425
 30
0.0
 11
15696.23435749048
 21
-12163.28684863029
 31
0.0
  0
LINE
  5
1FB8
  8
LY_1
  6
CONTINUOUS
 62
     3
 10
15700.9704055746
 20
-12162.33693441811
 30
0.0
 11
15696.53961171186
 21
-12161.55566591415
 31
0.0
  0
LINE
  5
1FB9
  8
LY_1
  6
CONTINUOUS
 62
     3
 10
15722.54193286531
 20
-12096.14910293821
 30
0.0
 11
15711.92730362921
 21
-12087.24237063779
 31
0.0
  0
LINE
  5
1FBA
  8
LY_1
  6
CONTINUOUS
 62
     3
 10
15720.1358114024
 20
-12109.79498798696
 30
0.0
 11
15722.54195261615
 21
-12096.149083066
 31
0.0
  0
LINE
  5
1FBB
  8
LY_1
  6
CONTINUOUS
 62
     3
 10
15707.11502896121
 20
-12114.53415950851
 30
0.0
 11
15720.13580039586
 21
-12109.79498706164
 31
0.0
  0
LINE
  5
1FBC
  8
LY_1
  6
CONTINUOUS
 62
     3
 10
15696.50041605765
 20
-12105.62740368687
 30
0.0
 11
15707.1150454674
 21
-12114.53413500248
 31
0.0
  0
LINE
  5
1FBD
  8
LY_1
  6
CONTINUOUS
 62
     3
 10
15698.90656775939
 20
-12091.98151990833
 30
0.0
 11
15696.50042671929
 21
-12105.62742384448
 31
0.0
  0
LINE
  5
1FBE
  8
LY_1
  6
CONTINUOUS
 62
     3
 10
15711.92732825181
 20
-12087.24239224167
 30
0.0
 11
15698.90655780196
 21
-12091.9815648622
 31
0.0
  0
LINE
  5
1FBF
  8
LY_1
  6
CONTINUOUS
 62
     3
 10
15680.1968099296
 20
-12296.77203971426
 30
0.0
 11
15670.08089226528
 21
-12294.98833049541
 31
0.0
  0
LINE
  5
1FC0
  8
LY_1
  6
CONTINUOUS
 62
     3
 10
15710.79631903928
 20
-12161.97333854689
 30
0.0
 11
15683.65671438717
 21
-12294.41985992185
 31
0.0
  0
LINE
  5
1FC1
  8
LY_1
  6
CONTINUOUS
 62
     3
 10
15712.75557869173
 20
-12162.3748106789
 30
0.0
 11
15685.61597421326
 21
-12294.82133106905
 31
0.0
  0
LINE
  5
1FC2
  8
LY_1
  6
CONTINUOUS
 62
     3
 10
15731.61601296621
 20
-12110.25993668319
 30
0.0
 11
15713.86636379686
 21
-12152.10659014571
 31
0.0
  0
LINE
  5
1FC3
  8
LY_1
  6
CONTINUOUS
 62
     3
 10
15733.45723121203
 20
-12111.04090656358
 30
0.0
 11
15715.70758204267
 21
-12152.8875600261
 31
0.0
  0
LINE
  5
1FC4
  8
LY_1
  6
CONTINUOUS
 62
     3
 10
15724.64636647724
 20
-12115.23261137348
 30
0.0
 11
15722.50541459031
 21
-12120.32467181982
 31
0.0
  0
LINE
  5
1FC5
  8
LY_1
  6
CONTINUOUS
 62
     3
 10
15724.64657160987
 20
-12115.23266886786
 30
0.0
 11
15729.16836761783
 21
-12116.02998350532
 31
0.0
  0
LINE
  5
1FC6
  8
LY_1
  6
CONTINUOUS
 62
     3
 10
15690.40203247171
 20
-12109.19443470673
 30
0.0
 11
15690.67228110647
 21
-12114.71165384551
 31
0.0
  0
LINE
  5
1FC7
  8
LY_1
  6
CONTINUOUS
 62
     3
 10
15718.12366265861
 20
-12122.71363022808
 30
0.0
 11
15693.97279078569
 21
-12118.45517990925
 31
0.0
  0
LINE
  5
1FC8
  8
LY_1
  6
CONTINUOUS
 62
     3
 10
15690.40190085477
 20
-12109.19440946826
 30
0.0
 11
15685.88010484681
 21
-12108.39709483079
 31
0.0
  0
LINE
  5
1FC9
  8
LY_1
  6
CONTINUOUS
 62
     3
 10
15685.5537376935
 20
-12102.13792694491
 30
0.0
 11
15687.92055118624
 21
-12147.5316179604
 31
0.0
  0
LINE
  5
1FCA
  8
LY_1
  6
CONTINUOUS
 62
     3
 10
15687.43062934483
 20
-12157.85331469151
 30
0.0
 11
15667.63413734382
 21
-12291.59462494924
 31
0.0
  0
LINE
  5
1FCB
  8
LY_1
  6
CONTINUOUS
 62
     3
 10
15683.55645007943
 20
-12102.24206467659
 30
0.0
 11
15685.92326455698
 21
-12147.63575586573
 31
0.0
  0
LINE
  5
1FCC
  8
LY_1
  6
CONTINUOUS
 62
     3
 10
15685.45218623322
 20
-12157.56046459963
 30
0.0
 11
15665.65569342104
 21
-12291.30177369891
 31
0.0
  0
LINE
  5
1FCD
  8
LY_1
  6
CENTER
 62
   110
 10
15721.41609044567
 20
-12033.42891892708
 30
0.0
 11
15673.92331385377
 21
-12302.77383937592
 31
0.0
  0
LINE
  5
1FCE
  8
LY_1
  6
CONTINUOUS
 62
     3
 10
15710.8022259414
 20
-12156.96257958188
 30
0.0
 11
15689.13886027566
 21
-12153.14274372206
 31
0.0
  0
LINE
  5
1FCF
  8
LY_1
  6
CONTINUOUS
 62
     3
 10
15679.84951357427
 20
-12298.74165522028
 30
0.0
 11
15669.73359590994
 21
-12296.95794600144
 31
0.0
  0
LINE
  5
1FD0
  8
LY_1
  6
CENTER
 62
   110
 10
15762.24248806277
 20
-12110.18443726628
 30
0.0
 11
15656.79989248821
 21
-12091.59206275055
 31
0.0
  0
INSERT
  5
1FD1
  8
0
  2
ALﾌｨｯﾃｨﾝｸﾞ平面図
 10
15733.9187592377
 20
-11962.52276071019
 30
0.0
 50
169.9999999999357
  0
LINE
  5
1FD2
  8
細線
 10
15685.70013483203
 20
-12011.39211982638
 30
0.0
 11
15762.51513956699
 21
-12024.9366776844
 31
0.0
  0
LINE
  5
1FD3
  8
細線
 10
15682.57446763405
 20
-12029.1186593806
 30
0.0
 11
15708.89189834489
 21
-12033.75913247785
 31
0.0
  0
LINE
  5
1FD4
  8
細線
 10
15733.07204165814
 20
-12038.02274414137
 30
0.0
 11
15759.38947236899
 21
-12042.66321723862
 31
0.0
  0
LINE
  5
1FD5
  8
細線
 10
15762.51513956699
 20
-12024.9366776844
 30
0.0
 11
15763.39969149789
 21
-12025.67890488337
 31
0.0
  0
LINE
  5
1FD6
  8
細線
 10
15759.38947236899
 20
-12042.66321723862
 30
0.0
 11
15760.47453594412
 21
-12042.26828639498
 31
0.0
  0
LINE
  5
1FD7
  8
細線
 10
15685.70013483204
 20
-12011.39211982638
 30
0.0
 11
15684.61507125691
 21
-12011.78705067001
 31
0.0
  0
LINE
  5
1FD8
  8
細線
 10
15682.57446763403
 20
-12029.1186593806
 30
0.0
 11
15681.68991570314
 21
-12028.37643218163
 31
0.0
  0
LINE
  5
1FD9
  8
細線
 10
15760.47453594412
 20
-12042.26828639498
 30
0.0
 11
15763.39969149789
 21
-12025.67890488337
 31
0.0
  0
LINE
  5
1FDA
  8
細線
 10
15681.68991570314
 20
-12028.37643218163
 30
0.0
 11
15684.61507125691
 21
-12011.78705067001
 31
0.0
  0
LINE
  5
1FDB
  8
細線
 10
15737.72946683982
 20
-12036.32559743494
 30
0.0
 11
15739.99379857144
 21
-12023.48393405174
 31
0.0
  0
LINE
  5
1FDC
  8
細線
 10
15705.09580862958
 20
-12030.57140301326
 30
0.0
 11
15707.3601403612
 21
-12017.72973963005
 31
0.0
  0
ARC
  5
1FDD
  8
細線
 10
15730.80759937297
 20
-11980.16702508899
 30
0.0
 40
56.58354440262278
 50
242.9734048203734
 51
249.5384173569913
  0
ARC
  5
1FDE
  8
細線
 10
15730.80759937297
 20
-11980.16702508899
 30
0.0
 40
56.58354440262278
 50
270.4615826431954
 51
277.0265951794988
  0
ARC
  5
1FDF
  8
細線
 10
15753.85702123333
 20
-12012.32988433668
 30
0.0
 40
28.91180135878851
 50
236.0948937241425
 51
283.9051062762424
  0
ARC
  5
1FE0
  8
細線
 10
15698.14788200774
 20
-12002.50686001916
 30
0.0
 40
28.91180135878851
 50
236.0948937241425
 51
283.9051062762424
  0
ARC
  5
1FE1
  8
細線
 10
15714.28200782807
 20
-12073.888311976
 30
0.0
 40
56.58354440262278
 50
62.97340482037334
 51
97.02659517949876
  0
ARC
  5
1FE2
  8
細線
 10
15746.9417251933
 20
-12051.54847704583
 30
0.0
 40
28.91180135878851
 50
56.09489372414245
 51
103.9051062762424
  0
ARC
  5
1FE3
  8
細線
 10
15691.23258596769
 20
-12041.72545272831
 30
0.0
 40
28.91180135878851
 50
56.09489372414245
 51
103.9051062762424
  0
LINE
  5
1FE4
  8
細線
 10
15762.515139567
 20
-12024.93667768441
 30
0.0
 11
15761.81931722416
 21
-12024.81398543159
 31
0.0
  0
ARC
  5
1FE5
  8
細線
 10
15683.20083070579
 20
-12029.63527473462
 30
0.0
 40
0.4
 50
351.7899000000285
 51
79.99999999993574
  0
LINE
  5
1FE6
  8
細線
 10
15684.75144322216
 20
-12032.04108544285
 30
0.0
 11
15683.59673113506
 21
-12029.69239609763
 31
0.0
  0
LINE
  5
1FE7
  8
細線
 10
15757.80078655921
 20
-12044.92165559621
 30
0.0
 11
15748.63578794109
 21
-12043.30561906168
 31
0.0
  0
LINE
  5
1FE8
  8
細線
 10
15692.45991117359
 20
-12033.40029632261
 30
0.0
 11
15683.29491255545
 21
-12031.78425978808
 31
0.0
  0
ARC
  5
1FE9
  8
細線
 10
15758.62419075509
 20
-12042.934448087
 30
0.0
 40
0.4
 50
79.99999999993574
 51
168.2101000001106
  0
LINE
  5
1FEA
  8
細線
 10
15757.80078655921
 20
-12044.92165559621
 30
0.0
 11
15758.23262938638
 21
-12042.85271868876
 31
0.0
  0
LINE
  5
1FEB
  8
細線
 10
15683.29491255545
 20
-12031.78425978808
 30
0.0
 11
15683.59673113506
 21
-12029.69239609763
 31
0.0
  0
LINE
  5
1FEC
  8
細線
 10
15756.34425589252
 20
-12044.66482994144
 30
0.0
 11
15758.23262938638
 21
-12042.85271868876
 31
0.0
  0
ARC
  5
1FED
  8
細線
 10
15686.46541644593
 20
-12011.12088897798
 30
0.0
 40
0.4
 50
259.9999999999357
 51
348.2101000001106
  0
LINE
  5
1FEE
  8
細線
 10
15688.7453513085
 20
-12009.39050712355
 30
0.0
 11
15686.85697781464
 21
-12011.20261837624
 31
0.0
  0
LINE
  5
1FEF
  8
細線
 10
15761.79469464556
 20
-12022.27107727692
 30
0.0
 11
15687.2888206418
 21
-12009.13368146879
 31
0.0
  0
ARC
  5
1FF0
  8
細線
 10
15761.88877649524
 20
-12024.42006233037
 30
0.0
 40
0.4
 50
171.7899000000285
 51
259.9999999999357
  0
LINE
  5
1FF1
  8
細線
 10
15761.79469464556
 20
-12022.27107727692
 30
0.0
 11
15761.49287606596
 21
-12024.36294096736
 31
0.0
  0
LINE
  5
1FF2
  8
細線
 10
15687.2888206418
 20
-12009.13368146879
 30
0.0
 11
15686.85697781464
 21
-12011.20261837624
 31
0.0
  0
LINE
  5
1FF3
  8
細線
 10
15760.33816397886
 20
-12022.01425162215
 30
0.0
 11
15761.49287606597
 21
-12024.36294096736
 31
0.0
  0
LINE
  5
1FF5
  8
0
 10
15692.45991117359
 20
-12033.40029632261
 30
0.0
 11
15748.63578794109
 21
-12043.30561906168
 31
0.0
  0
LINE
  5
1FF6
  8
0
 10
15708.89189834489
 20
-12033.75913247785
 30
0.0
 11
15733.07204165814
 21
-12038.02274414137
 31
0.0
  0
TEXT
  5
2099
  8
0
 10
16605.10823676404
 20
-14916.01234800715
 30
0.0
 40
130.0
  1
T０００１８０－０８△
 41
0.8
  0
TEXT
  5
209A
  8
0
 10
15482.92014872734
 20
-14608.27465857563
 30
0.0
 40
60.0
  1
２０２１．９．３０
 41
0.6
  0
ENDSEC
  0
EOF
