  0
SECTION
  2
HEADER
  9
$ACADVER
  1
AC1006
  9
$DWGCODEPAGE
  3
ansi_932
  9
$INSBASE
 10
0.0
 20
0.0
 30
0.0
  9
$EXTMIN
 10
37112.95321643585
 20
-6108.726438242476
  9
$EXTMAX
 10
49012.30914678509
 20
1391.273561757524
  9
$LIMMIN
 10
-144.1413879394531
 20
-67.9833984375
  9
$LIMMAX
 10
277.8586120605469
 20
231.0166015625
  9
$ORTHOMODE
 70
     0
  9
$REGENMODE
 70
     1
  9
$FILLMODE
 70
     1
  9
$QTEXTMODE
 70
     0
  9
$MIRRTEXT
 70
     0
  9
$DRAGMODE
 70
     2
  9
$LTSCALE
 40
25.0
  9
$OSMODE
 70
    37
  9
$ATTMODE
 70
     1
  9
$TEXTSIZE
 40
75.0
  9
$TRACEWID
 40
0.05
  9
$TEXTSTYLE
  7
STANDARD
  9
$CLAYER
  8
0
  9
$CELTYPE
  6
BYLAYER
  9
$CECOLOR
 62
   256
  9
$DIMSCALE
 40
25.0
  9
$DIMASZ
 40
3.0
  9
$DIMEXO
 40
2.0
  9
$DIMDLI
 40
0.38
  9
$DIMRND
 40
0.0
  9
$DIMDLE
 40
0.0
  9
$DIMEXE
 40
3.0
  9
$DIMTP
 40
0.0
  9
$DIMTM
 40
0.0
  9
$DIMTXT
 40
3.0
  9
$DIMCEN
 40
0.09
  9
$DIMTSZ
 40
0.0
  9
$DIMTOL
 70
     0
  9
$DIMLIM
 70
     0
  9
$DIMTIH
 70
     0
  9
$DIMTOH
 70
     0
  9
$DIMSE1
 70
     0
  9
$DIMSE2
 70
     0
  9
$DIMTAD
 70
     1
  9
$DIMZIN
 70
     8
  9
$DIMBLK
  1
OPEN30
  9
$DIMASO
 70
     1
  9
$DIMSHO
 70
     0
  9
$DIMPOST
  1

  9
$DIMAPOST
  1

  9
$DIMALT
 70
     0
  9
$DIMALTD
 70
     3
  9
$DIMALTF
 40
0.03937007874016
  9
$DIMLFAC
 40
1.0
  9
$DIMTOFL
 70
     1
  9
$DIMTVP
 40
0.0
  9
$DIMTIX
 70
     0
  9
$DIMSOXD
 70
     0
  9
$DIMSAH
 70
     0
  9
$DIMBLK1
  1

  9
$DIMBLK2
  1

  9
$LUNITS
 70
     2
  9
$LUPREC
 70
     4
  9
$SKETCHINC
 40
0.1
  9
$FILLETRAD
 40
0.0
  9
$AUNITS
 70
     0
  9
$AUPREC
 70
     0
  9
$MENU
  1
.
  9
$ELEVATION
 40
0.0
  9
$THICKNESS
 40
0.0
  9
$LIMCHECK
 70
     0
  9
$CHAMFERA
 40
0.0
  9
$CHAMFERB
 40
0.0
  9
$SKPOLY
 70
     0
  9
$TDCREATE
 40
2454617.14625669
  9
$TDUPDATE
 40
2459716.332629248
  9
$TDINDWG
 40
0.2854347454
  9
$TDUSRTIMER
 40
0.2854347454
  9
$USRTIMER
 70
     1
  9
$ANGBASE
 50
0.0
  9
$ANGDIR
 70
     0
  9
$PDMODE
 70
     0
  9
$PDSIZE
 40
0.0
  9
$PLINEWID
 40
0.0
  9
$COORDS
 70
     1
  9
$SPLFRAME
 70
     0
  9
$SPLINETYPE
 70
     6
  9
$SPLINESEGS
 70
     8
  9
$ATTDIA
 70
     0
  9
$ATTREQ
 70
     1
  9
$HANDLING
 70
     1
  9
$HANDSEED
  5
201E
  9
$SURFTAB1
 70
     6
  9
$SURFTAB2
 70
     6
  9
$SURFTYPE
 70
     6
  9
$SURFU
 70
     6
  9
$SURFV
 70
     6
  9
$UCSNAME
  2

  9
$UCSORG
 10
0.0
 20
0.0
 30
0.0
  9
$UCSXDIR
 10
1.0
 20
0.0
 30
0.0
  9
$UCSYDIR
 10
0.0
 20
1.0
 30
0.0
  9
$USERI1
 70
     0
  9
$USERI2
 70
     0
  9
$USERI3
 70
     0
  9
$USERI4
 70
     0
  9
$USERI5
 70
     0
  9
$USERR1
 40
0.0
  9
$USERR2
 40
0.0
  9
$USERR3
 40
0.0
  9
$USERR4
 40
0.0
  9
$USERR5
 40
0.0
  9
$WORLDVIEW
 70
     1
  0
ENDSEC
  0
SECTION
  2
TABLES
  0
TABLE
  2
VPORT
 70
     1
  0
VPORT
  2
*ACTIVE
 70
     0
 10
0.0
 20
0.0
 11
1.0
 21
1.0
 12
50628.58380381743
 22
-4324.111395612767
 13
0.0
 23
0.0
 14
1.0
 24
1.0
 15
0.0
 25
0.0
 16
0.0
 26
0.0
 36
1.0
 17
0.0
 27
0.0
 37
0.0
 40
5106.20664416498
 41
2.782608695652174
 42
50.0
 43
0.0
 44
0.0
 50
0.0
 51
0.0
 71
     0
 72
  1000
 73
     1
 74
     1
 75
     0
 76
     0
 77
     0
 78
     0
  0
ENDTAB
  0
TABLE
  2
LTYPE
 70
     3
  0
LTYPE
  2
CONTINUOUS
 70
     0
  3
Solid line
 72
    65
 73
     0
 40
0.0
  0
LTYPE
  2
CENTER
 70
     0
  3
Center ____ _ ____ _ ____ _ ____ _ ____ _ ____
 72
    65
 73
     4
 40
12.0
 49
7.5
 49
-1.5
 49
1.5
 49
-1.5
  0
LTYPE
  2
PHANTOM
 70
     0
  3
Phantom ______  __  __  ______  __  __  ______
 72
    65
 73
     6
 40
63.5
 49
31.75
 49
-6.35
 49
6.35
 49
-6.35
 49
6.35
 49
-6.35
  0
ENDTAB
  0
TABLE
  2
LAYER
 70
     8
  0
LAYER
  2
0
 70
     0
 62
     7
  6
CONTINUOUS
  0
LAYER
  2
2
 70
     0
 62
     7
  6
CONTINUOUS
  0
LAYER
  2
DEFPOINTS
 70
     0
 62
     7
  6
CONTINUOUS
  0
LAYER
  2
寸法線
 70
     0
 62
     9
  6
CONTINUOUS
  0
LAYER
  2
細線
 70
     0
 62
     7
  6
CONTINUOUS
  0
LAYER
  2
1
 70
     0
 62
     7
  6
CONTINUOUS
  0
LAYER
  2
4
 70
     0
 62
     7
  6
CONTINUOUS
  0
LAYER
  2
LY_1
 70
     0
 62
     7
  6
CONTINUOUS
  0
ENDTAB
  0
TABLE
  2
STYLE
 70
     2
  0
STYLE
  2
STANDARD
 70
     0
 40
0.0
 41
1.0
 50
0.0
 71
     0
 42
75.0
  3
txt.shx
  4
extfont2.shx
  0
STYLE
  2
ＭＳゴシック
 70
     0
 40
0.0
 41
1.0
 50
0.0
 71
     0
 42
3.0
  3

  4

  0
ENDTAB
  0
TABLE
  2
VIEW
 70
     0
  0
ENDTAB
  0
TABLE
  2
UCS
 70
     0
  0
ENDTAB
  0
ENDSEC
  0
SECTION
  2
BLOCKS
  0
BLOCK
  8
0
  2
*D0
 70
     1
 10
0.0
 20
0.0
 30
0.0
  0
LINE
  5
1B94
  8
寸法線
 62
     0
 10
39571.85401818791
 20
-4952.834660675273
 30
0.0
 11
39136.29131740265
 21
-4952.834660675273
 31
0.0
  0
LINE
  5
1B95
  8
寸法線
 62
     0
 10
39571.85401818791
 20
-2172.834674831378
 30
0.0
 11
39136.29131740265
 21
-2172.834674831378
 31
0.0
  0
LINE
  5
1B96
  8
寸法線
 62
     0
 10
39211.29131740265
 20
-4877.834660675273
 30
0.0
 11
39211.29131740265
 21
-2247.834674831378
 31
0.0
  0
INSERT
  5
1B97
  8
寸法線
 62
     0
  2
_OPEN30
 10
39211.29131740265
 20
-4952.834660675273
 30
0.0
 41
75.0
 42
75.0
 43
75.0
 50
270.0
  0
INSERT
  5
1B98
  8
寸法線
 62
     0
  2
_OPEN30
 10
39211.29131740265
 20
-2172.834674831378
 30
0.0
 41
75.0
 42
75.0
 43
75.0
 50
90.0
  0
TEXT
  5
1B99
  8
寸法線
  6
CONTINUOUS
 62
     0
 10
39168.79131740265
 20
-3694.084667753319
 30
0.0
 40
75.0
  1
2780
 50
90.0
  0
POINT
  5
1B9A
  8
DEFPOINTS
 62
     0
 10
39621.85401818791
 20
-4952.834660675273
 30
0.0
  0
POINT
  5
1B9B
  8
DEFPOINTS
 62
     0
 10
39621.85401818791
 20
-2172.834674831378
 30
0.0
  0
POINT
  5
1B9C
  8
DEFPOINTS
 62
     0
 10
39211.29131740265
 20
-2172.834674831378
 30
0.0
  0
ENDBLK
  8
0
  0
BLOCK
  8
0
  2
*D1
 70
     1
 10
0.0
 20
0.0
 30
0.0
  0
LINE
  5
1C1B
  8
寸法線
 62
     0
 10
40681.85397636039
 20
-1622.834757905354
 30
0.0
 11
39136.29131740265
 21
-1622.834757905353
 31
0.0
  0
LINE
  5
1C1C
  8
寸法線
 62
     0
 10
39576.21849937701
 20
-2172.834674831378
 30
0.0
 11
39136.29131740265
 21
-2172.834674831378
 31
0.0
  0
LINE
  5
1C1D
  8
寸法線
 62
     0
 10
39211.29131740265
 20
-1697.834757905353
 30
0.0
 11
39211.29131740265
 21
-2097.834674831378
 31
0.0
  0
INSERT
  5
1C1E
  8
寸法線
 62
     0
  2
_OPEN30
 10
39211.29131740265
 20
-1622.834757905353
 30
0.0
 41
75.0
 42
75.0
 43
75.0
 50
90.0
  0
INSERT
  5
1C1F
  8
寸法線
 62
     0
  2
_OPEN30
 10
39211.29131740265
 20
-2172.834674831378
 30
0.0
 41
75.0
 42
75.0
 43
75.0
 50
270.0
  0
TEXT
  5
1C20
  8
寸法線
  6
CONTINUOUS
 62
     0
 10
39168.79131740265
 20
-1991.584716368365
 30
0.0
 40
75.0
  1
550
 50
90.0
  0
POINT
  5
1C21
  8
DEFPOINTS
 62
     0
 10
40731.85397636039
 20
-1622.834757905354
 30
0.0
  0
POINT
  5
1C22
  8
DEFPOINTS
 62
     0
 10
39626.21849937701
 20
-2172.834674831378
 30
0.0
  0
POINT
  5
1C23
  8
DEFPOINTS
 62
     0
 10
39211.29131740265
 20
-2172.834674831378
 30
0.0
  0
ENDBLK
  8
0
  0
BLOCK
  8
0
  2
*D2
 70
     1
 10
0.0
 20
0.0
 30
0.0
  0
LINE
  5
1BA8
  8
寸法線
 62
     0
 10
39621.8539700274
 20
-1902.834593620049
 30
0.0
 11
39621.8539700274
 21
-1768.223861676124
 31
0.0
  0
LINE
  5
1BA9
  8
寸法線
 62
     0
 10
40021.85398868772
 20
-1902.834593620049
 30
0.0
 11
40021.85398868772
 21
-1768.223861676124
 31
0.0
  0
LINE
  5
1BAA
  8
寸法線
 62
     0
 10
39696.8539700274
 20
-1843.223861676124
 30
0.0
 11
39946.85398868772
 21
-1843.223861676124
 31
0.0
  0
INSERT
  5
1BAB
  8
寸法線
 62
     0
  2
_OPEN30
 10
39621.8539700274
 20
-1843.223861676124
 30
0.0
 41
75.0
 42
75.0
 43
75.0
 50
180.0
  0
INSERT
  5
1BAC
  8
寸法線
 62
     0
  2
_OPEN30
 10
40021.85398868772
 20
-1843.223861676124
 30
0.0
 41
75.0
 42
75.0
 43
75.0
  0
TEXT
  5
1BAD
  8
寸法線
  6
CONTINUOUS
 62
     0
 10
39734.35397935756
 20
-1800.723861676124
 30
0.0
 40
75.0
  1
400
  0
POINT
  5
1BAE
  8
DEFPOINTS
 62
     0
 10
39621.8539700274
 20
-1952.834593620049
 30
0.0
  0
POINT
  5
1BAF
  8
DEFPOINTS
 62
     0
 10
40021.85398868772
 20
-1952.834593620049
 30
0.0
  0
POINT
  5
1BB0
  8
DEFPOINTS
 62
     0
 10
40021.85398868772
 20
-1843.223861676124
 30
0.0
  0
ENDBLK
  8
0
  0
BLOCK
  8
0
  2
*D3
 70
     1
 10
0.0
 20
0.0
 30
0.0
  0
LINE
  5
1BB1
  8
寸法線
 62
     0
 10
39571.85401818791
 20
-4952.834660675273
 30
0.0
 11
38829.08134656146
 21
-4952.834660675272
 31
0.0
  0
LINE
  5
1BB2
  8
寸法線
 62
     0
 10
40681.85397636039
 20
-1622.834757905354
 30
0.0
 11
38829.08134656146
 21
-1622.834757905353
 31
0.0
  0
LINE
  5
1BB3
  8
寸法線
 62
     0
 10
38904.08134656146
 20
-4877.834660675272
 30
0.0
 11
38904.08134656146
 21
-1697.834757905353
 31
0.0
  0
INSERT
  5
1BB4
  8
寸法線
 62
     0
  2
_OPEN30
 10
38904.08134656146
 20
-4952.834660675272
 30
0.0
 41
75.0
 42
75.0
 43
75.0
 50
270.0
  0
INSERT
  5
1BB5
  8
寸法線
 62
     0
  2
_OPEN30
 10
38904.08134656146
 20
-1622.834757905353
 30
0.0
 41
75.0
 42
75.0
 43
75.0
 50
90.0
  0
TEXT
  5
1BB6
  8
寸法線
  6
CONTINUOUS
 62
     0
 10
38861.58134656146
 20
-3419.084709290306
 30
0.0
 40
75.0
  1
3330
 50
90.0
  0
POINT
  5
1BB7
  8
DEFPOINTS
 62
     0
 10
39621.85401818791
 20
-4952.834660675273
 30
0.0
  0
POINT
  5
1BB8
  8
DEFPOINTS
 62
     0
 10
40731.85397636039
 20
-1622.834757905354
 30
0.0
  0
POINT
  5
1BB9
  8
DEFPOINTS
 62
     0
 10
38904.08134656146
 20
-1622.834757905353
 30
0.0
  0
ENDBLK
  8
0
  0
BLOCK
  8
0
  2
*D4
 70
     1
 10
0.0
 20
0.0
 30
0.0
  0
LINE
  5
1BBA
  8
寸法線
 62
     0
 10
39591.854009888
 20
-4972.834652017621
 30
0.0
 11
39591.854009888
 21
-5654.726667716204
 31
0.0
  0
LINE
  5
1BBB
  8
寸法線
 62
     0
 10
41871.85394283278
 20
-4972.834661792862
 30
0.0
 11
41871.85394283278
 21
-5654.726667716204
 31
0.0
  0
LINE
  5
1BBC
  8
寸法線
 62
     0
 10
39666.854009888
 20
-5579.726667716204
 30
0.0
 11
41796.85394283278
 21
-5579.726667716204
 31
0.0
  0
INSERT
  5
1BBD
  8
寸法線
 62
     0
  2
_OPEN30
 10
39591.854009888
 20
-5579.726667716204
 30
0.0
 41
75.0
 42
75.0
 43
75.0
 50
180.0
  0
INSERT
  5
1BBE
  8
寸法線
 62
     0
  2
_OPEN30
 10
41871.85394283278
 20
-5579.726667716204
 30
0.0
 41
75.0
 42
75.0
 43
75.0
  0
TEXT
  5
1BBF
  8
寸法線
  6
CONTINUOUS
 62
     0
 10
40475.60397636039
 20
-5537.226667716204
 30
0.0
 40
75.0
  1
O.D\U+22052280
  0
POINT
  5
1BC0
  8
DEFPOINTS
 62
     0
 10
39591.854009888
 20
-4922.834652017621
 30
0.0
  0
POINT
  5
1BC1
  8
DEFPOINTS
 62
     0
 10
41871.85394283278
 20
-4922.834661792862
 30
0.0
  0
POINT
  5
1BC2
  8
DEFPOINTS
 62
     0
 10
41871.85394283278
 20
-5579.726667716204
 30
0.0
  0
ENDBLK
  8
0
  0
BLOCK
  8
0
  2
*D5
 70
     1
 10
0.0
 20
0.0
 30
0.0
  0
LINE
  5
18A3
  8
寸法線
 62
     0
 10
44539.11915729832
 20
3.212181764266461
 30
0.0
 11
44539.11915729832
 21
214.1670759722174
 31
0.0
  0
LINE
  5
18A4
  8
寸法線
 62
     0
 10
44939.11854690576
 20
3.212232093155308
 30
0.0
 11
44939.11854690576
 21
214.1670759722174
 31
0.0
  0
LINE
  5
18A5
  8
寸法線
 62
     0
 10
44614.11915729832
 20
139.1670759722174
 30
0.0
 11
44864.11854690576
 21
139.1670759722174
 31
0.0
  0
INSERT
  5
18A6
  8
寸法線
 62
     0
  2
_OPEN30
 10
44539.11915729832
 20
139.1670759722174
 30
0.0
 41
75.0
 42
75.0
 43
75.0
 50
180.0
  0
INSERT
  5
18A7
  8
寸法線
 62
     0
  2
_OPEN30
 10
44939.11854690576
 20
139.1670759722174
 30
0.0
 41
75.0
 42
75.0
 43
75.0
  0
TEXT
  5
18A8
  8
寸法線
  6
CONTINUOUS
 62
     0
 10
44651.61885210204
 20
181.6670759722174
 30
0.0
 40
75.0
  1
400
  0
POINT
  5
18A9
  8
DEFPOINTS
 62
     0
 10
44539.11915729832
 20
-46.78781823573354
 30
0.0
  0
POINT
  5
18AA
  8
DEFPOINTS
 62
     0
 10
44939.11854690576
 20
-46.78776790684469
 30
0.0
  0
POINT
  5
18AB
  8
DEFPOINTS
 62
     0
 10
44939.11854690576
 20
139.1670759722174
 30
0.0
  0
ENDBLK
  8
0
  0
BLOCK
  8
0
  2
*D6
 70
     1
 10
0.0
 20
0.0
 30
0.0
  0
LINE
  5
189A
  8
寸法線
 62
     0
 10
44529.11911631966
 20
31.86694539488485
 30
0.0
 11
44529.11911631966
 21
439.4562515820644
 31
0.0
  0
LINE
  5
189B
  8
寸法線
 62
     0
 10
44949.11612536486
 20
31.86694539488485
 30
0.0
 11
44949.11612536486
 21
439.4562515820644
 31
0.0
  0
LINE
  5
189C
  8
寸法線
 62
     0
 10
44604.11911631966
 20
364.4562515820644
 30
0.0
 11
44874.11612536486
 21
364.4562515820644
 31
0.0
  0
INSERT
  5
189D
  8
寸法線
 62
     0
  2
_OPEN30
 10
44529.11911631966
 20
364.4562515820644
 30
0.0
 41
75.0
 42
75.0
 43
75.0
 50
180.0
  0
INSERT
  5
189E
  8
寸法線
 62
     0
  2
_OPEN30
 10
44949.11612536486
 20
364.4562515820644
 30
0.0
 41
75.0
 42
75.0
 43
75.0
  0
TEXT
  5
189F
  8
寸法線
  6
CONTINUOUS
 62
     0
 10
44645.36762084226
 20
406.9562515820644
 30
0.0
 40
75.0
  1
420
  0
POINT
  5
18A0
  8
DEFPOINTS
 62
     0
 10
44529.11911631966
 20
-18.13305460511515
 30
0.0
  0
POINT
  5
18A1
  8
DEFPOINTS
 62
     0
 10
44949.11612536486
 20
-18.13305460511515
 30
0.0
  0
POINT
  5
18A2
  8
DEFPOINTS
 62
     0
 10
44949.11612536486
 20
364.4562515820644
 30
0.0
  0
ENDBLK
  8
0
  0
BLOCK
  8
0
  2
_OPEN30
 70
     0
 10
0.0
 20
0.0
 30
0.0
  0
LINE
  5
7FD
  8
0
  6
BYBLOCK
 62
     0
 10
-1.0
 20
0.26794919
 30
0.0
 11
0.0
 21
0.0
 31
0.0
  0
LINE
  5
7FE
  8
0
  6
BYBLOCK
 62
     0
 10
0.0
 20
0.0
 30
0.0
 11
-1.0
 21
-0.26794919
 31
0.0
  0
LINE
  5
7FF
  8
0
  6
BYBLOCK
 62
     0
 10
0.0
 20
0.0
 30
0.0
 11
-1.0
 21
0.0
 31
0.0
  0
ENDBLK
  8
0
  0
BLOCK
  8
0
  2
*D8
 70
     1
 10
0.0
 20
0.0
 30
0.0
  0
LINE
  5
1BC3
  8
寸法線
 62
     0
 10
40481.85397865414
 20
-1632.834605235161
 30
0.0
 11
40481.85397865414
 21
-1299.542866123647
 31
0.0
  0
LINE
  5
1BC4
  8
寸法線
 62
     0
 10
40981.85378962259
 20
-1632.83451129113
 30
0.0
 11
40981.85378962259
 21
-1299.542866123647
 31
0.0
  0
LINE
  5
1BC5
  8
寸法線
 62
     0
 10
40556.85397865414
 20
-1374.542866123647
 30
0.0
 11
40906.85378962259
 21
-1374.542866123647
 31
0.0
  0
INSERT
  5
1BC6
  8
寸法線
 62
     0
  2
_OPEN30
 10
40481.85397865414
 20
-1374.542866123647
 30
0.0
 41
75.0
 42
75.0
 43
75.0
 50
180.0
  0
INSERT
  5
1BC7
  8
寸法線
 62
     0
  2
_OPEN30
 10
40981.85378962259
 20
-1374.542866123647
 30
0.0
 41
75.0
 42
75.0
 43
75.0
  0
TEXT
  5
1BC8
  8
寸法線
  6
CONTINUOUS
 62
     0
 10
40531.85388413836
 20
-1332.042866123647
 30
0.0
 40
75.0
  1
I.D\U+2205500
  0
POINT
  5
1BC9
  8
DEFPOINTS
 62
     0
 10
40481.85397865414
 20
-1682.834605235161
 30
0.0
  0
POINT
  5
1BCA
  8
DEFPOINTS
 62
     0
 10
40981.85378962259
 20
-1682.83451129113
 30
0.0
  0
POINT
  5
1BCB
  8
DEFPOINTS
 62
     0
 10
40981.85378962259
 20
-1374.542866123647
 30
0.0
  0
ENDBLK
  8
0
  0
BLOCK
  8
0
  2
*D9
 70
     1
 10
0.0
 20
0.0
 30
0.0
  0
LINE
  5
188C
  8
寸法線
 62
     0
 10
44361.82239377723
 20
-869.3999107104682
 30
0.0
 11
44881.5707218255
 21
-1240.269061918516
 31
0.0
  0
TEXT
  5
188D
  8
寸法線
  6
CONTINUOUS
 62
     0
 10
44421.10390166068
 20
-859.4901769570934
 30
0.0
 40
75.0
  1
I.D\U+2205500
 50
324.4900447165313
  0
INSERT
  5
188E
  8
寸法線
 62
     0
  2
_OPEN30
 10
44942.62181738742
 20
-1283.832392033295
 30
0.0
 41
75.0
 42
75.0
 43
75.0
 50
324.4900447165313
  0
POINT
  5
188F
  8
DEFPOINTS
 62
     0
 10
44942.62181738742
 20
-1283.832392033295
 30
0.0
  0
POINT
  5
1890
  8
DEFPOINTS
 62
     0
 10
44535.61450454395
 20
-993.4101847766542
 30
0.0
  0
ENDBLK
  8
0
  0
BLOCK
  8
0
  2
65Aバルブ平面図
 70
     0
 10
0.0
 20
0.0
 30
0.0
  0
LINE
  5
1564
  8
0
  6
CONTINUOUS
 10
-43.0
 20
41.0
 30
0.0
 11
-28.52123899999788
 21
41.0
 31
0.0
  0
LINE
  5
1565
  8
0
  6
CONTINUOUS
 10
-43.0
 20
29.0
 30
0.0
 11
-43.0
 21
41.0
 31
0.0
  0
LINE
  5
1566
  8
0
  6
CONTINUOUS
 10
-41.5
 20
22.5
 30
0.0
 11
-41.5
 21
26.40191699999923
 31
0.0
  0
LINE
  5
1567
  8
0
  6
CONTINUOUS
 10
-43.0
 20
29.0
 30
0.0
 11
-34.90667799999937
 21
29.0
 31
0.0
  0
LINE
  5
1568
  8
0
  6
CONTINUOUS
 10
-17.0
 20
6.363704999999754
 30
0.0
 11
-17.0
 21
9.814955000001646
 31
0.0
  0
LINE
  5
1569
  8
0
  6
CONTINUOUS
 10
-26.5
 20
6.133358999999473
 30
0.0
 11
-26.5
 21
15.29978299999857
 31
0.0
  0
LINE
  5
156A
  8
0
  6
CONTINUOUS
 10
-17.0
 20
9.814954000001308
 30
0.0
 11
-6.389382999997906
 21
15.94098999999915
 31
0.0
  0
LINE
  5
156B
  8
0
  6
CONTINUOUS
 10
-26.5
 20
15.29978599999959
 30
0.0
 11
-6.11962499999936
 21
27.06639200000063
 31
0.0
  0
ARC
  5
156C
  8
0
  6
CONTINUOUS
 10
-33.5
 20
22.5
 30
0.0
 40
8.0
 50
179.999982000092
 51
187.0636249999592
  0
ARC
  5
156D
  8
0
  6
CONTINUOUS
 10
-44.5
 20
26.40191699999923
 30
0.0
 40
3.0
 50
0.0000199998977924
 51
60.00027999987502
  0
LINE
  5
156E
  8
0
  6
CONTINUOUS
 10
43.0
 20
41.0
 30
0.0
 11
28.52123900000151
 21
41.0
 31
0.0
  0
LINE
  5
156F
  8
0
  6
CONTINUOUS
 10
43.0
 20
29.0
 30
0.0
 11
43.0
 21
41.0
 31
0.0
  0
LINE
  5
1570
  8
0
  6
CONTINUOUS
 10
41.5
 20
22.5
 30
0.0
 11
41.5
 21
26.40191699999923
 31
0.0
  0
LINE
  5
1571
  8
0
  6
CONTINUOUS
 10
43.0
 20
29.0
 30
0.0
 11
34.90667799999937
 21
29.0
 31
0.0
  0
LINE
  5
1572
  8
0
  6
CONTINUOUS
 10
17.0
 20
6.363704999999754
 30
0.0
 11
17.0
 21
9.814955000001646
 31
0.0
  0
LINE
  5
1573
  8
0
  6
CONTINUOUS
 10
26.5
 20
6.133358999999473
 30
0.0
 11
26.5
 21
15.29978299999857
 31
0.0
  0
LINE
  5
1574
  8
0
  6
CONTINUOUS
 10
17.0
 20
9.814954000001308
 30
0.0
 11
6.389383000001544
 21
15.94098999999915
 31
0.0
  0
LINE
  5
1575
  8
0
  6
CONTINUOUS
 10
26.5
 20
15.29978599999959
 30
0.0
 11
6.11962499999936
 21
27.06639200000063
 31
0.0
  0
ARC
  5
1576
  8
0
  6
CONTINUOUS
 10
33.5
 20
22.5
 30
0.0
 40
8.0
 50
352.9363750000408
 51
0.0000179999080132
  0
ARC
  5
1577
  8
0
  6
CONTINUOUS
 10
44.5
 20
26.40191699999923
 30
0.0
 40
3.0
 50
119.999720000125
 51
179.9999800001022
  0
LINE
  5
1578
  8
0
  6
CONTINUOUS
 10
-43.0
 20
-41.0
 30
0.0
 11
-28.52123900000151
 21
-41.0
 31
0.0
  0
LINE
  5
1579
  8
0
  6
CONTINUOUS
 10
-43.0
 20
-29.0
 30
0.0
 11
-43.0
 21
-41.0
 31
0.0
  0
LINE
  5
157A
  8
0
  6
CONTINUOUS
 10
-41.5
 20
-22.5
 30
0.0
 11
-41.5
 21
-26.40191699999923
 31
0.0
  0
LINE
  5
157B
  8
0
  6
CONTINUOUS
 10
-43.0
 20
-29.0
 30
0.0
 11
-34.90667799999937
 21
-29.0
 31
0.0
  0
LINE
  5
157C
  8
0
  6
CONTINUOUS
 10
-17.0
 20
-6.363704999999754
 30
0.0
 11
-17.0
 21
-9.814954999998008
 31
0.0
  0
LINE
  5
157D
  8
0
  6
CONTINUOUS
 10
-26.5
 20
-6.133358999999473
 30
0.0
 11
-26.5
 21
-15.29978299999857
 31
0.0
  0
LINE
  5
157E
  8
0
  6
CONTINUOUS
 10
-17.0
 20
-9.814954000001308
 30
0.0
 11
-6.389383000001544
 21
-15.94098999999915
 31
0.0
  0
LINE
  5
157F
  8
0
  6
CONTINUOUS
 10
-26.5
 20
-15.29978599999959
 30
0.0
 11
-6.11962499999936
 21
-27.06639200000063
 31
0.0
  0
ARC
  5
1580
  8
0
  6
CONTINUOUS
 10
-33.5
 20
-22.5
 30
0.0
 40
8.0
 50
172.9363750000408
 51
180.000017999908
  0
ARC
  5
1581
  8
0
  6
CONTINUOUS
 10
-44.5
 20
-26.40191699999923
 30
0.0
 40
3.0
 50
299.999720000125
 51
359.9999800001022
  0
LINE
  5
1582
  8
0
  6
CONTINUOUS
 10
43.0
 20
-41.0
 30
0.0
 11
28.52123900000151
 21
-41.0
 31
0.0
  0
LINE
  5
1583
  8
0
  6
CONTINUOUS
 10
43.0
 20
-29.0
 30
0.0
 11
43.0
 21
-41.0
 31
0.0
  0
LINE
  5
1584
  8
0
  6
CONTINUOUS
 10
41.5
 20
-22.5
 30
0.0
 11
41.5
 21
-26.40191699999923
 31
0.0
  0
LINE
  5
1585
  8
0
  6
CONTINUOUS
 10
43.0
 20
-29.0
 30
0.0
 11
34.90667799999937
 21
-29.0
 31
0.0
  0
LINE
  5
1586
  8
0
  6
CONTINUOUS
 10
17.0
 20
-6.363704999999754
 30
0.0
 11
17.0
 21
-9.814954999998008
 31
0.0
  0
LINE
  5
1587
  8
0
  6
CONTINUOUS
 10
26.5
 20
-6.133358999999473
 30
0.0
 11
26.5
 21
-15.29978299999857
 31
0.0
  0
LINE
  5
1588
  8
0
  6
CONTINUOUS
 10
17.0
 20
-9.814954000001308
 30
0.0
 11
6.389383000001544
 21
-15.94098999999915
 31
0.0
  0
LINE
  5
1589
  8
0
  6
CONTINUOUS
 10
26.5
 20
-15.29978599999959
 30
0.0
 11
6.11962499999936
 21
-27.06639200000063
 31
0.0
  0
ARC
  5
158A
  8
0
  6
CONTINUOUS
 10
33.5
 20
-22.5
 30
0.0
 40
8.0
 50
359.999982000092
 51
7.063624999959234
  0
ARC
  5
158B
  8
0
  6
CONTINUOUS
 10
44.5
 20
-26.40191699999923
 30
0.0
 40
3.0
 50
180.0000199998978
 51
240.000279999875
  0
CIRCLE
  5
158C
  8
0
  6
CONTINUOUS
 10
0.0
 20
0.0
 30
0.0
 40
32.0
  0
ARC
  5
158D
  8
0
  6
CONTINUOUS
 10
-39.94437399999879
 20
-12.97871400000076
 30
0.0
 40
8.0
 50
155.2494670000171
 51
240.7505330001607
  0
ARC
  5
158E
  8
0
  6
CONTINUOUS
 10
-24.68698099999892
 20
-33.97871400000076
 30
0.0
 40
8.0
 50
191.2494670000484
 51
276.7505330001021
  0
ARC
  5
158F
  8
0
  6
CONTINUOUS
 10
0.0
 20
-42.0
 30
0.0
 40
8.0
 50
227.2494669999631
 51
312.7505330000369
  0
ARC
  5
1590
  8
0
  6
CONTINUOUS
 10
-68.09669099999883
 20
0.0
 30
0.0
 40
23.0
 50
335.249467000017
 51
24.75053299998294
  0
ARC
  5
1591
  8
0
  6
CONTINUOUS
 10
-55.09138099999836
 20
-40.02623099999983
 30
0.0
 40
23.0
 50
11.24946700004833
 51
60.75053300016073
  0
ARC
  5
1592
  8
0
  6
CONTINUOUS
 10
-21.04303499999878
 20
-64.7638020000013
 30
0.0
 40
23.0
 50
47.2494669999631
 51
96.75053300010205
  0
LINE
  5
1593
  8
0
  6
CONTINUOUS
 10
-13.5436179999997
 20
-6.447511999998824
 30
0.0
 11
-30.18905000000086
 21
-6.043910000000324
 31
0.0
  0
ARC
  5
1594
  8
0
  6
CONTINUOUS
 10
-30.18905699999959
 20
-7.04420399999799
 30
0.0
 40
1.0
 50
88.61102100007285
 51
193.1341849999397
  0
LINE
  5
1595
  8
0
  6
CONTINUOUS
 10
-6.447511999998824
 20
-13.5436179999997
 30
0.0
 11
-6.043910000000324
 21
-30.18905000000086
 31
0.0
  0
ARC
  5
1596
  8
0
  6
CONTINUOUS
 10
-7.044204000001628
 20
-30.18905699999959
 30
0.0
 40
1.0
 50
256.8658150000543
 51
1.388978999929044
  0
ARC
  5
1597
  8
0
  6
CONTINUOUS
 10
-39.94437399999879
 20
12.97871400000076
 30
0.0
 40
8.0
 50
119.2494669998393
 51
204.7505329999829
  0
ARC
  5
1598
  8
0
  6
CONTINUOUS
 10
-24.68698099999892
 20
33.97871400000076
 30
0.0
 40
8.0
 50
83.24946699989796
 51
168.7505329999516
  0
ARC
  5
1599
  8
0
  6
CONTINUOUS
 10
0.0
 20
42.0
 30
0.0
 40
8.0
 50
47.2494669999631
 51
132.7505330000369
  0
ARC
  5
159A
  8
0
  6
CONTINUOUS
 10
-55.09138099999836
 20
40.02623099999983
 30
0.0
 40
23.0
 50
299.2494669998392
 51
348.7505329999517
  0
ARC
  5
159B
  8
0
  6
CONTINUOUS
 10
-21.04303499999878
 20
64.7638020000013
 30
0.0
 40
23.0
 50
263.2494669998979
 51
312.7505330000369
  0
LINE
  5
159C
  8
0
  6
CONTINUOUS
 10
-13.5436179999997
 20
6.447511999998824
 30
0.0
 11
-30.18905000000086
 21
6.043910000000324
 31
0.0
  0
ARC
  5
159D
  8
0
  6
CONTINUOUS
 10
-30.18905699999959
 20
7.044204000001628
 30
0.0
 40
1.0
 50
166.8658150000602
 51
271.3889789999271
  0
LINE
  5
159E
  8
0
  6
CONTINUOUS
 10
-6.447511999998824
 20
13.5436179999997
 30
0.0
 11
-6.043910000000324
 21
30.18905000000086
 31
0.0
  0
ARC
  5
159F
  8
0
  6
CONTINUOUS
 10
-7.04420399999799
 20
30.18905699999959
 30
0.0
 40
1.0
 50
358.611021000071
 51
103.1341849999457
  0
ARC
  5
15A0
  8
0
  6
CONTINUOUS
 10
39.94437399999879
 20
-12.97871400000076
 30
0.0
 40
8.0
 50
299.2494669998392
 51
24.75053299998294
  0
ARC
  5
15A1
  8
0
  6
CONTINUOUS
 10
24.68698099999892
 20
-33.97871400000076
 30
0.0
 40
8.0
 50
263.2494669998979
 51
348.7505329999517
  0
ARC
  5
15A2
  8
0
  6
CONTINUOUS
 10
68.09669099999883
 20
0.0
 30
0.0
 40
23.0
 50
155.2494670000171
 51
204.7505329999829
  0
ARC
  5
15A3
  8
0
  6
CONTINUOUS
 10
55.09138099999836
 20
-40.02623099999983
 30
0.0
 40
23.0
 50
119.2494669998393
 51
168.7505329999516
  0
ARC
  5
15A4
  8
0
  6
CONTINUOUS
 10
21.04303499999878
 20
-64.7638020000013
 30
0.0
 40
23.0
 50
83.24946699989796
 51
132.7505330000369
  0
LINE
  5
15A5
  8
0
  6
CONTINUOUS
 10
13.5436179999997
 20
-6.447511999998824
 30
0.0
 11
30.18905000000086
 21
-6.043910000000324
 31
0.0
  0
ARC
  5
15A6
  8
0
  6
CONTINUOUS
 10
30.18905699999959
 20
-7.04420399999799
 30
0.0
 40
1.0
 50
346.8658150000603
 51
91.38897899992715
  0
LINE
  5
15A7
  8
0
  6
CONTINUOUS
 10
6.447511999998824
 20
-13.5436179999997
 30
0.0
 11
6.043910000000324
 21
-30.18905000000086
 31
0.0
  0
ARC
  5
15A8
  8
0
  6
CONTINUOUS
 10
7.044204000001628
 20
-30.18905699999959
 30
0.0
 40
1.0
 50
178.611021000071
 51
283.1341849999457
  0
ARC
  5
15A9
  8
0
  6
CONTINUOUS
 10
39.94437399999879
 20
12.97871400000076
 30
0.0
 40
8.0
 50
335.249467000017
 51
60.75053300016073
  0
ARC
  5
15AA
  8
0
  6
CONTINUOUS
 10
24.68698099999892
 20
33.97871400000076
 30
0.0
 40
8.0
 50
11.24946700004833
 51
96.75053300010205
  0
ARC
  5
15AB
  8
0
  6
CONTINUOUS
 10
55.09138099999836
 20
40.02623099999983
 30
0.0
 40
23.0
 50
191.2494670000484
 51
240.7505330001607
  0
ARC
  5
15AC
  8
0
  6
CONTINUOUS
 10
21.04303499999878
 20
64.7638020000013
 30
0.0
 40
23.0
 50
227.2494669999631
 51
276.7505330001021
  0
LINE
  5
15AD
  8
0
  6
CONTINUOUS
 10
13.5436179999997
 20
6.447511999998824
 30
0.0
 11
30.18905000000086
 21
6.043910000000324
 31
0.0
  0
ARC
  5
15AE
  8
0
  6
CONTINUOUS
 10
30.18905699999959
 20
7.044204000001628
 30
0.0
 40
1.0
 50
268.6110210000729
 51
13.13418499993977
  0
LINE
  5
15AF
  8
0
  6
CONTINUOUS
 10
6.447511999998824
 20
13.5436179999997
 30
0.0
 11
6.043910000000324
 21
30.18905000000086
 31
0.0
  0
ARC
  5
15B0
  8
0
  6
CONTINUOUS
 10
7.044204000001628
 20
30.18905699999959
 30
0.0
 40
1.0
 50
76.86581500005431
 51
181.388978999929
  0
LINE
  5
15B1
  8
0
  6
CENTER
 62
     4
 10
-53.0
 20
0.0
 30
0.0
 11
53.0
 21
0.0
 31
0.0
  0
CIRCLE
  5
15B2
  8
0
  6
CONTINUOUS
 10
0.0
 20
0.0
 30
0.0
 40
15.0
  0
LINE
  5
15B3
  8
0
  6
CONTINUOUS
 10
0.0
 20
7.505552999999054
 30
0.0
 11
-6.5
 21
3.752777000001515
 31
0.0
  0
LINE
  5
15B4
  8
0
  6
CONTINUOUS
 10
-6.5
 20
3.752777000001515
 30
0.0
 11
-6.5
 21
-3.752777000001515
 31
0.0
  0
LINE
  5
15B5
  8
0
  6
CONTINUOUS
 10
-6.5
 20
-3.752777000001515
 30
0.0
 11
0.0
 21
-7.505552999999054
 31
0.0
  0
LINE
  5
15B6
  8
0
  6
CONTINUOUS
 10
0.0
 20
-7.505552999999054
 30
0.0
 11
6.5
 21
-3.752777000001515
 31
0.0
  0
LINE
  5
15B7
  8
0
  6
CONTINUOUS
 10
6.5
 20
-3.752777000001515
 30
0.0
 11
6.5
 21
3.752777000001515
 31
0.0
  0
LINE
  5
15B8
  8
0
  6
CONTINUOUS
 10
6.5
 20
3.752777000001515
 30
0.0
 11
0.0
 21
7.505552999999054
 31
0.0
  0
CIRCLE
  5
15B9
  8
0
  6
CONTINUOUS
 10
0.0
 20
0.0
 30
0.0
 40
6.25
  0
CIRCLE
  5
15BA
  8
0
  6
CONTINUOUS
 10
0.0
 20
0.0
 30
0.0
 40
3.2
  0
CIRCLE
  5
15BB
  8
0
  6
CONTINUOUS
 10
0.0
 20
0.0
 30
0.0
 40
4.0
  0
ENDBLK
  8
0
  0
BLOCK
  8
0
  2
65Aバルブ側面図
 70
     0
 10
0.0
 20
0.0
 30
0.0
  0
LINE
  5
12F7
  8
0
  6
CONTINUOUS
 10
-17.0
 20
151.2999999999997
 30
0.0
 11
17.0
 21
151.2999999999997
 31
0.0
  0
LINE
  5
12F8
  8
0
  6
CONTINUOUS
 10
-17.0
 20
131.2999999999997
 30
0.0
 11
17.0
 21
131.2999999999997
 31
0.0
  0
LINE
  5
12F9
  8
0
  6
CONTINUOUS
 10
6.75
 20
160.0
 30
0.0
 11
6.75
 21
151.2999999999997
 31
0.0
  0
LINE
  5
12FA
  8
0
  6
CONTINUOUS
 10
-6.75
 20
160.0
 30
0.0
 11
-6.75
 21
151.2999999999997
 31
0.0
  0
LINE
  5
12FB
  8
0
  6
CONTINUOUS
 10
-17.0
 20
151.2999999999997
 30
0.0
 11
-17.0
 21
131.2999999999997
 31
0.0
  0
LINE
  5
12FC
  8
0
  6
CONTINUOUS
 10
17.0
 20
151.2999999999997
 30
0.0
 11
17.0
 21
131.2999999999997
 31
0.0
  0
LINE
  5
12FD
  8
0
  6
CENTER
 62
     4
 10
0.0
 20
187.0
 30
0.0
 11
0.0
 21
-54.65212999999994
 31
0.0
  0
LINE
  5
12FE
  8
0
  6
CENTER
 62
     4
 10
-54.65213199999926
 20
0.0
 30
0.0
 11
54.65212999999858
 21
0.0
 31
0.0
  0
LINE
  5
12FF
  8
0
  6
CONTINUOUS
 10
-43.00000200000068
 20
24.82606499999974
 30
0.0
 11
-43.00000200000068
 21
-24.8260650000002
 31
0.0
  0
LINE
  5
1300
  8
0
  6
CONTINUOUS
 10
43.0
 20
24.82606499999974
 30
0.0
 11
43.0
 21
-24.8260650000002
 31
0.0
  0
LINE
  5
1301
  8
0
  6
CONTINUOUS
 10
-42.99998699999924
 20
-24.82607300000018
 30
0.0
 11
0.0000099999997474
 21
-49.65212999999994
 31
0.0
  0
LINE
  5
1302
  8
0
  6
CONTINUOUS
 10
4.500009999999747
 20
47.05403500000011
 30
0.0
 11
43.00000999999975
 21
24.82605400000011
 31
0.0
  0
LINE
  5
1303
  8
0
  6
CONTINUOUS
 10
0.0000099999997474
 20
-49.65211100000033
 30
0.0
 11
43.00000999999975
 21
-24.82605400000011
 31
0.0
  0
LINE
  5
1304
  8
0
  6
CONTINUOUS
 10
-42.99998699999924
 20
24.82607299999972
 30
0.0
 11
-4.247199999997974
 21
47.20000499999969
 31
0.0
  0
LINE
  5
1305
  8
0
  6
CONTINUOUS
 10
37.06440999999904
 20
62.51973700000008
 30
0.0
 11
36.76685999999972
 21
28.42470599999979
 31
0.0
  0
LINE
  5
1306
  8
0
  6
CONTINUOUS
 10
-39.00000200000068
 20
81.5
 30
0.0
 11
39.0
 21
81.5
 31
0.0
  0
LINE
  5
1307
  8
0
  6
CONTINUOUS
 10
-39.00000200000068
 20
77.0
 30
0.0
 11
39.0
 21
77.0
 31
0.0
  0
LINE
  5
1308
  8
0
  6
CONTINUOUS
 10
39.0
 20
84.84307899999976
 30
0.0
 11
39.0
 21
77.0
 31
0.0
  0
LINE
  5
1309
  8
0
  6
CONTINUOUS
 10
38.5
 20
77.0
 30
0.0
 11
38.5
 21
66.73205599999983
 31
0.0
  0
LINE
  5
130A
  8
0
  6
CONTINUOUS
 10
-37.30276700000104
 20
65.0
 30
0.0
 11
37.30275999999867
 21
65.0
 31
0.0
  0
LINE
  5
130B
  8
0
  6
CONTINUOUS
 10
-26.50000200000068
 20
87.5
 30
0.0
 11
26.5
 21
87.5
 31
0.0
  0
LINE
  5
130C
  8
0
  6
CONTINUOUS
 10
-26.50000200000068
 20
98.5
 30
0.0
 11
26.5
 21
98.5
 31
0.0
  0
LINE
  5
130D
  8
0
  6
CONTINUOUS
 10
-14.5
 20
119.0
 30
0.0
 11
14.5
 21
119.0
 31
0.0
  0
LINE
  5
130E
  8
0
  6
CONTINUOUS
 10
14.5
 20
131.2999999999997
 30
0.0
 11
14.5
 21
116.8303099999998
 31
0.0
  0
LINE
  5
130F
  8
0
  6
CONTINUOUS
 10
13.64999000000171
 20
131.2999999999997
 30
0.0
 11
13.64999000000171
 21
119.0
 31
0.0
  0
LINE
  5
1310
  8
0
  6
CONTINUOUS
 10
-13.65000000000146
 20
131.2999999999997
 30
0.0
 11
-13.65000000000146
 21
119.0
 31
0.0
  0
LINE
  5
1311
  8
0
  6
CONTINUOUS
 10
26.5
 20
98.5
 30
0.0
 11
26.5
 21
87.5
 31
0.0
  0
LINE
  5
1312
  8
0
  6
CONTINUOUS
 10
26.50003999999899
 20
87.50003100000004
 30
0.0
 11
39.0
 21
84.84307899999976
 31
0.0
  0
LINE
  5
1313
  8
0
  6
CONTINUOUS
 10
-39.00000200000068
 20
84.84300200000007
 30
0.0
 11
-39.00000200000068
 21
77.0
 31
0.0
  0
LINE
  5
1314
  8
0
  6
CONTINUOUS
 10
-14.5
 20
131.2999999999997
 30
0.0
 11
-14.5
 21
116.8303099999998
 31
0.0
  0
LINE
  5
1315
  8
0
  6
CONTINUOUS
 10
-26.50000200000068
 20
98.5
 30
0.0
 11
-26.50000200000068
 21
87.5
 31
0.0
  0
LINE
  5
1316
  8
0
  6
CONTINUOUS
 10
-26.4999710000011
 20
87.49996199999987
 30
0.0
 11
-38.99999399999797
 21
84.84300200000007
 31
0.0
  0
LINE
  5
1317
  8
0
  6
CONTINUOUS
 10
-37.06447800000024
 20
62.51980599999979
 30
0.0
 11
-36.766939000001
 21
28.42477599999984
 31
0.0
  0
LINE
  5
1318
  8
0
  6
CONTINUOUS
 10
-38.50000200000068
 20
77.0
 30
0.0
 11
-38.50000200000068
 21
66.73205599999983
 31
0.0
  0
LINE
  5
1319
  8
0
  6
CONTINUOUS
 10
-4.24721000000136
 20
47.19999699999971
 30
0.0
 11
4.24721000000136
 21
47.19999699999971
 31
0.0
  0
LINE
  5
131A
  8
0
  6
CONTINUOUS
 10
-2.5
 20
61.0
 30
0.0
 11
-2.5
 21
50.51814299999978
 31
0.0
  0
LINE
  5
131B
  8
0
  6
CONTINUOUS
 10
0.0
 20
151.2999999999997
 30
0.0
 11
0.0
 21
131.2999999999997
 31
0.0
  0
LINE
  5
131C
  8
0
  6
CONTINUOUS
 10
0.0
 20
98.5
 30
0.0
 11
0.0
 21
87.5
 31
0.0
  0
LINE
  5
131D
  8
0
  6
CONTINUOUS
 10
2.5
 20
61.0
 30
0.0
 11
2.5
 21
50.51814299999978
 31
0.0
  0
LINE
  5
131E
  8
0
  6
CONTINUOUS
 10
-39.00000899999941
 20
84.84301000000005
 30
0.0
 11
39.0
 21
84.84308599999986
 31
0.0
  0
CIRCLE
  5
131F
  8
0
  6
CONTINUOUS
 10
0.0
 20
0.0
 30
0.0
 40
37.600006
  0
CIRCLE
  5
1320
  8
0
  6
CONTINUOUS
 10
0.0
 20
0.0
 30
0.0
 40
36.100006
  0
ARC
  5
1321
  8
0
  6
CONTINUOUS
 10
35.5
 20
66.73205599999983
 30
0.0
 40
3.0
 50
322.645680000067
 51
0.0
  0
ARC
  5
1322
  8
0
  6
CONTINUOUS
 10
41.06427999999869
 20
62.48486299999968
 30
0.0
 40
4.0
 50
142.6456599998915
 51
179.4999400000095
  0
ARC
  5
1323
  8
0
  6
CONTINUOUS
 10
34.5
 20
116.8303099999998
 30
0.0
 40
20.0
 50
180.0
 51
246.4218299999828
  0
ARC
  5
1324
  8
0
  6
CONTINUOUS
 10
-34.50000200000068
 20
116.8303099999998
 30
0.0
 40
20.0
 50
293.5781600000327
 51
0.0
  0
ARC
  5
1325
  8
0
  6
CONTINUOUS
 10
-35.50000200000068
 20
66.73205599999983
 30
0.0
 40
3.0
 50
180.0
 51
217.3543400001085
  0
ARC
  5
1326
  8
0
  6
CONTINUOUS
 10
-41.06428700000106
 20
62.48486299999968
 30
0.0
 40
4.0
 50
0.5000609999958383
 51
37.35434199993992
  0
ARC
  5
1327
  8
0
  6
CONTINUOUS
 10
-6.5
 20
50.51814299999978
 30
0.0
 40
4.0
 50
299.9999600000318
 51
0.0
  0
ARC
  5
1328
  8
0
  6
CONTINUOUS
 10
-6.5
 20
61.0
 30
0.0
 40
4.0
 50
0.0
 51
90.00003699991512
  0
ARC
  5
1329
  8
0
  6
CONTINUOUS
 10
6.5
 20
50.51814299999978
 30
0.0
 40
4.0
 50
180.0
 51
240.0000200000953
  0
ARC
  5
132A
  8
0
  6
CONTINUOUS
 10
6.5
 20
61.0
 30
0.0
 40
4.0
 50
89.99998200009199
 51
180.0
  0
LINE
  5
132B
  8
0
  6
CONTINUOUS
 10
-31.8094749999982
 20
176.5
 30
0.0
 11
31.80947500000184
 21
176.5
 31
0.0
  0
ARC
  5
132C
  8
0
  6
CONTINUOUS
 10
-41.0
 20
180.0
 30
0.0
 40
7.0
 50
90.0
 51
145.6987590000096
  0
ARC
  5
132D
  8
0
  6
CONTINUOUS
 10
-41.0
 20
178.0
 30
0.0
 40
9.0
 50
0.0
 51
90.0
  0
ARC
  5
132E
  8
0
  6
CONTINUOUS
 10
-31.50000999999975
 20
173.519245
 30
0.0
 40
18.5
 50
145.6987590000096
 51
180.0596020000102
  0
LINE
  5
132F
  8
0
  6
CONTINUOUS
 10
-50.0
 20
173.5
 30
0.0
 11
-49.62644799999907
 21
169.2302749999999
 31
0.0
  0
ARC
  5
1330
  8
0
  6
CONTINUOUS
 10
-48.82949200000076
 20
169.2999999999997
 30
0.0
 40
0.8
 50
185.0000000000029
 51
270.0
  0
LINE
  5
1331
  8
0
  6
CONTINUOUS
 10
-48.82949200000076
 20
168.5
 30
0.0
 11
48.82949200000076
 21
168.5
 31
0.0
  0
ARC
  5
1332
  8
0
  6
CONTINUOUS
 10
-9.801035000000411
 20
161.0
 30
0.0
 40
1.0
 50
183.0000000000034
 51
270.0
  0
LINE
  5
1333
  8
0
  6
CONTINUOUS
 10
-9.801035000000411
 20
160.0
 30
0.0
 11
9.801035000000411
 21
160.0
 31
0.0
  0
LINE
  5
1334
  8
0
  6
CONTINUOUS
 10
-10.79966499999864
 20
160.9476639999998
 30
0.0
 11
-11.19022499999846
 21
168.4000000000001
 31
0.0
  0
ARC
  5
1335
  8
0
  6
CONTINUOUS
 10
-26.0
 20
178.0
 30
0.0
 40
6.0
 50
180.0
 51
194.4775119999656
  0
ARC
  5
1336
  8
0
  6
CONTINUOUS
 10
-11.31126899999799
 20
161.1559969999998
 30
0.0
 40
0.5
 50
3.000000000003379
 51
67.95690600008288
  0
LINE
  5
1337
  8
0
  6
CONTINUOUS
 10
-11.12361800000144
 20
161.6194479999999
 30
0.0
 11
-28.11677200000122
 21
168.5
 31
0.0
  0
ARC
  5
1338
  8
0
  6
CONTINUOUS
 10
41.0
 20
180.0
 30
0.0
 40
7.0
 50
34.30124099999035
 51
90.0
  0
ARC
  5
1339
  8
0
  6
CONTINUOUS
 10
41.0
 20
178.0
 30
0.0
 40
9.0
 50
90.0
 51
180.0
  0
ARC
  5
133A
  8
0
  6
CONTINUOUS
 10
31.50000999999975
 20
173.519245
 30
0.0
 40
18.5
 50
359.9403979999898
 51
34.30124099999035
  0
LINE
  5
133B
  8
0
  6
CONTINUOUS
 10
50.0
 20
173.5
 30
0.0
 11
49.62644799999907
 21
169.2302749999999
 31
0.0
  0
ARC
  5
133C
  8
0
  6
CONTINUOUS
 10
48.82949200000076
 20
169.2999999999997
 30
0.0
 40
0.8
 50
270.0
 51
354.9999999999972
  0
ARC
  5
133D
  8
0
  6
CONTINUOUS
 10
9.801035000000411
 20
161.0
 30
0.0
 40
1.0
 50
270.0
 51
356.9999999999966
  0
LINE
  5
133E
  8
0
  6
CONTINUOUS
 10
10.79966499999864
 20
160.9476639999998
 30
0.0
 11
11.19022499999846
 21
168.4000000000001
 31
0.0
  0
ARC
  5
133F
  8
0
  6
CONTINUOUS
 10
26.0
 20
178.0
 30
0.0
 40
6.0
 50
345.5224880000344
 51
0.0
  0
ARC
  5
1340
  8
0
  6
CONTINUOUS
 10
11.31126900000163
 20
161.1559969999998
 30
0.0
 40
0.5
 50
112.0430939999171
 51
176.9999999999966
  0
LINE
  5
1341
  8
0
  6
CONTINUOUS
 10
11.12361800000144
 20
161.6194479999999
 30
0.0
 11
28.11677200000122
 21
168.5
 31
0.0
  0
ENDBLK
  8
0
  0
BLOCK
  8
0
  2
ALﾌｨｯﾃｨﾝｸﾞ平面図
 70
     0
 10
0.0
 20
0.0
 30
0.0
  0
LINE
  5
1368
  8
0
 10
54.12658773652947
 20
8.000000000000455
 30
0.0
 11
54.12658773652947
 21
0.0000000000004547
 31
0.0
  0
LINE
  5
1369
  8
0
 10
54.12658773652947
 20
0.0000000000004547
 30
0.0
 11
-54.12658773652947
 21
0.0
 31
0.0
  0
LINE
  5
136A
  8
0
 10
-54.12658773652947
 20
0.0
 30
0.0
 11
-54.12658773652583
 21
8.0
 31
0.0
  0
LINE
  5
136B
  8
0
 10
-54.12658773652583
 20
8.0
 30
0.0
 11
54.12658773652947
 21
8.000000000000455
 31
0.0
  0
POLYLINE
  5
136C
  8
0
 66
     1
 10
0.0
 20
0.0
 30
0.0
  0
VERTEX
  5
1FF2
  8
0
 10
-43.5
 20
54.00000000000045
 30
0.0
  0
VERTEX
  5
1FF3
  8
0
 10
-43.5
 20
8.0
 30
0.0
  0
SEQEND
  5
2018
  8
0
  0
POLYLINE
  5
136D
  8
0
 66
     1
 10
0.0
 20
0.0
 30
0.0
  0
VERTEX
  5
1FF4
  8
0
 10
43.5
 20
54.0
 30
0.0
  0
VERTEX
  5
1FF5
  8
0
 10
43.5
 20
8.000000000000455
 30
0.0
  0
SEQEND
  5
2019
  8
0
  0
POLYLINE
  5
136E
  8
0
 66
     1
 10
0.0
 20
0.0
 30
0.0
  0
VERTEX
  5
1FF6
  8
0
 10
-43.5
 20
54.00000000000045
 30
0.0
  0
VERTEX
  5
1FF7
  8
0
 10
43.5
 20
54.00000000000045
 30
0.0
  0
SEQEND
  5
201A
  8
0
  0
ENDBLK
  8
0
  0
BLOCK
  8
0
  2
液面計平面図
 70
     0
 10
0.0
 20
0.0
 30
0.0
  0
LINE
  5
169C
  8
4
  6
CENTER
 10
0.0000000061918399
 20
12.68536112816355
 30
0.0
 11
-0.0000000266700226
 21
-54.624178065877
 31
0.0
  0
LINE
  5
169D
  8
4
  6
CONTINUOUS
 10
13.95543432118211
 20
-4.957636454589647
 30
0.0
 11
-14.9878162764835
 21
-4.957636443673891
 31
0.0
  0
LINE
  5
169E
  8
4
  6
CONTINUOUS
 10
-14.98781625898118
 20
0.0
 30
0.0
 11
-14.9878162764835
 21
-4.957636443673891
 31
0.0
  0
LINE
  5
169F
  8
4
  6
CONTINUOUS
 10
13.95543433794228
 20
0.0000000000004547
 30
0.0
 11
13.95543432118211
 21
-4.957636454589647
 31
0.0
  0
LINE
  5
16A0
  8
4
  6
CENTER
 10
13.95543432118211
 20
-29.95763645458965
 30
0.0
 11
-14.9878162764835
 21
-29.95763644367389
 31
0.0
  0
LINE
  5
16A1
  8
0
 10
8.999999983672751
 20
-29.95763645272064
 30
0.0
 11
8.999999983672751
 21
-4.957636452720635
 31
0.0
  0
LINE
  5
16A2
  8
0
 10
-9.000000016327249
 20
-29.95763644593217
 30
0.0
 11
-9.000000016327249
 21
-4.957636445932167
 31
0.0
  0
ARC
  5
16A3
  8
0
 10
-0.0000000163272489
 20
-29.95763645102306
 30
0.0
 40
9.0
 50
179.9999999675875
 51
0.0000000108128681
  0
POLYLINE
  5
16A4
  8
0
 66
     1
 10
0.0
 20
0.0
 30
0.0
  0
VERTEX
  5
1FF8
  8
0
 10
-14.98781625898118
 20
0.0
 30
0.0
  0
VERTEX
  5
1FF9
  8
0
 10
13.95543433794228
 20
0.0
 30
0.0
  0
SEQEND
  5
201B
  8
0
  0
ENDBLK
  8
0
  0
BLOCK
  8
0
  2
６５ＡエアーＬ_平面図
 70
     0
 10
0.0
 20
0.0
 30
0.0
  0
LINE
  5
1C7D
  8
0
  6
CENTER
 62
     1
 10
0.0
 20
89.99998608231544
 30
0.0
 11
0.0
 21
-90.00001659989357
 31
0.0
  0
LINE
  5
1C7E
  8
0
  6
CONTINUOUS
 62
     1
 10
45.25483467028971
 20
45.25481941149974
 30
0.0
 11
0.0
 21
63.99998569488525
 31
0.0
  0
LINE
  5
1C7F
  8
0
  6
CONTINUOUS
 62
     1
 10
-45.25483467028971
 20
45.25481941149974
 30
0.0
 11
0.0
 21
63.99998569488525
 31
0.0
  0
LINE
  5
1C80
  8
0
  6
CONTINUOUS
 62
     1
 10
-64.00000095367432
 20
-0.0000152587890625
 30
0.0
 11
-45.25483467028971
 21
45.25481941149974
 31
0.0
  0
LINE
  5
1C81
  8
0
  6
CONTINUOUS
 62
     1
 10
-45.25483467028971
 20
-45.25484992907786
 30
0.0
 11
-64.00000095367432
 21
-0.0000152587890625
 31
0.0
  0
LINE
  5
1C82
  8
0
  6
CONTINUOUS
 62
     1
 10
0.0
 20
-64.00001621246338
 30
0.0
 11
-45.25483467028971
 21
-45.25484992907786
 31
0.0
  0
LINE
  5
1C83
  8
0
  6
CONTINUOUS
 62
     1
 10
45.25483467028971
 20
-45.25484992907786
 30
0.0
 11
0.0
 21
-64.00001621246338
 31
0.0
  0
LINE
  5
1C84
  8
0
  6
CONTINUOUS
 10
0.0
 20
43.5
 30
0.0
 11
220.0
 21
43.5
 31
0.0
  0
LINE
  5
1C85
  8
0
  6
CONTINUOUS
 10
0.0
 20
-43.5
 30
0.0
 11
220.0
 21
-43.5
 31
0.0
  0
LINE
  5
1C86
  8
0
  6
CENTER
 10
220.0
 20
65.0
 30
0.0
 11
220.0
 21
-65.0
 31
0.0
  0
LINE
  5
1C87
  8
0
  6
CENTER
 10
-65.0
 20
0.0
 30
0.0
 11
285.0
 21
0.0
 31
0.0
  0
ARC
  5
1C88
  8
0
  6
CONTINUOUS
 10
0.0
 20
-0.0000152587890625
 30
0.0
 40
43.5
 50
89.99998199988354
 51
270.0
  0
ARC
  5
1C89
  8
0
  6
CONTINUOUS
 10
220.0
 20
0.0
 30
0.0
 40
43.5
 50
270.0000199998978
 51
89.99998199988354
  0
ARC
  5
1C8A
  8
0
  6
CONTINUOUS
 10
0.0
 20
0.0
 30
0.0
 40
50.229473
 50
60.00000200010633
 51
299.9999899999445
  0
ENDBLK
  8
0
  0
BLOCK
  8
0
  2
６５ＡエアーＬ_正面図
 70
     0
 10
0.0
 20
0.0
 30
0.0
  0
LINE
  5
1801
  8
0
  6
CENTER
 10
43.5
 20
243.000020745058
 30
0.0
 11
176.5
 21
243.000020745058
 31
0.0
  0
LINE
  5
1802
  8
0
  6
CENTER
 10
220.0
 20
199.500020745058
 30
0.0
 11
220.0
 21
113.2213137450581
 31
0.0
  0
LINE
  5
1803
  8
0
  6
CONTINUOUS
 10
176.5
 20
199.500020745058
 30
0.0
 11
176.5
 21
133.0000007450581
 31
0.0
  0
LINE
  5
1804
  8
0
  6
CONTINUOUS
 10
263.5
 20
199.500020745058
 30
0.0
 11
263.5
 21
133.0000007450581
 31
0.0
  0
LINE
  5
1805
  8
0
  6
CONTINUOUS
 10
43.5
 20
286.500020745058
 30
0.0
 11
176.5
 21
286.500020745058
 31
0.0
  0
LINE
  5
1806
  8
0
  6
CONTINUOUS
 10
43.5
 20
199.500020745058
 30
0.0
 11
176.5
 21
199.500020745058
 31
0.0
  0
LINE
  5
1807
  8
0
  6
CENTER
 10
0.0
 20
199.500020745058
 30
0.0
 11
0.0
 21
17.39178574505786
 31
0.0
  0
LINE
  5
1808
  8
0
  6
CONTINUOUS
 10
-43.5
 20
199.500020745058
 30
0.0
 11
-43.5
 21
62.00000074505806
 31
0.0
  0
LINE
  5
1809
  8
0
  6
CONTINUOUS
 10
43.5
 20
199.500020745058
 30
0.0
 11
43.5
 21
62.00000074505806
 31
0.0
  0
LINE
  5
180A
  8
0
  6
CONTINUOUS
 10
176.5
 20
133.0000007450581
 30
0.0
 11
263.5
 21
133.0000007450581
 31
0.0
  0
LINE
  5
180B
  8
0
  6
CONTINUOUS
 10
-50.22952300000179
 20
50.00000074505806
 30
0.0
 11
50.22944599999755
 21
50.00000074505806
 31
0.0
  0
LINE
  5
180C
  8
0
  6
CONTINUOUS
 10
-25.11465499999758
 20
62.00000074505806
 30
0.0
 11
-25.11465499999758
 21
50.00000074505806
 31
0.0
  0
LINE
  5
180D
  8
0
  6
CONTINUOUS
 10
25.11471599999641
 20
62.00000074505806
 30
0.0
 11
25.11471599999641
 21
50.00000074505806
 31
0.0
  0
LINE
  5
180E
  8
0
  6
CONTINUOUS
 10
-50.22952300000179
 20
62.00000074505806
 30
0.0
 11
50.22944599999755
 21
62.00000074505806
 31
0.0
  0
LINE
  5
180F
  8
0
  6
CONTINUOUS
 10
-50.22952300000179
 20
62.00000074505806
 30
0.0
 11
-50.22952300000179
 21
50.00000074505806
 31
0.0
  0
LINE
  5
1810
  8
0
  6
CONTINUOUS
 10
50.22944599999755
 20
62.00000074505806
 30
0.0
 11
50.22944599999755
 21
50.00000074505806
 31
0.0
  0
LINE
  5
1811
  8
0
  6
CONTINUOUS
 10
43.5
 20
124.7500007450581
 30
0.0
 11
-43.5
 21
124.7500007450581
 31
0.0
  0
LINE
  5
1812
  8
0
  6
CONTINUOUS
 10
110.0
 20
199.500020745058
 30
0.0
 11
110.0
 21
286.500020745058
 31
0.0
  0
ARC
  5
1813
  8
0
  6
CONTINUOUS
 10
43.5
 20
199.500020745058
 30
0.0
 40
87.0
 50
89.99998199988354
 51
179.999959999996
  0
ARC
  5
1814
  8
0
  6
CONTINUOUS
 10
176.5
 20
199.500020745058
 30
0.0
 40
87.0
 50
0.0
 51
89.99998199988354
  0
ARC
  5
1815
  8
0
  6
CENTER
 10
43.5
 20
199.500020745058
 30
0.0
 40
43.5
 50
89.99998199988354
 51
179.999959999996
  0
ARC
  5
1816
  8
0
  6
CENTER
 10
176.5
 20
199.500020745058
 30
0.0
 40
43.5
 50
0.0
 51
89.99998199988354
  0
LINE
  5
1817
  8
0
  6
CONTINUOUS
 62
     1
 10
-64.00000095367432
 20
30.00000044703484
 30
0.0
 11
64.00000095367432
 21
30.00000044703484
 31
0.0
  0
LINE
  5
1818
  8
0
  6
CONTINUOUS
 62
     1
 10
-64.00000095367432
 20
30.00000044703484
 30
0.0
 11
-64.00000095367432
 21
0.0
 31
0.0
  0
LINE
  5
1819
  8
0
  6
CONTINUOUS
 62
     1
 10
-45.00000067055225
 20
50.00000074505806
 30
0.0
 11
-45.00000067055225
 21
30.00000044703484
 31
0.0
  0
LINE
  5
181A
  8
0
  6
CONTINUOUS
 62
     1
 10
45.00000067055225
 20
50.00000074505806
 30
0.0
 11
45.00000067055225
 21
30.00000044703484
 31
0.0
  0
LINE
  5
181B
  8
0
  6
CONTINUOUS
 62
     1
 10
64.00000095367432
 20
30.00000044703484
 30
0.0
 11
64.00000095367432
 21
0.0
 31
0.0
  0
LINE
  5
181C
  8
0
  6
CONTINUOUS
 62
     1
 10
-45.00000067055225
 20
50.00000074505806
 30
0.0
 11
45.00000067055225
 21
50.00000074505806
 31
0.0
  0
LINE
  5
181D
  8
0
  6
CENTER
 62
     1
 10
0.0
 20
80.0000011920929
 30
0.0
 11
0.0
 21
-20.00000029802322
 31
0.0
  0
LINE
  5
181E
  8
0
  6
CONTINUOUS
 62
     1
 10
-64.00000095367432
 20
15.00000022351742
 30
0.0
 11
64.00000095367432
 21
15.00000022351742
 31
0.0
  0
ENDBLK
  8
0
  0
BLOCK
  8
0
  2
N-BALOON
 70
     2
 10
0.0
 20
0.0
 30
0.0
  0
CIRCLE
  5
18FA
  8
0
 10
0.0
 20
0.0
 30
0.0
 40
100.0
  0
TEXT
  5
18FB
  8
0
 10
-68.09434061104548
 20
-25.1687701231931
 30
0.0
 40
50.0
  1
N-
  0
ATTDEF
  5
18FC
  8
0
 10
42.33635101502296
 20
-24.74502399850462
 30
0.0
 40
50.0
  1

  3
?
  2
NO.
 70
     0
  0
ENDBLK
  8
0
  0
BLOCK
  8
0
  2
BALOON
 70
     2
 10
0.0
 20
0.0
 30
0.0
  0
CIRCLE
  5
1904
  8
0
 10
0.0
 20
0.0
 30
0.0
 40
100.0
  0
ATTDEF
  5
1905
  8
0
 10
-17.05424478689383
 20
-24.74502399850462
 30
0.0
 40
50.0
  1

  3
?
  2
NO.
 70
     0
  0
ENDBLK
  8
0
  0
BLOCK
  8
0
  2
*D18
 70
     1
 10
0.0
 20
0.0
 30
0.0
  0
LINE
  5
1CA7
  8
寸法線
 62
     0
 10
40320.19738920643
 20
-4822.834660675275
 30
0.0
 11
40162.99832014176
 21
-4822.834660675275
 31
0.0
  0
LINE
  5
1CA8
  8
寸法線
 62
     0
 10
40320.19738920643
 20
-4952.834660675275
 30
0.0
 11
40162.99832014176
 21
-4952.834660675275
 31
0.0
  0
LINE
  5
1CA9
  8
寸法線
 62
     0
 10
40237.99832014176
 20
-4747.834660675275
 30
0.0
 11
40237.99832014176
 21
-4672.834660675275
 31
0.0
  0
LINE
  5
1CAA
  8
寸法線
 62
     0
 10
40237.99832014176
 20
-5027.834660675275
 30
0.0
 11
40237.99832014176
 21
-5350.334660675275
 31
0.0
  0
LINE
  5
1CAB
  8
寸法線
 62
     0
 10
40237.99832014176
 20
-4822.834660675275
 30
0.0
 11
40237.99832014176
 21
-4952.834660675275
 31
0.0
  0
INSERT
  5
1CAC
  8
寸法線
 62
     0
  2
_OPEN30
 10
40237.99832014176
 20
-4822.834660675275
 30
0.0
 41
75.0
 42
75.0
 43
75.0
 50
270.0
  0
INSERT
  5
1CAD
  8
寸法線
 62
     0
  2
_OPEN30
 10
40237.99832014176
 20
-4952.834660675275
 30
0.0
 41
75.0
 42
75.0
 43
75.0
 50
90.0
  0
TEXT
  5
1CAE
  8
寸法線
  6
CONTINUOUS
 62
     0
 10
40195.49832014176
 20
-5307.834660675268
 30
0.0
 40
75.0
  1
130
 50
90.0
  0
POINT
  5
1CAF
  8
DEFPOINTS
 62
     0
 10
40370.19738920643
 20
-4822.834660675275
 30
0.0
  0
POINT
  5
1CB0
  8
DEFPOINTS
 62
     0
 10
40370.19738920643
 20
-4952.834660675275
 30
0.0
  0
POINT
  5
1CB1
  8
DEFPOINTS
 62
     0
 10
40237.99832014176
 20
-4952.834660675275
 30
0.0
  0
ENDBLK
  8
0
  0
BLOCK
  8
0
  2
*D19
 70
     1
 10
0.0
 20
0.0
 30
0.0
  0
LINE
  5
1BD7
  8
寸法線
 62
     0
 10
40781.85397636039
 20
-4852.834660675275
 30
0.0
 11
41043.04451525085
 21
-4852.834660675275
 31
0.0
  0
LINE
  5
1BD8
  8
寸法線
 62
     0
 10
40788.85397636038
 20
-4952.834660675274
 30
0.0
 11
41043.04451525085
 21
-4952.834660675274
 31
0.0
  0
LINE
  5
1BD9
  8
寸法線
 62
     0
 10
40968.04451525085
 20
-4777.834660675275
 30
0.0
 11
40968.04451525085
 21
-4702.834660675275
 31
0.0
  0
LINE
  5
1BDA
  8
寸法線
 62
     0
 10
40968.04451525085
 20
-5027.834660675274
 30
0.0
 11
40968.04451525085
 21
-5337.834660675274
 31
0.0
  0
LINE
  5
1BDB
  8
寸法線
 62
     0
 10
40968.04451525085
 20
-4852.834660675275
 30
0.0
 11
40968.04451525085
 21
-4952.834660675274
 31
0.0
  0
INSERT
  5
1BDC
  8
寸法線
 62
     0
  2
_OPEN30
 10
40968.04451525085
 20
-4852.834660675275
 30
0.0
 41
75.0
 42
75.0
 43
75.0
 50
270.0
  0
INSERT
  5
1BDD
  8
寸法線
 62
     0
  2
_OPEN30
 10
40968.04451525085
 20
-4952.834660675274
 30
0.0
 41
75.0
 42
75.0
 43
75.0
 50
90.0
  0
TEXT
  5
1BDE
  8
寸法線
  6
CONTINUOUS
 62
     0
 10
40925.54451525085
 20
-5295.334660675268
 30
0.0
 40
75.0
  1
100
 50
90.0
  0
POINT
  5
1BDF
  8
DEFPOINTS
 62
     0
 10
40731.85397636039
 20
-4852.834660675275
 30
0.0
  0
POINT
  5
1BE0
  8
DEFPOINTS
 62
     0
 10
40738.85397636038
 20
-4952.834660675274
 30
0.0
  0
POINT
  5
1BE1
  8
DEFPOINTS
 62
     0
 10
40968.04451525085
 20
-4952.834660675274
 30
0.0
  0
ENDBLK
  8
0
  0
BLOCK
  8
0
  2
*D20
 70
     1
 10
0.0
 20
0.0
 30
0.0
  0
LINE
  5
1BE2
  8
寸法線
 62
     0
 10
40781.85397636039
 20
-4852.834660675275
 30
0.0
 11
41043.04451525085
 21
-4852.834660675275
 31
0.0
  0
LINE
  5
1BE3
  8
寸法線
 62
     0
 10
40781.85397636039
 20
-2252.834660675273
 30
0.0
 11
41043.04451525085
 21
-2252.834660675273
 31
0.0
  0
LINE
  5
1BE4
  8
寸法線
 62
     0
 10
40968.04451525085
 20
-4777.834660675275
 30
0.0
 11
40968.04451525085
 21
-2327.834660675273
 31
0.0
  0
INSERT
  5
1BE5
  8
寸法線
 62
     0
  2
_OPEN30
 10
40968.04451525085
 20
-4852.834660675275
 30
0.0
 41
75.0
 42
75.0
 43
75.0
 50
270.0
  0
INSERT
  5
1BE6
  8
寸法線
 62
     0
  2
_OPEN30
 10
40968.04451525085
 20
-2252.834660675273
 30
0.0
 41
75.0
 42
75.0
 43
75.0
 50
90.0
  0
TEXT
  5
1BE7
  8
寸法線
  6
CONTINUOUS
 62
     0
 10
40925.54451525085
 20
-3677.834660675268
 30
0.0
 40
75.0
  1
2600
 50
90.0
  0
POINT
  5
1BE8
  8
DEFPOINTS
 62
     0
 10
40731.85397636039
 20
-4852.834660675275
 30
0.0
  0
POINT
  5
1BE9
  8
DEFPOINTS
 62
     0
 10
40731.85397636039
 20
-2252.834660675273
 30
0.0
  0
POINT
  5
1BEA
  8
DEFPOINTS
 62
     0
 10
40968.04451525085
 20
-2252.834660675273
 30
0.0
  0
ENDBLK
  8
0
  0
BLOCK
  8
0
  2
_DOTSMALL
 70
     0
 10
0.0
 20
0.0
 30
0.0
  0
POLYLINE
  5
1C01
  8
0
  6
BYBLOCK
 62
     0
 66
     1
 10
0.0
 20
0.0
 30
0.0
 70
     1
 40
0.5
 41
0.5
  0
VERTEX
  5
1FFA
  8
0
  6
BYBLOCK
 62
     0
 10
-0.0625
 20
0.0
 30
0.0
 42
1.0
  0
VERTEX
  5
1FFB
  8
0
  6
BYBLOCK
 62
     0
 10
0.0625
 20
0.0
 30
0.0
 42
1.0
  0
SEQEND
  5
201C
  8
0
  6
BYBLOCK
 62
     0
  0
ENDBLK
  8
0
  0
BLOCK
  8
0
  2
出口
 70
     0
 10
0.0
 20
0.0
 30
0.0
  0
INSERT
  5
1C57
  8
0
  2
65Aバルブ平面図
 10
0.0
 20
-118.00000000002
 30
0.0
  0
INSERT
  5
1C58
  8
0
  2
ALﾌｨｯﾃｨﾝｸﾞ平面図
 10
0.0000000000145519
 20
0.0
 30
0.0
 50
180.0
  0
LINE
  5
1C59
  8
細線
 10
-39.0
 20
-56.50000000001182
 30
0.0
 11
39.00000000000728
 21
-56.50000000001182
 31
0.0
  0
LINE
  5
1C5A
  8
細線
 10
-38.99999999997817
 20
-74.50000000000819
 30
0.0
 11
-12.27658049972524
 21
-74.50000000001
 31
0.0
  0
LINE
  5
1C5B
  8
細線
 10
12.27658049975435
 20
-74.50000000001
 30
0.0
 11
39.00000000000728
 21
-74.50000000001182
 31
0.0
  0
LINE
  5
1C5C
  8
細線
 10
39.00000000000728
 20
-56.50000000001182
 30
0.0
 11
40.00000000001455
 21
-57.0773502692
 31
0.0
  0
LINE
  5
1C5D
  8
細線
 10
39.00000000000728
 20
-74.50000000001182
 30
0.0
 11
40.00000000000728
 21
-73.92264973082183
 31
0.0
  0
LINE
  5
1C5E
  8
細線
 10
-38.99999999999272
 20
-56.50000000001
 30
0.0
 11
-39.99999999999272
 21
-57.07735026920091
 31
0.0
  0
LINE
  5
1C5F
  8
細線
 10
-38.99999999999272
 20
-74.50000000001
 30
0.0
 11
-39.99999999999272
 21
-73.92264973082001
 31
0.0
  0
LINE
  5
1C60
  8
細線
 10
40.00000000000728
 20
-73.92264973082183
 30
0.0
 11
40.00000000001455
 21
-57.0773502692
 31
0.0
  0
LINE
  5
1C61
  8
細線
 10
-39.99999999999272
 20
-73.92264973082001
 30
0.0
 11
-39.99999999999272
 21
-57.07735026920091
 31
0.0
  0
LINE
  5
1C62
  8
細線
 10
16.56854249494063
 20
-72.01988337010243
 30
0.0
 11
16.56854249493335
 21
-58.98011662991939
 31
0.0
  0
LINE
  5
1C63
  8
細線
 10
-16.5685424949188
 20
-72.01988337010243
 30
0.0
 11
-16.56854249492608
 21
-58.98011662992121
 31
0.0
  0
ARC
  5
1C64
  8
細線
 10
0.0000000000145519
 20
-17.91645559738117
 30
0.0
 40
56.58354440262278
 50
252.973404820569
 51
259.5384173568511
  0
ARC
  5
1C65
  8
細線
 10
0.0000000000145519
 20
-17.91645559738117
 30
0.0
 40
56.58354440262278
 50
280.4615826431489
 51
287.026595179431
  0
ARC
  5
1C66
  8
細線
 10
28.28427124747395
 20
-45.58819864121779
 30
0.0
 40
28.91180135878851
 50
246.0948937239196
 51
293.9051062760804
  0
ARC
  5
1C67
  8
細線
 10
-28.28427124744485
 20
-45.58819864121415
 30
0.0
 40
28.91180135878851
 50
246.0948937239196
 51
293.9051062760804
  0
ARC
  5
1C68
  8
細線
 10
0.0000000000145519
 20
-113.0835444026279
 30
0.0
 40
56.58354440262278
 50
72.973404820569
 51
107.026595179431
  0
ARC
  5
1C69
  8
細線
 10
28.28427124747395
 20
-85.4118013588004
 30
0.0
 40
28.91180135878851
 50
66.09489372391961
 51
113.9051062760804
  0
ARC
  5
1C6A
  8
細線
 10
-28.28427124745212
 20
-85.41180135879313
 30
0.0
 40
28.91180135878851
 50
66.09489372391961
 51
113.9051062760804
  0
LINE
  5
1C6B
  8
細線
 10
39.00000000002183
 20
-56.50000000001637
 30
0.0
 11
38.29344347595907
 21
-56.5000000000191
 31
0.0
  0
ARC
  5
1C6C
  8
細線
 10
-38.29344347594451
 20
-74.9000000000151
 30
0.0
 40
0.4
 50
1.789899999995269
 51
90.0
  0
LINE
  5
1C6D
  8
細線
 10
-36.34862360261468
 20
-77.0000000000191
 30
0.0
 11
-37.89363864318875
 21
-74.88750617308779
 31
0.0
  0
LINE
  5
1C6E
  8
細線
 10
37.82762360261404
 20
-77.00000000002092
 30
0.0
 11
28.5212401078752
 21
-77.0000000000191
 31
0.0
  0
LINE
  5
1C6F
  8
細線
 10
-28.52124010785337
 20
-77.00000000001728
 30
0.0
 11
-37.82762360261404
 21
-77.00000000001819
 31
0.0
  0
ARC
  5
1C70
  8
細線
 10
38.29344347595907
 20
-74.90000000001146
 30
0.0
 40
0.4
 50
90.0
 51
178.2101000000047
  0
LINE
  5
1C71
  8
細線
 10
37.82762360261404
 20
-77.00000000002092
 30
0.0
 11
37.8936386432033
 21
-74.88750617309142
 31
0.0
  0
LINE
  5
1C72
  8
細線
 10
-37.82762360261404
 20
-77.00000000001819
 30
0.0
 11
-37.89363864318875
 21
-74.88750617308779
 31
0.0
  0
LINE
  5
1C73
  8
細線
 10
36.34862360262923
 20
-77.00000000002092
 30
0.0
 11
37.8936386432033
 21
-74.88750617309142
 31
0.0
  0
ARC
  5
1C74
  8
細線
 10
-38.29344347593724
 20
-56.10000000000036
 30
0.0
 40
0.4
 50
270.0
 51
358.2101000000047
  0
LINE
  5
1C75
  8
細線
 10
-36.3486236026074
 20
-54.00000000000455
 30
0.0
 11
-37.89363864318875
 21
-56.1124938269304
 31
0.0
  0
LINE
  5
1C76
  8
細線
 10
37.82762360262132
 20
-54.00000000000455
 30
0.0
 11
-37.82762360260676
 21
-54.00000000000637
 31
0.0
  0
ARC
  5
1C77
  8
細線
 10
38.29344347595907
 20
-56.10000000000764
 30
0.0
 40
0.4
 50
181.7898999999953
 51
270.0
  0
LINE
  5
1C78
  8
細線
 10
37.82762360262132
 20
-54.00000000000455
 30
0.0
 11
37.89363864319603
 21
-56.1124938269395
 31
0.0
  0
LINE
  5
1C79
  8
細線
 10
-37.82762360260676
 20
-54.00000000000637
 30
0.0
 11
-37.89363864318875
 21
-56.1124938269304
 31
0.0
  0
LINE
  5
1C7A
  8
細線
 10
36.34862360262923
 20
-54.00000000000637
 30
0.0
 11
37.89363864321058
 21
-56.11249382692858
 31
0.0
  0
POLYLINE
  5
1C7B
  8
0
  6
CENTER
 66
     1
 10
0.0
 20
0.0
 30
0.0
  0
VERTEX
  5
1FFC
  8
0
  6
CENTER
 10
0.000000000007276
 20
-202.6525829684078
 30
0.0
  0
VERTEX
  5
1FFD
  8
0
  6
CENTER
 10
0.0
 20
28.83099031290567
 30
0.0
  0
SEQEND
  5
201D
  8
0
  6
CENTER
  0
ENDBLK
  8
0
  0
BLOCK
  8
0
  2
*X23
 70
     1
 10
0.0
 20
0.0
 30
0.0
  0
TEXT
  5
1F8B
  8
0
  6
CONTINUOUS
 10
40492.16167369133
 20
-210.8706634794898
 30
0.0
 40
60.0
  1
融着フランジ（ＰＥ）は、ＪＩＳ１０
  0
TEXT
  5
1F8C
  8
0
  6
CONTINUOUS
 10
41342.16167369133
 20
-173.8706634794898
 30
0.0
 40
42.0
  1
Ｋ
  0
TEXT
  5
1F8D
  8
0
  6
CONTINUOUS
 10
41377.16167369133
 20
-210.8706634794898
 30
0.0
 40
60.0
  1
相当とする。
  0
ENDBLK
  8
0
  0
BLOCK
  8
0
  2
*X24
 70
     1
 10
0.0
 20
0.0
 30
0.0
  0
INSERT
  5
1F8F
  8
0
  2
_OPEN30
 10
44739.11816096568
 20
-2278.621288404975
 30
0.0
 41
75.0
 42
75.0
 43
75.0
 50
140.402889577912
  0
LINE
  5
1F90
  8
0
 10
44796.90906512387
 20
-2326.425173148562
 30
0.0
 11
45033.90864698898
 21
-2522.468146706211
 31
0.0
  0
LINE
  5
1F91
  8
0
 10
45033.90864698898
 20
-2522.468146706211
 30
0.0
 11
45708.9352212765
 21
-2522.468146706211
 31
0.0
  0
ENDBLK
  8
0
  0
BLOCK
  8
0
  2
*X25
 70
     1
 10
0.0
 20
0.0
 30
0.0
  0
INSERT
  5
1F93
  8
0
  2
_OPEN30
 10
40560.18262419035
 20
-1650.269222345856
 30
0.0
 41
75.0
 42
75.0
 43
75.0
 50
313.4145229568517
  0
LINE
  5
1F94
  8
0
 10
40508.6372499834
 20
-1595.789185654741
 30
0.0
 11
40052.85072538958
 21
-1114.053104285135
 31
0.0
  0
ENDBLK
  8
0
  0
BLOCK
  8
0
  2
*X26
 70
     1
 10
0.0
 20
0.0
 30
0.0
  0
INSERT
  5
1F96
  8
0
  2
_DOTSMALL
 10
41189.08851912748
 20
-2059.075131896177
 30
0.0
 41
75.0
 42
75.0
 43
75.0
 50
260.1448891427043
  0
LINE
  5
1F97
  8
0
 10
41189.08851912748
 20
-2059.075131896177
 30
0.0
 11
41348.76178422241
 21
-1139.937427758707
 31
0.0
  0
ENDBLK
  8
0
  0
BLOCK
  8
0
  2
*X27
 70
     1
 10
0.0
 20
0.0
 30
0.0
  0
INSERT
  5
1F99
  8
0
  2
_OPEN30
 10
41818.35397414801
 20
-1666.334534877029
 30
0.0
 41
75.00000000000001
 42
75.00000000000001
 43
75.0
 50
255.4233729685267
  0
LINE
  5
1F9A
  8
0
 10
41837.22956724238
 20
-1593.748641031627
 30
0.0
 11
41955.69417400789
 21
-1138.194247157518
 31
0.0
  0
ENDBLK
  8
0
  0
BLOCK
  8
0
  2
*X28
 70
     1
 10
0.0
 20
0.0
 30
0.0
  0
INSERT
  5
1F9C
  8
0
  2
_OPEN30
 10
40401.19739020643
 20
-4733.034371883769
 30
0.0
 41
75.0
 42
75.0
 43
75.0
 50
308.9542379421485
  0
LINE
  5
1F9D
  8
0
 10
40354.04492883064
 20
-4674.710745571576
 30
0.0
 11
40148.74980106742
 21
-4420.777950421186
 31
0.0
  0
ENDBLK
  8
0
  0
BLOCK
  8
0
  2
*X29
 70
     1
 10
0.0
 20
0.0
 30
0.0
  0
INSERT
  5
1F9F
  8
0
  2
_OPEN30
 10
40724.85397636039
 20
-4837.834660675273
 30
0.0
 41
75.0
 42
75.0
 43
75.0
 50
284.3634991774015
  0
LINE
  5
1FA0
  8
0
 10
40706.24851699005
 20
-4765.1790560627
 30
0.0
 11
40416.05112326152
 21
-3631.93817882049
 31
0.0
  0
ENDBLK
  8
0
  0
BLOCK
  8
0
  2
*X30
 70
     1
 10
0.0
 20
0.0
 30
0.0
  0
INSERT
  5
1FA2
  8
0
  2
_OPEN30
 10
40724.85397636039
 20
-2267.834660675273
 30
0.0
 41
75.0
 42
75.0
 43
75.0
 50
75.25099449673044
  0
LINE
  5
1FA3
  8
0
 10
40705.76008914166
 20
-2340.363437521973
 30
0.0
 11
40416.70236039271
 21
-3438.359003541461
 31
0.0
  0
ENDBLK
  8
0
  0
BLOCK
  8
0
  2
*X31
 70
     1
 10
0.0
 20
0.0
 30
0.0
  0
TEXT
  5
1FA5
  8
0
  6
CONTINUOUS
 10
45355.39686541748
 20
-3512.865777411665
 30
0.0
 40
42.0
  1
\U+2205
  0
TEXT
  5
1FA6
  8
0
  6
CONTINUOUS
 10
45397.39686541748
 20
-3526.865777411665
 30
0.0
 40
60.0
  1
13×
  0
TEXT
  5
1FA7
  8
0
  6
CONTINUOUS
 10
45547.39686541748
 20
-3512.865777411665
 30
0.0
 40
42.0
  1
\U+2205
  0
TEXT
  5
1FA8
  8
0
  6
CONTINUOUS
 10
45589.39686541748
 20
-3526.865777411665
 30
0.0
 40
60.0
  1
9
  0
ENDBLK
  8
0
  0
ENDSEC
  0
SECTION
  2
ENTITIES
  0
POINT
  5
144
  8
0
  6
CONTINUOUS
 10
40981.85378962259
 20
-1682.83451129113
 30
0.0
  0
POINT
  5
145
  8
0
  6
CONTINUOUS
 10
40481.85416309819
 20
-1682.83451129113
 30
0.0
  0
POINT
  5
14B
  8
0
 10
39621.85387605174
 20
-1952.834593620049
 30
0.0
  0
POINT
  5
14C
  8
0
 10
40021.85398868773
 20
-1952.834593620049
 30
0.0
  0
LINE
  5
14D
  8
0
  6
CENTER
 10
40731.85397636039
 20
-1450.572466915099
 30
0.0
 11
40731.85397636039
 21
-5114.18055146578
 31
0.0
  0
LINE
  5
14E
  8
0
 10
39621.85400877042
 20
-4952.834660675275
 30
0.0
 11
41841.85394395037
 21
-4952.834660675275
 31
0.0
  0
LINE
  5
14F
  8
0
 10
39591.85398902638
 20
-2172.834674831378
 30
0.0
 11
41871.8539636944
 21
-2172.834674831378
 31
0.0
  0
LINE
  5
150
  8
0
 10
39591.85398902638
 20
-4922.834661792862
 30
0.0
 11
39591.85398902638
 21
-2172.834674831378
 31
0.0
  0
LINE
  5
151
  8
0
 10
39621.8539700274
 20
-1952.834593620049
 30
0.0
 11
40021.85398868772
 21
-1952.834593620049
 31
0.0
  0
LINE
  5
152
  8
0
 10
39616.89981992834
 20
-1957.159011843433
 30
0.0
 11
39591.85389252485
 21
-2172.834408851179
 31
0.0
  0
LINE
  5
153
  8
0
 10
39741.85399237914
 20
-2172.834674831378
 30
0.0
 11
39741.85399237914
 21
-2152.834598090397
 31
0.0
  0
LINE
  5
154
  8
0
 10
39741.85399237914
 20
-2152.834598090397
 30
0.0
 11
40521.47108095667
 21
-2152.834598090397
 31
0.0
  0
LINE
  5
155
  8
0
 10
40391.85398306591
 20
-1682.83451129113
 30
0.0
 11
41071.85396965487
 21
-1682.83451129113
 31
0.0
  0
LINE
  5
156
  8
0
 10
40391.85398306591
 20
-1717.834359485547
 30
0.0
 11
41071.85396965487
 21
-1717.834359485547
 31
0.0
  0
LINE
  5
157
  8
0
  6
CONTINUOUS
 10
40441.8539841835
 20
-1717.834359485547
 30
0.0
 11
40441.8539841835
 21
-1771.286661705691
 31
0.0
  0
LINE
  5
158
  8
0
  6
CONTINUOUS
 10
40391.85398306591
 20
-1717.834359485547
 30
0.0
 11
40391.85398306591
 21
-1682.83451129113
 31
0.0
  0
LINE
  5
159
  8
0
 10
41871.8539636944
 20
-4922.834661792862
 30
0.0
 11
41871.8539636944
 21
-2172.834674831378
 31
0.0
  0
LINE
  5
15A
  8
0
 10
41841.85398426297
 20
-1952.834517624124
 30
0.0
 11
41441.85396403306
 21
-1952.834593620049
 31
0.0
  0
LINE
  5
15B
  8
0
 10
41846.80813164702
 20
-1957.158938957886
 30
0.0
 11
41871.85419718378
 21
-2172.834028436548
 31
0.0
  0
LINE
  5
15C
  8
0
 10
41721.85396034164
 20
-2172.834674831378
 30
0.0
 11
41721.85396034164
 21
-2152.834598090397
 31
0.0
  0
LINE
  5
15D
  8
0
  6
CONTINUOUS
 10
41071.85396965487
 20
-1717.834359485547
 30
0.0
 11
41071.85396965487
 21
-1682.83451129113
 31
0.0
  0
LINE
  5
15E
  8
0
 10
41021.85396853728
 20
-1717.834359485547
 30
0.0
 11
41021.85396853728
 21
-1771.286661705691
 31
0.0
  0
LINE
  5
15F
  8
0
 10
40536.63186840111
 20
-1952.834593620049
 30
0.0
 11
40927.07608431968
 21
-1952.834593620049
 31
0.0
  0
LINE
  5
160
  8
0
 10
40940.55213285632
 20
-2144.196885892776
 30
0.0
 11
40932.07092745563
 21
-1957.607459952284
 31
0.0
  0
LINE
  5
161
  8
0
 10
40523.15581986446
 20
-2144.196885892776
 30
0.0
 11
40531.63702526515
 21
-1957.607459952284
 31
0.0
  0
LINE
  5
162
  8
0
 10
40942.23687176411
 20
-2152.834598090397
 30
0.0
 11
41721.85396034164
 21
-2152.834598090397
 31
0.0
  0
LINE
  5
163
  8
0
  6
CENTER
 10
39821.8541086082
 20
-2109.084597112508
 30
0.0
 11
39821.8541086082
 21
-1881.584630174461
 31
0.0
  0
LINE
  5
164
  8
0
  6
CENTER
 10
41641.85384411259
 20
-2117.834559161112
 30
0.0
 11
41641.85384411259
 21
-1837.834629196569
 31
0.0
  0
LINE
  5
178
  8
0
  6
CONTINUOUS
 10
41070.35373221977
 20
-1717.834416534649
 30
0.0
 11
41031.85373221977
 21
-1717.834416534649
 31
0.0
  0
ARC
  5
1AF
  8
0
 10
39621.85400877042
 20
-4922.834661792862
 30
0.0
 40
29.99999888241288
 50
179.9999813306653
 51
270.0000179860899
  0
ARC
  5
1B0
  8
0
 10
39621.85396845781
 20
-1957.834593433784
 30
0.0
 40
4.999999813735482
 50
89.99998201390949
 51
172.2346536585421
  0
ARC
  5
1B1
  8
0
 10
40759.65845002436
 20
-3281.760709749643
 30
0.0
 40
1520.000014901161
 50
102.9670278512882
 51
132.0368457136177
  0
ARC
  5
1B2
  8
0
  6
CONTINUOUS
 10
40411.85398828132
 20
-1771.286661705691
 30
0.0
 40
29.99999888241288
 50
282.9670569932785
 51
0.0
  0
ARC
  5
1B3
  8
0
 10
41051.85396443946
 20
-1771.286661705691
 30
0.0
 40
29.99999888241288
 50
179.9999640278214
 51
257.0329138647335
  0
ARC
  5
1B4
  8
0
 10
41841.85398269338
 20
-1957.834517437859
 30
0.0
 40
4.999999813735482
 50
7.7653103692815
 51
89.99998201390949
  0
ARC
  5
1B5
  8
0
 10
40704.04950269642
 20
-3281.760709749643
 30
0.0
 40
1520.000014901161
 50
47.96311831420361
 51
77.03293617653316
  0
ARC
  5
1B6
  8
0
 10
41841.85394395037
 20
-4922.834661792862
 30
0.0
 40
29.99999888241288
 50
269.9999633445767
 51
0.0
  0
ARC
  5
1B7
  8
0
 10
40536.63186840111
 20
-1957.834517437859
 30
0.0
 40
4.999999813735482
 50
89.9999820139107
 51
177.3981810484257
  0
ARC
  5
1B8
  8
0
 10
40927.07608431968
 20
-1957.834517437859
 30
0.0
 40
4.999999813735482
 50
2.60183655369631
 51
89.9999820139107
  0
ARC
  5
1B9
  8
0
 10
40493.18676902991
 20
-2142.834750454773
 30
0.0
 40
29.99999888241288
 50
270.0000179860899
 51
357.3974398731414
  0
ARC
  5
1BA
  8
0
 10
40970.52118369087
 20
-2142.834750454773
 30
0.0
 40
29.99999888241288
 50
182.6025429516292
 51
270.0000179860899
  0
ARC
  5
1BB
  8
0
 10
40731.85397636039
 20
-2173.669330611753
 30
0.0
 40
550.8345727063993
 50
63.0086180367727
 51
116.991400632562
  0
POINT
  5
25D
  8
2
  6
CONTINUOUS
 10
44529.11904608794
 20
-18.13017158516186
 30
0.0
  0
POINT
  5
25E
  8
2
  6
CONTINUOUS
 10
44949.11842931749
 20
-18.13038776645681
 30
0.0
  0
LINE
  5
262
  8
2
  6
CENTER
 10
45939.11818778777
 20
-1138.621288404975
 30
0.0
 11
43539.11813414359
 21
-1138.621288404975
 31
0.0
  0
LINE
  5
263
  8
2
  6
CENTER
 10
44739.11816096568
 20
-2338.621315227066
 30
0.0
 11
44739.11816096568
 21
61.37873841711553
 31
0.0
  0
LINE
  5
264
  8
2
  6
CONTINUOUS
 10
44539.11853796506
 20
-428.6214251231308
 30
0.0
 11
44539.11853796506
 21
-46.78776790684469
 31
0.0
  0
LINE
  5
265
  8
2
  6
CONTINUOUS
 10
44939.11854690576
 20
-428.6214251231308
 30
0.0
 11
44939.11854690576
 21
-46.78776790684469
 31
0.0
  0
LINE
  5
266
  8
2
  6
CONTINUOUS
 10
44949.11718417515
 20
-18.13002025137939
 30
0.0
 11
44939.11742308887
 21
-46.78747920165256
 31
0.0
  0
LINE
  5
267
  8
2
  6
CONTINUOUS
 10
44529.11827916625
 20
-18.13065547622114
 30
0.0
 11
44539.11815625471
 21
-46.78847797523736
 31
0.0
  0
LINE
  5
268
  8
2
  6
CONTINUOUS
 10
44949.11844866731
 20
-18.12959346913203
 30
0.0
 11
44939.11850440616
 21
-428.6206860108059
 31
0.0
  0
LINE
  5
269
  8
2
  6
CONTINUOUS
 10
44529.11905173894
 20
-18.13040355909834
 30
0.0
 11
44539.11880796446
 21
-428.6215006814484
 31
0.0
  0
LINE
  5
26A
  8
2
  6
CONTINUOUS
 10
44029.11810694897
 20
-1338.621292875323
 30
0.0
 11
43647.28483120241
 21
-1338.621292875323
 31
0.0
  0
LINE
  5
26B
  8
2
  6
CONTINUOUS
 10
44029.11810694897
 20
-938.621283934629
 30
0.0
 11
43647.28483120241
 21
-938.621283934629
 31
0.0
  0
LINE
  5
26C
  8
2
  6
CONTINUOUS
 10
43618.62717225088
 20
-928.6214062930585
 30
0.0
 11
43647.28490301856
 21
-938.6212568001515
 31
0.0
  0
LINE
  5
26D
  8
2
  6
CONTINUOUS
 10
43618.62724105742
 20
-1348.620918402978
 30
0.0
 11
43647.28506186816
 21
-1338.621036476196
 31
0.0
  0
LINE
  5
26E
  8
2
  6
CONTINUOUS
 10
43618.6271058648
 20
-928.6213910465394
 30
0.0
 11
44029.11801001853
 21
-938.6212366448221
 31
0.0
  0
LINE
  5
26F
  8
2
  6
CONTINUOUS
 10
43618.62706657209
 20
-1348.621013256801
 30
0.0
 11
44029.11816140411
 21
-1338.621163013465
 31
0.0
  0
LINE
  5
270
  8
2
  6
CONTINUOUS
 10
44939.11778396629
 20
-1848.621342421685
 30
0.0
 11
44939.11778396629
 21
-2230.454618168238
 31
0.0
  0
LINE
  5
271
  8
2
  6
CONTINUOUS
 10
44539.1177750256
 20
-1848.621342421685
 30
0.0
 11
44539.1177750256
 21
-2230.454618168238
 31
0.0
  0
LINE
  5
272
  8
2
  6
CONTINUOUS
 10
44529.11835399606
 20
-2259.111897543375
 30
0.0
 11
44539.11811185683
 21
-2230.454437467594
 31
0.0
  0
LINE
  5
273
  8
2
  6
CONTINUOUS
 10
44949.11773992611
 20
-2259.112359091518
 30
0.0
 11
44939.1178596121
 21
-2230.454537718024
 31
0.0
  0
LINE
  5
274
  8
2
  6
CONTINUOUS
 10
44529.11803523311
 20
-2259.112455291135
 30
0.0
 11
44539.1177750256
 21
-1848.627181649802
 31
0.0
  0
LINE
  5
275
  8
2
  6
CONTINUOUS
 10
44949.11768383686
 20
-2259.112440250386
 30
0.0
 11
44939.11786493278
 21
-1848.621344654919
 31
0.0
  0
ARC
  5
28A
  8
2
  6
CONTINUOUS
 10
44739.11816096568
 20
-1138.621288404975
 30
0.0
 40
989.9999839812515
 50
12.81333070723463
 51
77.9728658289753
  0
CIRCLE
  5
28B
  8
2
 10
44739.11816096568
 20
-1138.621288404975
 30
0.0
 40
339.9999932944773
  0
CIRCLE
  5
28C
  8
2
 10
44739.11816096568
 20
-1138.621288404975
 30
0.0
 40
250.0000055879356
  0
ARC
  5
28D
  8
2
  6
CONTINUOUS
 10
44739.11816096568
 20
-1138.621288404975
 30
0.0
 40
1109.999967589974
 50
79.61976104164877
 51
100.3802029861726
  0
ARC
  5
28E
  8
2
  6
CONTINUOUS
 10
44739.11816096568
 20
-1138.621288404975
 30
0.0
 40
1109.999967589974
 50
169.6197703763161
 51
190.3802123208406
  0
ARC
  5
28F
  8
2
  6
CONTINUOUS
 10
44739.11816096568
 20
-1138.621288404975
 30
0.0
 40
1109.999967589974
 50
259.6197696930715
 51
280.3802116375953
  0
ARC
  5
291
  8
2
  6
CONTINUOUS
 10
44739.11816096568
 20
-1138.621288404975
 30
0.0
 40
989.9999839812515
 50
102.0271323497919
 51
167.9728615032643
  0
ARC
  5
292
  8
2
  6
CONTINUOUS
 10
44739.11816096568
 20
-1138.621288404975
 30
0.0
 40
989.9999839812515
 50
192.0271521571148
 51
257.972874480398
  0
ARC
  5
293
  8
2
  6
CONTINUOUS
 10
44739.11816096568
 20
-1138.621288404975
 30
0.0
 40
989.9999839812515
 50
282.0271478314038
 51
347.9047345935754
  0
CIRCLE
  5
294
  8
2
  6
CENTER
 10
44739.11816096568
 20
-1138.621288404975
 30
0.0
 40
909.9999631196254
  0
ARC
  5
29C
  8
2
  6
CONTINUOUS
 10
44739.11816096568
 20
-1138.621288404975
 30
0.0
 40
709.9999675899735
 50
73.69734892280178
 51
106.3025711404686
  0
ARC
  5
29D
  8
2
  6
CONTINUOUS
 10
44739.11816096568
 20
-1138.621288404975
 30
0.0
 40
709.9999675899735
 50
163.697371809156
 51
196.3026137093777
  0
ARC
  5
29E
  8
2
  6
CONTINUOUS
 10
44739.11816096568
 20
-1138.621288404975
 30
0.0
 40
709.9999675899735
 50
253.6973557708343
 51
286.3025995303094
  0
LINE
  5
521
  8
0
  6
CONTINUOUS
 10
37362.95321643585
 20
1141.273561757509
 30
0.0
 11
37537.95321643585
 21
1141.273561757509
 31
0.0
  0
LINE
  5
522
  8
0
  6
CONTINUOUS
 10
37537.95321643585
 20
1141.273561757509
 30
0.0
 11
37665.95321643591
 21
1141.273561757509
 31
0.0
  0
LINE
  5
523
  8
0
  6
CONTINUOUS
 10
37362.95321643585
 20
1141.273561757509
 30
0.0
 11
37362.95321643585
 21
971.6068950908375
 31
0.0
  0
LINE
  5
524
  8
0
  6
CONTINUOUS
 10
37665.95321643591
 20
1141.273561757509
 30
0.0
 11
37840.95321643591
 21
1141.273561757509
 31
0.0
  0
LINE
  5
525
  8
0
  6
CONTINUOUS
 10
37840.95321643591
 20
1141.273561757509
 30
0.0
 11
38015.95321643591
 21
1141.273561757509
 31
0.0
  0
LINE
  5
526
  8
0
  6
CONTINUOUS
 10
38015.95321643591
 20
1141.273561757509
 30
0.0
 11
38190.95321643591
 21
1141.273561757509
 31
0.0
  0
LINE
  5
527
  8
0
  6
CONTINUOUS
 10
38190.95321643591
 20
1141.273561757509
 30
0.0
 11
38365.95321643591
 21
1141.273561757509
 31
0.0
  0
LINE
  5
528
  8
0
  6
CONTINUOUS
 10
38365.95321643591
 20
1141.273561757509
 30
0.0
 11
38540.95321643591
 21
1141.273561757509
 31
0.0
  0
LINE
  5
529
  8
0
  6
CONTINUOUS
 10
38540.95321643591
 20
1141.273561757509
 30
0.0
 11
38715.95321643591
 21
1141.273561757509
 31
0.0
  0
LINE
  5
52A
  8
0
  6
CONTINUOUS
 10
38715.95321643591
 20
1141.273561757509
 30
0.0
 11
38890.95321643591
 21
1141.273561757509
 31
0.0
  0
LINE
  5
52B
  8
0
  6
CONTINUOUS
 10
38890.95321643591
 20
1141.273561757509
 30
0.0
 11
39065.95321643591
 21
1141.273561757509
 31
0.0
  0
LINE
  5
52C
  8
0
  6
CONTINUOUS
 10
37665.95321643591
 20
1141.273561757509
 30
0.0
 11
37665.95321643591
 21
971.6068950908375
 31
0.0
  0
LINE
  5
52D
  8
0
  6
CONTINUOUS
 10
39065.95321643591
 20
1141.273561757509
 30
0.0
 11
39240.95321643591
 21
1141.273561757509
 31
0.0
  0
LINE
  5
52E
  8
0
  6
CONTINUOUS
 10
39240.95321643591
 20
1141.273561757509
 30
0.0
 11
39415.95321643591
 21
1141.273561757509
 31
0.0
  0
LINE
  5
52F
  8
0
  6
CONTINUOUS
 10
39415.95321643591
 20
1141.273561757509
 30
0.0
 11
39590.95321643591
 21
1141.273561757509
 31
0.0
  0
LINE
  5
530
  8
0
  6
CONTINUOUS
 10
39065.95321643591
 20
1141.273561757509
 30
0.0
 11
39065.95321643591
 21
971.6068950908375
 31
0.0
  0
LINE
  5
531
  8
0
  6
CONTINUOUS
 10
39590.95321643591
 20
1141.273561757509
 30
0.0
 11
39765.95321643591
 21
1141.273561757509
 31
0.0
  0
LINE
  5
532
  8
0
  6
CONTINUOUS
 10
39765.95321643591
 20
1141.273561757509
 30
0.0
 11
39940.95321643591
 21
1141.273561757509
 31
0.0
  0
LINE
  5
533
  8
0
  6
CONTINUOUS
 10
39590.95321643591
 20
1141.273561757509
 30
0.0
 11
39590.95321643591
 21
971.6068950908375
 31
0.0
  0
LINE
  5
534
  8
0
  6
CONTINUOUS
 10
39940.95321643591
 20
1141.273561757509
 30
0.0
 11
39940.95321643591
 21
971.6068950908375
 31
0.0
  0
LINE
  5
535
  8
0
  6
CONTINUOUS
 10
37362.95321643585
 20
971.6068950908375
 30
0.0
 11
37537.95321643585
 21
971.6068950908375
 31
0.0
  0
LINE
  5
536
  8
0
  6
CONTINUOUS
 10
37537.95321643585
 20
971.6068950908375
 30
0.0
 11
37665.95321643591
 21
971.6068950908375
 31
0.0
  0
LINE
  5
537
  8
0
  6
CONTINUOUS
 10
37665.95321643591
 20
971.6068950908375
 30
0.0
 11
37840.95321643591
 21
971.6068950908375
 31
0.0
  0
LINE
  5
538
  8
0
  6
CONTINUOUS
 10
37840.95321643591
 20
971.6068950908375
 30
0.0
 11
38015.95321643591
 21
971.6068950908375
 31
0.0
  0
LINE
  5
539
  8
0
  6
CONTINUOUS
 10
38015.95321643591
 20
971.6068950908375
 30
0.0
 11
38190.95321643591
 21
971.6068950908375
 31
0.0
  0
LINE
  5
53A
  8
0
  6
CONTINUOUS
 10
38190.95321643591
 20
971.6068950908375
 30
0.0
 11
38365.95321643591
 21
971.6068950908375
 31
0.0
  0
LINE
  5
53B
  8
0
  6
CONTINUOUS
 10
38365.95321643591
 20
971.6068950908375
 30
0.0
 11
38540.95321643591
 21
971.6068950908375
 31
0.0
  0
LINE
  5
53C
  8
0
  6
CONTINUOUS
 10
38540.95321643591
 20
971.6068950908375
 30
0.0
 11
38715.95321643591
 21
971.6068950908375
 31
0.0
  0
LINE
  5
53D
  8
0
  6
CONTINUOUS
 10
38715.95321643591
 20
971.6068950908375
 30
0.0
 11
38890.95321643591
 21
971.6068950908375
 31
0.0
  0
LINE
  5
53E
  8
0
  6
CONTINUOUS
 10
38890.95321643591
 20
971.6068950908375
 30
0.0
 11
39065.95321643591
 21
971.6068950908375
 31
0.0
  0
LINE
  5
53F
  8
0
  6
CONTINUOUS
 10
39065.95321643591
 20
971.6068950908375
 30
0.0
 11
39240.95321643591
 21
971.6068950908375
 31
0.0
  0
LINE
  5
540
  8
0
  6
CONTINUOUS
 10
39240.95321643591
 20
971.6068950908375
 30
0.0
 11
39415.95321643591
 21
971.6068950908375
 31
0.0
  0
LINE
  5
541
  8
0
  6
CONTINUOUS
 10
39415.95321643591
 20
971.6068950908375
 30
0.0
 11
39590.95321643591
 21
971.6068950908375
 31
0.0
  0
LINE
  5
542
  8
0
  6
CONTINUOUS
 10
39590.95321643591
 20
971.6068950908375
 30
0.0
 11
39765.95321643591
 21
971.6068950908375
 31
0.0
  0
LINE
  5
543
  8
0
  6
CONTINUOUS
 10
39765.95321643591
 20
971.6068950908375
 30
0.0
 11
39940.95321643591
 21
971.6068950908375
 31
0.0
  0
TEXT
  5
544
  8
0
  6
CONTINUOUS
 10
37393.71781265883
 20
1017.679601497445
 30
0.0
 40
80.0
  1
記 号
  0
TEXT
  5
545
  8
0
  6
CONTINUOUS
 10
37889.23136299592
 20
1015.081207603327
 30
0.0
 40
80.0
  1
来　　　　　　　　歴
  0
TEXT
  5
546
  8
0
  6
CONTINUOUS
 10
39095.05077882051
 20
1016.498176795641
 30
0.0
 40
80.0
  1
年・月・日
  0
TEXT
  5
547
  8
0
  6
CONTINUOUS
 10
39654.55631542037
 20
1021.149691655125
 30
0.0
 40
80.0
  1
記 入
  0
POLYLINE
  5
548
  8
0
  6
CONTINUOUS
 66
     1
 10
0.0
 20
0.0
 30
0.0
 70
     1
  0
VERTEX
  5
1F82
  8
0
  6
CONTINUOUS
 10
37362.95321643585
 20
1141.273561757524
 30
0.0
  0
VERTEX
  5
1F83
  8
0
  6
CONTINUOUS
 10
47437.95321643585
 20
1141.273561757524
 30
0.0
  0
VERTEX
  5
1F84
  8
0
  6
CONTINUOUS
 10
47437.95321643585
 20
-5858.726438242476
 30
0.0
  0
VERTEX
  5
1F85
  8
0
  6
CONTINUOUS
 10
37362.95321643585
 20
-5858.726438242476
 30
0.0
  0
SEQEND
  5
2010
  8
0
  6
CONTINUOUS
  0
POLYLINE
  5
549
  8
0
  6
CONTINUOUS
 66
     1
 10
0.0
 20
0.0
 30
0.0
 70
     1
  0
VERTEX
  5
1F86
  8
0
  6
CONTINUOUS
 10
37112.95321643585
 20
1391.273561757524
 30
0.0
  0
VERTEX
  5
1F87
  8
0
  6
CONTINUOUS
 10
47687.95321643585
 20
1391.273561757524
 30
0.0
  0
VERTEX
  5
1F88
  8
0
  6
CONTINUOUS
 10
47687.95321643585
 20
-6108.726438242476
 30
0.0
  0
VERTEX
  5
1F89
  8
0
  6
CONTINUOUS
 10
37112.95321643585
 20
-6108.726438242476
 30
0.0
  0
SEQEND
  5
2011
  8
0
  6
CONTINUOUS
  0
LINE
  5
54A
  8
0
  6
CONTINUOUS
 10
44112.95321643585
 20
-4671.059771575836
 30
0.0
 11
44112.95321643585
 21
-4840.726438242485
 31
0.0
  0
LINE
  5
54B
  8
0
  6
CONTINUOUS
 10
44462.95321643585
 20
-4671.059771575836
 30
0.0
 11
44462.95321643585
 21
-4840.726438242485
 31
0.0
  0
LINE
  5
54C
  8
0
  6
CONTINUOUS
 10
44812.95321643585
 20
-4671.059771575836
 30
0.0
 11
44812.95321643585
 21
-4840.726438242485
 31
0.0
  0
LINE
  5
54D
  8
0
  6
CONTINUOUS
 10
45162.95321643585
 20
-4671.059771575836
 30
0.0
 11
45162.95321643585
 21
-4840.726438242485
 31
0.0
  0
LINE
  5
54E
  8
0
  6
CONTINUOUS
 10
45512.95321643585
 20
-4671.059771575836
 30
0.0
 11
45512.95321643585
 21
-4840.726438242485
 31
0.0
  0
LINE
  5
54F
  8
0
  6
CONTINUOUS
 10
45512.95321643585
 20
-4840.726438242485
 30
0.0
 11
45512.95321643585
 21
-5010.393104909156
 31
0.0
  0
LINE
  5
550
  8
0
  6
CONTINUOUS
 10
45512.95321643585
 20
-5010.393104909156
 30
0.0
 11
45512.95321643585
 21
-5180.059771575828
 31
0.0
  0
LINE
  5
551
  8
0
  6
CONTINUOUS
 10
45512.95321643585
 20
-5180.059771575828
 30
0.0
 11
45512.95321643585
 21
-5349.726438242499
 31
0.0
  0
LINE
  5
552
  8
0
  6
CONTINUOUS
 10
45512.95321643585
 20
-5349.726438242499
 30
0.0
 11
45512.95321643585
 21
-5519.393104909148
 31
0.0
  0
LINE
  5
553
  8
0
  6
CONTINUOUS
 10
45687.95321643585
 20
-4671.059771575836
 30
0.0
 11
45687.95321643585
 21
-4840.726438242485
 31
0.0
  0
LINE
  5
554
  8
0
  6
CONTINUOUS
 10
47437.95321643585
 20
-4671.059771575836
 30
0.0
 11
47437.95321643585
 21
-4840.726438242485
 31
0.0
  0
LINE
  5
555
  8
0
  6
CONTINUOUS
 10
45687.95321643585
 20
-4840.726438242485
 30
0.0
 11
45687.95321643585
 21
-5010.393104909156
 31
0.0
  0
LINE
  5
556
  8
0
  6
CONTINUOUS
 10
47437.95321643585
 20
-4840.726438242485
 30
0.0
 11
47437.95321643585
 21
-5010.393104909156
 31
0.0
  0
LINE
  5
557
  8
0
  6
CONTINUOUS
 10
45687.95321643585
 20
-5010.393104909156
 30
0.0
 11
45687.95321643585
 21
-5180.059771575828
 31
0.0
  0
LINE
  5
558
  8
0
  6
CONTINUOUS
 10
47437.95321643585
 20
-5010.393104909156
 30
0.0
 11
47437.95321643585
 21
-5180.059771575828
 31
0.0
  0
LINE
  5
559
  8
0
  6
CONTINUOUS
 10
45687.95321643585
 20
-5180.059771575828
 30
0.0
 11
45687.95321643585
 21
-5349.726438242499
 31
0.0
  0
LINE
  5
55A
  8
0
  6
CONTINUOUS
 10
47437.95321643585
 20
-5180.059771575828
 30
0.0
 11
47437.95321643585
 21
-5349.726438242499
 31
0.0
  0
LINE
  5
55B
  8
0
  6
CONTINUOUS
 10
45687.95321643585
 20
-5349.726438242499
 30
0.0
 11
45687.95321643585
 21
-5519.393104909148
 31
0.0
  0
LINE
  5
55C
  8
0
  6
CONTINUOUS
 10
47437.95321643585
 20
-5349.726438242499
 30
0.0
 11
47437.95321643585
 21
-5519.393104909148
 31
0.0
  0
LINE
  5
55D
  8
0
  6
CONTINUOUS
 10
44112.95321643585
 20
-4840.726438242485
 30
0.0
 11
44287.95321643585
 21
-4840.726438242485
 31
0.0
  0
LINE
  5
55E
  8
0
  6
CONTINUOUS
 10
44287.95321643585
 20
-4840.726438242485
 30
0.0
 11
44462.95321643585
 21
-4840.726438242485
 31
0.0
  0
LINE
  5
55F
  8
0
  6
CONTINUOUS
 10
44112.95321643585
 20
-4840.726438242485
 30
0.0
 11
44112.95321643585
 21
-5010.393104909156
 31
0.0
  0
LINE
  5
560
  8
0
  6
CONTINUOUS
 10
44112.95321643585
 20
-5010.393104909156
 30
0.0
 11
44112.95321643585
 21
-5180.059771575828
 31
0.0
  0
LINE
  5
561
  8
0
  6
CONTINUOUS
 10
44462.95321643585
 20
-4840.726438242485
 30
0.0
 11
44637.95321643585
 21
-4840.726438242485
 31
0.0
  0
LINE
  5
562
  8
0
  6
CONTINUOUS
 10
44637.95321643585
 20
-4840.726438242485
 30
0.0
 11
44812.95321643585
 21
-4840.726438242485
 31
0.0
  0
LINE
  5
563
  8
0
  6
CONTINUOUS
 10
44462.95321643585
 20
-4840.726438242485
 30
0.0
 11
44462.95321643585
 21
-5010.393104909156
 31
0.0
  0
LINE
  5
564
  8
0
  6
CONTINUOUS
 10
44462.95321643585
 20
-5010.393104909156
 30
0.0
 11
44462.95321643585
 21
-5180.059771575828
 31
0.0
  0
LINE
  5
565
  8
0
  6
CONTINUOUS
 10
44812.95321643585
 20
-4840.726438242485
 30
0.0
 11
44987.95321643585
 21
-4840.726438242485
 31
0.0
  0
LINE
  5
566
  8
0
  6
CONTINUOUS
 10
44987.95321643585
 20
-4840.726438242485
 30
0.0
 11
45162.95321643585
 21
-4840.726438242485
 31
0.0
  0
LINE
  5
567
  8
0
  6
CONTINUOUS
 10
44812.95321643585
 20
-4840.726438242485
 30
0.0
 11
44812.95321643585
 21
-5010.393104909156
 31
0.0
  0
LINE
  5
568
  8
0
  6
CONTINUOUS
 10
44812.95321643585
 20
-5010.393104909156
 30
0.0
 11
44812.95321643585
 21
-5180.059771575828
 31
0.0
  0
LINE
  5
569
  8
0
  6
CONTINUOUS
 10
45162.95321643585
 20
-4840.726438242485
 30
0.0
 11
45337.95321643585
 21
-4840.726438242485
 31
0.0
  0
LINE
  5
56A
  8
0
  6
CONTINUOUS
 10
45337.95321643585
 20
-4840.726438242485
 30
0.0
 11
45512.95321643585
 21
-4840.726438242485
 31
0.0
  0
LINE
  5
56B
  8
0
  6
CONTINUOUS
 10
45162.95321643585
 20
-4840.726438242485
 30
0.0
 11
45162.95321643585
 21
-5010.393104909156
 31
0.0
  0
LINE
  5
56C
  8
0
  6
CONTINUOUS
 10
45162.95321643585
 20
-5010.393104909156
 30
0.0
 11
45162.95321643585
 21
-5180.059771575828
 31
0.0
  0
LINE
  5
56D
  8
0
  6
CONTINUOUS
 10
44112.95321643585
 20
-5180.059771575828
 30
0.0
 11
44287.95321643585
 21
-5180.059771575828
 31
0.0
  0
LINE
  5
56E
  8
0
  6
CONTINUOUS
 10
44112.95321643585
 20
-5180.059771575828
 30
0.0
 11
44112.95321643585
 21
-5349.726438242499
 31
0.0
  0
LINE
  5
56F
  8
0
  6
CONTINUOUS
 10
44112.95321643585
 20
-5349.726438242499
 30
0.0
 11
44112.95321643585
 21
-5519.393104909148
 31
0.0
  0
LINE
  5
570
  8
0
  6
CONTINUOUS
 10
44287.95321643585
 20
-5180.059771575828
 30
0.0
 11
44462.95321643585
 21
-5180.059771575828
 31
0.0
  0
LINE
  5
571
  8
0
  6
CONTINUOUS
 10
44462.95321643585
 20
-5180.059771575828
 30
0.0
 11
44637.95321643585
 21
-5180.059771575828
 31
0.0
  0
LINE
  5
572
  8
0
  6
CONTINUOUS
 10
44637.95321643585
 20
-5180.059771575828
 30
0.0
 11
44812.95321643585
 21
-5180.059771575828
 31
0.0
  0
LINE
  5
573
  8
0
  6
CONTINUOUS
 10
44287.95321643585
 20
-5180.059771575828
 30
0.0
 11
44287.95321643585
 21
-5349.726438242499
 31
0.0
  0
LINE
  5
574
  8
0
  6
CONTINUOUS
 10
44287.95321643585
 20
-5349.726438242499
 30
0.0
 11
44287.95321643585
 21
-5519.393104909148
 31
0.0
  0
LINE
  5
575
  8
0
  6
CONTINUOUS
 10
44812.95321643585
 20
-5180.059771575828
 30
0.0
 11
44987.95321643585
 21
-5180.059771575828
 31
0.0
  0
LINE
  5
576
  8
0
  6
CONTINUOUS
 10
44812.95321643585
 20
-5180.059771575828
 30
0.0
 11
44812.95321643585
 21
-5349.726438242499
 31
0.0
  0
LINE
  5
577
  8
0
  6
CONTINUOUS
 10
44812.95321643585
 20
-5349.726438242499
 30
0.0
 11
44812.95321643585
 21
-5519.393104909148
 31
0.0
  0
LINE
  5
578
  8
0
  6
CONTINUOUS
 10
44987.95321643585
 20
-5180.059771575828
 30
0.0
 11
45162.95321643585
 21
-5180.059771575828
 31
0.0
  0
LINE
  5
579
  8
0
  6
CONTINUOUS
 10
45162.95321643585
 20
-5180.059771575828
 30
0.0
 11
45337.95321643585
 21
-5180.059771575828
 31
0.0
  0
LINE
  5
57A
  8
0
  6
CONTINUOUS
 10
45337.95321643585
 20
-5180.059771575828
 30
0.0
 11
45512.95321643585
 21
-5180.059771575828
 31
0.0
  0
LINE
  5
57B
  8
0
  6
CONTINUOUS
 10
44987.95321643585
 20
-5180.059771575828
 30
0.0
 11
44987.95321643585
 21
-5349.726438242499
 31
0.0
  0
LINE
  5
57C
  8
0
  6
CONTINUOUS
 10
44987.95321643585
 20
-5349.726438242499
 30
0.0
 11
44987.95321643585
 21
-5519.393104909148
 31
0.0
  0
LINE
  5
57D
  8
0
  6
CONTINUOUS
 10
44112.95321643585
 20
-5519.393104909148
 30
0.0
 11
44287.95321643585
 21
-5519.393104909148
 31
0.0
  0
LINE
  5
57E
  8
0
  6
CONTINUOUS
 10
44112.95321643585
 20
-5858.726438242491
 30
0.0
 11
44287.95321643585
 21
-5858.726438242491
 31
0.0
  0
LINE
  5
57F
  8
0
  6
CONTINUOUS
 10
44287.95321643585
 20
-5519.393104909148
 30
0.0
 11
44462.95321643585
 21
-5519.393104909148
 31
0.0
  0
LINE
  5
580
  8
0
  6
CONTINUOUS
 10
44287.95321643585
 20
-5858.726438242491
 30
0.0
 11
44462.95321643585
 21
-5858.726438242491
 31
0.0
  0
LINE
  5
581
  8
0
  6
CONTINUOUS
 10
44462.95321643585
 20
-5519.393104909148
 30
0.0
 11
44637.95321643585
 21
-5519.393104909148
 31
0.0
  0
LINE
  5
582
  8
0
  6
CONTINUOUS
 10
44462.95321643585
 20
-5858.726438242491
 30
0.0
 11
44637.95321643585
 21
-5858.726438242491
 31
0.0
  0
LINE
  5
583
  8
0
  6
CONTINUOUS
 10
44637.95321643585
 20
-5519.393104909148
 30
0.0
 11
44812.95321643585
 21
-5519.393104909148
 31
0.0
  0
LINE
  5
584
  8
0
  6
CONTINUOUS
 10
44637.95321643585
 20
-5858.726438242491
 30
0.0
 11
44812.95321643585
 21
-5858.726438242491
 31
0.0
  0
LINE
  5
585
  8
0
  6
CONTINUOUS
 10
44812.95321643585
 20
-5519.393104909148
 30
0.0
 11
44987.95321643585
 21
-5519.393104909148
 31
0.0
  0
LINE
  5
586
  8
0
  6
CONTINUOUS
 10
44812.95321643585
 20
-5858.726438242491
 30
0.0
 11
44987.95321643585
 21
-5858.726438242491
 31
0.0
  0
LINE
  5
587
  8
0
  6
CONTINUOUS
 10
44987.95321643585
 20
-5519.393104909148
 30
0.0
 11
45162.95321643585
 21
-5519.393104909148
 31
0.0
  0
LINE
  5
588
  8
0
  6
CONTINUOUS
 10
44987.95321643585
 20
-5858.726438242491
 30
0.0
 11
45162.95321643585
 21
-5858.726438242491
 31
0.0
  0
LINE
  5
589
  8
0
  6
CONTINUOUS
 10
45162.95321643585
 20
-5519.393104909148
 30
0.0
 11
45337.95321643585
 21
-5519.393104909148
 31
0.0
  0
LINE
  5
58A
  8
0
  6
CONTINUOUS
 10
45162.95321643585
 20
-5858.726438242491
 30
0.0
 11
45337.95321643585
 21
-5858.726438242491
 31
0.0
  0
LINE
  5
58B
  8
0
  6
CONTINUOUS
 10
45337.95321643585
 20
-5519.393104909148
 30
0.0
 11
45512.95321643585
 21
-5519.393104909148
 31
0.0
  0
LINE
  5
58C
  8
0
  6
CONTINUOUS
 10
45337.95321643585
 20
-5858.726438242491
 30
0.0
 11
45512.95321643585
 21
-5858.726438242491
 31
0.0
  0
LINE
  5
58D
  8
0
  6
CONTINUOUS
 10
44112.95321643585
 20
-5519.393104909148
 30
0.0
 11
44112.95321643585
 21
-5689.059771575819
 31
0.0
  0
LINE
  5
58E
  8
0
  6
CONTINUOUS
 10
44112.95321643585
 20
-5689.059771575819
 30
0.0
 11
44112.95321643585
 21
-5858.726438242491
 31
0.0
  0
LINE
  5
58F
  8
0
  6
CONTINUOUS
 10
45512.95321643585
 20
-5519.393104909148
 30
0.0
 11
45687.95321643585
 21
-5519.393104909148
 31
0.0
  0
LINE
  5
590
  8
0
  6
CONTINUOUS
 10
45512.95321643585
 20
-5858.726438242491
 30
0.0
 11
45687.95321643585
 21
-5858.726438242491
 31
0.0
  0
LINE
  5
591
  8
0
  6
CONTINUOUS
 10
45512.95321643585
 20
-5519.393104909148
 30
0.0
 11
45512.95321643585
 21
-5689.059771575819
 31
0.0
  0
LINE
  5
592
  8
0
  6
CONTINUOUS
 10
45512.95321643585
 20
-5689.059771575819
 30
0.0
 11
45512.95321643585
 21
-5858.726438242491
 31
0.0
  0
LINE
  5
593
  8
0
  6
CONTINUOUS
 10
45687.95321643585
 20
-5519.393104909148
 30
0.0
 11
45862.95321643585
 21
-5519.393104909148
 31
0.0
  0
LINE
  5
594
  8
0
  6
CONTINUOUS
 10
45687.95321643585
 20
-5858.726438242491
 30
0.0
 11
45862.95321643585
 21
-5858.726438242491
 31
0.0
  0
LINE
  5
595
  8
0
  6
CONTINUOUS
 10
45862.95321643585
 20
-5519.393104909148
 30
0.0
 11
46037.95321643585
 21
-5519.393104909148
 31
0.0
  0
LINE
  5
596
  8
0
  6
CONTINUOUS
 10
45862.95321643585
 20
-5858.726438242491
 30
0.0
 11
46037.95321643585
 21
-5858.726438242491
 31
0.0
  0
LINE
  5
597
  8
0
  6
CONTINUOUS
 10
46037.95321643585
 20
-5519.393104909148
 30
0.0
 11
46212.95321643585
 21
-5519.393104909148
 31
0.0
  0
LINE
  5
598
  8
0
  6
CONTINUOUS
 10
46037.95321643585
 20
-5858.726438242491
 30
0.0
 11
46212.95321643585
 21
-5858.726438242491
 31
0.0
  0
LINE
  5
599
  8
0
  6
CONTINUOUS
 10
46212.95321643585
 20
-5519.393104909148
 30
0.0
 11
46387.95321643585
 21
-5519.393104909148
 31
0.0
  0
LINE
  5
59A
  8
0
  6
CONTINUOUS
 10
46212.95321643585
 20
-5858.726438242491
 30
0.0
 11
46387.95321643585
 21
-5858.726438242491
 31
0.0
  0
LINE
  5
59B
  8
0
  6
CONTINUOUS
 10
46387.95321643585
 20
-5519.393104909148
 30
0.0
 11
46562.95321643585
 21
-5519.393104909148
 31
0.0
  0
LINE
  5
59C
  8
0
  6
CONTINUOUS
 10
46387.95321643585
 20
-5858.726438242491
 30
0.0
 11
46562.95321643585
 21
-5858.726438242491
 31
0.0
  0
LINE
  5
59D
  8
0
  6
CONTINUOUS
 10
46562.95321643585
 20
-5519.393104909148
 30
0.0
 11
46737.95321643585
 21
-5519.393104909148
 31
0.0
  0
LINE
  5
59E
  8
0
  6
CONTINUOUS
 10
46562.95321643585
 20
-5858.726438242491
 30
0.0
 11
46737.95321643585
 21
-5858.726438242491
 31
0.0
  0
LINE
  5
59F
  8
0
  6
CONTINUOUS
 10
46737.95321643585
 20
-5519.393104909148
 30
0.0
 11
46912.95321643585
 21
-5519.393104909148
 31
0.0
  0
LINE
  5
5A0
  8
0
  6
CONTINUOUS
 10
46737.95321643585
 20
-5858.726438242491
 30
0.0
 11
46912.95321643585
 21
-5858.726438242491
 31
0.0
  0
LINE
  5
5A1
  8
0
  6
CONTINUOUS
 10
46912.95321643585
 20
-5519.393104909148
 30
0.0
 11
47087.95321643585
 21
-5519.393104909148
 31
0.0
  0
LINE
  5
5A2
  8
0
  6
CONTINUOUS
 10
46912.95321643585
 20
-5858.726438242491
 30
0.0
 11
47087.95321643585
 21
-5858.726438242491
 31
0.0
  0
LINE
  5
5A3
  8
0
  6
CONTINUOUS
 10
47087.95321643585
 20
-5519.393104909148
 30
0.0
 11
47262.95321643585
 21
-5519.393104909148
 31
0.0
  0
LINE
  5
5A4
  8
0
  6
CONTINUOUS
 10
47087.95321643585
 20
-5858.726438242491
 30
0.0
 11
47262.95321643585
 21
-5858.726438242491
 31
0.0
  0
LINE
  5
5A5
  8
0
  6
CONTINUOUS
 10
47262.95321643585
 20
-5519.393104909148
 30
0.0
 11
47437.95321643585
 21
-5519.393104909148
 31
0.0
  0
LINE
  5
5A6
  8
0
  6
CONTINUOUS
 10
47262.95321643585
 20
-5858.726438242491
 30
0.0
 11
47437.95321643585
 21
-5858.726438242491
 31
0.0
  0
LINE
  5
5A7
  8
0
  6
CONTINUOUS
 10
45687.95321643585
 20
-5519.393104909148
 30
0.0
 11
45687.95321643585
 21
-5689.059771575819
 31
0.0
  0
LINE
  5
5A8
  8
0
  6
CONTINUOUS
 10
47437.95321643585
 20
-5519.393104909148
 30
0.0
 11
47437.95321643585
 21
-5689.059771575819
 31
0.0
  0
LINE
  5
5A9
  8
0
  6
CONTINUOUS
 10
45687.95321643585
 20
-5689.059771575819
 30
0.0
 11
45687.95321643585
 21
-5858.726438242491
 31
0.0
  0
LINE
  5
5AA
  8
0
  6
CONTINUOUS
 10
47437.95321643585
 20
-5689.059771575819
 30
0.0
 11
47437.95321643585
 21
-5858.726438242491
 31
0.0
  0
TEXT
  5
5AE
  8
0
  6
CONTINUOUS
 10
45553.86359080253
 20
-5655.944481662242
 30
0.0
 40
87.5
  1
図
  0
TEXT
  5
5AF
  8
0
  6
CONTINUOUS
 10
45549.77279827441
 20
-5813.348304140643
 30
0.0
 40
87.5
  1
番
  0
TEXT
  5
5B0
  8
0
  6
CONTINUOUS
 10
45549.77279827441
 20
-4928.226438242476
 30
0.0
 40
87.5
  1
名
  0
TEXT
  5
5B1
  8
0
  6
CONTINUOUS
 10
45549.21914957766
 20
-5346.432462382392
 30
0.0
 40
87.5
  1
称
  0
TEXT
  5
5B2
  8
0
  6
CONTINUOUS
 10
44166.13719292986
 20
-5250.735001034627
 30
0.0
 40
62.5
  1
年
  0
TEXT
  5
5B3
  8
0
  6
CONTINUOUS
 10
44194.7743733502
 20
-5319.217875450297
 30
0.0
 40
62.5
  1
・
  0
TEXT
  5
5B4
  8
0
  6
CONTINUOUS
 10
44162.04599222075
 20
-5375.437905677711
 30
0.0
 40
62.5
  1
月
  0
TEXT
  5
5B5
  8
0
  6
CONTINUOUS
 10
44190.68317264109
 20
-5431.657935905154
 30
0.0
 40
62.5
  1
・
  0
TEXT
  5
5B6
  8
0
  6
CONTINUOUS
 10
44174.31918616686
 20
-5488.884542116954
 30
0.0
 40
62.5
  1
日
  0
TEXT
  5
5B7
  8
0
  6
CONTINUOUS
 10
44852.62215297087
 20
-5300.243973929173
 30
0.0
 40
75.0
  1
尺
  0
TEXT
  5
5B8
  8
0
  6
CONTINUOUS
 10
44852.47544748033
 20
-5450.859589855099
 30
0.0
 40
75.0
  1
度
  0
TEXT
  5
5B9
  8
0
  6
CONTINUOUS
 10
44149.77320645587
 20
-4791.023533599422
 30
0.0
 40
75.0
  1
設　計
  0
TEXT
  5
5BA
  8
0
  6
CONTINUOUS
 10
44495.68159756553
 20
-4791.023533599451
 30
0.0
 40
75.0
  1
製　図
  0
TEXT
  5
5BB
  8
0
  6
CONTINUOUS
 10
44845.68159756553
 20
-4786.935918870004
 30
0.0
 40
75.0
  1
検　図
  0
TEXT
  5
5BC
  8
0
  6
CONTINUOUS
 10
45203.8635908023
 20
-4791.023533599422
 30
0.0
 40
75.0
  1
承　認
  0
LINE
  5
5BD
  8
0
 10
44112.95321643585
 20
-4671.059771575836
 30
0.0
 11
44287.95321643585
 21
-4671.059771575836
 31
0.0
  0
LINE
  5
5BE
  8
0
 10
44287.95321643585
 20
-4671.059771575836
 30
0.0
 11
44462.95321643585
 21
-4671.059771575836
 31
0.0
  0
LINE
  5
5BF
  8
0
 10
44462.95321643585
 20
-4671.059771575836
 30
0.0
 11
44637.95321643585
 21
-4671.059771575836
 31
0.0
  0
LINE
  5
5C0
  8
0
 10
44637.95321643585
 20
-4671.059771575836
 30
0.0
 11
44812.95321643585
 21
-4671.059771575836
 31
0.0
  0
LINE
  5
5C1
  8
0
 10
44812.95321643585
 20
-4671.059771575836
 30
0.0
 11
44987.95321643585
 21
-4671.059771575836
 31
0.0
  0
LINE
  5
5C2
  8
0
 10
44987.95321643585
 20
-4671.059771575836
 30
0.0
 11
45162.95321643585
 21
-4671.059771575836
 31
0.0
  0
LINE
  5
5C3
  8
0
 10
45162.95321643585
 20
-4671.059771575836
 30
0.0
 11
45337.95321643585
 21
-4671.059771575836
 31
0.0
  0
LINE
  5
5C4
  8
0
 10
45337.95321643585
 20
-4671.059771575836
 30
0.0
 11
45512.95321643585
 21
-4671.059771575836
 31
0.0
  0
LINE
  5
5C5
  8
0
 10
45512.95321643585
 20
-4671.059771575836
 30
0.0
 11
45687.95321643585
 21
-4671.059771575836
 31
0.0
  0
LINE
  5
5C6
  8
0
 10
45687.95321643585
 20
-4671.059771575836
 30
0.0
 11
45862.95321643585
 21
-4671.059771575836
 31
0.0
  0
LINE
  5
5C7
  8
0
 10
45862.95321643585
 20
-4671.059771575836
 30
0.0
 11
46037.95321643585
 21
-4671.059771575836
 31
0.0
  0
LINE
  5
5C8
  8
0
 10
46037.95321643585
 20
-4671.059771575836
 30
0.0
 11
46212.95321643585
 21
-4671.059771575836
 31
0.0
  0
LINE
  5
5C9
  8
0
 10
46212.95321643585
 20
-4671.059771575836
 30
0.0
 11
46387.95321643585
 21
-4671.059771575836
 31
0.0
  0
LINE
  5
5CA
  8
0
 10
46387.95321643585
 20
-4671.059771575836
 30
0.0
 11
46562.95321643585
 21
-4671.059771575836
 31
0.0
  0
LINE
  5
5CB
  8
0
 10
46562.95321643585
 20
-4671.059771575836
 30
0.0
 11
46737.95321643585
 21
-4671.059771575836
 31
0.0
  0
LINE
  5
5CC
  8
0
 10
46737.95321643585
 20
-4671.059771575836
 30
0.0
 11
46912.95321643585
 21
-4671.059771575836
 31
0.0
  0
LINE
  5
5CD
  8
0
 10
46912.95321643585
 20
-4671.059771575836
 30
0.0
 11
47087.95321643585
 21
-4671.059771575836
 31
0.0
  0
LINE
  5
5CE
  8
0
 10
47087.95321643585
 20
-4671.059771575836
 30
0.0
 11
47262.95321643585
 21
-4671.059771575836
 31
0.0
  0
LINE
  5
5CF
  8
0
 10
47262.95321643585
 20
-4671.059771575836
 30
0.0
 11
47437.95321643585
 21
-4671.059771575836
 31
0.0
  0
LINE
  5
5D0
  8
0
 10
44112.95321643585
 20
-4321.059771575836
 30
0.0
 11
44287.95321643585
 21
-4321.059771575836
 31
0.0
  0
LINE
  5
5D1
  8
0
 10
44112.95321643585
 20
-4671.059771575836
 30
0.0
 11
44287.95321643585
 21
-4671.059771575836
 31
0.0
  0
LINE
  5
5D2
  8
0
 10
44287.95321643585
 20
-4321.059771575836
 30
0.0
 11
44462.95321643585
 21
-4321.059771575836
 31
0.0
  0
LINE
  5
5D3
  8
0
 10
44287.95321643585
 20
-4671.059771575836
 30
0.0
 11
44462.95321643585
 21
-4671.059771575836
 31
0.0
  0
LINE
  5
5D4
  8
0
 10
44462.95321643585
 20
-4321.059771575836
 30
0.0
 11
44637.95321643585
 21
-4321.059771575836
 31
0.0
  0
LINE
  5
5D5
  8
0
 10
44462.95321643585
 20
-4671.059771575836
 30
0.0
 11
44637.95321643585
 21
-4671.059771575836
 31
0.0
  0
LINE
  5
5D6
  8
0
 10
44637.95321643585
 20
-4321.059771575836
 30
0.0
 11
44812.95321643585
 21
-4321.059771575836
 31
0.0
  0
LINE
  5
5D7
  8
0
 10
44637.95321643585
 20
-4671.059771575836
 30
0.0
 11
44812.95321643585
 21
-4671.059771575836
 31
0.0
  0
LINE
  5
5D8
  8
0
 10
44112.95321643585
 20
-4321.059771575836
 30
0.0
 11
44112.95321643585
 21
-4496.059771575836
 31
0.0
  0
LINE
  5
5D9
  8
0
 10
44112.95321643585
 20
-4496.059771575836
 30
0.0
 11
44112.95321643585
 21
-4671.059771575836
 31
0.0
  0
LINE
  5
5DA
  8
0
 10
44812.95321643585
 20
-4321.059771575836
 30
0.0
 11
44987.95321643585
 21
-4321.059771575836
 31
0.0
  0
LINE
  5
5DB
  8
0
 10
44812.95321643585
 20
-4671.059771575836
 30
0.0
 11
44987.95321643585
 21
-4671.059771575836
 31
0.0
  0
LINE
  5
5DC
  8
0
 10
44987.95321643585
 20
-4321.059771575836
 30
0.0
 11
45162.95321643585
 21
-4321.059771575836
 31
0.0
  0
LINE
  5
5DD
  8
0
 10
44987.95321643585
 20
-4671.059771575836
 30
0.0
 11
45162.95321643585
 21
-4671.059771575836
 31
0.0
  0
LINE
  5
5DE
  8
0
 10
45162.95321643585
 20
-4321.059771575836
 30
0.0
 11
45337.95321643585
 21
-4321.059771575836
 31
0.0
  0
LINE
  5
5DF
  8
0
 10
45162.95321643585
 20
-4671.059771575836
 30
0.0
 11
45337.95321643585
 21
-4671.059771575836
 31
0.0
  0
LINE
  5
5E0
  8
0
 10
45337.95321643585
 20
-4321.059771575836
 30
0.0
 11
45512.95321643585
 21
-4321.059771575836
 31
0.0
  0
LINE
  5
5E1
  8
0
 10
45337.95321643585
 20
-4671.059771575836
 30
0.0
 11
45512.95321643585
 21
-4671.059771575836
 31
0.0
  0
LINE
  5
5E2
  8
0
 10
45512.95321643585
 20
-4321.059771575836
 30
0.0
 11
45687.95321643585
 21
-4321.059771575836
 31
0.0
  0
LINE
  5
5E3
  8
0
 10
45512.95321643585
 20
-4671.059771575836
 30
0.0
 11
45687.95321643585
 21
-4671.059771575836
 31
0.0
  0
LINE
  5
5E4
  8
0
 10
45687.95321643585
 20
-4321.059771575836
 30
0.0
 11
45862.95321643585
 21
-4321.059771575836
 31
0.0
  0
LINE
  5
5E5
  8
0
 10
45687.95321643585
 20
-4671.059771575836
 30
0.0
 11
45862.95321643585
 21
-4671.059771575836
 31
0.0
  0
LINE
  5
5E6
  8
0
 10
45862.95321643585
 20
-4321.059771575836
 30
0.0
 11
46037.95321643585
 21
-4321.059771575836
 31
0.0
  0
LINE
  5
5E7
  8
0
 10
45862.95321643585
 20
-4671.059771575836
 30
0.0
 11
46037.95321643585
 21
-4671.059771575836
 31
0.0
  0
LINE
  5
5E8
  8
0
 10
46037.95321643585
 20
-4321.059771575836
 30
0.0
 11
46212.95321643585
 21
-4321.059771575836
 31
0.0
  0
LINE
  5
5E9
  8
0
 10
46037.95321643585
 20
-4671.059771575836
 30
0.0
 11
46212.95321643585
 21
-4671.059771575836
 31
0.0
  0
LINE
  5
5EA
  8
0
 10
46212.95321643585
 20
-4321.059771575836
 30
0.0
 11
46387.95321643585
 21
-4321.059771575836
 31
0.0
  0
LINE
  5
5EB
  8
0
 10
46212.95321643585
 20
-4671.059771575836
 30
0.0
 11
46387.95321643585
 21
-4671.059771575836
 31
0.0
  0
LINE
  5
5EC
  8
0
 10
46387.95321643585
 20
-4321.059771575836
 30
0.0
 11
46562.95321643585
 21
-4321.059771575836
 31
0.0
  0
LINE
  5
5ED
  8
0
 10
46387.95321643585
 20
-4671.059771575836
 30
0.0
 11
46562.95321643585
 21
-4671.059771575836
 31
0.0
  0
LINE
  5
5EE
  8
0
 10
46562.95321643585
 20
-4321.059771575836
 30
0.0
 11
46737.95321643585
 21
-4321.059771575836
 31
0.0
  0
LINE
  5
5EF
  8
0
 10
46562.95321643585
 20
-4671.059771575836
 30
0.0
 11
46737.95321643585
 21
-4671.059771575836
 31
0.0
  0
LINE
  5
5F0
  8
0
 10
46737.95321643585
 20
-4321.059771575836
 30
0.0
 11
46912.95321643585
 21
-4321.059771575836
 31
0.0
  0
LINE
  5
5F1
  8
0
 10
46737.95321643585
 20
-4671.059771575836
 30
0.0
 11
46912.95321643585
 21
-4671.059771575836
 31
0.0
  0
LINE
  5
5F2
  8
0
 10
46912.95321643585
 20
-4321.059771575836
 30
0.0
 11
47087.95321643585
 21
-4321.059771575836
 31
0.0
  0
LINE
  5
5F3
  8
0
 10
46912.95321643585
 20
-4671.059771575836
 30
0.0
 11
47087.95321643585
 21
-4671.059771575836
 31
0.0
  0
LINE
  5
5F4
  8
0
 10
47087.95321643585
 20
-4321.059771575836
 30
0.0
 11
47262.95321643585
 21
-4321.059771575836
 31
0.0
  0
LINE
  5
5F5
  8
0
 10
47087.95321643585
 20
-4671.059771575836
 30
0.0
 11
47262.95321643585
 21
-4671.059771575836
 31
0.0
  0
LINE
  5
5F6
  8
0
 10
47262.95321643585
 20
-4321.059771575836
 30
0.0
 11
47437.95321643585
 21
-4321.059771575836
 31
0.0
  0
LINE
  5
5F7
  8
0
 10
47262.95321643585
 20
-4671.059771575836
 30
0.0
 11
47437.95321643585
 21
-4671.059771575836
 31
0.0
  0
LINE
  5
5F8
  8
0
 10
44812.95321643585
 20
-4321.059771575836
 30
0.0
 11
44812.95321643585
 21
-4496.059771575836
 31
0.0
  0
LINE
  5
5F9
  8
0
 10
47437.95321643585
 20
-4321.059771575836
 30
0.0
 11
47437.95321643585
 21
-4496.059771575836
 31
0.0
  0
LINE
  5
5FA
  8
0
 10
44812.95321643585
 20
-4496.059771575836
 30
0.0
 11
44812.95321643585
 21
-4671.059771575836
 31
0.0
  0
LINE
  5
5FB
  8
0
 10
47437.95321643585
 20
-4496.059771575836
 30
0.0
 11
47437.95321643585
 21
-4671.059771575836
 31
0.0
  0
TEXT
  5
5FC
  8
0
  6
CONTINUOUS
 10
44210.53424980724
 20
-4544.285924342548
 30
0.0
 40
87.5
  1
納　入　先
  0
TEXT
  5
619
  8
0
 10
45067.48870888288
 20
-5394.423178662885
 30
0.0
 40
75.0
  1
１／２５
  0
TEXT
  5
61A
  8
0
 10
45811.80012676097
 20
-5019.511042095053
 30
0.0
 40
141.6666666666667
  1
ＷＴ－１００００
  0
TEXT
  5
61B
  8
0
 10
45822.49166467965
 20
-5304.106209474742
 30
0.0
 40
116.6666666666667
  1
製品図
  0
DIMENSION
  5
632
  8
寸法線
  2
*D0
 10
39211.29131740265
 20
-2172.834674831378
 30
0.0
 11
39131.29131740265
 21
-3562.834667753319
 31
0.0
 70
    32
 13
39621.85401818791
 23
-4952.834660675273
 33
0.0
 14
39621.85401818791
 24
-2172.834674831378
 34
0.0
 50
90.0
  0
DIMENSION
  5
63F
  8
寸法線
  2
*D1
 10
39211.29131740265
 20
-2172.834674831378
 30
0.0
 11
39211.29131740265
 21
-1897.834716368366
 31
0.0
 70
   160
 13
40731.85397636039
 23
-1622.834757905354
 33
0.0
 14
39626.21849937701
 24
-2172.834674831378
 34
0.0
 50
90.0
  0
DIMENSION
  5
681
  8
寸法線
  2
*D2
 10
40021.85398868772
 20
-1843.223861676124
 30
0.0
 11
39821.85397935756
 21
-1763.223861676124
 31
0.0
 70
    32
 13
39621.8539700274
 23
-1952.834593620049
 33
0.0
 14
40021.85398868772
 24
-1952.834593620049
 34
0.0
  0
DIMENSION
  5
68E
  8
寸法線
  2
*D3
 10
38904.08134656146
 20
-1622.834757905353
 30
0.0
 11
38824.08134656146
 21
-3287.834709290306
 31
0.0
 70
    32
 13
39621.85401818791
 23
-4952.834660675273
 33
0.0
 14
40731.85397636039
 24
-1622.834757905354
 34
0.0
 50
90.0
  0
DIMENSION
  5
6B5
  8
寸法線
  2
*D4
 10
41871.85394283278
 20
-5579.726667716204
 30
0.0
 11
40731.85397636039
 21
-5499.726667716204
 31
0.0
 70
    32
  1
O.D%%c<>
 13
39591.854009888
 23
-4922.834652017621
 33
0.0
 14
41871.85394283278
 24
-4922.834661792862
 34
0.0
  0
DIMENSION
  5
6E9
  8
寸法線
  2
*D5
 10
44939.11854690576
 20
139.1670759722174
 30
0.0
 11
44739.11885210204
 21
219.1670759722174
 31
0.0
 70
    32
 13
44539.11915729832
 23
-46.78781823573354
 33
0.0
 14
44939.11854690576
 24
-46.78776790684469
 34
0.0
  0
DIMENSION
  5
6F6
  8
寸法線
  2
*D6
 10
44949.11612536486
 20
364.4562515820644
 30
0.0
 11
44739.11762084226
 21
444.4562515820644
 31
0.0
 70
    32
 13
44529.11911631966
 23
-18.13305460511515
 33
0.0
 14
44949.11612536486
 24
-18.13305460511515
 34
0.0
  0
ARC
  5
770
  8
0
 10
44739.11816096568
 20
-1138.621288404975
 30
0.0
 40
1140.0
 50
2.13725024995146
 51
357.8627497500485
  0
LINE
  5
771
  8
2
  6
CONTINUOUS
 10
45449.11821498239
 20
-1338.621292875323
 30
0.0
 11
45830.95149072894
 21
-1338.621292875323
 31
0.0
  0
LINE
  5
772
  8
2
  6
CONTINUOUS
 10
45449.11821498239
 20
-938.621283934629
 30
0.0
 11
45830.95149072894
 21
-938.621283934629
 31
0.0
  0
LINE
  5
773
  8
2
  6
CONTINUOUS
 10
45859.60914968048
 20
-928.6214062930585
 30
0.0
 11
45830.95141891279
 21
-938.6212568001515
 31
0.0
  0
LINE
  5
774
  8
2
  6
CONTINUOUS
 10
45859.60908087393
 20
-1348.620918402978
 30
0.0
 11
45830.9512600632
 21
-1338.621036476196
 31
0.0
  0
LINE
  5
775
  8
2
  6
CONTINUOUS
 10
45859.60921606656
 20
-928.6213910465394
 30
0.0
 11
45449.11831191283
 21
-938.6212366448221
 31
0.0
  0
LINE
  5
776
  8
2
  6
CONTINUOUS
 10
45859.60925535926
 20
-1348.621013256801
 30
0.0
 11
45449.11816052724
 21
-1338.621163013465
 31
0.0
  0
ARC
  5
777
  8
2
  6
CONTINUOUS
 10
44739.11816096568
 20
-1138.621288404975
 30
0.0
 40
1109.999967589974
 50
349.6197876791594
 51
357.7540496553368
  0
ARC
  5
778
  8
2
  6
CONTINUOUS
 10
44739.11816096568
 20
-1138.621288404975
 30
0.0
 40
709.9999675899735
 50
343.6973862906223
 51
16.30262819084399
  0
DIMENSION
  5
893
  8
寸法線
  2
*D8
 10
40981.85378962259
 20
-1374.542866123647
 30
0.0
 11
40731.85388413836
 21
-1374.542866123647
 31
0.0
 70
   160
  1
I.D%%c<>
 13
40481.85397865414
 23
-1682.834605235161
 33
0.0
 14
40981.85378962259
 24
-1682.83451129113
 34
0.0
  0
DIMENSION
  5
8A0
  8
寸法線
  2
*D9
 10
44535.61450454395
 20
-993.4101847766542
 30
0.0
 11
44559.22093609411
 21
-1010.254678081586
 31
0.0
 70
   163
  1
I.D<>
 15
44942.62181738742
 25
-1283.832392033295
 35
0.0
 40
0.0
  0
TEXT
  5
9CF
  8
0
 10
44527.7175044722
 20
-5740.143287642298
 30
0.0
 40
100.0
  1
北海道スイコー株式会社
 41
0.75
  0
LINE
  5
C15
  8
0
 10
40284.3078890303
 20
973.7868280390358
 30
0.0
 11
40424.3078890303
 21
973.7868280390358
 31
0.0
  0
LINE
  5
C16
  8
0
 10
40424.3078890303
 20
973.7868280390358
 30
0.0
 11
40564.3078890303
 21
973.7868280390358
 31
0.0
  0
LINE
  5
C17
  8
0
 10
40564.3078890303
 20
973.7868280390358
 30
0.0
 11
40704.3078890303
 21
973.7868280390358
 31
0.0
  0
LINE
  5
C18
  8
0
 10
40704.3078890303
 20
973.7868280390358
 30
0.0
 11
40844.3078890303
 21
973.7868280390358
 31
0.0
  0
LINE
  5
C19
  8
0
 10
40844.3078890303
 20
973.7868280390358
 30
0.0
 11
40984.3078890303
 21
973.7868280390358
 31
0.0
  0
LINE
  5
C1A
  8
0
 10
40984.3078890303
 20
973.7868280390358
 30
0.0
 11
41124.3078890303
 21
973.7868280390358
 31
0.0
  0
LINE
  5
C1B
  8
0
 10
41124.3078890303
 20
973.7868280390358
 30
0.0
 11
41264.3078890303
 21
973.7868280390358
 31
0.0
  0
LINE
  5
C1C
  8
0
 10
41264.3078890303
 20
973.7868280390358
 30
0.0
 11
41404.3078890303
 21
973.7868280390358
 31
0.0
  0
LINE
  5
C1D
  8
0
 10
41404.3078890303
 20
973.7868280390358
 30
0.0
 11
41544.3078890303
 21
973.7868280390358
 31
0.0
  0
LINE
  5
C1E
  8
0
 10
41544.3078890303
 20
973.7868280390358
 30
0.0
 11
41684.3078890303
 21
973.7868280390358
 31
0.0
  0
LINE
  5
C1F
  8
0
 10
41684.3078890303
 20
973.7868280390358
 30
0.0
 11
41824.3078890303
 21
973.7868280390358
 31
0.0
  0
LINE
  5
C20
  8
0
 10
41824.3078890303
 20
973.7868280390358
 30
0.0
 11
41964.3078890303
 21
973.7868280390358
 31
0.0
  0
LINE
  5
C21
  8
0
 10
41964.3078890303
 20
973.7868280390358
 30
0.0
 11
42104.3078890303
 21
973.7868280390358
 31
0.0
  0
LINE
  5
C22
  8
0
 10
42104.3078890303
 20
973.7868280390358
 30
0.0
 11
42244.3078890303
 21
973.7868280390358
 31
0.0
  0
LINE
  5
C23
  8
0
 10
42244.3078890303
 20
973.7868280390358
 30
0.0
 11
42384.3078890303
 21
973.7868280390358
 31
0.0
  0
LINE
  5
C24
  8
0
 10
42384.3078890303
 20
973.7868280390358
 30
0.0
 11
42524.3078890303
 21
973.7868280390358
 31
0.0
  0
LINE
  5
C25
  8
0
 10
42524.3078890303
 20
973.7868280390358
 30
0.0
 11
42664.3078890303
 21
973.7868280390358
 31
0.0
  0
LINE
  5
C26
  8
0
 10
40284.3078890303
 20
973.7868280390358
 30
0.0
 11
40284.3078890303
 21
838.053494705702
 31
0.0
  0
LINE
  5
C27
  8
0
 10
42664.3078890303
 20
973.7868280390358
 30
0.0
 11
42664.3078890303
 21
838.053494705702
 31
0.0
  0
LINE
  5
C28
  8
0
 10
40284.3078890303
 20
838.053494705702
 30
0.0
 11
40424.3078890303
 21
838.053494705702
 31
0.0
  0
LINE
  5
C29
  8
0
 10
40424.3078890303
 20
838.053494705702
 30
0.0
 11
40564.3078890303
 21
838.053494705702
 31
0.0
  0
LINE
  5
C2A
  8
0
 10
40564.3078890303
 20
838.053494705702
 30
0.0
 11
40704.3078890303
 21
838.053494705702
 31
0.0
  0
LINE
  5
C2B
  8
0
 10
40704.3078890303
 20
838.053494705702
 30
0.0
 11
40844.3078890303
 21
838.053494705702
 31
0.0
  0
LINE
  5
C2C
  8
0
 10
40844.3078890303
 20
838.053494705702
 30
0.0
 11
40984.3078890303
 21
838.053494705702
 31
0.0
  0
LINE
  5
C2D
  8
0
 10
40984.3078890303
 20
838.053494705702
 30
0.0
 11
41124.3078890303
 21
838.053494705702
 31
0.0
  0
LINE
  5
C2E
  8
0
 10
41124.3078890303
 20
838.053494705702
 30
0.0
 11
41264.3078890303
 21
838.053494705702
 31
0.0
  0
LINE
  5
C2F
  8
0
 10
41264.3078890303
 20
838.053494705702
 30
0.0
 11
41404.3078890303
 21
838.053494705702
 31
0.0
  0
LINE
  5
C30
  8
0
 10
41404.3078890303
 20
838.053494705702
 30
0.0
 11
41544.3078890303
 21
838.053494705702
 31
0.0
  0
LINE
  5
C31
  8
0
 10
41544.3078890303
 20
838.053494705702
 30
0.0
 11
41684.3078890303
 21
838.053494705702
 31
0.0
  0
LINE
  5
C32
  8
0
 10
41684.3078890303
 20
838.053494705702
 30
0.0
 11
41824.3078890303
 21
838.053494705702
 31
0.0
  0
LINE
  5
C33
  8
0
 10
41824.3078890303
 20
838.053494705702
 30
0.0
 11
41964.3078890303
 21
838.053494705702
 31
0.0
  0
LINE
  5
C34
  8
0
 10
41964.3078890303
 20
838.053494705702
 30
0.0
 11
42104.3078890303
 21
838.053494705702
 31
0.0
  0
LINE
  5
C35
  8
0
 10
42104.3078890303
 20
838.053494705702
 30
0.0
 11
42244.3078890303
 21
838.053494705702
 31
0.0
  0
LINE
  5
C36
  8
0
 10
42244.3078890303
 20
838.053494705702
 30
0.0
 11
42384.3078890303
 21
838.053494705702
 31
0.0
  0
LINE
  5
C37
  8
0
 10
42384.3078890303
 20
838.053494705702
 30
0.0
 11
42524.3078890303
 21
838.053494705702
 31
0.0
  0
LINE
  5
C38
  8
0
 10
42524.3078890303
 20
838.053494705702
 30
0.0
 11
42664.3078890303
 21
838.053494705702
 31
0.0
  0
LINE
  5
C39
  8
0
 10
40284.3078890303
 20
838.053494705702
 30
0.0
 11
40284.3078890303
 21
702.3201613723681
 31
0.0
  0
LINE
  5
C3A
  8
0
 10
42664.3078890303
 20
838.053494705702
 30
0.0
 11
42664.3078890303
 21
702.3201613723681
 31
0.0
  0
LINE
  5
C3B
  8
0
 10
40284.3078890303
 20
702.3201613723681
 30
0.0
 11
40424.3078890303
 21
702.3201613723681
 31
0.0
  0
LINE
  5
C3C
  8
0
 10
40424.3078890303
 20
702.3201613723681
 30
0.0
 11
40564.3078890303
 21
702.3201613723681
 31
0.0
  0
LINE
  5
C3D
  8
0
 10
40564.3078890303
 20
702.3201613723681
 30
0.0
 11
40704.3078890303
 21
702.3201613723681
 31
0.0
  0
LINE
  5
C3E
  8
0
 10
40704.3078890303
 20
702.3201613723681
 30
0.0
 11
40844.3078890303
 21
702.3201613723681
 31
0.0
  0
LINE
  5
C3F
  8
0
 10
40844.3078890303
 20
702.3201613723681
 30
0.0
 11
40984.3078890303
 21
702.3201613723681
 31
0.0
  0
LINE
  5
C40
  8
0
 10
40984.3078890303
 20
702.3201613723681
 30
0.0
 11
41124.3078890303
 21
702.3201613723681
 31
0.0
  0
LINE
  5
C41
  8
0
 10
41124.3078890303
 20
702.3201613723681
 30
0.0
 11
41264.3078890303
 21
702.3201613723681
 31
0.0
  0
LINE
  5
C42
  8
0
 10
41264.3078890303
 20
702.3201613723681
 30
0.0
 11
41404.3078890303
 21
702.3201613723681
 31
0.0
  0
LINE
  5
C43
  8
0
 10
40284.3078890303
 20
702.3201613723681
 30
0.0
 11
40284.3078890303
 21
566.5868280390355
 31
0.0
  0
LINE
  5
C44
  8
0
 10
41404.3078890303
 20
702.3201613723681
 30
0.0
 11
41544.3078890303
 21
702.3201613723681
 31
0.0
  0
LINE
  5
C45
  8
0
 10
41544.3078890303
 20
702.3201613723681
 30
0.0
 11
41684.3078890303
 21
702.3201613723681
 31
0.0
  0
LINE
  5
C46
  8
0
 10
41684.3078890303
 20
702.3201613723681
 30
0.0
 11
41824.3078890303
 21
702.3201613723681
 31
0.0
  0
LINE
  5
C47
  8
0
 10
41824.3078890303
 20
702.3201613723681
 30
0.0
 11
41964.3078890303
 21
702.3201613723681
 31
0.0
  0
LINE
  5
C48
  8
0
 10
41964.3078890303
 20
702.3201613723681
 30
0.0
 11
42104.3078890303
 21
702.3201613723681
 31
0.0
  0
LINE
  5
C49
  8
0
 10
42104.3078890303
 20
702.3201613723681
 30
0.0
 11
42244.3078890303
 21
702.3201613723681
 31
0.0
  0
LINE
  5
C4A
  8
0
 10
42244.3078890303
 20
702.3201613723681
 30
0.0
 11
42384.3078890303
 21
702.3201613723681
 31
0.0
  0
LINE
  5
C4B
  8
0
 10
42384.3078890303
 20
702.3201613723681
 30
0.0
 11
42524.3078890303
 21
702.3201613723681
 31
0.0
  0
LINE
  5
C4C
  8
0
 10
42524.3078890303
 20
702.3201613723681
 30
0.0
 11
42664.3078890303
 21
702.3201613723681
 31
0.0
  0
LINE
  5
C4D
  8
0
 10
41404.3078890303
 20
702.3201613723681
 30
0.0
 11
41404.3078890303
 21
566.5868280390355
 31
0.0
  0
LINE
  5
C4E
  8
0
 10
42664.3078890303
 20
702.3201613723681
 30
0.0
 11
42664.3078890303
 21
566.5868280390355
 31
0.0
  0
LINE
  5
C4F
  8
0
 10
40284.3078890303
 20
566.5868280390355
 30
0.0
 11
40424.3078890303
 21
566.5868280390355
 31
0.0
  0
LINE
  5
C50
  8
0
 10
40424.3078890303
 20
566.5868280390355
 30
0.0
 11
40564.3078890303
 21
566.5868280390355
 31
0.0
  0
LINE
  5
C51
  8
0
 10
40564.3078890303
 20
566.5868280390355
 30
0.0
 11
40704.3078890303
 21
566.5868280390355
 31
0.0
  0
LINE
  5
C52
  8
0
 10
40704.3078890303
 20
566.5868280390355
 30
0.0
 11
40844.3078890303
 21
566.5868280390355
 31
0.0
  0
LINE
  5
C53
  8
0
 10
40844.3078890303
 20
566.5868280390355
 30
0.0
 11
40984.3078890303
 21
566.5868280390355
 31
0.0
  0
LINE
  5
C54
  8
0
 10
40984.3078890303
 20
566.5868280390355
 30
0.0
 11
41124.3078890303
 21
566.5868280390355
 31
0.0
  0
LINE
  5
C55
  8
0
 10
40284.3078890303
 20
566.5868280390355
 30
0.0
 11
40284.3078890303
 21
430.8534947057028
 31
0.0
  0
LINE
  5
C56
  8
0
 10
41124.3078890303
 20
566.5868280390355
 30
0.0
 11
41264.3078890303
 21
566.5868280390355
 31
0.0
  0
LINE
  5
C57
  8
0
 10
41264.3078890303
 20
566.5868280390355
 30
0.0
 11
41404.3078890303
 21
566.5868280390355
 31
0.0
  0
LINE
  5
C58
  8
0
 10
41404.3078890303
 20
566.5868280390355
 30
0.0
 11
41544.3078890303
 21
566.5868280390355
 31
0.0
  0
LINE
  5
C59
  8
0
 10
41544.3078890303
 20
566.5868280390355
 30
0.0
 11
41684.3078890303
 21
566.5868280390355
 31
0.0
  0
LINE
  5
C5A
  8
0
 10
41684.3078890303
 20
566.5868280390355
 30
0.0
 11
41824.3078890303
 21
566.5868280390355
 31
0.0
  0
LINE
  5
C5B
  8
0
 10
41824.3078890303
 20
566.5868280390355
 30
0.0
 11
41964.3078890303
 21
566.5868280390355
 31
0.0
  0
LINE
  5
C5C
  8
0
 10
41964.3078890303
 20
566.5868280390355
 30
0.0
 11
42104.3078890303
 21
566.5868280390355
 31
0.0
  0
LINE
  5
C5D
  8
0
 10
42104.3078890303
 20
566.5868280390355
 30
0.0
 11
42244.3078890303
 21
566.5868280390355
 31
0.0
  0
LINE
  5
C5E
  8
0
 10
42244.3078890303
 20
566.5868280390355
 30
0.0
 11
42384.3078890303
 21
566.5868280390355
 31
0.0
  0
LINE
  5
C5F
  8
0
 10
42384.3078890303
 20
566.5868280390355
 30
0.0
 11
42524.3078890303
 21
566.5868280390355
 31
0.0
  0
LINE
  5
C60
  8
0
 10
42524.3078890303
 20
566.5868280390355
 30
0.0
 11
42664.3078890303
 21
566.5868280390355
 31
0.0
  0
LINE
  5
C61
  8
0
 10
41124.3078890303
 20
566.5868280390355
 30
0.0
 11
41124.3078890303
 21
430.8534947057028
 31
0.0
  0
LINE
  5
C62
  8
0
 10
42664.3078890303
 20
566.5868280390355
 30
0.0
 11
42664.3078890303
 21
430.8534947057028
 31
0.0
  0
LINE
  5
C63
  8
0
 10
40284.3078890303
 20
430.8534947057028
 30
0.0
 11
40424.3078890303
 21
430.8534947057028
 31
0.0
  0
LINE
  5
C64
  8
0
 10
40424.3078890303
 20
430.8534947057028
 30
0.0
 11
40564.3078890303
 21
430.8534947057028
 31
0.0
  0
LINE
  5
C65
  8
0
 10
40564.3078890303
 20
430.8534947057028
 30
0.0
 11
40704.3078890303
 21
430.8534947057028
 31
0.0
  0
LINE
  5
C66
  8
0
 10
40284.3078890303
 20
430.8534947057028
 30
0.0
 11
40284.3078890303
 21
295.120161372369
 31
0.0
  0
LINE
  5
C67
  8
0
 10
40284.3078890303
 20
295.120161372369
 30
0.0
 11
40284.3078890303
 21
159.3868280390352
 31
0.0
  0
LINE
  5
C68
  8
0
 10
40284.3078890303
 20
159.3868280390352
 30
0.0
 11
40284.3078890303
 21
23.65349470570254
 31
0.0
  0
LINE
  5
C69
  8
0
 10
40284.3078890303
 20
23.65349470570254
 30
0.0
 11
40284.3078890303
 21
-112.0798386276301
 31
0.0
  0
LINE
  5
C6A
  8
0
 10
40704.3078890303
 20
430.8534947057028
 30
0.0
 11
40844.3078890303
 21
430.8534947057028
 31
0.0
  0
LINE
  5
C6B
  8
0
 10
40844.3078890303
 20
430.8534947057028
 30
0.0
 11
40984.3078890303
 21
430.8534947057028
 31
0.0
  0
LINE
  5
C6C
  8
0
 10
40984.3078890303
 20
430.8534947057028
 30
0.0
 11
41124.3078890303
 21
430.8534947057028
 31
0.0
  0
LINE
  5
C6D
  8
0
 10
40704.3078890303
 20
430.8534947057028
 30
0.0
 11
40704.3078890303
 21
295.120161372369
 31
0.0
  0
LINE
  5
C6E
  8
0
 10
40704.3078890303
 20
295.120161372369
 30
0.0
 11
40704.3078890303
 21
159.3868280390352
 31
0.0
  0
LINE
  5
C6F
  8
0
 10
41124.3078890303
 20
430.8534947057028
 30
0.0
 11
41264.3078890303
 21
430.8534947057028
 31
0.0
  0
LINE
  5
C70
  8
0
 10
41264.3078890303
 20
430.8534947057028
 30
0.0
 11
41404.3078890303
 21
430.8534947057028
 31
0.0
  0
LINE
  5
C71
  8
0
 10
41124.3078890303
 20
430.8534947057028
 30
0.0
 11
41124.3078890303
 21
295.120161372369
 31
0.0
  0
LINE
  5
C72
  8
0
 10
41404.3078890303
 20
430.8534947057028
 30
0.0
 11
41544.3078890303
 21
430.8534947057028
 31
0.0
  0
LINE
  5
C73
  8
0
 10
41544.3078890303
 20
430.8534947057028
 30
0.0
 11
41684.3078890303
 21
430.8534947057028
 31
0.0
  0
LINE
  5
C74
  8
0
 10
41684.3078890303
 20
430.8534947057028
 30
0.0
 11
41824.3078890303
 21
430.8534947057028
 31
0.0
  0
LINE
  5
C75
  8
0
 10
41824.3078890303
 20
430.8534947057028
 30
0.0
 11
41964.3078890303
 21
430.8534947057028
 31
0.0
  0
LINE
  5
C76
  8
0
 10
41964.3078890303
 20
430.8534947057028
 30
0.0
 11
42104.3078890303
 21
430.8534947057028
 31
0.0
  0
LINE
  5
C77
  8
0
 10
42104.3078890303
 20
430.8534947057028
 30
0.0
 11
42244.3078890303
 21
430.8534947057028
 31
0.0
  0
LINE
  5
C78
  8
0
 10
42244.3078890303
 20
430.8534947057028
 30
0.0
 11
42384.3078890303
 21
430.8534947057028
 31
0.0
  0
LINE
  5
C79
  8
0
 10
42384.3078890303
 20
430.8534947057028
 30
0.0
 11
42524.3078890303
 21
430.8534947057028
 31
0.0
  0
LINE
  5
C7A
  8
0
 10
42524.3078890303
 20
430.8534947057028
 30
0.0
 11
42664.3078890303
 21
430.8534947057028
 31
0.0
  0
LINE
  5
C7B
  8
0
 10
41404.3078890303
 20
430.8534947057028
 30
0.0
 11
41404.3078890303
 21
295.120161372369
 31
0.0
  0
LINE
  5
C7C
  8
0
 10
42664.3078890303
 20
430.8534947057028
 30
0.0
 11
42664.3078890303
 21
295.120161372369
 31
0.0
  0
LINE
  5
C7D
  8
0
 10
41124.3078890303
 20
295.120161372369
 30
0.0
 11
41264.3078890303
 21
295.120161372369
 31
0.0
  0
LINE
  5
C7E
  8
0
 10
41264.3078890303
 20
295.120161372369
 30
0.0
 11
41404.3078890303
 21
295.120161372369
 31
0.0
  0
LINE
  5
C7F
  8
0
 10
41124.3078890303
 20
295.120161372369
 30
0.0
 11
41124.3078890303
 21
159.3868280390352
 31
0.0
  0
LINE
  5
C80
  8
0
 10
41404.3078890303
 20
295.120161372369
 30
0.0
 11
41544.3078890303
 21
295.120161372369
 31
0.0
  0
LINE
  5
C81
  8
0
 10
41544.3078890303
 20
295.120161372369
 30
0.0
 11
41684.3078890303
 21
295.120161372369
 31
0.0
  0
LINE
  5
C82
  8
0
 10
41684.3078890303
 20
295.120161372369
 30
0.0
 11
41824.3078890303
 21
295.120161372369
 31
0.0
  0
LINE
  5
C83
  8
0
 10
41824.3078890303
 20
295.120161372369
 30
0.0
 11
41964.3078890303
 21
295.120161372369
 31
0.0
  0
LINE
  5
C84
  8
0
 10
41964.3078890303
 20
295.120161372369
 30
0.0
 11
42104.3078890303
 21
295.120161372369
 31
0.0
  0
LINE
  5
C85
  8
0
 10
42104.3078890303
 20
295.120161372369
 30
0.0
 11
42244.3078890303
 21
295.120161372369
 31
0.0
  0
LINE
  5
C86
  8
0
 10
42244.3078890303
 20
295.120161372369
 30
0.0
 11
42384.3078890303
 21
295.120161372369
 31
0.0
  0
LINE
  5
C87
  8
0
 10
42384.3078890303
 20
295.120161372369
 30
0.0
 11
42524.3078890303
 21
295.120161372369
 31
0.0
  0
LINE
  5
C88
  8
0
 10
42524.3078890303
 20
295.120161372369
 30
0.0
 11
42664.3078890303
 21
295.120161372369
 31
0.0
  0
LINE
  5
C89
  8
0
 10
41404.3078890303
 20
295.120161372369
 30
0.0
 11
41404.3078890303
 21
159.3868280390352
 31
0.0
  0
LINE
  5
C8A
  8
0
 10
42664.3078890303
 20
295.120161372369
 30
0.0
 11
42664.3078890303
 21
159.3868280390352
 31
0.0
  0
LINE
  5
C8B
  8
0
 10
40704.3078890303
 20
159.3868280390352
 30
0.0
 11
40844.3078890303
 21
159.3868280390352
 31
0.0
  0
LINE
  5
C8C
  8
0
 10
40844.3078890303
 20
159.3868280390352
 30
0.0
 11
40984.3078890303
 21
159.3868280390352
 31
0.0
  0
LINE
  5
C8D
  8
0
 10
40984.3078890303
 20
159.3868280390352
 30
0.0
 11
41124.3078890303
 21
159.3868280390352
 31
0.0
  0
LINE
  5
C8E
  8
0
 10
40704.3078890303
 20
159.3868280390352
 30
0.0
 11
40704.3078890303
 21
23.65349470570254
 31
0.0
  0
LINE
  5
C8F
  8
0
 10
40704.3078890303
 20
23.65349470570254
 30
0.0
 11
40704.3078890303
 21
-112.0798386276301
 31
0.0
  0
LINE
  5
C90
  8
0
 10
41124.3078890303
 20
159.3868280390352
 30
0.0
 11
41264.3078890303
 21
159.3868280390352
 31
0.0
  0
LINE
  5
C91
  8
0
 10
41264.3078890303
 20
159.3868280390352
 30
0.0
 11
41404.3078890303
 21
159.3868280390352
 31
0.0
  0
LINE
  5
C92
  8
0
 10
41124.3078890303
 20
159.3868280390352
 30
0.0
 11
41124.3078890303
 21
23.65349470570254
 31
0.0
  0
LINE
  5
C93
  8
0
 10
41404.3078890303
 20
159.3868280390352
 30
0.0
 11
41544.3078890303
 21
159.3868280390352
 31
0.0
  0
LINE
  5
C94
  8
0
 10
41544.3078890303
 20
159.3868280390352
 30
0.0
 11
41684.3078890303
 21
159.3868280390352
 31
0.0
  0
LINE
  5
C95
  8
0
 10
41684.3078890303
 20
159.3868280390352
 30
0.0
 11
41824.3078890303
 21
159.3868280390352
 31
0.0
  0
LINE
  5
C96
  8
0
 10
41824.3078890303
 20
159.3868280390352
 30
0.0
 11
41964.3078890303
 21
159.3868280390352
 31
0.0
  0
LINE
  5
C97
  8
0
 10
41964.3078890303
 20
159.3868280390352
 30
0.0
 11
42104.3078890303
 21
159.3868280390352
 31
0.0
  0
LINE
  5
C98
  8
0
 10
42104.3078890303
 20
159.3868280390352
 30
0.0
 11
42244.3078890303
 21
159.3868280390352
 31
0.0
  0
LINE
  5
C99
  8
0
 10
42244.3078890303
 20
159.3868280390352
 30
0.0
 11
42384.3078890303
 21
159.3868280390352
 31
0.0
  0
LINE
  5
C9A
  8
0
 10
42384.3078890303
 20
159.3868280390352
 30
0.0
 11
42524.3078890303
 21
159.3868280390352
 31
0.0
  0
LINE
  5
C9B
  8
0
 10
42524.3078890303
 20
159.3868280390352
 30
0.0
 11
42664.3078890303
 21
159.3868280390352
 31
0.0
  0
LINE
  5
C9C
  8
0
 10
41404.3078890303
 20
159.3868280390352
 30
0.0
 11
41404.3078890303
 21
23.65349470570254
 31
0.0
  0
LINE
  5
C9D
  8
0
 10
42664.3078890303
 20
159.3868280390352
 30
0.0
 11
42664.3078890303
 21
23.65349470570254
 31
0.0
  0
LINE
  5
C9E
  8
0
 10
41124.3078890303
 20
23.65349470570254
 30
0.0
 11
41264.3078890303
 21
23.65349470570254
 31
0.0
  0
LINE
  5
C9F
  8
0
 10
41264.3078890303
 20
23.65349470570254
 30
0.0
 11
41404.3078890303
 21
23.65349470570254
 31
0.0
  0
LINE
  5
CA0
  8
0
 10
41124.3078890303
 20
23.65349470570254
 30
0.0
 11
41124.3078890303
 21
-112.0798386276301
 31
0.0
  0
LINE
  5
CA1
  8
0
 10
41404.3078890303
 20
23.65349470570254
 30
0.0
 11
41544.3078890303
 21
23.65349470570254
 31
0.0
  0
LINE
  5
CA2
  8
0
 10
41544.3078890303
 20
23.65349470570254
 30
0.0
 11
41684.3078890303
 21
23.65349470570254
 31
0.0
  0
LINE
  5
CA3
  8
0
 10
41684.3078890303
 20
23.65349470570254
 30
0.0
 11
41824.3078890303
 21
23.65349470570254
 31
0.0
  0
LINE
  5
CA4
  8
0
 10
41824.3078890303
 20
23.65349470570254
 30
0.0
 11
41964.3078890303
 21
23.65349470570254
 31
0.0
  0
LINE
  5
CA5
  8
0
 10
41964.3078890303
 20
23.65349470570254
 30
0.0
 11
42104.3078890303
 21
23.65349470570254
 31
0.0
  0
LINE
  5
CA6
  8
0
 10
42104.3078890303
 20
23.65349470570254
 30
0.0
 11
42244.3078890303
 21
23.65349470570254
 31
0.0
  0
LINE
  5
CA7
  8
0
 10
42244.3078890303
 20
23.65349470570254
 30
0.0
 11
42384.3078890303
 21
23.65349470570254
 31
0.0
  0
LINE
  5
CA8
  8
0
 10
42384.3078890303
 20
23.65349470570254
 30
0.0
 11
42524.3078890303
 21
23.65349470570254
 31
0.0
  0
LINE
  5
CA9
  8
0
 10
42524.3078890303
 20
23.65349470570254
 30
0.0
 11
42664.3078890303
 21
23.65349470570254
 31
0.0
  0
LINE
  5
CAA
  8
0
 10
41404.3078890303
 20
23.65349470570254
 30
0.0
 11
41404.3078890303
 21
-112.0798386276301
 31
0.0
  0
LINE
  5
CAB
  8
0
 10
42664.3078890303
 20
23.65349470570254
 30
0.0
 11
42664.3078890303
 21
-112.0798386276301
 31
0.0
  0
LINE
  5
CAC
  8
0
 10
40284.3078890303
 20
-112.0798386276301
 30
0.0
 11
40424.3078890303
 21
-112.0798386276301
 31
0.0
  0
LINE
  5
CAD
  8
0
 10
40284.3078890303
 20
-247.8131719609639
 30
0.0
 11
40424.3078890303
 21
-247.8131719609639
 31
0.0
  0
LINE
  5
CAE
  8
0
 10
40424.3078890303
 20
-112.0798386276301
 30
0.0
 11
40564.3078890303
 21
-112.0798386276301
 31
0.0
  0
LINE
  5
CAF
  8
0
 10
40424.3078890303
 20
-247.8131719609639
 30
0.0
 11
40564.3078890303
 21
-247.8131719609639
 31
0.0
  0
LINE
  5
CB0
  8
0
 10
40564.3078890303
 20
-112.0798386276301
 30
0.0
 11
40704.3078890303
 21
-112.0798386276301
 31
0.0
  0
LINE
  5
CB1
  8
0
 10
40564.3078890303
 20
-247.8131719609639
 30
0.0
 11
40704.3078890303
 21
-247.8131719609639
 31
0.0
  0
LINE
  5
CB2
  8
0
 10
40704.3078890303
 20
-112.0798386276301
 30
0.0
 11
40844.3078890303
 21
-112.0798386276301
 31
0.0
  0
LINE
  5
CB3
  8
0
 10
40704.3078890303
 20
-247.8131719609639
 30
0.0
 11
40844.3078890303
 21
-247.8131719609639
 31
0.0
  0
LINE
  5
CB4
  8
0
 10
40844.3078890303
 20
-112.0798386276301
 30
0.0
 11
40984.3078890303
 21
-112.0798386276301
 31
0.0
  0
LINE
  5
CB5
  8
0
 10
40844.3078890303
 20
-247.8131719609639
 30
0.0
 11
40984.3078890303
 21
-247.8131719609639
 31
0.0
  0
LINE
  5
CB6
  8
0
 10
40984.3078890303
 20
-112.0798386276301
 30
0.0
 11
41124.3078890303
 21
-112.0798386276301
 31
0.0
  0
LINE
  5
CB7
  8
0
 10
40984.3078890303
 20
-247.8131719609639
 30
0.0
 11
41124.3078890303
 21
-247.8131719609639
 31
0.0
  0
LINE
  5
CB8
  8
0
 10
41124.3078890303
 20
-112.0798386276301
 30
0.0
 11
41264.3078890303
 21
-112.0798386276301
 31
0.0
  0
LINE
  5
CB9
  8
0
 10
41124.3078890303
 20
-247.8131719609639
 30
0.0
 11
41264.3078890303
 21
-247.8131719609639
 31
0.0
  0
LINE
  5
CBA
  8
0
 10
41264.3078890303
 20
-112.0798386276301
 30
0.0
 11
41404.3078890303
 21
-112.0798386276301
 31
0.0
  0
LINE
  5
CBB
  8
0
 10
41264.3078890303
 20
-247.8131719609639
 30
0.0
 11
41404.3078890303
 21
-247.8131719609639
 31
0.0
  0
LINE
  5
CBC
  8
0
 10
41404.3078890303
 20
-112.0798386276301
 30
0.0
 11
41544.3078890303
 21
-112.0798386276301
 31
0.0
  0
LINE
  5
CBD
  8
0
 10
41404.3078890303
 20
-247.8131719609639
 30
0.0
 11
41544.3078890303
 21
-247.8131719609639
 31
0.0
  0
LINE
  5
CBE
  8
0
 10
41544.3078890303
 20
-112.0798386276301
 30
0.0
 11
41684.3078890303
 21
-112.0798386276301
 31
0.0
  0
LINE
  5
CBF
  8
0
 10
41544.3078890303
 20
-247.8131719609639
 30
0.0
 11
41684.3078890303
 21
-247.8131719609639
 31
0.0
  0
LINE
  5
CC0
  8
0
 10
41684.3078890303
 20
-112.0798386276301
 30
0.0
 11
41824.3078890303
 21
-112.0798386276301
 31
0.0
  0
LINE
  5
CC1
  8
0
 10
41684.3078890303
 20
-247.8131719609639
 30
0.0
 11
41824.3078890303
 21
-247.8131719609639
 31
0.0
  0
LINE
  5
CC2
  8
0
 10
41824.3078890303
 20
-112.0798386276301
 30
0.0
 11
41964.3078890303
 21
-112.0798386276301
 31
0.0
  0
LINE
  5
CC3
  8
0
 10
41824.3078890303
 20
-247.8131719609639
 30
0.0
 11
41964.3078890303
 21
-247.8131719609639
 31
0.0
  0
LINE
  5
CC4
  8
0
 10
41964.3078890303
 20
-112.0798386276301
 30
0.0
 11
42104.3078890303
 21
-112.0798386276301
 31
0.0
  0
LINE
  5
CC5
  8
0
 10
41964.3078890303
 20
-247.8131719609639
 30
0.0
 11
42104.3078890303
 21
-247.8131719609639
 31
0.0
  0
LINE
  5
CC6
  8
0
 10
42104.3078890303
 20
-112.0798386276301
 30
0.0
 11
42244.3078890303
 21
-112.0798386276301
 31
0.0
  0
LINE
  5
CC7
  8
0
 10
42104.3078890303
 20
-247.8131719609639
 30
0.0
 11
42244.3078890303
 21
-247.8131719609639
 31
0.0
  0
LINE
  5
CC8
  8
0
 10
42244.3078890303
 20
-112.0798386276301
 30
0.0
 11
42384.3078890303
 21
-112.0798386276301
 31
0.0
  0
LINE
  5
CC9
  8
0
 10
42244.3078890303
 20
-247.8131719609639
 30
0.0
 11
42384.3078890303
 21
-247.8131719609639
 31
0.0
  0
LINE
  5
CCA
  8
0
 10
42384.3078890303
 20
-112.0798386276301
 30
0.0
 11
42524.3078890303
 21
-112.0798386276301
 31
0.0
  0
LINE
  5
CCB
  8
0
 10
42384.3078890303
 20
-247.8131719609639
 30
0.0
 11
42524.3078890303
 21
-247.8131719609639
 31
0.0
  0
LINE
  5
CCC
  8
0
 10
42524.3078890303
 20
-112.0798386276301
 30
0.0
 11
42664.3078890303
 21
-112.0798386276301
 31
0.0
  0
LINE
  5
CCD
  8
0
 10
42524.3078890303
 20
-247.8131719609639
 30
0.0
 11
42664.3078890303
 21
-247.8131719609639
 31
0.0
  0
LINE
  5
CCE
  8
0
 10
40284.3078890303
 20
-112.0798386276301
 30
0.0
 11
40284.3078890303
 21
-247.8131719609639
 31
0.0
  0
LINE
  5
CCF
  8
0
 10
42664.3078890303
 20
-112.0798386276301
 30
0.0
 11
42664.3078890303
 21
-247.8131719609639
 31
0.0
  0
TEXT
  5
CD0
  8
0
 10
40439.86754711505
 20
873.6893895140342
 30
0.0
 40
64.0
  1
タンク本体寸法差：\U+00B1１．５％
  0
TEXT
  5
CD1
  8
0
 10
40435.4186136271
 20
743.1881997637258
 30
0.0
 40
64.0
  1
付属品取付位置は平面図による。
  0
TEXT
  5
CD2
  8
0
 10
40344.68169154962
 20
470.6022146767423
 30
0.0
 40
64.0
  1
フィッティング材質
  0
TEXT
  5
CD3
  8
0
 10
41279.697440437
 20
459.7371775558252
 30
0.0
 40
64.0
  1
Ｐ　Ｅ　・　Ａ　Ｌ　・　ＳＵＳ
  0
TEXT
  5
CD4
  8
0
 10
40349.81962175871
 20
341.7200723233514
 30
0.0
 40
64.0
  1
ガ
  0
TEXT
  5
CD5
  8
0
 10
40353.71809891606
 20
235.0534056566851
 30
0.0
 40
64.0
  1
ス
  0
TEXT
  5
CD6
  8
0
 10
40353.06835272319
 20
128.3867389900188
 30
0.0
 40
64.0
  1
ケ
  0
TEXT
  5
CD7
  8
0
 10
40379.06162966551
 20
30.8610539089982
 30
0.0
 40
64.0
  1
ッ
  0
TEXT
  5
CD8
  8
0
 10
40347.89200711346
 20
-85.4904740692889
 30
0.0
 40
64.0
  1
ト
  0
TEXT
  5
CD9
  8
0
 10
40505.61649512789
 20
345.6185494807123
 30
0.0
 40
64.0
  1
材
  0
TEXT
  5
CDA
  8
0
 10
40502.69263725981
 20
237.0026442353656
 30
0.0
 40
64.0
  1
質
  0
TEXT
  5
CDB
  8
0
 10
40719.72802915784
 20
273.4684577435501
 30
0.0
 40
40.0
  1
フィッティング用
  0
TEXT
  5
CDC
  8
0
 10
40764.02413638329
 20
-4.893546454253055
 30
0.0
 40
50.0
  1
フランジ用
  0
TEXT
  5
CDD
  8
0
 10
40429.05227925052
 20
602.0142939189741
 30
0.0
 40
64.0
  1
フランジ規格：ＪＩＳ
  0
TEXT
  5
CDE
  8
0
 10
41673.42792880458
 20
598.7494813153721
 30
0.0
 40
64.0
  1
製作数：　　１　基
  0
TEXT
  5
CDF
  8
0
 10
41191.541787804
 20
334.1597989754591
 30
0.0
 40
64.0
  1
天板
  0
TEXT
  5
CE0
  8
0
 10
41188.19748369895
 20
197.5633185472343
 30
0.0
 40
64.0
  1
側面
  0
TEXT
  5
CE1
  8
0
 10
41194.43136062362
 20
62.46868800194693
 30
0.0
 40
64.0
  1
天板
  0
TEXT
  5
CE2
  8
0
 10
41191.0867299736
 20
-72.61453615795699
 30
0.0
 40
64.0
  1
側面
  0
TEXT
  5
CE3
  8
0
 10
41663.41493537066
 20
325.8892461774876
 30
0.0
 40
64.0
  1
ＩＩＲ　・　ＦＫＭ
  0
TEXT
  5
CE4
  8
0
 10
41667.6352029923
 20
189.0847803676506
 30
0.0
 40
64.0
  1
ＩＩＲ　・　ＦＫＭ
  0
TEXT
  5
CE5
  8
0
 10
41588.82485973494
 20
-80.1390294746734
 30
0.0
 40
64.0
  1
ＥＰＤＭ　・　ＦＫＭ
  0
TEXT
  5
CE6
  8
0
 10
41590.35145762506
 20
55.44763658675311
 30
0.0
 40
64.0
  1
ＥＰＤＭ　・　ＦＫＭ
  0
LINE
  5
CE9
  8
0
 10
42144.20340645344
 20
504.1894738431079
 30
0.0
 11
42606.69333960598
 21
504.1894738431079
 31
0.0
  0
LINE
  5
CEC
  8
0
 10
42148.92263484004
 20
480.6129796073224
 30
0.0
 11
42611.41256799258
 21
480.6129796073224
 31
0.0
  0
LINE
  5
CEE
  8
0
 10
42030.94061899485
 20
373.7773811285165
 30
0.0
 11
42587.81609951452
 21
373.7773811285165
 31
0.0
  0
LINE
  5
CF0
  8
0
 10
42035.6601739265
 20
339.7446913581603
 30
0.0
 11
42592.53565444617
 21
339.7446913581603
 31
0.0
  0
LINE
  5
CF2
  8
0
 10
42030.98209021029
 20
204.8936016767634
 30
0.0
 11
42587.85757072996
 21
204.8936016767634
 31
0.0
  0
LINE
  5
CF3
  8
0
 10
41476.22392749143
 20
100.9151005020844
 30
0.0
 11
42028.38050616955
 21
100.9151005020844
 31
0.0
  0
LINE
  5
CF4
  8
0
 10
42028.38050616955
 20
100.9151005020844
 30
0.0
 11
42585.25598668921
 21
100.9151005020844
 31
0.0
  0
LINE
  5
CF5
  8
0
 10
41478.82551153218
 20
64.52267046354382
 30
0.0
 11
42030.98209021029
 21
64.52267046354382
 31
0.0
  0
LINE
  5
CF6
  8
0
 10
42030.98209021029
 20
64.52267046354382
 30
0.0
 11
42587.85757072996
 21
64.52267046354382
 31
0.0
  0
LINE
  5
CF7
  8
0
 10
41469.97352958473
 20
-32.48351879815755
 30
0.0
 11
42022.13010826285
 21
-32.48351879815755
 31
0.0
  0
LINE
  5
CF8
  8
0
 10
42022.13010826285
 20
-32.48351879815755
 30
0.0
 11
42579.00558878251
 21
-32.48351879815755
 31
0.0
  0
LINE
  5
CF9
  8
0
 10
41472.54735730012
 20
-68.48937454998531
 30
0.0
 11
42024.70393597824
 21
-68.48937454998531
 31
0.0
  0
LINE
  5
CFA
  8
0
 10
42024.70393597824
 20
-68.48937454998531
 30
0.0
 11
42581.5794164979
 21
-68.48937454998531
 31
0.0
  0
LINE
  5
CFC
  8
0
 10
42032.4260722145
 20
234.9888636271367
 30
0.0
 11
42589.30155273416
 21
234.9888636271367
 31
0.0
  0
LINE
  5
CFD
  8
0
 10
40430.38008151407
 20
-168.5367761913353
 30
0.0
 11
42482.28697398829
 21
-168.5367761913353
 31
0.0
  0
LINE
  5
CFE
  8
0
 10
40433.9362339401
 20
-193.4090211794951
 30
0.0
 11
42485.84312641431
 21
-193.4090211794951
 31
0.0
  0
LINE
  5
D4D
  8
0
 10
44112.95321643585
 20
-3421.059771575836
 30
0.0
 11
44287.95321643585
 21
-3421.059771575836
 31
0.0
  0
LINE
  5
D4E
  8
0
 10
44112.95321643585
 20
-3421.059771575836
 30
0.0
 11
44112.95321643585
 21
-3571.059771575836
 31
0.0
  0
LINE
  5
D4F
  8
0
 10
44287.95321643585
 20
-3421.059771575836
 30
0.0
 11
44462.95321643585
 21
-3421.059771575836
 31
0.0
  0
LINE
  5
D50
  8
0
 10
44462.95321643585
 20
-3421.059771575836
 30
0.0
 11
44637.95321643585
 21
-3421.059771575836
 31
0.0
  0
LINE
  5
D51
  8
0
 10
44462.95321643585
 20
-3421.059771575836
 30
0.0
 11
44462.95321643585
 21
-3571.059771575836
 31
0.0
  0
LINE
  5
D52
  8
0
 10
44637.95321643585
 20
-3421.059771575836
 30
0.0
 11
44812.95321643585
 21
-3421.059771575836
 31
0.0
  0
LINE
  5
D53
  8
0
 10
44812.95321643585
 20
-3421.059771575836
 30
0.0
 11
44987.95321643585
 21
-3421.059771575836
 31
0.0
  0
LINE
  5
D54
  8
0
 10
44987.95321643585
 20
-3421.059771575836
 30
0.0
 11
45162.95321643585
 21
-3421.059771575836
 31
0.0
  0
LINE
  5
D55
  8
0
 10
45162.95321643585
 20
-3421.059771575836
 30
0.0
 11
45337.95321643585
 21
-3421.059771575836
 31
0.0
  0
LINE
  5
D56
  8
0
 10
45337.95321643585
 20
-3421.059771575836
 30
0.0
 11
45512.95321643585
 21
-3421.059771575836
 31
0.0
  0
LINE
  5
D57
  8
0
 10
45337.95321643585
 20
-3421.059771575836
 30
0.0
 11
45337.95321643585
 21
-3571.059771575836
 31
0.0
  0
LINE
  5
D58
  8
0
 10
45512.95321643585
 20
-3421.059771575836
 30
0.0
 11
45687.95321643585
 21
-3421.059771575836
 31
0.0
  0
LINE
  5
D59
  8
0
 10
45687.95321643585
 20
-3421.059771575836
 30
0.0
 11
45862.95321643585
 21
-3421.059771575836
 31
0.0
  0
LINE
  5
D5A
  8
0
 10
45687.95321643585
 20
-3421.059771575836
 30
0.0
 11
45687.95321643585
 21
-3571.059771575836
 31
0.0
  0
LINE
  5
D5B
  8
0
 10
45862.95321643585
 20
-3421.059771575836
 30
0.0
 11
46037.95321643585
 21
-3421.059771575836
 31
0.0
  0
LINE
  5
D5C
  8
0
 10
46037.95321643585
 20
-3421.059771575836
 30
0.0
 11
46212.95321643585
 21
-3421.059771575836
 31
0.0
  0
LINE
  5
D5D
  8
0
 10
46037.95321643585
 20
-3421.059771575836
 30
0.0
 11
46037.95321643585
 21
-3571.059771575836
 31
0.0
  0
LINE
  5
D5E
  8
0
 10
46212.95321643585
 20
-3421.059771575836
 30
0.0
 11
46387.95321643585
 21
-3421.059771575836
 31
0.0
  0
LINE
  5
D5F
  8
0
 10
46387.95321643585
 20
-3421.059771575836
 30
0.0
 11
46562.95321643585
 21
-3421.059771575836
 31
0.0
  0
LINE
  5
D60
  8
0
 10
46387.95321643585
 20
-3421.059771575836
 30
0.0
 11
46387.95321643585
 21
-3571.059771575836
 31
0.0
  0
LINE
  5
D61
  8
0
 10
46562.95321643585
 20
-3421.059771575836
 30
0.0
 11
46737.95321643585
 21
-3421.059771575836
 31
0.0
  0
LINE
  5
D62
  8
0
 10
46737.95321643585
 20
-3421.059771575836
 30
0.0
 11
46912.95321643585
 21
-3421.059771575836
 31
0.0
  0
LINE
  5
D63
  8
0
 10
46912.95321643585
 20
-3421.059771575836
 30
0.0
 11
47087.95321643585
 21
-3421.059771575836
 31
0.0
  0
LINE
  5
D64
  8
0
 10
47087.95321643585
 20
-3421.059771575836
 30
0.0
 11
47262.95321643585
 21
-3421.059771575836
 31
0.0
  0
LINE
  5
D65
  8
0
 10
47262.95321643585
 20
-3421.059771575836
 30
0.0
 11
47437.95321643585
 21
-3421.059771575836
 31
0.0
  0
LINE
  5
D66
  8
0
 10
47437.95321643585
 20
-3421.059771575836
 30
0.0
 11
47437.95321643585
 21
-3571.059771575836
 31
0.0
  0
LINE
  5
D67
  8
0
 10
44112.95321643585
 20
-3571.059771575836
 30
0.0
 11
44287.95321643585
 21
-3571.059771575836
 31
0.0
  0
LINE
  5
D68
  8
0
 10
44112.95321643585
 20
-3571.059771575836
 30
0.0
 11
44112.95321643585
 21
-3721.059771575836
 31
0.0
  0
LINE
  5
D69
  8
0
 10
44287.95321643585
 20
-3571.059771575836
 30
0.0
 11
44462.95321643585
 21
-3571.059771575836
 31
0.0
  0
LINE
  5
D6A
  8
0
 10
44462.95321643585
 20
-3571.059771575836
 30
0.0
 11
44637.95321643585
 21
-3571.059771575836
 31
0.0
  0
LINE
  5
D6B
  8
0
 10
44462.95321643585
 20
-3571.059771575836
 30
0.0
 11
44462.95321643585
 21
-3721.059771575836
 31
0.0
  0
LINE
  5
D6C
  8
0
 10
44637.95321643585
 20
-3571.059771575836
 30
0.0
 11
44812.95321643585
 21
-3571.059771575836
 31
0.0
  0
LINE
  5
D6D
  8
0
 10
44812.95321643585
 20
-3571.059771575836
 30
0.0
 11
44987.95321643585
 21
-3571.059771575836
 31
0.0
  0
LINE
  5
D6E
  8
0
 10
44987.95321643585
 20
-3571.059771575836
 30
0.0
 11
45162.95321643585
 21
-3571.059771575836
 31
0.0
  0
LINE
  5
D6F
  8
0
 10
45162.95321643585
 20
-3571.059771575836
 30
0.0
 11
45337.95321643585
 21
-3571.059771575836
 31
0.0
  0
LINE
  5
D70
  8
0
 10
45337.95321643585
 20
-3571.059771575836
 30
0.0
 11
45512.95321643585
 21
-3571.059771575836
 31
0.0
  0
LINE
  5
D71
  8
0
 10
45337.95321643585
 20
-3571.059771575836
 30
0.0
 11
45337.95321643585
 21
-3721.059771575836
 31
0.0
  0
LINE
  5
D72
  8
0
 10
45512.95321643585
 20
-3571.059771575836
 30
0.0
 11
45687.95321643585
 21
-3571.059771575836
 31
0.0
  0
LINE
  5
D73
  8
0
 10
45687.95321643585
 20
-3571.059771575836
 30
0.0
 11
45862.95321643585
 21
-3571.059771575836
 31
0.0
  0
LINE
  5
D74
  8
0
 10
45687.95321643585
 20
-3571.059771575836
 30
0.0
 11
45687.95321643585
 21
-3721.059771575836
 31
0.0
  0
LINE
  5
D75
  8
0
 10
45862.95321643585
 20
-3571.059771575836
 30
0.0
 11
46037.95321643585
 21
-3571.059771575836
 31
0.0
  0
LINE
  5
D76
  8
0
 10
46037.95321643585
 20
-3571.059771575836
 30
0.0
 11
46212.95321643585
 21
-3571.059771575836
 31
0.0
  0
LINE
  5
D77
  8
0
 10
46037.95321643585
 20
-3571.059771575836
 30
0.0
 11
46037.95321643585
 21
-3721.059771575836
 31
0.0
  0
LINE
  5
D78
  8
0
 10
46212.95321643585
 20
-3571.059771575836
 30
0.0
 11
46387.95321643585
 21
-3571.059771575836
 31
0.0
  0
LINE
  5
D79
  8
0
 10
46387.95321643585
 20
-3571.059771575836
 30
0.0
 11
46562.95321643585
 21
-3571.059771575836
 31
0.0
  0
LINE
  5
D7A
  8
0
 10
46387.95321643585
 20
-3571.059771575836
 30
0.0
 11
46387.95321643585
 21
-3721.059771575836
 31
0.0
  0
LINE
  5
D7B
  8
0
 10
46562.95321643585
 20
-3571.059771575836
 30
0.0
 11
46737.95321643585
 21
-3571.059771575836
 31
0.0
  0
LINE
  5
D7C
  8
0
 10
46737.95321643585
 20
-3571.059771575836
 30
0.0
 11
46912.95321643585
 21
-3571.059771575836
 31
0.0
  0
LINE
  5
D7D
  8
0
 10
46912.95321643585
 20
-3571.059771575836
 30
0.0
 11
47087.95321643585
 21
-3571.059771575836
 31
0.0
  0
LINE
  5
D7E
  8
0
 10
47087.95321643585
 20
-3571.059771575836
 30
0.0
 11
47262.95321643585
 21
-3571.059771575836
 31
0.0
  0
LINE
  5
D7F
  8
0
 10
47262.95321643585
 20
-3571.059771575836
 30
0.0
 11
47437.95321643585
 21
-3571.059771575836
 31
0.0
  0
LINE
  5
D80
  8
0
 10
47437.95321643585
 20
-3571.059771575836
 30
0.0
 11
47437.95321643585
 21
-3721.059771575836
 31
0.0
  0
LINE
  5
D81
  8
0
 10
44112.95321643585
 20
-3721.059771575836
 30
0.0
 11
44287.95321643585
 21
-3721.059771575836
 31
0.0
  0
LINE
  5
D82
  8
0
 10
44112.95321643585
 20
-3721.059771575836
 30
0.0
 11
44112.95321643585
 21
-3871.059771575836
 31
0.0
  0
LINE
  5
D83
  8
0
 10
44287.95321643585
 20
-3721.059771575836
 30
0.0
 11
44462.95321643585
 21
-3721.059771575836
 31
0.0
  0
LINE
  5
D84
  8
0
 10
44462.95321643585
 20
-3721.059771575836
 30
0.0
 11
44637.95321643585
 21
-3721.059771575836
 31
0.0
  0
LINE
  5
D85
  8
0
 10
44462.95321643585
 20
-3721.059771575836
 30
0.0
 11
44462.95321643585
 21
-3871.059771575836
 31
0.0
  0
LINE
  5
D86
  8
0
 10
44637.95321643585
 20
-3721.059771575836
 30
0.0
 11
44812.95321643585
 21
-3721.059771575836
 31
0.0
  0
LINE
  5
D87
  8
0
 10
44812.95321643585
 20
-3721.059771575836
 30
0.0
 11
44987.95321643585
 21
-3721.059771575836
 31
0.0
  0
LINE
  5
D88
  8
0
 10
44987.95321643585
 20
-3721.059771575836
 30
0.0
 11
45162.95321643585
 21
-3721.059771575836
 31
0.0
  0
LINE
  5
D89
  8
0
 10
45162.95321643585
 20
-3721.059771575836
 30
0.0
 11
45337.95321643585
 21
-3721.059771575836
 31
0.0
  0
LINE
  5
D8A
  8
0
 10
45337.95321643585
 20
-3721.059771575836
 30
0.0
 11
45512.95321643585
 21
-3721.059771575836
 31
0.0
  0
LINE
  5
D8B
  8
0
 10
45337.95321643585
 20
-3721.059771575836
 30
0.0
 11
45337.95321643585
 21
-3871.059771575836
 31
0.0
  0
LINE
  5
D8C
  8
0
 10
45512.95321643585
 20
-3721.059771575836
 30
0.0
 11
45687.95321643585
 21
-3721.059771575836
 31
0.0
  0
LINE
  5
D8D
  8
0
 10
45687.95321643585
 20
-3721.059771575836
 30
0.0
 11
45862.95321643585
 21
-3721.059771575836
 31
0.0
  0
LINE
  5
D8E
  8
0
 10
45687.95321643585
 20
-3721.059771575836
 30
0.0
 11
45687.95321643585
 21
-3871.059771575836
 31
0.0
  0
LINE
  5
D8F
  8
0
 10
45862.95321643585
 20
-3721.059771575836
 30
0.0
 11
46037.95321643585
 21
-3721.059771575836
 31
0.0
  0
LINE
  5
D90
  8
0
 10
46037.95321643585
 20
-3721.059771575836
 30
0.0
 11
46212.95321643585
 21
-3721.059771575836
 31
0.0
  0
LINE
  5
D91
  8
0
 10
46037.95321643585
 20
-3721.059771575836
 30
0.0
 11
46037.95321643585
 21
-3871.059771575836
 31
0.0
  0
LINE
  5
D92
  8
0
 10
46212.95321643585
 20
-3721.059771575836
 30
0.0
 11
46387.95321643585
 21
-3721.059771575836
 31
0.0
  0
LINE
  5
D93
  8
0
 10
46387.95321643585
 20
-3721.059771575836
 30
0.0
 11
46562.95321643585
 21
-3721.059771575836
 31
0.0
  0
LINE
  5
D94
  8
0
 10
46387.95321643585
 20
-3721.059771575836
 30
0.0
 11
46387.95321643585
 21
-3871.059771575836
 31
0.0
  0
LINE
  5
D95
  8
0
 10
46562.95321643585
 20
-3721.059771575836
 30
0.0
 11
46737.95321643585
 21
-3721.059771575836
 31
0.0
  0
LINE
  5
D96
  8
0
 10
46737.95321643585
 20
-3721.059771575836
 30
0.0
 11
46912.95321643585
 21
-3721.059771575836
 31
0.0
  0
LINE
  5
D97
  8
0
 10
46912.95321643585
 20
-3721.059771575836
 30
0.0
 11
47087.95321643585
 21
-3721.059771575836
 31
0.0
  0
LINE
  5
D98
  8
0
 10
47087.95321643585
 20
-3721.059771575836
 30
0.0
 11
47262.95321643585
 21
-3721.059771575836
 31
0.0
  0
LINE
  5
D99
  8
0
 10
47262.95321643585
 20
-3721.059771575836
 30
0.0
 11
47437.95321643585
 21
-3721.059771575836
 31
0.0
  0
LINE
  5
D9A
  8
0
 10
47437.95321643585
 20
-3721.059771575836
 30
0.0
 11
47437.95321643585
 21
-3871.059771575836
 31
0.0
  0
LINE
  5
D9B
  8
0
 10
44112.95321643585
 20
-3871.059771575836
 30
0.0
 11
44287.95321643585
 21
-3871.059771575836
 31
0.0
  0
LINE
  5
D9D
  8
0
 10
44287.95321643585
 20
-3871.059771575836
 30
0.0
 11
44462.95321643585
 21
-3871.059771575836
 31
0.0
  0
LINE
  5
D9E
  8
0
 10
44462.95321643585
 20
-3871.059771575836
 30
0.0
 11
44637.95321643585
 21
-3871.059771575836
 31
0.0
  0
LINE
  5
DA0
  8
0
 10
44637.95321643585
 20
-3871.059771575836
 30
0.0
 11
44812.95321643585
 21
-3871.059771575836
 31
0.0
  0
LINE
  5
DA1
  8
0
 10
44812.95321643585
 20
-3871.059771575836
 30
0.0
 11
44987.95321643585
 21
-3871.059771575836
 31
0.0
  0
LINE
  5
DA2
  8
0
 10
44987.95321643585
 20
-3871.059771575836
 30
0.0
 11
45162.95321643585
 21
-3871.059771575836
 31
0.0
  0
LINE
  5
DA3
  8
0
 10
45162.95321643585
 20
-3871.059771575836
 30
0.0
 11
45337.95321643585
 21
-3871.059771575836
 31
0.0
  0
LINE
  5
DA4
  8
0
 10
45337.95321643585
 20
-3871.059771575836
 30
0.0
 11
45512.95321643585
 21
-3871.059771575836
 31
0.0
  0
LINE
  5
DA6
  8
0
 10
45512.95321643585
 20
-3871.059771575836
 30
0.0
 11
45687.95321643585
 21
-3871.059771575836
 31
0.0
  0
LINE
  5
DA7
  8
0
 10
45687.95321643585
 20
-3871.059771575836
 30
0.0
 11
45862.95321643585
 21
-3871.059771575836
 31
0.0
  0
LINE
  5
DA9
  8
0
 10
45862.95321643585
 20
-3871.059771575836
 30
0.0
 11
46037.95321643585
 21
-3871.059771575836
 31
0.0
  0
LINE
  5
DAA
  8
0
 10
46037.95321643585
 20
-3871.059771575836
 30
0.0
 11
46212.95321643585
 21
-3871.059771575836
 31
0.0
  0
LINE
  5
DAC
  8
0
 10
46212.95321643585
 20
-3871.059771575836
 30
0.0
 11
46387.95321643585
 21
-3871.059771575836
 31
0.0
  0
LINE
  5
DAD
  8
0
 10
46387.95321643585
 20
-3871.059771575836
 30
0.0
 11
46562.95321643585
 21
-3871.059771575836
 31
0.0
  0
LINE
  5
DAF
  8
0
 10
46562.95321643585
 20
-3871.059771575836
 30
0.0
 11
46737.95321643585
 21
-3871.059771575836
 31
0.0
  0
LINE
  5
DB0
  8
0
 10
46737.95321643585
 20
-3871.059771575836
 30
0.0
 11
46912.95321643585
 21
-3871.059771575836
 31
0.0
  0
LINE
  5
DB1
  8
0
 10
46912.95321643585
 20
-3871.059771575836
 30
0.0
 11
47087.95321643585
 21
-3871.059771575836
 31
0.0
  0
LINE
  5
DB2
  8
0
 10
47087.95321643585
 20
-3871.059771575836
 30
0.0
 11
47262.95321643585
 21
-3871.059771575836
 31
0.0
  0
LINE
  5
DB3
  8
0
 10
47262.95321643585
 20
-3871.059771575836
 30
0.0
 11
47437.95321643585
 21
-3871.059771575836
 31
0.0
  0
LINE
  5
DB5
  8
0
 10
44112.95321643585
 20
-3871.059771575836
 30
0.0
 11
44287.95321643585
 21
-3871.059771575836
 31
0.0
  0
LINE
  5
DB6
  8
0
 10
44112.95321643585
 20
-3871.059771575836
 30
0.0
 11
44112.95321643585
 21
-4021.059771575836
 31
0.0
  0
LINE
  5
DB7
  8
0
 10
44287.95321643585
 20
-3871.059771575836
 30
0.0
 11
44462.95321643585
 21
-3871.059771575836
 31
0.0
  0
LINE
  5
DB8
  8
0
 10
44462.95321643585
 20
-3871.059771575836
 30
0.0
 11
44637.95321643585
 21
-3871.059771575836
 31
0.0
  0
LINE
  5
DB9
  8
0
 10
44462.95321643585
 20
-3871.059771575836
 30
0.0
 11
44462.95321643585
 21
-4021.059771575836
 31
0.0
  0
LINE
  5
DBA
  8
0
 10
44637.95321643585
 20
-3871.059771575836
 30
0.0
 11
44812.95321643585
 21
-3871.059771575836
 31
0.0
  0
LINE
  5
DBB
  8
0
 10
44812.95321643585
 20
-3871.059771575836
 30
0.0
 11
44987.95321643585
 21
-3871.059771575836
 31
0.0
  0
LINE
  5
DBC
  8
0
 10
44987.95321643585
 20
-3871.059771575836
 30
0.0
 11
45162.95321643585
 21
-3871.059771575836
 31
0.0
  0
LINE
  5
DBD
  8
0
 10
45162.95321643585
 20
-3871.059771575836
 30
0.0
 11
45337.95321643585
 21
-3871.059771575836
 31
0.0
  0
LINE
  5
DBE
  8
0
 10
45337.95321643585
 20
-3871.059771575836
 30
0.0
 11
45512.95321643585
 21
-3871.059771575836
 31
0.0
  0
LINE
  5
DBF
  8
0
 10
45337.95321643585
 20
-3871.059771575836
 30
0.0
 11
45337.95321643585
 21
-4021.059771575836
 31
0.0
  0
LINE
  5
DC0
  8
0
 10
45512.95321643585
 20
-3871.059771575836
 30
0.0
 11
45687.95321643585
 21
-3871.059771575836
 31
0.0
  0
LINE
  5
DC1
  8
0
 10
45687.95321643585
 20
-3871.059771575836
 30
0.0
 11
45862.95321643585
 21
-3871.059771575836
 31
0.0
  0
LINE
  5
DC2
  8
0
 10
45687.95321643585
 20
-3871.059771575836
 30
0.0
 11
45687.95321643585
 21
-4021.059771575836
 31
0.0
  0
LINE
  5
DC3
  8
0
 10
45862.95321643585
 20
-3871.059771575836
 30
0.0
 11
46037.95321643585
 21
-3871.059771575836
 31
0.0
  0
LINE
  5
DC4
  8
0
 10
46037.95321643585
 20
-3871.059771575836
 30
0.0
 11
46212.95321643585
 21
-3871.059771575836
 31
0.0
  0
LINE
  5
DC5
  8
0
 10
46037.95321643585
 20
-3871.059771575836
 30
0.0
 11
46037.95321643585
 21
-4021.059771575836
 31
0.0
  0
LINE
  5
DC6
  8
0
 10
46212.95321643585
 20
-3871.059771575836
 30
0.0
 11
46387.95321643585
 21
-3871.059771575836
 31
0.0
  0
LINE
  5
DC7
  8
0
 10
46387.95321643585
 20
-3871.059771575836
 30
0.0
 11
46562.95321643585
 21
-3871.059771575836
 31
0.0
  0
LINE
  5
DC8
  8
0
 10
46387.95321643585
 20
-3871.059771575836
 30
0.0
 11
46387.95321643585
 21
-4021.059771575836
 31
0.0
  0
LINE
  5
DC9
  8
0
 10
46562.95321643585
 20
-3871.059771575836
 30
0.0
 11
46737.95321643585
 21
-3871.059771575836
 31
0.0
  0
LINE
  5
DCA
  8
0
 10
46737.95321643585
 20
-3871.059771575836
 30
0.0
 11
46912.95321643585
 21
-3871.059771575836
 31
0.0
  0
LINE
  5
DCB
  8
0
 10
46912.95321643585
 20
-3871.059771575836
 30
0.0
 11
47087.95321643585
 21
-3871.059771575836
 31
0.0
  0
LINE
  5
DCC
  8
0
 10
47087.95321643585
 20
-3871.059771575836
 30
0.0
 11
47262.95321643585
 21
-3871.059771575836
 31
0.0
  0
LINE
  5
DCD
  8
0
 10
47262.95321643585
 20
-3871.059771575836
 30
0.0
 11
47437.95321643585
 21
-3871.059771575836
 31
0.0
  0
LINE
  5
DCE
  8
0
 10
47437.95321643585
 20
-3871.059771575836
 30
0.0
 11
47437.95321643585
 21
-4021.059771575836
 31
0.0
  0
LINE
  5
DCF
  8
0
 10
44112.95321643585
 20
-4021.059771575836
 30
0.0
 11
44287.95321643585
 21
-4021.059771575836
 31
0.0
  0
LINE
  5
DD0
  8
0
 10
44112.95321643585
 20
-4021.059771575836
 30
0.0
 11
44112.95321643585
 21
-4171.059771575836
 31
0.0
  0
LINE
  5
DD1
  8
0
 10
44287.95321643585
 20
-4021.059771575836
 30
0.0
 11
44462.95321643585
 21
-4021.059771575836
 31
0.0
  0
LINE
  5
DD2
  8
0
 10
44462.95321643585
 20
-4021.059771575836
 30
0.0
 11
44637.95321643585
 21
-4021.059771575836
 31
0.0
  0
LINE
  5
DD3
  8
0
 10
44462.95321643585
 20
-4021.059771575836
 30
0.0
 11
44462.95321643585
 21
-4171.059771575836
 31
0.0
  0
LINE
  5
DD4
  8
0
 10
44637.95321643585
 20
-4021.059771575836
 30
0.0
 11
44812.95321643585
 21
-4021.059771575836
 31
0.0
  0
LINE
  5
DD5
  8
0
 10
44812.95321643585
 20
-4021.059771575836
 30
0.0
 11
44987.95321643585
 21
-4021.059771575836
 31
0.0
  0
LINE
  5
DD6
  8
0
 10
44987.95321643585
 20
-4021.059771575836
 30
0.0
 11
45162.95321643585
 21
-4021.059771575836
 31
0.0
  0
LINE
  5
DD7
  8
0
 10
45162.95321643585
 20
-4021.059771575836
 30
0.0
 11
45337.95321643585
 21
-4021.059771575836
 31
0.0
  0
LINE
  5
DD8
  8
0
 10
45337.95321643585
 20
-4021.059771575836
 30
0.0
 11
45512.95321643585
 21
-4021.059771575836
 31
0.0
  0
LINE
  5
DD9
  8
0
 10
45337.95321643585
 20
-4021.059771575836
 30
0.0
 11
45337.95321643585
 21
-4171.059771575836
 31
0.0
  0
LINE
  5
DDA
  8
0
 10
45512.95321643585
 20
-4021.059771575836
 30
0.0
 11
45687.95321643585
 21
-4021.059771575836
 31
0.0
  0
LINE
  5
DDB
  8
0
 10
45687.95321643585
 20
-4021.059771575836
 30
0.0
 11
45862.95321643585
 21
-4021.059771575836
 31
0.0
  0
LINE
  5
DDC
  8
0
 10
45687.95321643585
 20
-4021.059771575836
 30
0.0
 11
45687.95321643585
 21
-4171.059771575836
 31
0.0
  0
LINE
  5
DDD
  8
0
 10
45862.95321643585
 20
-4021.059771575836
 30
0.0
 11
46037.95321643585
 21
-4021.059771575836
 31
0.0
  0
LINE
  5
DDE
  8
0
 10
46037.95321643585
 20
-4021.059771575836
 30
0.0
 11
46212.95321643585
 21
-4021.059771575836
 31
0.0
  0
LINE
  5
DDF
  8
0
 10
46037.95321643585
 20
-4021.059771575836
 30
0.0
 11
46037.95321643585
 21
-4171.059771575836
 31
0.0
  0
LINE
  5
DE0
  8
0
 10
46212.95321643585
 20
-4021.059771575836
 30
0.0
 11
46387.95321643585
 21
-4021.059771575836
 31
0.0
  0
LINE
  5
DE1
  8
0
 10
46387.95321643585
 20
-4021.059771575836
 30
0.0
 11
46562.95321643585
 21
-4021.059771575836
 31
0.0
  0
LINE
  5
DE2
  8
0
 10
46387.95321643585
 20
-4021.059771575836
 30
0.0
 11
46387.95321643585
 21
-4171.059771575836
 31
0.0
  0
LINE
  5
DE3
  8
0
 10
46562.95321643585
 20
-4021.059771575836
 30
0.0
 11
46737.95321643585
 21
-4021.059771575836
 31
0.0
  0
LINE
  5
DE4
  8
0
 10
46737.95321643585
 20
-4021.059771575836
 30
0.0
 11
46912.95321643585
 21
-4021.059771575836
 31
0.0
  0
LINE
  5
DE5
  8
0
 10
46912.95321643585
 20
-4021.059771575836
 30
0.0
 11
47087.95321643585
 21
-4021.059771575836
 31
0.0
  0
LINE
  5
DE6
  8
0
 10
47087.95321643585
 20
-4021.059771575836
 30
0.0
 11
47262.95321643585
 21
-4021.059771575836
 31
0.0
  0
LINE
  5
DE7
  8
0
 10
47262.95321643585
 20
-4021.059771575836
 30
0.0
 11
47437.95321643585
 21
-4021.059771575836
 31
0.0
  0
LINE
  5
DE8
  8
0
 10
47437.95321643585
 20
-4021.059771575836
 30
0.0
 11
47437.95321643585
 21
-4171.059771575836
 31
0.0
  0
LINE
  5
DE9
  8
0
 10
44112.95321643585
 20
-4171.059771575836
 30
0.0
 11
44287.95321643585
 21
-4171.059771575836
 31
0.0
  0
LINE
  5
DEA
  8
0
 10
44112.95321643585
 20
-4321.059771575836
 30
0.0
 11
44287.95321643585
 21
-4321.059771575836
 31
0.0
  0
LINE
  5
DEB
  8
0
 10
44112.95321643585
 20
-4171.059771575836
 30
0.0
 11
44112.95321643585
 21
-4321.059771575836
 31
0.0
  0
LINE
  5
DEC
  8
0
 10
44287.95321643585
 20
-4171.059771575836
 30
0.0
 11
44462.95321643585
 21
-4171.059771575836
 31
0.0
  0
LINE
  5
DED
  8
0
 10
44287.95321643585
 20
-4321.059771575836
 30
0.0
 11
44462.95321643585
 21
-4321.059771575836
 31
0.0
  0
LINE
  5
DEE
  8
0
 10
44462.95321643585
 20
-4171.059771575836
 30
0.0
 11
44637.95321643585
 21
-4171.059771575836
 31
0.0
  0
LINE
  5
DEF
  8
0
 10
44462.95321643585
 20
-4321.059771575836
 30
0.0
 11
44637.95321643585
 21
-4321.059771575836
 31
0.0
  0
LINE
  5
DF0
  8
0
 10
44462.95321643585
 20
-4171.059771575836
 30
0.0
 11
44462.95321643585
 21
-4321.059771575836
 31
0.0
  0
LINE
  5
DF1
  8
0
 10
44637.95321643585
 20
-4171.059771575836
 30
0.0
 11
44812.95321643585
 21
-4171.059771575836
 31
0.0
  0
LINE
  5
DF2
  8
0
 10
44637.95321643585
 20
-4321.059771575836
 30
0.0
 11
44812.95321643585
 21
-4321.059771575836
 31
0.0
  0
LINE
  5
DF3
  8
0
 10
44812.95321643585
 20
-4171.059771575836
 30
0.0
 11
44987.95321643585
 21
-4171.059771575836
 31
0.0
  0
LINE
  5
DF4
  8
0
 10
44812.95321643585
 20
-4321.059771575836
 30
0.0
 11
44987.95321643585
 21
-4321.059771575836
 31
0.0
  0
LINE
  5
DF5
  8
0
 10
44987.95321643585
 20
-4171.059771575836
 30
0.0
 11
45162.95321643585
 21
-4171.059771575836
 31
0.0
  0
LINE
  5
DF6
  8
0
 10
44987.95321643585
 20
-4321.059771575836
 30
0.0
 11
45162.95321643585
 21
-4321.059771575836
 31
0.0
  0
LINE
  5
DF7
  8
0
 10
45162.95321643585
 20
-4171.059771575836
 30
0.0
 11
45337.95321643585
 21
-4171.059771575836
 31
0.0
  0
LINE
  5
DF8
  8
0
 10
45162.95321643585
 20
-4321.059771575836
 30
0.0
 11
45337.95321643585
 21
-4321.059771575836
 31
0.0
  0
LINE
  5
DF9
  8
0
 10
45337.95321643585
 20
-4171.059771575836
 30
0.0
 11
45512.95321643585
 21
-4171.059771575836
 31
0.0
  0
LINE
  5
DFA
  8
0
 10
45337.95321643585
 20
-4321.059771575836
 30
0.0
 11
45512.95321643585
 21
-4321.059771575836
 31
0.0
  0
LINE
  5
DFB
  8
0
 10
45337.95321643585
 20
-4171.059771575836
 30
0.0
 11
45337.95321643585
 21
-4321.059771575836
 31
0.0
  0
LINE
  5
DFC
  8
0
 10
45512.95321643585
 20
-4171.059771575836
 30
0.0
 11
45687.95321643585
 21
-4171.059771575836
 31
0.0
  0
LINE
  5
DFD
  8
0
 10
45512.95321643585
 20
-4321.059771575836
 30
0.0
 11
45687.95321643585
 21
-4321.059771575836
 31
0.0
  0
LINE
  5
DFE
  8
0
 10
45687.95321643585
 20
-4171.059771575836
 30
0.0
 11
45862.95321643585
 21
-4171.059771575836
 31
0.0
  0
LINE
  5
DFF
  8
0
 10
45687.95321643585
 20
-4321.059771575836
 30
0.0
 11
45862.95321643585
 21
-4321.059771575836
 31
0.0
  0
LINE
  5
E00
  8
0
 10
45687.95321643585
 20
-4171.059771575836
 30
0.0
 11
45687.95321643585
 21
-4321.059771575836
 31
0.0
  0
LINE
  5
E01
  8
0
 10
45862.95321643585
 20
-4171.059771575836
 30
0.0
 11
46037.95321643585
 21
-4171.059771575836
 31
0.0
  0
LINE
  5
E02
  8
0
 10
45862.95321643585
 20
-4321.059771575836
 30
0.0
 11
46037.95321643585
 21
-4321.059771575836
 31
0.0
  0
LINE
  5
E03
  8
0
 10
46037.95321643585
 20
-4171.059771575836
 30
0.0
 11
46212.95321643585
 21
-4171.059771575836
 31
0.0
  0
LINE
  5
E04
  8
0
 10
46037.95321643585
 20
-4321.059771575836
 30
0.0
 11
46212.95321643585
 21
-4321.059771575836
 31
0.0
  0
LINE
  5
E05
  8
0
 10
46037.95321643585
 20
-4171.059771575836
 30
0.0
 11
46037.95321643585
 21
-4321.059771575836
 31
0.0
  0
LINE
  5
E06
  8
0
 10
46212.95321643585
 20
-4171.059771575836
 30
0.0
 11
46387.95321643585
 21
-4171.059771575836
 31
0.0
  0
LINE
  5
E07
  8
0
 10
46212.95321643585
 20
-4321.059771575836
 30
0.0
 11
46387.95321643585
 21
-4321.059771575836
 31
0.0
  0
LINE
  5
E08
  8
0
 10
46387.95321643585
 20
-4171.059771575836
 30
0.0
 11
46562.95321643585
 21
-4171.059771575836
 31
0.0
  0
LINE
  5
E09
  8
0
 10
46387.95321643585
 20
-4321.059771575836
 30
0.0
 11
46562.95321643585
 21
-4321.059771575836
 31
0.0
  0
LINE
  5
E0A
  8
0
 10
46387.95321643585
 20
-4171.059771575836
 30
0.0
 11
46387.95321643585
 21
-4321.059771575836
 31
0.0
  0
LINE
  5
E0B
  8
0
 10
46562.95321643585
 20
-4171.059771575836
 30
0.0
 11
46737.95321643585
 21
-4171.059771575836
 31
0.0
  0
LINE
  5
E0C
  8
0
 10
46562.95321643585
 20
-4321.059771575836
 30
0.0
 11
46737.95321643585
 21
-4321.059771575836
 31
0.0
  0
LINE
  5
E0D
  8
0
 10
46737.95321643585
 20
-4171.059771575836
 30
0.0
 11
46912.95321643585
 21
-4171.059771575836
 31
0.0
  0
LINE
  5
E0E
  8
0
 10
46737.95321643585
 20
-4321.059771575836
 30
0.0
 11
46912.95321643585
 21
-4321.059771575836
 31
0.0
  0
LINE
  5
E0F
  8
0
 10
46912.95321643585
 20
-4171.059771575836
 30
0.0
 11
47087.95321643585
 21
-4171.059771575836
 31
0.0
  0
LINE
  5
E10
  8
0
 10
46912.95321643585
 20
-4321.059771575836
 30
0.0
 11
47087.95321643585
 21
-4321.059771575836
 31
0.0
  0
LINE
  5
E11
  8
0
 10
47087.95321643585
 20
-4171.059771575836
 30
0.0
 11
47262.95321643585
 21
-4171.059771575836
 31
0.0
  0
LINE
  5
E12
  8
0
 10
47087.95321643585
 20
-4321.059771575836
 30
0.0
 11
47262.95321643585
 21
-4321.059771575836
 31
0.0
  0
LINE
  5
E13
  8
0
 10
47262.95321643585
 20
-4171.059771575836
 30
0.0
 11
47437.95321643585
 21
-4171.059771575836
 31
0.0
  0
LINE
  5
E14
  8
0
 10
47262.95321643585
 20
-4321.059771575836
 30
0.0
 11
47437.95321643585
 21
-4321.059771575836
 31
0.0
  0
LINE
  5
E15
  8
0
 10
47437.95321643585
 20
-4171.059771575836
 30
0.0
 11
47437.95321643585
 21
-4321.059771575836
 31
0.0
  0
TEXT
  5
E16
  8
0
  6
CONTINUOUS
 10
44159.19882402383
 20
-4282.774164138129
 30
0.0
 40
75.0
  1
品　番
  0
TEXT
  5
E17
  8
0
  6
CONTINUOUS
 10
44668.64263344114
 20
-4279.533142611239
 30
0.0
 40
75.0
  1
名　　　称
  0
TEXT
  5
E18
  8
0
  6
CONTINUOUS
 10
45383.48744639358
 20
-4280.214223267307
 30
0.0
 40
75.0
  1
サイズ
  0
TEXT
  5
E19
  8
0
  6
CONTINUOUS
 10
45728.24456447968
 20
-4281.10228123155
 30
0.0
 40
75.0
  1
材　質
  0
TEXT
  5
E1A
  8
0
  6
CONTINUOUS
 10
46081.17106207809
 20
-4281.846221245476
 30
0.0
 40
75.0
  1
個　数
  0
TEXT
  5
E1B
  8
0
  6
CONTINUOUS
 10
46674.48595337593
 20
-4281.708680575364
 30
0.0
 40
75.0
  1
摘　　　要
  0
TEXT
  5
E1C
  8
0
  6
CONTINUOUS
 10
44274.91913416516
 20
-4136.667394176184
 30
0.0
 40
75.0
  1
１
  0
TEXT
  5
E1D
  8
0
  6
CONTINUOUS
 10
44689.39667391358
 20
-4130.728082305373
 30
0.0
 40
75.0
  1
タ　ン　ク
  0
TEXT
  5
E1E
  8
0
  6
CONTINUOUS
 10
45732.36043257499
 20
-4134.011045032879
 30
0.0
 40
75.0
  1
Ｐ　Ｅ
  0
TEXT
  5
E1F
  8
0
  6
CONTINUOUS
 10
46199.39487854112
 20
-4135.486819502083
 30
0.0
 40
75.0
  1
１
  0
TEXT
  5
E20
  8
0
  6
CONTINUOUS
 10
46434.5464253244
 20
-4127.9562140872
 30
0.0
 40
75.0
  1
（茶）　ｔ＝9
  0
TEXT
  5
E21
  8
0
  6
CONTINUOUS
 10
44264.60173841193
 20
-3982.653125049284
 30
0.0
 40
75.0
  1
２
  0
TEXT
  5
E22
  8
0
  6
CONTINUOUS
 10
44681.6804208206
 20
-3976.209966225462
 30
0.0
 40
75.0
  1
マンホール
  0
TEXT
  5
E23
  8
0
  6
CONTINUOUS
 10
45733.38421245269
 20
-3978.304278317315
 30
0.0
 40
75.0
  1
Ｐ　Ｅ
  0
TEXT
  5
E24
  8
0
  6
CONTINUOUS
 10
46438.16996390908
 20
-3978.168080138275
 30
0.0
 40
75.0
  1
捻込式
  0
TEXT
  5
E26
  8
0
  6
CONTINUOUS
 10
44177.3402182085
 20
-3828.403444903961
 30
0.0
 40
75.0
  1
Ｎ－１
  0
TEXT
  5
E27
  8
0
  6
CONTINUOUS
 10
44175.74551780056
 20
-3680.29866135621
 30
0.0
 40
75.0
  1
Ｎ－２
  0
TEXT
  5
E28
  8
0
  6
CONTINUOUS
 10
44173.73936751601
 20
-3532.386218423926
 30
0.0
 40
75.0
  1
Ｎ－３
  0
TEXT
  5
E2B
  8
0
  6
CONTINUOUS
 10
46199.39487854112
 20
-3984.542899292428
 30
0.0
 40
75.0
  1
１
  0
TEXT
  5
E2D
  8
0
  6
CONTINUOUS
 10
46199.39487854112
 20
-3834.267938708537
 30
0.0
 40
75.0
  1
１
  0
TEXT
  5
E2E
  8
0
  6
CONTINUOUS
 10
46199.39487854112
 20
-3683.784432061802
 30
0.0
 40
75.0
  1
１
  0
TEXT
  5
E2F
  8
0
  6
CONTINUOUS
 10
46199.39487854112
 20
-3535.311231476138
 30
0.0
 40
75.0
  1
１
  0
TEXT
  5
E34
  8
0
 10
45399.91224828383
 20
-3836.760841931039
 30
0.0
 40
75.0
  1
６５
  0
TEXT
  5
E35
  8
0
 10
45586.82904097888
 20
-3801.580800340787
 30
0.0
 40
50.0
  1
Ａ
  0
TEXT
  5
E36
  8
0
 10
45399.91224828383
 20
-3688.475382269065
 30
0.0
 40
75.0
  1
６５
  0
TEXT
  5
E37
  8
0
 10
45586.82904097888
 20
-3653.295340678836
 30
0.0
 40
50.0
  1
Ａ
  0
TEXT
  5
E3E
  8
0
 10
45392.8344045563
 20
-4129.553584252779
 30
0.0
 40
75.0
  1
10ｍ
  0
TEXT
  5
E3F
  8
0
 10
45579.75119725135
 20
-4094.373542662527
 30
0.0
 40
50.0
  1
３
  0
TEXT
  5
E40
  8
0
 10
45365.51296696153
 20
-3977.590840097912
 30
0.0
 40
75.0
  1
φ500
  0
INSERT
  5
E42
  8
0
  2
*X23
 10
0.0
 20
0.0
 30
0.0
  0
TEXT
  5
E43
  8
0
  6
CONTINUOUS
 10
44689.39667391358
 20
-3837.04720316999
 30
0.0
 40
75.0
  1
液　出　口
  0
TEXT
  5
E44
  8
0
  6
CONTINUOUS
 10
44689.39667391358
 20
-3680.448550367029
 30
0.0
 40
75.0
  1
エアー抜き
  0
TEXT
  5
E45
  8
0
  6
CONTINUOUS
 10
44689.39667391358
 20
-3533.605302690557
 30
0.0
 40
75.0
  1
ゲ　ー　ジ
  0
TEXT
  5
E46
  8
0
 10
45731.68655193396
 20
-3837.839718614794
 30
0.0
 40
75.0
  1
AL/SS
 41
0.7
  0
TEXT
  5
E48
  8
0
 10
45704.1220956141
 20
-3684.829069371233
 30
0.0
 40
75.0
  1
PE/PVC
 41
0.7
  0
TEXT
  5
E49
  8
0
 10
48018.30914678518
 20
-3530.534328811096
 30
0.0
 40
75.0
  1
ﾌｨｯﾃｨﾝｸﾞ・六角ﾆｯﾌﾟﾙ・ｹﾞｰﾄﾊﾞﾙﾌﾞ付
 41
0.7
  0
TEXT
  5
E4A
  8
0
 10
46425.21124340848
 20
-3680.766778009718
 30
0.0
 40
75.0
  1
L型ベント管付
  0
TEXT
  5
E4B
  8
0
 10
46423.64510531107
 20
-3532.486997265494
 30
0.0
 40
75.0
  1
ﾁｭｰﾌﾞ式液面計
  0
LINE
  5
1632
  8
細線
  6
CENTER
 10
40731.85397636039
 20
-2196.696593245789
 30
0.0
 11
40731.85397636039
 21
-4873.431485428329
 31
0.0
  0
POINT
  5
1633
  8
細線
  6
CONTINUOUS
 10
40739.87542123314
 20
-2273.90901816776
 30
0.0
  0
LINE
  5
1636
  8
細線
  6
CONTINUOUS
 10
40724.85397636039
 20
-2267.834660675273
 30
0.0
 11
40738.85397636039
 21
-2267.834660675273
 31
0.0
  0
LINE
  5
1637
  8
細線
  6
CONTINUOUS
 10
40724.85397636039
 20
-2252.834660675273
 30
0.0
 11
40724.85397636039
 21
-2267.834660675273
 31
0.0
  0
LINE
  5
1638
  8
細線
  6
CONTINUOUS
 10
40738.85397636039
 20
-2252.834660675273
 30
0.0
 11
40738.85397636039
 21
-2267.834660675273
 31
0.0
  0
LINE
  5
1639
  8
細線
  6
CENTER
 10
40719.11620161832
 20
-2252.834660675273
 30
0.0
 11
40744.15963622622
 21
-2252.834660675273
 31
0.0
  0
LINE
  5
163A
  8
細線
  6
CONTINUOUS
 10
40728.35397636039
 20
-2282.834660675273
 30
0.0
 11
40735.35397636039
 21
-2282.834660675273
 31
0.0
  0
LINE
  5
163B
  8
細線
  6
CONTINUOUS
 10
40727.85397636039
 20
-2268.834660675273
 30
0.0
 11
40727.85397636039
 21
-2270.789252456968
 31
0.0
  0
LINE
  5
163C
  8
細線
  6
CONTINUOUS
 10
40735.85397636039
 20
-2268.834660675273
 30
0.0
 11
40735.85397636039
 21
-2270.789252456968
 31
0.0
  0
LINE
  5
163D
  8
細線
  6
CONTINUOUS
 10
40725.07635079743
 20
-2271.789252456968
 30
0.0
 11
40737.75254739531
 21
-2271.789252456968
 31
0.0
  0
LINE
  5
163E
  8
細線
  6
CONTINUOUS
 10
40724.79832929859
 20
-2276.017156043467
 30
0.0
 11
40736.85397636039
 21
-2276.017156043467
 31
0.0
  0
LINE
  5
163F
  8
細線
  6
CONTINUOUS
 10
40726.85397636039
 20
-2275.017156043467
 30
0.0
 11
40737.08758507432
 21
-2275.017156043467
 31
0.0
  0
LINE
  5
1640
  8
細線
  6
CONTINUOUS
 10
40726.85397636039
 20
-2277.017156043467
 30
0.0
 11
40739.92269883589
 21
-2277.017156043467
 31
0.0
  0
LINE
  5
1641
  8
細線
  6
CONTINUOUS
 10
40726.85397636039
 20
-2272.789252456967
 30
0.0
 11
40737.09223515367
 21
-2272.789252456967
 31
0.0
  0
LINE
  5
1642
  8
細線
  6
CONTINUOUS
 10
40726.85397636039
 20
-2270.789252456968
 30
0.0
 11
40739.81149023635
 21
-2270.789252456968
 31
0.0
  0
LINE
  5
1643
  8
細線
  6
CENTER
 10
40741.85397636039
 20
-2269.789252456967
 30
0.0
 11
40741.85397636039
 21
-2271.653952845325
 31
0.0
  0
LINE
  5
1644
  8
細線
  6
CONTINUOUS
 10
40735.85397636039
 20
-2280.017156043467
 30
0.0
 11
40739.85397636039
 21
-2280.017156043467
 31
0.0
  0
LINE
  5
1645
  8
細線
  6
CONTINUOUS
 10
40735.85397636039
 20
-2267.789252456967
 30
0.0
 11
40739.85397636039
 21
-2267.789252456967
 31
0.0
  0
LINE
  5
1646
  8
細線
  6
CONTINUOUS
 10
40737.93892956004
 20
-2274.40901816776
 30
0.0
 11
40738.87542123314
 21
-2274.40901816776
 31
0.0
  0
LINE
  5
1647
  8
細線
  6
CONTINUOUS
 10
40737.93892956004
 20
-2273.40901816776
 30
0.0
 11
40738.87542123314
 21
-2273.40901816776
 31
0.0
  0
LINE
  5
1648
  8
細線
  6
CONTINUOUS
 10
40740.37542123314
 20
-2271.972526494656
 30
0.0
 11
40740.37542123314
 21
-2272.90901816776
 31
0.0
  0
LINE
  5
1649
  8
細線
  6
CONTINUOUS
 10
40739.37542123314
 20
-2271.972526494656
 30
0.0
 11
40739.37542123314
 21
-2272.90901816776
 31
0.0
  0
LINE
  5
164A
  8
細線
  6
CENTER
 10
40741.85397636039
 20
-2276.164083490194
 30
0.0
 11
40741.85397636039
 21
-2278.017156043466
 31
0.0
  0
LINE
  5
164B
  8
細線
  6
CONTINUOUS
 10
40739.37542123314
 20
-2274.90901816776
 30
0.0
 11
40739.37542123314
 21
-2275.845509840864
 31
0.0
  0
LINE
  5
164C
  8
細線
  6
CONTINUOUS
 10
40740.87542123314
 20
-2274.40901816776
 30
0.0
 11
40741.81191290624
 21
-2274.40901816776
 31
0.0
  0
LINE
  5
164D
  8
細線
  6
CONTINUOUS
 10
40740.87542123314
 20
-2273.40901816776
 30
0.0
 11
40741.81191290624
 21
-2273.40901816776
 31
0.0
  0
LINE
  5
164E
  8
細線
  6
CONTINUOUS
 10
40740.37542123314
 20
-2274.90901816776
 30
0.0
 11
40740.37542123314
 21
-2275.845509840864
 31
0.0
  0
ARC
  5
164F
  8
細線
  6
CONTINUOUS
 10
40731.85397636039
 20
-2252.834660675273
 30
0.0
 40
7.0
 50
0.0
 51
180.0
  0
ARC
  5
1650
  8
細線
  6
CONTINUOUS
 10
40726.85397636039
 20
-2271.789252456968
 30
0.0
 40
0.9999999999999432
 50
90.0
 51
270.0
  0
ARC
  5
1651
  8
細線
  6
CONTINUOUS
 10
40726.85397636039
 20
-2276.017156043466
 30
0.0
 40
0.9999999999999432
 50
90.0
 51
270.0
  0
CIRCLE
  5
1652
  8
細線
  6
CONTINUOUS
 10
40739.87542123314
 20
-2273.909018167759
 30
0.0
 40
3.0
  0
ARC
  5
1653
  8
細線
  6
CONTINUOUS
 10
40739.85397636039
 20
-2269.789252456968
 30
0.0
 40
2.0
 50
0.0
 51
90.0
  0
ARC
  5
1654
  8
細線
  6
CONTINUOUS
 10
40739.85397636039
 20
-2278.017156043466
 30
0.0
 40
2.0
 50
270.0
 51
0.0
  0
ARC
  5
1655
  8
細線
  6
CONTINUOUS
 10
40739.87542123314
 20
-2273.909018167759
 30
0.0
 40
2.000000000000001
 50
345.5224878140901
 51
14.47751218590991
  0
ARC
  5
1656
  8
細線
  6
CONTINUOUS
 10
40739.87542123314
 20
-2273.909018167759
 30
0.0
 40
2.000000000000001
 50
255.5224878140705
 51
284.4775121859295
  0
ARC
  5
1657
  8
細線
  6
CONTINUOUS
 10
40739.87542123314
 20
-2273.909018167759
 30
0.0
 40
2.000000000000001
 50
75.52248781407056
 51
104.4775121859294
  0
ARC
  5
1658
  8
細線
  6
CONTINUOUS
 10
40739.87542123314
 20
-2273.909018167759
 30
0.0
 40
2.000000000000001
 50
165.5224878140901
 51
194.4775121859099
  0
ARC
  5
1659
  8
細線
  6
CONTINUOUS
 10
40738.87542123314
 20
-2272.909018167759
 30
0.0
 40
0.5
 50
270.0
 51
0.0
  0
ARC
  5
165A
  8
細線
  6
CONTINUOUS
 10
40738.87542123314
 20
-2274.909018167759
 30
0.0
 40
0.5
 50
0.0
 51
90.0
  0
ARC
  5
165B
  8
細線
  6
CONTINUOUS
 10
40740.87542123314
 20
-2274.909018167759
 30
0.0
 40
0.5
 50
90.0
 51
180.0
  0
ARC
  5
165C
  8
細線
  6
CONTINUOUS
 10
40740.87542123314
 20
-2272.909018167759
 30
0.0
 40
0.5
 50
180.0
 51
270.0
  0
ARC
  5
165D
  8
細線
  6
CONTINUOUS
 10
40728.35397636039
 20
-2282.334660675273
 30
0.0
 40
0.5
 50
180.0
 51
270.0
  0
ARC
  5
165E
  8
細線
  6
CONTINUOUS
 10
40735.35397636039
 20
-2282.334660675273
 30
0.0
 40
0.5
 50
270.0
 51
0.0
  0
ARC
  5
165F
  8
細線
  6
CONTINUOUS
 10
40726.85397636039
 20
-2268.834660675272
 30
0.0
 40
1.0
 50
0.0
 51
90.0
  0
ARC
  5
1660
  8
細線
  6
CONTINUOUS
 10
40736.85397636039
 20
-2268.834660675272
 30
0.0
 40
1.0
 50
90.0
 51
180.0
  0
POINT
  5
1661
  8
細線
  6
CONTINUOUS
 10
40739.87542123314
 20
-4831.760303182787
 30
0.0
  0
LINE
  5
1662
  8
細線
 10
40726.85397636039
 20
-4837.834660675273
 30
0.0
 11
40726.85397636038
 21
-4834.880068893578
 31
0.0
  0
LINE
  5
1663
  8
細線
 10
40736.85397636039
 20
-4837.834660675273
 30
0.0
 11
40736.85397636039
 21
-4834.880068893578
 31
0.0
  0
LINE
  5
1664
  8
細線
  6
CONTINUOUS
 10
40724.85397636039
 20
-4837.834660675273
 30
0.0
 11
40738.85397636039
 21
-4837.834660675273
 31
0.0
  0
LINE
  5
1665
  8
細線
  6
CONTINUOUS
 10
40724.85397636039
 20
-4852.834660675273
 30
0.0
 11
40724.85397636039
 21
-4837.834660675273
 31
0.0
  0
LINE
  5
1666
  8
細線
  6
CONTINUOUS
 10
40738.85397636039
 20
-4852.834660675273
 30
0.0
 11
40738.85397636039
 21
-4837.834660675273
 31
0.0
  0
LINE
  5
1667
  8
細線
  6
CENTER
 10
40719.11620161832
 20
-4852.834660675273
 30
0.0
 11
40744.15963622622
 21
-4852.834660675273
 31
0.0
  0
LINE
  5
1668
  8
細線
  6
CONTINUOUS
 10
40728.35397636039
 20
-4822.834660675273
 30
0.0
 11
40735.35397636039
 21
-4822.834660675273
 31
0.0
  0
LINE
  5
1669
  8
細線
  6
CONTINUOUS
 10
40727.85397636039
 20
-4836.834660675274
 30
0.0
 11
40727.8539763604
 21
-4834.880068893578
 31
0.0
  0
LINE
  5
166A
  8
細線
  6
CONTINUOUS
 10
40735.85397636039
 20
-4836.834660675274
 30
0.0
 11
40735.85397636039
 21
-4834.880068893578
 31
0.0
  0
LINE
  5
166B
  8
細線
  6
CONTINUOUS
 10
40725.07635079743
 20
-4833.880068893578
 30
0.0
 11
40737.75254739531
 21
-4833.880068893578
 31
0.0
  0
LINE
  5
166C
  8
細線
  6
CONTINUOUS
 10
40724.79832929859
 20
-4829.652165307079
 30
0.0
 11
40736.85397636039
 21
-4829.652165307079
 31
0.0
  0
LINE
  5
166D
  8
細線
  6
CONTINUOUS
 10
40726.85397636039
 20
-4830.652165307079
 30
0.0
 11
40737.08758507432
 21
-4830.652165307079
 31
0.0
  0
LINE
  5
166E
  8
細線
  6
CONTINUOUS
 10
40726.85397636039
 20
-4828.652165307079
 30
0.0
 11
40739.92269883589
 21
-4828.652165307079
 31
0.0
  0
LINE
  5
166F
  8
細線
  6
CONTINUOUS
 10
40726.85397636039
 20
-4832.880068893579
 30
0.0
 11
40737.09223515367
 21
-4832.880068893579
 31
0.0
  0
LINE
  5
1670
  8
細線
  6
CONTINUOUS
 10
40726.85397636039
 20
-4834.880068893578
 30
0.0
 11
40739.81149023635
 21
-4834.880068893578
 31
0.0
  0
LINE
  5
1671
  8
細線
  6
CENTER
 10
40741.85397636039
 20
-4835.880068893579
 30
0.0
 11
40741.85397636039
 21
-4834.015368505221
 31
0.0
  0
LINE
  5
1672
  8
細線
  6
CONTINUOUS
 10
40735.85397636039
 20
-4825.652165307079
 30
0.0
 11
40739.85397636039
 21
-4825.652165307079
 31
0.0
  0
LINE
  5
1673
  8
細線
  6
CONTINUOUS
 10
40735.85397636039
 20
-4837.880068893579
 30
0.0
 11
40739.85397636039
 21
-4837.880068893579
 31
0.0
  0
LINE
  5
1674
  8
細線
  6
CONTINUOUS
 10
40737.93892956004
 20
-4831.260303182787
 30
0.0
 11
40738.87542123314
 21
-4831.260303182787
 31
0.0
  0
LINE
  5
1675
  8
細線
  6
CONTINUOUS
 10
40737.93892956004
 20
-4832.260303182787
 30
0.0
 11
40738.87542123314
 21
-4832.260303182787
 31
0.0
  0
LINE
  5
1676
  8
細線
  6
CONTINUOUS
 10
40740.37542123314
 20
-4833.69679485589
 30
0.0
 11
40740.37542123314
 21
-4832.760303182787
 31
0.0
  0
LINE
  5
1677
  8
細線
  6
CONTINUOUS
 10
40739.37542123314
 20
-4833.69679485589
 30
0.0
 11
40739.37542123314
 21
-4832.760303182787
 31
0.0
  0
LINE
  5
1678
  8
細線
  6
CENTER
 10
40741.85397636039
 20
-4829.505237860352
 30
0.0
 11
40741.85397636039
 21
-4827.65216530708
 31
0.0
  0
LINE
  5
1679
  8
細線
  6
CONTINUOUS
 10
40739.37542123314
 20
-4830.760303182787
 30
0.0
 11
40739.37542123314
 21
-4829.823811509683
 31
0.0
  0
LINE
  5
167A
  8
細線
  6
CONTINUOUS
 10
40740.87542123314
 20
-4831.260303182787
 30
0.0
 11
40741.81191290624
 21
-4831.260303182787
 31
0.0
  0
LINE
  5
167B
  8
細線
  6
CONTINUOUS
 10
40740.87542123314
 20
-4832.260303182787
 30
0.0
 11
40741.81191290624
 21
-4832.260303182787
 31
0.0
  0
LINE
  5
167C
  8
細線
  6
CONTINUOUS
 10
40740.37542123314
 20
-4830.760303182787
 30
0.0
 11
40740.37542123314
 21
-4829.823811509683
 31
0.0
  0
ARC
  5
167D
  8
細線
  6
CONTINUOUS
 10
40731.85397636039
 20
-4852.834660675275
 30
0.0
 40
7.0
 50
180.0
 51
0.0
  0
ARC
  5
167E
  8
細線
  6
CONTINUOUS
 10
40726.85397636039
 20
-4833.880068893579
 30
0.0
 40
0.9999999999999432
 50
90.0
 51
270.0
  0
ARC
  5
167F
  8
細線
  6
CONTINUOUS
 10
40726.85397636039
 20
-4829.652165307081
 30
0.0
 40
0.9999999999999432
 50
90.0
 51
270.0
  0
CIRCLE
  5
1680
  8
細線
  6
CONTINUOUS
 10
40739.87542123314
 20
-4831.760303182788
 30
0.0
 40
3.0
  0
ARC
  5
1681
  8
細線
  6
CONTINUOUS
 10
40739.85397636039
 20
-4835.880068893579
 30
0.0
 40
2.0
 50
270.0
 51
0.0
  0
ARC
  5
1682
  8
細線
  6
CONTINUOUS
 10
40739.85397636039
 20
-4827.652165307081
 30
0.0
 40
2.0
 50
0.0
 51
90.0
  0
ARC
  5
1683
  8
細線
  6
CONTINUOUS
 10
40739.87542123314
 20
-4831.760303182788
 30
0.0
 40
2.000000000000001
 50
345.5224878140901
 51
14.47751218590991
  0
ARC
  5
1684
  8
細線
  6
CONTINUOUS
 10
40739.87542123314
 20
-4831.760303182788
 30
0.0
 40
2.000000000000001
 50
75.52248781407056
 51
104.4775121859294
  0
ARC
  5
1685
  8
細線
  6
CONTINUOUS
 10
40739.87542123314
 20
-4831.760303182788
 30
0.0
 40
2.000000000000001
 50
255.5224878140705
 51
284.4775121859295
  0
ARC
  5
1686
  8
細線
  6
CONTINUOUS
 10
40739.87542123314
 20
-4831.760303182788
 30
0.0
 40
2.000000000000001
 50
165.5224878140901
 51
194.4775121859099
  0
ARC
  5
1687
  8
細線
  6
CONTINUOUS
 10
40738.87542123314
 20
-4832.760303182788
 30
0.0
 40
0.5
 50
0.0
 51
90.0
  0
ARC
  5
1688
  8
細線
  6
CONTINUOUS
 10
40738.87542123314
 20
-4830.760303182788
 30
0.0
 40
0.5
 50
270.0
 51
0.0
  0
ARC
  5
1689
  8
細線
  6
CONTINUOUS
 10
40740.87542123314
 20
-4830.760303182788
 30
0.0
 40
0.5
 50
180.0
 51
270.0
  0
ARC
  5
168A
  8
細線
  6
CONTINUOUS
 10
40740.87542123314
 20
-4832.760303182788
 30
0.0
 40
0.5
 50
90.0
 51
180.0
  0
ARC
  5
168B
  8
細線
  6
CONTINUOUS
 10
40728.35397636039
 20
-4823.334660675275
 30
0.0
 40
0.5
 50
90.0
 51
180.0
  0
ARC
  5
168C
  8
細線
  6
CONTINUOUS
 10
40735.35397636039
 20
-4823.334660675275
 30
0.0
 40
0.5
 50
0.0
 51
90.0
  0
ARC
  5
168D
  8
細線
  6
CONTINUOUS
 10
40726.85397636039
 20
-4836.834660675275
 30
0.0
 40
1.0
 50
270.0
 51
0.0
  0
ARC
  5
168E
  8
細線
  6
CONTINUOUS
 10
40736.85397636039
 20
-4836.834660675275
 30
0.0
 40
1.0
 50
180.0
 51
270.0
  0
INSERT
  5
16A5
  8
0
  2
液面計平面図
 10
44739.11816096568
 20
-2278.621288404975
 30
0.0
  0
LINE
  5
17D2
  8
0
  6
CONTINUOUS
 62
     1
 10
45695.09982875535
 20
-1095.121288404975
 30
0.0
 11
45694.37295875559
 21
-1093.366468993475
 31
0.0
  0
LINE
  5
17D9
  8
0
  6
CONTINUOUS
 62
     1
 10
45695.09984139614
 20
-1182.121288404975
 30
0.0
 11
45694.37295875559
 21
-1183.876138334052
 31
0.0
  0
POINT
  5
17DA
  8
0
  6
CENTER
 10
45649.1181240853
 20
-1138.621288404975
 30
0.0
  0
INSERT
  5
181F
  8
0
  2
６５ＡエアーＬ_正面図
 10
41641.85397414801
 20
-1952.834555622087
 30
0.0
  0
LINE
  5
1824
  8
細線
 10
40726.85397636038
 20
-4828.652165307079
 30
0.0
 11
40726.85397636038
 21
-2277.017156043466
 31
0.0
  0
LINE
  5
1825
  8
細線
  6
CONTINUOUS
 10
40727.85397636039
 20
-4828.652165307079
 30
0.0
 11
40727.85397636039
 21
-4823.334660675273
 31
0.0
  0
LINE
  5
1826
  8
細線
 10
40726.85397636039
 20
-4832.88006889358
 30
0.0
 11
40726.85397636039
 21
-4830.652165307079
 31
0.0
  0
LINE
  5
1827
  8
細線
  6
CONTINUOUS
 10
40727.85397636039
 20
-4832.880068893579
 30
0.0
 11
40727.85397636039
 21
-4830.652165307079
 31
0.0
  0
LINE
  5
182A
  8
細線
  6
CONTINUOUS
 10
40735.85397636038
 20
-4828.652165307079
 30
0.0
 11
40735.85397636039
 21
-4823.334660675273
 31
0.0
  0
LINE
  5
182B
  8
細線
  6
CONTINUOUS
 10
40735.85397636039
 20
-4832.880068893579
 30
0.0
 11
40735.85397636039
 21
-4830.652165307079
 31
0.0
  0
LINE
  5
182C
  8
細線
 10
40736.85397636039
 20
-4828.652165307079
 30
0.0
 11
40736.85397636038
 21
-2280.017156043467
 31
0.0
  0
LINE
  5
182D
  8
細線
 10
40736.85397636038
 20
-4832.880068893579
 30
0.0
 11
40736.85397636039
 21
-4830.65216530708
 31
0.0
  0
LINE
  5
182E
  8
細線
 10
40726.85397636039
 20
-2270.789252456969
 30
0.0
 11
40726.85397636039
 21
-2267.834660675273
 31
0.0
  0
LINE
  5
182F
  8
細線
  6
CONTINUOUS
 10
40727.85397636038
 20
-2272.789252456968
 30
0.0
 11
40727.85397636038
 21
-2275.017156043467
 31
0.0
  0
LINE
  5
1830
  8
細線
  6
CONTINUOUS
 10
40735.85397636038
 20
-2272.789252456968
 30
0.0
 11
40735.85397636038
 21
-2275.017156043467
 31
0.0
  0
LINE
  5
1831
  8
細線
  6
CONTINUOUS
 10
40727.85397636038
 20
-2277.017156043466
 30
0.0
 11
40727.85397636039
 21
-2282.334660675273
 31
0.0
  0
LINE
  5
1832
  8
細線
 10
40726.85397636038
 20
-2275.017156043467
 30
0.0
 11
40726.85397636038
 21
-2272.789252456968
 31
0.0
  0
LINE
  5
1833
  8
細線
  6
CONTINUOUS
 10
40735.85397636038
 20
-2277.017156043466
 30
0.0
 11
40735.85397636039
 21
-2282.334660675273
 31
0.0
  0
INSERT
  5
1909
  8
0
 66
     1
  2
N-BALOON
 10
44463.94761117171
 20
-2711.120952472924
 30
0.0
  0
ATTRIB
  5
190A
  8
0
 10
44506.28396218673
 20
-2735.865976471428
 30
0.0
 40
50.0
  1
1
  2
NO.
 70
     0
  0
SEQEND
  5
190B
  8
0
  0
INSERT
  5
190C
  8
0
 66
     1
  2
N-BALOON
 10
46085.99042003431
 20
-1138.621288404975
 30
0.0
  0
ATTRIB
  5
190D
  8
0
 10
46128.32677104933
 20
-1163.366312403479
 30
0.0
 40
50.0
  1
2
  2
NO.
 70
     0
  0
SEQEND
  5
190E
  8
0
  0
INSERT
  5
190F
  8
0
 66
     1
  2
N-BALOON
 10
44739.11816096568
 20
-2480.080581484435
 30
0.0
  0
ATTRIB
  5
1910
  8
0
 10
44781.4545119807
 20
-2504.82560548294
 30
0.0
 40
50.0
  1
3
  2
NO.
 70
     0
  0
SEQEND
  5
1911
  8
0
  0
TEXT
  5
1912
  8
0
 10
44710.21519470569
 20
588.849042969523
 30
0.0
 40
75.0
  1
０°
  0
TEXT
  5
1913
  8
0
 10
46269.50985891504
 20
-1168.945265463823
 30
0.0
 40
75.0
  1
９０°
  0
TEXT
  5
1914
  8
0
 10
44624.64688751264
 20
-2731.732482156884
 30
0.0
 40
75.0
  1
１８０°
  0
TEXT
  5
1915
  8
0
 10
44197.76985140626
 20
-2932.577614666753
 30
0.0
 40
75.0
  1
１９０°
  0
TEXT
  5
1916
  8
0
 10
43165.07492786909
 20
-1180.91870527088
 30
0.0
 40
75.0
  1
２７０°
  0
INSERT
  5
1B3E
  8
0
  2
*X24
 10
0.0
 20
0.0
 30
0.0
  0
TEXT
  5
1B3F
  8
0
  6
CONTINUOUS
 10
45321.42699475564
 20
-2501.174327436544
 30
0.0
 40
75.0
  1
目盛位置
  0
DIMENSION
  5
1B4A
  8
寸法線
  2
*D18
 10
40237.99832014176
 20
-4952.834660675275
 30
0.0
 11
40157.99832014176
 21
-5226.584660675268
 31
0.0
 70
    32
 13
40370.19738920643
 23
-4822.834660675275
 33
0.0
 14
40370.19738920643
 24
-4952.834660675275
 34
0.0
 50
90.0
  0
DIMENSION
  5
1B64
  8
寸法線
  2
*D19
 10
40968.04451525085
 20
-4952.834660675274
 30
0.0
 11
40888.04451525085
 21
-5220.334660675268
 31
0.0
 70
    32
 13
40731.85397636039
 23
-4852.834660675275
 33
0.0
 14
40738.85397636038
 24
-4952.834660675274
 34
0.0
 50
90.0
  0
DIMENSION
  5
1B73
  8
寸法線
  2
*D20
 10
40968.04451525085
 20
-2252.834660675273
 30
0.0
 11
40888.04451525085
 21
-3552.834660675268
 31
0.0
 70
    32
 13
40731.85397636039
 23
-4852.834660675275
 33
0.0
 14
40731.85397636039
 24
-2252.834660675273
 34
0.0
 50
90.0
  0
INSERT
  5
1BEB
  8
0
 66
     1
  2
N-BALOON
 10
40077.34367113928
 20
-4350.769632281947
 30
0.0
  0
ATTRIB
  5
1BEC
  8
0
 10
40119.6800221543
 20
-4375.514656280451
 30
0.0
 40
50.0
  1
1
  2
NO.
 70
     0
  0
SEQEND
  5
1BED
  8
0
  0
INSERT
  5
1BEE
  8
0
 66
     1
  2
N-BALOON
 10
41980.86163146704
 20
-1041.41305536365
 30
0.0
  0
ATTRIB
  5
1BEF
  8
0
 10
42023.19798248207
 20
-1066.158079362154
 30
0.0
 40
50.0
  1
2
  2
NO.
 70
     0
  0
SEQEND
  5
1BF0
  8
0
  0
INSERT
  5
1BF1
  8
0
 66
     1
  2
N-BALOON
 10
40391.24384410107
 20
-3535.06403933706
 30
0.0
  0
ATTRIB
  5
1BF2
  8
0
 10
40433.58019511609
 20
-3559.809063335564
 30
0.0
 40
50.0
  1
3
  2
NO.
 70
     0
  0
SEQEND
  5
1BF3
  8
0
  0
INSERT
  5
1BF4
  8
0
 66
     1
  2
BALOON
 10
41365.87750927747
 20
-1041.41305536365
 30
0.0
  0
ATTRIB
  5
1BF5
  8
0
 10
41348.82326449057
 20
-1066.158079362154
 30
0.0
 40
50.0
  1
1
  2
NO.
 70
     0
  0
SEQEND
  5
1BF6
  8
0
  0
INSERT
  5
1BF7
  8
0
 66
     1
  2
BALOON
 10
39984.12355978031
 20
-1041.413055363649
 30
0.0
  0
ATTRIB
  5
1BF8
  8
0
 10
39967.06931499342
 20
-1066.158079362154
 30
0.0
 40
50.0
  1
2
  2
NO.
 70
     0
  0
SEQEND
  5
1BF9
  8
0
  0
INSERT
  5
1BFA
  8
0
  2
*X25
 10
0.0
 20
0.0
 30
0.0
  0
INSERT
  5
1BFB
  8
0
  2
*X26
 10
0.0
 20
0.0
 30
0.0
  0
INSERT
  5
1BFC
  8
0
  2
*X27
 10
0.0
 20
0.0
 30
0.0
  0
INSERT
  5
1BFD
  8
0
  2
*X28
 10
0.0
 20
0.0
 30
0.0
  0
INSERT
  5
1BFE
  8
0
  2
*X29
 10
0.0
 20
0.0
 30
0.0
  0
INSERT
  5
1BFF
  8
0
  2
*X30
 10
0.0
 20
0.0
 30
0.0
  0
ARC
  5
1C2B
  8
2
  6
CONTINUOUS
 10
44739.11816096568
 20
-1138.621288404975
 30
0.0
 40
1109.999967589974
 50
2.245950344663158
 51
10.38022962368391
  0
INSERT
  5
1C4E
  8
0
  2
*X31
 10
0.0
 20
0.0
 30
0.0
  0
INSERT
  5
1C8B
  8
0
  2
６５ＡエアーＬ_平面図
 10
45649.1181240853
 20
-1138.621288404975
 30
0.0
  0
LINE
  5
1CD6
  8
0
 10
37362.95321643585
 20
971.6068950908375
 30
0.0
 11
37362.95321643585
 21
801.940228424166
 31
0.0
  0
TEXT
  5
1CEE
  8
0
 10
47307.7571903133
 20
-5747.006434236369
 30
0.0
 40
50.0
  1
１
  0
TEXT
  5
1D12
  8
0
 10
44116.58731029693
 20
-3322.180452815606
 30
0.0
 40
75.0
  1
※KITZ　Tボール　６５Ａ仕様
  0
TEXT
  5
1D22
  8
0
 10
46428.32402959523
 20
-3823.756802498791
 30
0.0
 40
60.0
  1
ﾌｨｯﾃｨﾝｸﾞ・六角ﾆｯﾌﾟﾙ・Tボール付
 41
0.7
  0
POLYLINE
  5
1DA2
  8
LY_1
  6
CONTINUOUS
 62
     3
 66
     1
 10
0.0
 20
0.0
 30
0.0
  0
VERTEX
  5
1FA9
  8
LY_1
  6
CONTINUOUS
 62
     3
 10
44500.95997086753
 20
-2481.497932346885
 30
0.0
  0
VERTEX
  5
1FAA
  8
LY_1
  6
CONTINUOUS
 62
     3
 10
44500.95770534808
 20
-2481.494218522223
 30
0.0
  0
VERTEX
  5
1FAB
  8
LY_1
  6
CONTINUOUS
 62
     3
 10
44500.95495953569
 20
-2481.490861719523
 30
0.0
  0
VERTEX
  5
1FAC
  8
LY_1
  6
CONTINUOUS
 62
     3
 10
44500.9517866172
 20
-2481.487923103834
 30
0.0
  0
VERTEX
  5
1FAD
  8
LY_1
  6
CONTINUOUS
 62
     3
 10
44500.94824441323
 20
-2481.485460595539
 30
0.0
  0
VERTEX
  5
1FAE
  8
LY_1
  6
CONTINUOUS
 62
     3
 10
44500.94440203882
 20
-2481.483519890548
 30
0.0
  0
VERTEX
  5
1FAF
  8
LY_1
  6
CONTINUOUS
 62
     3
 10
44500.94033034542
 20
-2481.482136836725
 30
0.0
  0
VERTEX
  5
1FB0
  8
LY_1
  6
CONTINUOUS
 62
     3
 10
44500.93610765621
 20
-2481.481339460499
 30
0.0
  0
VERTEX
  5
1FB1
  8
LY_1
  6
CONTINUOUS
 62
     3
 10
44500.93181292946
 20
-2481.481140668939
 30
0.0
  0
VERTEX
  5
1FB2
  8
LY_1
  6
CONTINUOUS
 62
     3
 10
44500.92752848222
 20
-2481.481545837907
 30
0.0
  0
VERTEX
  5
1FB3
  8
LY_1
  6
CONTINUOUS
 62
     3
 10
44500.92333396497
 20
-2481.482546672558
 30
0.0
  0
VERTEX
  5
1FB4
  8
LY_1
  6
CONTINUOUS
 62
     3
 10
44500.91930977982
 20
-2481.484124856293
 30
0.0
  0
VERTEX
  5
1FB5
  8
LY_1
  6
CONTINUOUS
 62
     3
 10
44500.9155313454
 20
-2481.486250024112
 30
0.0
  0
VERTEX
  5
1FB6
  8
LY_1
  6
CONTINUOUS
 62
     3
 10
44500.91207089273
 20
-2481.488881094692
 30
0.0
  0
VERTEX
  5
1FB7
  8
LY_1
  6
CONTINUOUS
 62
     3
 10
44500.90899265786
 20
-2481.491970499823
 30
0.0
  0
VERTEX
  5
1FB8
  8
LY_1
  6
CONTINUOUS
 62
     3
 10
44500.90635606692
 20
-2481.495457638075
 30
0.0
  0
VERTEX
  5
1FB9
  8
LY_1
  6
CONTINUOUS
 62
     3
 10
44500.9042102341
 20
-2481.499277043475
 30
0.0
  0
VERTEX
  5
1FBA
  8
LY_1
  6
CONTINUOUS
 62
     3
 10
44500.90259610496
 20
-2481.503357747961
 30
0.0
  0
VERTEX
  5
1FBB
  8
LY_1
  6
CONTINUOUS
 62
     3
 10
44500.90154466036
 20
-2481.507621949318
 30
0.0
  0
VERTEX
  5
1FBC
  8
LY_1
  6
CONTINUOUS
 62
     3
 10
44500.90154466036
 20
-2481.507621949318
 30
0.0
  0
SEQEND
  5
2012
  8
LY_1
  6
CONTINUOUS
 62
     3
  0
POLYLINE
  5
1DA3
  8
LY_1
  6
CONTINUOUS
 62
     3
 66
     1
 10
0.0
 20
0.0
 30
0.0
  0
VERTEX
  5
1FBD
  8
LY_1
  6
CONTINUOUS
 62
     3
 10
44504.27819549772
 20
-2484.111980268679
 30
0.0
  0
VERTEX
  5
1FBE
  8
LY_1
  6
CONTINUOUS
 62
     3
 10
44504.28062133655
 20
-2484.115919354734
 30
0.0
  0
VERTEX
  5
1FBF
  8
LY_1
  6
CONTINUOUS
 62
     3
 10
44504.28358730124
 20
-2484.119450027958
 30
0.0
  0
VERTEX
  5
1FC0
  8
LY_1
  6
CONTINUOUS
 62
     3
 10
44504.28702948626
 20
-2484.122497048191
 30
0.0
  0
VERTEX
  5
1FC1
  8
LY_1
  6
CONTINUOUS
 62
     3
 10
44504.29087286533
 20
-2484.124996414974
 30
0.0
  0
VERTEX
  5
1FC2
  8
LY_1
  6
CONTINUOUS
 62
     3
 10
44504.29503754768
 20
-2484.126894439722
 30
0.0
  0
VERTEX
  5
1FC3
  8
LY_1
  6
CONTINUOUS
 62
     3
 10
44504.29943333294
 20
-2484.128149832051
 30
0.0
  0
VERTEX
  5
1FC4
  8
LY_1
  6
CONTINUOUS
 62
     3
 10
44504.30396544645
 20
-2484.128735726355
 30
0.0
  0
VERTEX
  5
1FC5
  8
LY_1
  6
CONTINUOUS
 62
     3
 10
44504.30853847842
 20
-2484.128640376452
 30
0.0
  0
VERTEX
  5
1FC6
  8
LY_1
  6
CONTINUOUS
 62
     3
 10
44504.31305360318
 20
-2484.127865649794
 30
0.0
  0
VERTEX
  5
1FC7
  8
LY_1
  6
CONTINUOUS
 62
     3
 10
44504.3174156465
 20
-2484.126427258268
 30
0.0
  0
VERTEX
  5
1FC8
  8
LY_1
  6
CONTINUOUS
 62
     3
 10
44504.32152862534
 20
-2484.124357017949
 30
0.0
  0
VERTEX
  5
1FC9
  8
LY_1
  6
CONTINUOUS
 62
     3
 10
44504.32530762275
 20
-2484.121698850422
 30
0.0
  0
VERTEX
  5
1FCA
  8
LY_1
  6
CONTINUOUS
 62
     3
 10
44504.32866957718
 20
-2484.118509189566
 30
0.0
  0
VERTEX
  5
1FCB
  8
LY_1
  6
CONTINUOUS
 62
     3
 10
44504.33154347795
 20
-2484.114856748411
 30
0.0
  0
VERTEX
  5
1FCC
  8
LY_1
  6
CONTINUOUS
 62
     3
 10
44504.33386793168
 20
-2484.110819043757
 30
0.0
  0
VERTEX
  5
1FCD
  8
LY_1
  6
CONTINUOUS
 62
     3
 10
44504.33559214718
 20
-2484.106482569854
 30
0.0
  0
VERTEX
  5
1FCE
  8
LY_1
  6
CONTINUOUS
 62
     3
 10
44504.33617687713
 20
-2484.104404537158
 30
0.0
  0
VERTEX
  5
1FCF
  8
LY_1
  6
CONTINUOUS
 62
     3
 10
44504.3366217049
 20
-2484.102290666246
 30
0.0
  0
SEQEND
  5
2013
  8
LY_1
  6
CONTINUOUS
 62
     3
  0
POLYLINE
  5
1DA4
  8
LY_1
  6
CONTINUOUS
 62
     3
 66
     1
 10
0.0
 20
0.0
 30
0.0
  0
VERTEX
  5
1FD0
  8
LY_1
  6
CONTINUOUS
 62
     3
 10
44506.14302737622
 20
-2460.036640416683
 30
0.0
  0
VERTEX
  5
1FD1
  8
LY_1
  6
CONTINUOUS
 62
     3
 10
44506.14097993911
 20
-2460.03279546958
 30
0.0
  0
VERTEX
  5
1FD2
  8
LY_1
  6
CONTINUOUS
 62
     3
 10
44506.13843227736
 20
-2460.029276613413
 30
0.0
  0
VERTEX
  5
1FD3
  8
LY_1
  6
CONTINUOUS
 62
     3
 10
44506.135434219
 20
-2460.02615254442
 30
0.0
  0
VERTEX
  5
1FD4
  8
LY_1
  6
CONTINUOUS
 62
     3
 10
44506.13204080392
 20
-2460.023479677218
 30
0.0
  0
VERTEX
  5
1FD5
  8
LY_1
  6
CONTINUOUS
 62
     3
 10
44506.12831680351
 20
-2460.021311065246
 30
0.0
  0
VERTEX
  5
1FD6
  8
LY_1
  6
CONTINUOUS
 62
     3
 10
44506.124332201
 20
-2460.019687480379
 30
0.0
  0
VERTEX
  5
1FD7
  8
LY_1
  6
CONTINUOUS
 62
     3
 10
44506.12016317629
 20
-2460.018637586587
 30
0.0
  0
VERTEX
  5
1FD8
  8
LY_1
  6
CONTINUOUS
 62
     3
 10
44506.11588712481
 20
-2460.018183154198
 30
0.0
  0
VERTEX
  5
1FD9
  8
LY_1
  6
CONTINUOUS
 62
     3
 10
44506.11158798596
 20
-2460.018331875986
 30
0.0
  0
VERTEX
  5
1FDA
  8
LY_1
  6
CONTINUOUS
 62
     3
 10
44506.10734419466
 20
-2460.019082350756
 30
0.0
  0
VERTEX
  5
1FDB
  8
LY_1
  6
CONTINUOUS
 62
     3
 10
44506.10323679055
 20
-2460.020418405182
 30
0.0
  0
VERTEX
  5
1FDC
  8
LY_1
  6
CONTINUOUS
 62
     3
 10
44506.09934426322
 20
-2460.022315292901
 30
0.0
  0
VERTEX
  5
1FDD
  8
LY_1
  6
CONTINUOUS
 62
     3
 10
44506.09573977145
 20
-2460.0247381887
 30
0.0
  0
VERTEX
  5
1FDE
  8
LY_1
  6
CONTINUOUS
 62
     3
 10
44506.09249149049
 20
-2460.02764021899
 30
0.0
  0
SEQEND
  5
2014
  8
LY_1
  6
CONTINUOUS
 62
     3
  0
ARC
  5
1DA5
  8
LY_1
  6
CONTINUOUS
 62
     3
 10
44570.5857403545
 20
-2365.654265741927
 30
0.0
 40
1.5
 50
170.0001820001404
 51
212.0245570001275
  0
ARC
  5
1DA6
  8
LY_1
  6
CONTINUOUS
 62
     3
 10
44567.61836566772
 20
-2367.510246046302
 30
0.0
 40
2.0
 50
349.9999819998667
 51
32.02444199983187
  0
ARC
  5
1DA7
  8
LY_1
  6
CONTINUOUS
 62
     3
 10
44503.95362131191
 20
-2485.389259291174
 30
0.0
 40
0.8565649999999999
 50
207.5240970001437
 51
349.9999819998667
  0
ARC
  5
1DA8
  8
LY_1
  6
CONTINUOUS
 62
     3
 10
44499.48318064148
 20
-2484.597172842417
 30
0.0
 40
0.8603290000000001
 50
170.0000180001587
 51
349.9999819998667
  0
ARC
  5
1DA9
  8
LY_1
  6
CONTINUOUS
 62
     3
 10
44500.51236973371
 20
-2478.739262837131
 30
0.0
 40
0.856713
 50
27.52411200030031
 51
170.00000100012
  0
ARC
  5
1DAA
  8
LY_1
  6
CONTINUOUS
 62
     3
 10
44504.90619932571
 20
-2479.85775169778
 30
0.0
 40
0.878975
 50
349.9999819998667
 51
259.9999830001234
  0
ARC
  5
1DAB
  8
LY_1
  6
CONTINUOUS
 62
     3
 10
44505.44268292704
 20
-2476.921174897452
 30
0.0
 40
0.8602920000000001
 50
170.0000180001587
 51
349.9999819998667
  0
ARC
  5
1DAC
  8
LY_1
  6
CONTINUOUS
 62
     3
 10
44501.4821687389
 20
-2473.367639640755
 30
0.0
 40
0.879
 50
80.00003600014927
 51
259.9999830001234
  0
ARC
  5
1DAD
  8
LY_1
  6
CONTINUOUS
 62
     3
 10
44506.44756622568
 20
-2471.11482048063
 30
0.0
 40
0.878926
 50
349.9999819998667
 51
259.9999830001234
  0
ARC
  5
1DAE
  8
LY_1
  6
CONTINUOUS
 62
     3
 10
44502.54087788833
 20
-2467.363401689305
 30
0.0
 40
0.878991
 50
80.00003600014927
 51
259.9999830001234
  0
ARC
  5
1DAF
  8
LY_1
  6
CONTINUOUS
 62
     3
 10
44506.97153584759
 20
-2468.144646229814
 30
0.0
 40
0.878991
 50
259.9999999999403
 51
80.00001899990832
  0
ARC
  5
1DB0
  8
LY_1
  6
CONTINUOUS
 62
     3
 10
44507.32517312001
 20
-2465.197257236163
 30
0.0
 40
1.042553
 50
350.7789510001554
 51
24.25906300010362
  0
ARC
  5
1DB1
  8
LY_1
  6
CONTINUOUS
 62
     3
 10
44507.50952803231
 20
-2465.202324107895
 30
0.0
 40
0.860117
 50
113.574514000003
 51
349.1432030001491
  0
ARC
  5
1DB2
  8
LY_1
  6
CONTINUOUS
 62
     3
 10
44503.04266339716
 20
-2464.398566317239
 30
0.0
 40
0.866237
 50
135.7409369999039
 51
315.7409549998359
  0
ARC
  5
1DB3
  8
LY_1
  6
CONTINUOUS
 62
     3
 10
44504.06158553538
 20
-2458.738596632333
 30
0.0
 40
0.878936
 50
79.99996400015539
 51
259.9999830001234
  0
ARC
  5
1DB4
  8
LY_1
  6
CONTINUOUS
 62
     3
 10
44508.49237939811
 20
-2459.51986513629
 30
0.0
 40
0.878936
 50
259.9999999999403
 51
80.00001899990832
  0
ARC
  5
1DB5
  8
LY_1
  6
PHANTOM
 62
   110
 10
44467.8779905859
 20
-2395.407438714812
 30
0.0
 40
22.184845
 50
152.1692350000006
 51
192.793451999958
  0
ARC
  5
1DB6
  8
LY_1
  6
PHANTOM
 62
   110
 10
44428.64050380705
 20
-2374.693009920984
 30
0.0
 40
22.184845
 50
332.169254000025
 51
12.79347099998231
  0
ARC
  5
1DB7
  8
LY_1
  6
PHANTOM
 62
   110
 10
44445.67230439726
 20
-2449.422269423436
 30
0.0
 40
52.0
 50
67.01533700003763
 51
78.41984099996306
  0
ARC
  5
1DB8
  8
LY_1
  6
PHANTOM
 62
   110
 10
44445.67230439726
 20
-2449.422269423436
 30
0.0
 40
50.0
 50
67.01533700003763
 51
78.41984099996306
  0
ARC
  5
1DB9
  8
LY_1
  6
PHANTOM
 62
   110
 10
44467.84485223082
 20
-2323.675502000362
 30
0.0
 40
52.0
 50
261.5801600000232
 51
272.9846640001504
  0
ARC
  5
1DBA
  8
LY_1
  6
PHANTOM
 62
   110
 10
44467.84485223082
 20
-2323.675502000362
 30
0.0
 40
50.0
 50
261.5801600000232
 51
272.9846640001504
  0
ARC
  5
1DBB
  8
LY_1
  6
PHANTOM
 62
   110
 10
44517.19578990734
 20
-2397.205596754586
 30
0.0
 40
24.0
 50
247.0801780000114
 51
336.8759650001292
  0
ARC
  5
1DBC
  8
LY_1
  6
PHANTOM
 62
   110
 10
44517.19578990734
 20
-2397.205596754586
 30
0.0
 40
26.0
 50
247.0776340001642
 51
336.8814289999727
  0
CIRCLE
  5
1DBD
  8
LY_1
  6
CONTINUOUS
 62
     3
 10
44517.19578990734
 20
-2397.205596754586
 30
0.0
 40
6.9175
  0
CIRCLE
  5
1DBE
  8
LY_1
  6
CONTINUOUS
 62
   110
 10
44517.19578990734
 20
-2397.205596754586
 30
0.0
 40
8.0
  0
CIRCLE
  5
1DBF
  8
LY_1
  6
CONTINUOUS
 62
     3
 10
44517.19578990734
 20
-2397.205596754586
 30
0.0
 40
11.5
  0
ARC
  5
1DC0
  8
LY_1
  6
CONTINUOUS
 62
     3
 10
44478.27643643013
 20
-2588.351253982544
 30
0.0
 40
5.0
 50
171.5801960000259
 51
259.9999430000316
  0
ARC
  5
1DC1
  8
LY_1
  6
CONTINUOUS
 62
     3
 10
44488.39235409445
 20
-2590.13496320139
 30
0.0
 40
5.0
 50
260.000073000215
 51
348.4198039999895
  0
ARC
  5
1DC2
  8
LY_1
  6
CONTINUOUS
 62
     3
 10
44488.39235409445
 20
-2590.13496320139
 30
0.0
 40
3.0
 50
260.0001219999203
 51
348.4198039999895
  0
ARC
  5
1DC3
  8
LY_1
  6
CONTINUOUS
 62
     3
 10
44478.27643643013
 20
-2588.351253982544
 30
0.0
 40
3.0
 50
171.5801960000259
 51
259.9999050000819
  0
ARC
  5
1DC4
  8
LY_1
  6
CONTINUOUS
 62
     3
 10
44569.41241825984
 20
-2468.72907445049
 30
0.0
 40
52.0
 50
157.0153370000006
 51
168.4198400001382
  0
ARC
  5
1DC5
  8
LY_1
  6
CONTINUOUS
 62
     3
 10
44569.41241825984
 20
-2468.72907445049
 30
0.0
 40
50.0
 50
157.0153370000006
 51
168.4198400001382
  0
ARC
  5
1DC6
  8
LY_1
  6
CONTINUOUS
 62
     3
 10
44526.49285500112
 20
-2415.091745962194
 30
0.0
 40
4.0
 50
260.0000189999083
 51
337.1957269998744
  0
ARC
  5
1DC7
  8
LY_1
  6
CONTINUOUS
 62
     3
 10
44502.34198312821
 20
-2410.833295643368
 30
0.0
 40
4.0
 50
182.8042730001485
 51
259.9999809999723
  0
ARC
  5
1DC8
  8
LY_1
  6
CONTINUOUS
 62
     3
 10
44443.66569515311
 20
-2446.556534431096
 30
0.0
 40
52.0
 50
351.5801599999572
 51
2.984662999943564
  0
ARC
  5
1DC9
  8
LY_1
  6
CONTINUOUS
 62
     3
 10
44443.66569515311
 20
-2446.556534431096
 30
0.0
 40
50.0
 50
351.5801599999572
 51
2.984662999943564
  0
ARC
  5
1DCA
  8
LY_1
  6
CONTINUOUS
 62
     3
 10
44517.19578990734
 20
-2397.205596754586
 30
0.0
 40
24.0
 50
337.0153010002013
 51
182.9846819999272
  0
ARC
  5
1DCB
  8
LY_1
  6
CONTINUOUS
 62
     3
 10
44517.19578990734
 20
-2397.205596754586
 30
0.0
 40
26.0
 50
336.9581460001245
 51
182.9846819999272
  0
LINE
  5
1DCC
  8
LY_1
  6
CONTINUOUS
 62
     3
 10
44492.61275654697
 20
-2457.350534560237
 30
0.0
 11
44461.26189117927
 21
-2451.822531127355
 31
0.0
  0
LINE
  5
1DCD
  8
LY_1
  6
CONTINUOUS
 62
     3
 10
44492.97615604171
 20
-2432.028946398792
 30
0.0
 11
44465.60309562094
 21
-2427.202337302047
 31
0.0
  0
LINE
  5
1DCE
  8
LY_1
  6
CONTINUOUS
 62
     3
 10
44491.4532364809
 20
-2402.820756152038
 30
0.0
 11
44469.66574761559
 21
-2398.979034023198
 31
0.0
  0
LINE
  5
1DCF
  8
LY_1
  6
CONTINUOUS
 62
     3
 10
44528.22244918918
 20
-2334.670304438308
 30
0.0
 11
44524.141717014
 21
-2357.813286634095
 31
0.0
  0
LINE
  5
1DD0
  8
LY_1
  6
CONTINUOUS
 62
     3
 10
44560.63322768835
 20
-2340.385199153481
 30
0.0
 11
44556.55249551318
 21
-2363.528181349267
 31
0.0
  0
LINE
  5
1DD1
  8
LY_1
  6
CONTINUOUS
 62
     3
 10
44573.12968863538
 20
-2342.588662381806
 30
0.0
 11
44569.10852872498
 21
-2365.393793475419
 31
0.0
  0
LINE
  5
1DD2
  8
LY_1
  6
CONTINUOUS
 62
     3
 10
44495.81167069
 20
-2328.955409723136
 30
0.0
 11
44491.73093851483
 21
-2352.098391918922
 31
0.0
  0
LINE
  5
1DD3
  8
LY_1
  6
CONTINUOUS
 62
     3
 10
44483.31520974297
 20
-2326.751946494804
 30
0.0
 11
44479.29404983258
 21
-2349.557077588417
 31
0.0
  0
LINE
  5
1DD4
  8
LY_1
  6
CONTINUOUS
 62
     3
 10
44573.12968863538
 20
-2342.588662381806
 30
0.0
 11
44483.31520974297
 21
-2326.751946494804
 31
0.0
  0
LINE
  5
1DD5
  8
LY_1
  6
CONTINUOUS
 62
     3
 10
44567.96566202305
 20
-2365.54063054027
 30
0.0
 11
44480.31777200496
 21
-2350.085942727912
 31
0.0
  0
LINE
  5
1DD6
  8
LY_1
  6
CONTINUOUS
 62
     3
 10
44542.92111356633
 20
-2440.835589960725
 30
0.0
 11
44538.57990912465
 21
-2465.455783786032
 31
0.0
  0
LINE
  5
1DD7
  8
LY_1
  6
CONTINUOUS
 62
     3
 10
44558.13161686766
 20
-2427.646954127382
 30
0.0
 11
44551.07637007168
 21
-2467.659247014357
 31
0.0
  0
LINE
  5
1DD8
  8
LY_1
  6
CONTINUOUS
 62
     3
 10
44561.25289337287
 20
-2415.128254934401
 30
0.0
 11
44558.13162996038
 21
-2427.646960497686
 31
0.0
  0
LINE
  5
1DD9
  8
LY_1
  6
CONTINUOUS
 62
     3
 10
44569.58798117374
 20
-2367.857542401629
 30
0.0
 11
44561.25287993286
 21
-2415.128250533713
 31
0.0
  0
LINE
  5
1DDA
  8
LY_1
  6
CONTINUOUS
 62
     3
 10
44478.09955656797
 20
-2429.40580053038
 30
0.0
 11
44473.7583521263
 21
-2454.025994355687
 31
0.0
  0
LINE
  5
1DDB
  8
LY_1
  6
CONTINUOUS
 62
     3
 10
44555.41757451335
 20
-2443.03905318905
 30
0.0
 11
44528.04473961356
 21
-2438.212483857742
 31
0.0
  0
LINE
  5
1DDC
  8
LY_1
  6
CONTINUOUS
 62
     3
 10
44468.31713797526
 20
-2411.810238240379
 30
0.0
 11
44461.26189117927
 21
-2451.822531127355
 31
0.0
  0
LINE
  5
1DDD
  8
LY_1
  6
CONTINUOUS
 62
     3
 10
44469.66576811329
 20
-2398.978969603906
 30
0.0
 11
44468.31714701217
 21
-2411.810238818411
 31
0.0
  0
LINE
  5
1DDE
  8
LY_1
  6
CONTINUOUS
 62
     3
 10
44561.25286864572
 20
-2415.12831454622
 30
0.0
 11
44539.46558954447
 21
-2411.286629404442
 31
0.0
  0
LINE
  5
1DDF
  8
LY_1
  6
CONTINUOUS
 62
     3
 10
44478.0008601436
 20
-2351.708261878606
 30
0.0
 11
44469.66575890272
 21
-2398.97897001069
 31
0.0
  0
LINE
  5
1DE0
  8
LY_1
  6
CONTINUOUS
 62
     3
 10
44551.07637007168
 20
-2467.659247014357
 30
0.0
 11
44519.72547417495
 21
-2462.131238198386
 31
0.0
  0
LINE
  5
1DE1
  8
LY_1
  6
CONTINUOUS
 62
     3
 10
44568.89338846307
 20
-2371.796773413682
 30
0.0
 11
44477.30626743293
 21
-2355.647492890659
 31
0.0
  0
LINE
  5
1DE2
  8
LY_1
  6
CONTINUOUS
 62
     3
 10
44504.92701908398
 20
-2480.753980743893
 30
0.0
 11
44504.75356292483
 21
-2480.723395743064
 31
0.0
  0
LINE
  5
1DE3
  8
LY_1
  6
CONTINUOUS
 62
     3
 10
44506.46836865217
 20
-2472.01096929825
 30
0.0
 11
44506.29494302206
 21
-2471.980389680515
 31
0.0
  0
LINE
  5
1DE4
  8
LY_1
  6
CONTINUOUS
 62
     3
 10
44506.46836865217
 20
-2472.01096929825
 30
0.0
 11
44506.23864565768
 21
-2473.313793140484
 31
0.0
  0
LINE
  5
1DE5
  8
LY_1
  6
CONTINUOUS
 62
     3
 10
44504.93108887818
 20
-2474.86835050801
 30
0.0
 11
44504.59546168039
 21
-2476.771786933035
 31
0.0
  0
LINE
  5
1DE6
  8
LY_1
  6
CONTINUOUS
 62
     3
 10
44504.93108887818
 20
-2474.86835050801
 30
0.0
 11
44501.3295297333
 21
-2474.233298458143
 31
0.0
  0
LINE
  5
1DE7
  8
LY_1
  6
CONTINUOUS
 62
     3
 10
44506.23864565768
 20
-2473.313793140484
 30
0.0
 11
44501.63480236139
 21
-2472.502011352391
 31
0.0
  0
LINE
  5
1DE8
  8
LY_1
  6
CONTINUOUS
 62
     3
 10
44507.31313444075
 20
-2471.267443510593
 30
0.0
 11
44506.28988841675
 21
-2477.07056008349
 31
0.0
  0
LINE
  5
1DE9
  8
LY_1
  6
CONTINUOUS
 62
     3
 10
44504.92701908398
 20
-2480.753980743893
 30
0.0
 11
44504.3366217049
 21
-2484.102290666246
 31
0.0
  0
LINE
  5
1DEA
  8
LY_1
  6
CONTINUOUS
 62
     3
 10
44499.6687095519
 20
-2478.59050278452
 30
0.0
 11
44498.63591687204
 21
-2484.44776113326
 31
0.0
  0
LINE
  5
1DEB
  8
LY_1
  6
CONTINUOUS
 62
     3
 10
44500.33041845379
 20
-2484.746547480978
 30
0.0
 11
44500.90152890343
 21
-2481.507619170943
 31
0.0
  0
LINE
  5
1DEC
  8
LY_1
  6
CONTINUOUS
 62
     3
 10
44503.19398618278
 20
-2485.78507435553
 30
0.0
 11
44500.95988569577
 21
-2481.497810709012
 31
0.0
  0
LINE
  5
1DED
  8
LY_1
  6
CONTINUOUS
 62
     3
 10
44504.27817655564
 20
-2484.111984036657
 30
0.0
 11
44501.27212945272
 21
-2478.343345859283
 31
0.0
  0
LINE
  5
1DEE
  8
LY_1
  6
CONTINUOUS
 62
     3
 10
44505.77184337098
 20
-2480.010388098648
 30
0.0
 11
44504.79717611927
 21
-2485.538000763414
 31
0.0
  0
LINE
  5
1DEF
  8
LY_1
  6
CONTINUOUS
 62
     3
 10
44502.6935142892
 20
-2466.497757644012
 30
0.0
 11
44507.12417224846
 21
-2467.279002184527
 31
0.0
  0
LINE
  5
1DF0
  8
LY_1
  6
CONTINUOUS
 62
     3
 10
44506.81889944671
 20
-2469.010290275093
 30
0.0
 11
44502.38824148745
 21
-2468.229045734579
 31
0.0
  0
LINE
  5
1DF1
  8
LY_1
  6
CONTINUOUS
 62
     3
 10
44506.23950679474
 20
-2462.359194710361
 30
0.0
 11
44507.16551542225
 21
-2464.413990384424
 31
0.0
  0
LINE
  5
1DF2
  8
LY_1
  6
CONTINUOUS
 62
     3
 10
44506.23946658887
 20
-2462.359169343303
 30
0.0
 11
44503.66302928289
 21
-2465.003121270956
 31
0.0
  0
LINE
  5
1DF3
  8
LY_1
  6
CONTINUOUS
 62
     3
 10
44506.14297349239
 20
-2460.036565928209
 30
0.0
 11
44508.27563478742
 21
-2464.76890250173
 31
0.0
  0
LINE
  5
1DF4
  8
LY_1
  6
CONTINUOUS
 62
     3
 10
44506.09242012528
 20
-2460.027659113612
 30
0.0
 11
44502.42223894629
 21
-2463.794015252881
 31
0.0
  0
LINE
  5
1DF5
  8
LY_1
  6
CONTINUOUS
 62
     3
 10
44508.33975098505
 20
-2460.38546388041
 30
0.0
 11
44503.90895712232
 21
-2459.604195376456
 31
0.0
  0
LINE
  5
1DF6
  8
LY_1
  6
CONTINUOUS
 62
     3
 10
44508.64500520644
 20
-2458.65428116427
 30
0.0
 11
44504.2142113437
 21
-2457.873012660317
 31
0.0
  0
LINE
  5
1DF7
  8
LY_1
  6
PHANTOM
 62
   110
 10
44456.11067159389
 20
-2398.480727376225
 30
0.0
 11
44445.71314192408
 21
-2396.350171363671
 31
0.0
  0
LINE
  5
1DF8
  8
LY_1
  6
PHANTOM
 62
   110
 10
44455.70919309398
 20
-2400.440017384075
 30
0.0
 11
44445.89997989582
 21
-2398.430011887916
 31
0.0
  0
LINE
  5
1DF9
  8
LY_1
  6
PHANTOM
 62
   110
 10
44507.82419786181
 20
-2419.300234061096
 30
0.0
 11
44465.97750853942
 21
-2401.550569429846
 31
0.0
  0
LINE
  5
1DFA
  8
LY_1
  6
PHANTOM
 62
   110
 10
44507.04322798143
 20
-2421.141452306909
 30
0.0
 11
44465.19653865904
 21
-2403.391787675651
 31
0.0
  0
LINE
  5
1DFB
  8
LY_1
  6
PHANTOM
 62
   110
 10
44515.94618503544
 20
-2373.238155864097
 30
0.0
 11
44470.55241703372
 21
-2375.604974059765
 31
0.0
  0
LINE
  5
1DFC
  8
LY_1
  6
PHANTOM
 62
   110
 10
44460.23070697434
 20
-2375.115018390001
 30
0.0
 11
44450.80396806027
 21
-2373.719665815281
 31
0.0
  0
LINE
  5
1DFD
  8
LY_1
  6
PHANTOM
 62
   110
 10
44515.84204713012
 20
-2371.240869234831
 30
0.0
 11
44470.44827912838
 21
-2373.607687430505
 31
0.0
  0
LINE
  5
1DFE
  8
LY_1
  6
PHANTOM
 62
   110
 10
44460.52355706622
 20
-2373.13657527838
 30
0.0
 11
44450.61844961397
 21
-2371.670413122103
 31
0.0
  0
LINE
  5
1DFF
  8
LY_1
  6
PHANTOM
 62
   110
 10
44461.12144696295
 20
-2398.486708250688
 30
0.0
 11
44464.94130956459
 21
-2376.823190924557
 31
0.0
  0
LINE
  5
1E00
  8
LY_1
  6
CONTINUOUS
 62
     3
 10
44530.21653249715
 20
-2392.466449684374
 30
0.0
 11
44519.60190326105
 21
-2383.559717383954
 31
0.0
  0
LINE
  5
1E01
  8
LY_1
  6
CONTINUOUS
 62
     3
 10
44527.81041103424
 20
-2406.112334733121
 30
0.0
 11
44530.21655224798
 21
-2392.466429812162
 31
0.0
  0
LINE
  5
1E02
  8
LY_1
  6
CONTINUOUS
 62
     3
 10
44514.78962859305
 20
-2410.851506254678
 30
0.0
 11
44527.8104000277
 21
-2406.112333807801
 31
0.0
  0
LINE
  5
1E03
  8
LY_1
  6
CONTINUOUS
 62
     3
 10
44504.17501568949
 20
-2401.944750433036
 30
0.0
 11
44514.78964509924
 21
-2410.851481748648
 31
0.0
  0
LINE
  5
1E04
  8
LY_1
  6
CONTINUOUS
 62
     3
 10
44506.58116739122
 20
-2388.298866654497
 30
0.0
 11
44504.17502635113
 21
-2401.944770590648
 31
0.0
  0
LINE
  5
1E05
  8
LY_1
  6
CONTINUOUS
 62
     3
 10
44519.60192788365
 20
-2383.559738987829
 30
0.0
 11
44506.5811574338
 21
-2388.298911608361
 31
0.0
  0
LINE
  5
1E06
  8
LY_1
  6
CONTINUOUS
 62
     3
 10
44487.87140956143
 20
-2593.08938646042
 30
0.0
 11
44477.75549189711
 21
-2591.305677241578
 31
0.0
  0
LINE
  5
1E07
  8
LY_1
  6
CONTINUOUS
 62
     3
 10
44518.47091867112
 20
-2458.290685293052
 30
0.0
 11
44491.33131401901
 21
-2590.737206668009
 31
0.0
  0
LINE
  5
1E08
  8
LY_1
  6
CONTINUOUS
 62
     3
 10
44520.43017832356
 20
-2458.692157425065
 30
0.0
 11
44493.2905738451
 21
-2591.138677815214
 31
0.0
  0
LINE
  5
1E09
  8
LY_1
  6
CONTINUOUS
 62
     3
 10
44539.29061259805
 20
-2406.577283429351
 30
0.0
 11
44521.5409634287
 21
-2448.423936891877
 31
0.0
  0
LINE
  5
1E0A
  8
LY_1
  6
CONTINUOUS
 62
     3
 10
44541.13183084386
 20
-2407.358253309741
 30
0.0
 11
44523.3821816745
 21
-2449.204906772267
 31
0.0
  0
LINE
  5
1E0B
  8
LY_1
  6
CONTINUOUS
 62
     3
 10
44532.32096610908
 20
-2411.549958119647
 30
0.0
 11
44530.18001422215
 21
-2416.642018565986
 31
0.0
  0
LINE
  5
1E0C
  8
LY_1
  6
CONTINUOUS
 62
     3
 10
44532.32117124171
 20
-2411.550015614024
 30
0.0
 11
44536.84296724967
 21
-2412.347330251489
 31
0.0
  0
LINE
  5
1E0D
  8
LY_1
  6
CONTINUOUS
 62
     3
 10
44498.07663210355
 20
-2405.511781452891
 30
0.0
 11
44498.34688073831
 21
-2411.029000591674
 31
0.0
  0
LINE
  5
1E0E
  8
LY_1
  6
CONTINUOUS
 62
     3
 10
44525.79826229045
 20
-2419.030976974243
 30
0.0
 11
44501.64739041753
 21
-2414.772526655417
 31
0.0
  0
LINE
  5
1E0F
  8
LY_1
  6
CONTINUOUS
 62
     3
 10
44498.0765004866
 20
-2405.511756214421
 30
0.0
 11
44493.55470447864
 21
-2404.714441576956
 31
0.0
  0
LINE
  5
1E10
  8
LY_1
  6
CONTINUOUS
 62
     3
 10
44493.22833732534
 20
-2398.455273691075
 30
0.0
 11
44495.59515081808
 21
-2443.848964706563
 31
0.0
  0
LINE
  5
1E11
  8
LY_1
  6
CONTINUOUS
 62
     3
 10
44495.10522897667
 20
-2454.170661437673
 30
0.0
 11
44475.30873697565
 21
-2587.911971695406
 31
0.0
  0
LINE
  5
1E12
  8
LY_1
  6
CONTINUOUS
 62
     3
 10
44491.23104971126
 20
-2398.559411422755
 30
0.0
 11
44493.59786418881
 21
-2443.953102611891
 31
0.0
  0
LINE
  5
1E13
  8
LY_1
  6
CONTINUOUS
 62
     3
 10
44493.12678586505
 20
-2453.877811345794
 30
0.0
 11
44473.33029305288
 21
-2587.619120445072
 31
0.0
  0
LINE
  5
1E14
  8
LY_1
  6
CENTER
 62
   110
 10
44529.09069007751
 20
-2329.746265673244
 30
0.0
 11
44481.5979134856
 21
-2599.091186122087
 31
0.0
  0
LINE
  5
1E15
  8
LY_1
  6
CONTINUOUS
 62
     3
 10
44518.47682557323
 20
-2453.279926328045
 30
0.0
 11
44496.8134599075
 21
-2449.460090468221
 31
0.0
  0
LINE
  5
1E16
  8
LY_1
  6
CONTINUOUS
 62
     3
 10
44487.52411320611
 20
-2595.059001966443
 30
0.0
 11
44477.40819554178
 21
-2593.275292747601
 31
0.0
  0
LINE
  5
1E17
  8
LY_1
  6
CENTER
 62
   110
 10
44567.91338918745
 20
-2406.148477904424
 30
0.0
 11
44445.68278232015
 21
-2384.59592404535
 31
0.0
  0
POLYLINE
  5
1E18
  8
0
  6
CENTER
 66
     1
 10
0.0
 20
0.0
 30
0.0
  0
VERTEX
  5
1FDF
  8
0
  6
CENTER
 10
44506.40310713757
 20
-2458.413942331588
 30
0.0
  0
VERTEX
  5
1FE0
  8
0
  6
CENTER
 10
44546.5998077977
 20
-2230.447124669179
 30
0.0
  0
SEQEND
  5
2015
  8
0
  6
CENTER
  0
INSERT
  5
1E1A
  8
0
  2
ALﾌｨｯﾃｨﾝｸﾞ平面図
 10
44541.15923842539
 20
-2261.302126838893
 30
0.0
 50
169.9999999999871
  0
LINE
  5
1E1B
  8
細線
 10
44492.94061401972
 20
-2310.171485955081
 30
0.0
 11
44569.75561875467
 21
-2323.716043813103
 31
0.0
  0
LINE
  5
1E1C
  8
細線
 10
44489.81494682173
 20
-2327.898025509301
 30
0.0
 11
44516.13237753258
 21
-2332.538498606551
 31
0.0
  0
LINE
  5
1E1D
  8
細線
 10
44540.31252084582
 20
-2336.802110270073
 30
0.0
 11
44566.62995155667
 21
-2341.442583367323
 31
0.0
  0
LINE
  5
1E1E
  8
細線
 10
44569.75561875467
 20
-2323.716043813103
 30
0.0
 11
44570.64017068558
 21
-2324.458271012072
 31
0.0
  0
LINE
  5
1E1F
  8
細線
 10
44566.62995155667
 20
-2341.442583367323
 30
0.0
 11
44567.71501513181
 21
-2341.047652523688
 31
0.0
  0
LINE
  5
1E20
  8
細線
 10
44492.94061401972
 20
-2310.171485955081
 30
0.0
 11
44491.85555044459
 21
-2310.566416798717
 31
0.0
  0
LINE
  5
1E21
  8
細線
 10
44489.81494682172
 20
-2327.898025509301
 30
0.0
 11
44488.93039489083
 21
-2327.155798310332
 31
0.0
  0
LINE
  5
1E22
  8
細線
 10
44567.71501513181
 20
-2341.047652523688
 30
0.0
 11
44570.64017068558
 21
-2324.458271012072
 31
0.0
  0
LINE
  5
1E23
  8
細線
 10
44488.93039489083
 20
-2327.155798310332
 30
0.0
 11
44491.85555044459
 21
-2310.566416798717
 31
0.0
  0
LINE
  5
1E24
  8
細線
 10
44544.9699460275
 20
-2335.104963563645
 30
0.0
 11
44547.23427775913
 21
-2322.263300180442
 31
0.0
  0
LINE
  5
1E25
  8
細線
 10
44512.33628781726
 20
-2329.350769141962
 30
0.0
 11
44514.60061954889
 21
-2316.50910575876
 31
0.0
  0
ARC
  5
1E26
  8
細線
 10
44538.04807856061
 20
-2278.946391217827
 30
0.0
 40
56.58354440247924
 50
242.9734048203954
 51
270.4615826432471
  0
ARC
  5
1E27
  8
細線
 10
44538.04807856066
 20
-2278.946391217693
 30
0.0
 40
56.58354440262278
 50
270.4615826431958
 51
277.0265951794955
  0
ARC
  5
1E28
  8
細線
 10
44561.09750042102
 20
-2311.109250465383
 30
0.0
 40
28.91180135878851
 50
236.0948937240843
 51
283.9051062762236
  0
ARC
  5
1E29
  8
細線
 10
44505.38836119542
 20
-2301.286226147863
 30
0.0
 40
28.91180135878851
 50
236.0948937240843
 51
283.9051062762236
  0
ARC
  5
1E2A
  8
細線
 10
44521.52248701575
 20
-2372.667678104701
 30
0.0
 40
56.58354440262278
 50
62.97340482040887
 51
97.02659517949557
  0
ARC
  5
1E2B
  8
細線
 10
44554.18220438098
 20
-2350.327843174537
 30
0.0
 40
28.91180135878851
 50
56.09489372408432
 51
103.9051062762236
  0
ARC
  5
1E2C
  8
細線
 10
44498.47306515538
 20
-2340.504818857011
 30
0.0
 40
28.91180135878851
 50
56.09489372408432
 51
103.9051062762236
  0
LINE
  5
1E2D
  8
細線
 10
44569.75561875469
 20
-2323.71604381311
 30
0.0
 11
44569.05979641185
 21
-2323.593351560291
 31
0.0
  0
ARC
  5
1E2E
  8
細線
 10
44490.44130989347
 20
-2328.41464086333
 30
0.0
 40
0.4
 50
351.7899000000324
 51
79.9999999999448
  0
ARC
  5
1E32
  8
細線
 10
44565.86466994278
 20
-2341.713814215708
 30
0.0
 40
0.4
 50
79.9999999999448
 51
168.2101000000086
  0
ARC
  5
1E36
  8
細線
 10
44493.70589563362
 20
-2309.900255106687
 30
0.0
 40
0.4
 50
259.9999999999448
 51
348.2101000000086
  0
LINE
  5
1E37
  8
細線
 10
44495.98583049619
 20
-2308.16987325226
 30
0.0
 11
44494.09745700232
 21
-2309.981984504942
 31
0.0
  0
LINE
  5
1E38
  8
細線
 10
44569.03517383325
 20
-2321.05044340562
 30
0.0
 11
44494.52929982948
 21
-2307.913047597493
 31
0.0
  0
ARC
  5
1E39
  8
細線
 10
44569.12925568292
 20
-2323.199428459075
 30
0.0
 40
0.4
 50
171.7899000000324
 51
259.9999999999448
  0
LINE
  5
1E3A
  8
細線
 10
44569.03517383325
 20
-2321.05044340562
 30
0.0
 11
44568.73335525364
 21
-2323.14230709607
 31
0.0
  0
LINE
  5
1E3B
  8
細線
 10
44494.52929982948
 20
-2307.913047597493
 30
0.0
 11
44494.09745700232
 21
-2309.981984504942
 31
0.0
  0
LINE
  5
1E3C
  8
細線
 10
44567.57864316655
 20
-2320.793617750854
 30
0.0
 11
44568.73335525366
 21
-2323.142307096062
 31
0.0
  0
POLYLINE
  5
1E3D
  8
0
  6
CENTER
 66
     1
 10
0.0
 20
0.0
 30
0.0
  0
VERTEX
  5
1FE1
  8
0
  6
CENTER
 10
44505.96898669342
 20
-2460.875961714129
 30
0.0
  0
VERTEX
  5
1FE2
  8
0
  6
CENTER
 10
44546.16568735355
 20
-2232.909144051721
 30
0.0
  0
SEQEND
  5
2016
  8
0
  6
CENTER
  0
LINE
  5
1E3E
  8
0
 10
44516.13237753258
 20
-2332.538498606551
 30
0.0
 11
44540.31252084582
 21
-2336.802110270073
 31
0.0
  0
LINE
  5
1E3F
  8
0
 10
44546.16568735355
 20
-2232.909144051721
 30
0.0
 11
44528.22244918918
 21
-2334.670304438308
 31
0.0
  0
POLYLINE
  5
1EA2
  8
LY_1
  6
CONTINUOUS
 62
     3
 66
     1
 10
0.0
 20
0.0
 30
0.0
  0
VERTEX
  5
1FE3
  8
LY_1
  6
CONTINUOUS
 62
     3
 10
40411.32521620643
 20
-4769.80853088377
 30
0.0
  0
VERTEX
  5
1FE4
  8
LY_1
  6
CONTINUOUS
 62
     3
 10
40411.32192320643
 20
-4769.81110588377
 30
0.0
  0
VERTEX
  5
1FE5
  8
LY_1
  6
CONTINUOUS
 62
     3
 10
40411.31902320642
 20
-4769.81409888377
 30
0.0
  0
VERTEX
  5
1FE6
  8
LY_1
  6
CONTINUOUS
 62
     3
 10
40411.31657020643
 20
-4769.817452883769
 30
0.0
  0
VERTEX
  5
1FE7
  8
LY_1
  6
CONTINUOUS
 62
     3
 10
40411.31461120643
 20
-4769.82110488377
 30
0.0
  0
VERTEX
  5
1FE8
  8
LY_1
  6
CONTINUOUS
 62
     3
 10
40411.31318220643
 20
-4769.82498488377
 30
0.0
  0
VERTEX
  5
1FE9
  8
LY_1
  6
CONTINUOUS
 62
     3
 10
40411.31231120643
 20
-4769.82901988377
 30
0.0
  0
VERTEX
  5
1FEA
  8
LY_1
  6
CONTINUOUS
 62
     3
 10
40411.31201420643
 20
-4769.83313488377
 30
0.0
  0
VERTEX
  5
1FEB
  8
LY_1
  6
CONTINUOUS
 62
     3
 10
40411.31229720643
 20
-4769.83724988377
 30
0.0
  0
VERTEX
  5
1FEC
  8
LY_1
  6
CONTINUOUS
 62
     3
 10
40411.31315420642
 20
-4769.841287883769
 30
0.0
  0
VERTEX
  5
1FED
  8
LY_1
  6
CONTINUOUS
 62
     3
 10
40411.31457020644
 20
-4769.845172883769
 30
0.0
  0
VERTEX
  5
1FEE
  8
LY_1
  6
CONTINUOUS
 62
     3
 10
40411.31651720643
 20
-4769.84883088377
 30
0.0
  0
VERTEX
  5
1FEF
  8
LY_1
  6
CONTINUOUS
 62
     3
 10
40411.31895820642
 20
-4769.85219288377
 30
0.0
  0
VERTEX
  5
1FF0
  8
LY_1
  6
CONTINUOUS
 62
     3
 10
40411.32184820643
 20
-4769.85519588377
 30
0.0
  0
VERTEX
  5
1FF1
  8
LY_1
  6
CONTINUOUS
 62
     3
 10
40411.32513220643
 20
-4769.85778188377
 30
0.0
  0
SEQEND
  5
2017
  8
LY_1
  6
CONTINUOUS
 62
     3
  0
ARC
  5
1EA3
  8
LY_1
  6
CONTINUOUS
 62
     3
 10
40416.00378720643
 20
-4767.83203988377
 30
0.0
 40
1.000141
 50
90.77895100017807
 51
124.2590629999615
  0
ARC
  5
1EA4
  8
LY_1
  6
CONTINUOUS
 62
     3
 10
40415.97766420642
 20
-4767.657021883771
 30
0.0
 40
0.825127
 50
213.5745139998458
 51
89.14320300019773
  0
ARC
  5
1EA5
  8
LY_1
  6
CONTINUOUS
 62
     3
 10
40415.96252720643
 20
-4772.010964883771
 30
0.0
 40
0.8309979999999999
 50
235.7409370000385
 51
55.74095499982936
  0
ARC
  5
1EA6
  8
LY_1
  6
CONTINUOUS
 62
     3
 10
40410.44568120643
 20
-4771.99118988377
 30
0.0
 40
0.8431790000000001
 50
179.9999639999755
 51
359.9999829999826
  0
ARC
  5
1EA7
  8
LY_1
  6
CONTINUOUS
 62
     3
 10
40410.44568120643
 20
-4767.675103883769
 30
0.0
 40
0.8431790000000001
 50
0.0
 51
180.0000190000071
  0
ARC
  5
1EA8
  8
LY_1
  6
CONTINUOUS
 62
     3
 10
40390.03210720643
 20
-4746.034371883769
 30
0.0
 40
1.0
 50
129.0680079998717
 51
169.6945200000166
  0
ARC
  5
1EA9
  8
LY_1
  6
CONTINUOUS
 62
     3
 10
40400.91809320643
 20
-4744.034371883769
 30
0.0
 40
1.0
 50
198.4338970000873
 51
269.9967389998837
  0
ARC
  5
1EAA
  8
LY_1
  6
CONTINUOUS
 62
     3
 10
40437.29236120643
 20
-4765.034371883769
 30
0.0
 40
1.0
 50
269.9931880001947
 51
354.2887289999431
  0
ARC
  5
1EAB
  8
LY_1
  6
CONTINUOUS
 62
     3
 10
40436.36267320643
 20
-4746.034371883769
 30
0.0
 40
1.0
 50
10.30549900007867
 51
50.93198299987729
  0
ARC
  5
1EAC
  8
LY_1
  6
CONTINUOUS
 62
     3
 10
40425.47668720644
 20
-4744.034371883769
 30
0.0
 40
1.0
 50
270.0032419999007
 51
341.5660810000314
  0
ARC
  5
1EAD
  8
LY_1
  6
CONTINUOUS
 62
     3
 10
40423.68884520643
 20
-4737.034371883769
 30
0.0
 40
2.0
 50
15.94561299991693
 51
90.00080199986188
  0
ARC
  5
1EAE
  8
LY_1
  6
CONTINUOUS
 62
     3
 10
40445.69739020643
 20
-4780.33731988377
 30
0.0
 40
7.0
 50
180.0000359999724
 51
232.5927660000975
  0
ARC
  5
1EAF
  8
LY_1
  6
CONTINUOUS
 62
     3
 10
40437.19739020643
 20
-4773.903298883769
 30
0.0
 40
8.0
 50
179.9999639999755
 51
243.8727239999937
  0
ARC
  5
1EB0
  8
LY_1
  6
CONTINUOUS
 62
     3
 10
40389.19739020643
 20
-4773.903298883769
 30
0.0
 40
8.0
 50
296.1272949998403
 51
0.0000149999754545
  0
ARC
  5
1EB1
  8
LY_1
  6
CONTINUOUS
 62
     3
 10
40413.19739020643
 20
-4822.83437488377
 30
0.0
 40
46.5
 50
116.1273129999569
 51
63.8726880002037
  0
CIRCLE
  5
1EB2
  8
LY_1
  6
CONTINUOUS
 62
   110
 10
40413.19739020643
 20
-4822.83437488377
 30
0.0
 40
37.600006
  0
CIRCLE
  5
1EB3
  8
LY_1
  6
CONTINUOUS
 62
     3
 10
40413.19739020643
 20
-4822.83437488377
 30
0.0
 40
36.100006
  0
LINE
  5
1EB4
  8
LY_1
  6
CONTINUOUS
 62
     3
 10
40413.50348020643
 20
-4769.33037688377
 30
0.0
 11
40415.29046520643
 21
-4768.113248883769
 31
0.0
  0
LINE
  5
1EB5
  8
LY_1
  6
CONTINUOUS
 62
     3
 10
40413.50329720642
 20
-4769.330515883769
 30
0.0
 11
40416.43034120643
 21
-4771.32414488377
 31
0.0
  0
LINE
  5
1EB6
  8
LY_1
  6
CONTINUOUS
 62
     3
 10
40411.32515720643
 20
-4769.80857488377
 30
0.0
 11
40415.44071220643
 21
-4767.005442883769
 31
0.0
  0
LINE
  5
1EB7
  8
LY_1
  6
CONTINUOUS
 62
     3
 10
40411.32509520643
 20
-4769.85781788377
 30
0.0
 11
40415.49474020643
 21
-4772.69779188377
 31
0.0
  0
LINE
  5
1EB8
  8
LY_1
  6
CONTINUOUS
 62
     3
 10
40411.28869920643
 20
-4767.675103883769
 30
0.0
 11
40411.28869920643
 21
-4771.99118988377
 31
0.0
  0
LINE
  5
1EB9
  8
LY_1
  6
CONTINUOUS
 62
     3
 10
40409.60241920644
 20
-4767.675103883769
 30
0.0
 11
40409.60241920644
 21
-4771.99118988377
 31
0.0
  0
LINE
  5
1EBA
  8
LY_1
  6
CONTINUOUS
 62
     3
 10
40405.19739020643
 20
-4731.83437488377
 30
0.0
 11
40421.19739020643
 21
-4731.83437488377
 31
0.0
  0
LINE
  5
1EBB
  8
LY_1
  6
CONTINUOUS
 62
     3
 10
40408.19739020643
 20
-4761.83437488377
 30
0.0
 11
40418.19739020643
 21
-4761.83437488377
 31
0.0
  0
LINE
  5
1EBC
  8
LY_1
  6
CONTINUOUS
 62
     3
 10
40418.19739020643
 20
-4761.83437488377
 30
0.0
 11
40418.19739020643
 21
-4777.234368883769
 31
0.0
  0
LINE
  5
1EBD
  8
LY_1
  6
CONTINUOUS
 62
   110
 10
40406.27991020643
 20
-4731.83437488377
 30
0.0
 11
40406.27991020643
 21
-4733.034371883769
 31
0.0
  0
LINE
  5
1EBE
  8
LY_1
  6
CONTINUOUS
 62
   110
 10
40420.11487120643
 20
-4731.83437488377
 30
0.0
 11
40420.11487120643
 21
-4733.034371883769
 31
0.0
  0
LINE
  5
1EBF
  8
LY_1
  6
CONTINUOUS
 62
     3
 10
40405.19739020643
 20
-4731.83437488377
 30
0.0
 11
40405.19739020643
 21
-4733.034371883769
 31
0.0
  0
LINE
  5
1EC0
  8
LY_1
  6
CONTINUOUS
 62
     3
 10
40421.19739020643
 20
-4731.83437488377
 30
0.0
 11
40421.19739020643
 21
-4733.034371883769
 31
0.0
  0
LINE
  5
1EC1
  8
LY_1
  6
CONTINUOUS
 62
     3
 10
40413.19739020643
 20
-4733.034371883769
 30
0.0
 11
40413.19739020643
 21
-4735.034371883769
 31
0.0
  0
LINE
  5
1EC2
  8
LY_1
  6
CONTINUOUS
 62
     3
 10
40425.19739020643
 20
-4733.034371883769
 30
0.0
 11
40425.19739020643
 21
-4735.68303788377
 31
0.0
  0
LINE
  5
1EC3
  8
LY_1
  6
CONTINUOUS
 62
     3
 10
40401.19739020643
 20
-4733.034371883769
 30
0.0
 11
40401.19739020643
 21
-4735.682900883769
 31
0.0
  0
LINE
  5
1EC4
  8
LY_1
  6
CONTINUOUS
 62
     3
 10
40401.19739020643
 20
-4733.034371883769
 30
0.0
 11
40425.19739020643
 21
-4733.034371883769
 31
0.0
  0
LINE
  5
1EC5
  8
LY_1
  6
CONTINUOUS
 62
     3
 10
40431.02781120643
 20
-4759.03437288377
 30
0.0
 11
40431.52781120643
 21
-4766.034375883769
 31
0.0
  0
LINE
  5
1EC6
  8
LY_1
  6
CONTINUOUS
 62
     3
 10
40429.19739020643
 20
-4766.034371883769
 30
0.0
 11
40437.29236120643
 21
-4766.034371883769
 31
0.0
  0
LINE
  5
1EC7
  8
LY_1
  6
CONTINUOUS
 62
     3
 10
40393.44010520643
 20
-4756.034332883769
 30
0.0
 11
40400.19733020643
 21
-4745.034322883769
 31
0.0
  0
LINE
  5
1EC8
  8
LY_1
  6
CONTINUOUS
 62
     3
 10
40389.40178020643
 20
-4745.25799788377
 30
0.0
 11
40401.44549220643
 21
-4735.48149788377
 31
0.0
  0
LINE
  5
1EC9
  8
LY_1
  6
CONTINUOUS
 62
     3
 10
40390.59719420644
 20
-4756.03434288377
 30
0.0
 11
40399.19729220643
 21
-4742.03434288377
 31
0.0
  0
LINE
  5
1ECA
  8
LY_1
  6
CONTINUOUS
 62
     3
 10
40399.19712620643
 20
-4742.034429883769
 30
0.0
 11
40399.96919520643
 21
-4744.350637883769
 31
0.0
  0
LINE
  5
1ECB
  8
LY_1
  6
CONTINUOUS
 62
     3
 10
40400.78276520643
 20
-4736.484867883771
 30
0.0
 11
40399.19721620643
 21
-4742.03428788377
 31
0.0
  0
LINE
  5
1ECC
  8
LY_1
  6
CONTINUOUS
 62
     3
 10
40389.04827420643
 20
-4745.855462883769
 30
0.0
 11
40387.19756220643
 21
-4756.03437888377
 31
0.0
  0
LINE
  5
1ECD
  8
LY_1
  6
CONTINUOUS
 62
     3
 10
40408.19739020643
 20
-4759.034371883769
 30
0.0
 11
40438.89758520643
 21
-4759.034371883769
 31
0.0
  0
LINE
  5
1ECE
  8
LY_1
  6
CONTINUOUS
 62
     3
 10
40432.95433120643
 20
-4756.034515883769
 30
0.0
 11
40426.19710620643
 21
-4745.03450688377
 31
0.0
  0
LINE
  5
1ECF
  8
LY_1
  6
CONTINUOUS
 62
     3
 10
40436.99279720643
 20
-4745.25828588377
 30
0.0
 11
40424.94915720643
 21
-4735.481842883769
 31
0.0
  0
LINE
  5
1ED0
  8
LY_1
  6
CONTINUOUS
 62
     3
 10
40435.79724220643
 20
-4756.034526883769
 30
0.0
 11
40427.19714420642
 21
-4742.034525883771
 31
0.0
  0
LINE
  5
1ED1
  8
LY_1
  6
CONTINUOUS
 62
     3
 10
40427.19750720642
 20
-4742.03438588377
 30
0.0
 11
40426.42543820642
 21
-4744.350593883769
 31
0.0
  0
LINE
  5
1ED2
  8
LY_1
  6
CONTINUOUS
 62
     3
 10
40425.61164220642
 20
-4736.48498888377
 30
0.0
 11
40427.19719120643
 21
-4742.03440988377
 31
0.0
  0
LINE
  5
1ED3
  8
LY_1
  6
CONTINUOUS
 62
     3
 10
40399.19739020643
 20
-4742.034371883769
 30
0.0
 11
40427.19739020643
 21
-4742.034371883769
 31
0.0
  0
LINE
  5
1ED4
  8
LY_1
  6
CONTINUOUS
 62
     3
 10
40402.70593520642
 20
-4735.034371883769
 30
0.0
 11
40423.68884520643
 21
-4735.034371883769
 31
0.0
  0
LINE
  5
1ED5
  8
LY_1
  6
CONTINUOUS
 62
     3
 10
40437.34714920643
 20
-4745.85538488377
 30
0.0
 11
40439.19786220643
 21
-4756.034305883769
 31
0.0
  0
LINE
  5
1ED6
  8
LY_1
  6
CONTINUOUS
 62
     3
 10
40438.28706420642
 20
-4765.13387788377
 30
0.0
 11
40439.19701520643
 21
-4756.03436388377
 31
0.0
  0
LINE
  5
1ED7
  8
LY_1
  6
CONTINUOUS
 62
     3
 10
40388.19713320643
 20
-4766.03436388377
 30
0.0
 11
40387.19713420644
 21
-4756.03437388377
 31
0.0
  0
LINE
  5
1ED8
  8
LY_1
  6
CONTINUOUS
 62
     3
 10
40400.91809320643
 20
-4745.034371883769
 30
0.0
 11
40425.47668720644
 21
-4745.034371883769
 31
0.0
  0
LINE
  5
1ED9
  8
LY_1
  6
CONTINUOUS
 62
     3
 10
40387.19739020643
 20
-4756.034371883769
 30
0.0
 11
40439.19739020643
 21
-4756.034371883769
 31
0.0
  0
LINE
  5
1EDA
  8
LY_1
  6
CONTINUOUS
 62
     3
 10
40388.19739020643
 20
-4766.034371883769
 30
0.0
 11
40408.19739020643
 21
-4766.034371883769
 31
0.0
  0
LINE
  5
1EDB
  8
LY_1
  6
CONTINUOUS
 62
     3
 10
40408.19739020643
 20
-4759.034371883769
 30
0.0
 11
40408.19739020643
 21
-4777.234368883769
 31
0.0
  0
LINE
  5
1EDC
  8
LY_1
  6
CENTER
 62
   110
 10
40413.19739020643
 20
-4726.534371883769
 30
0.0
 11
40413.19739020643
 21
-4874.887002883769
 31
0.0
  0
LINE
  5
1EDD
  8
LY_1
  6
CENTER
 62
   110
 10
40361.88730120643
 20
-4822.83437488377
 30
0.0
 11
40464.50720520644
 21
-4822.83437488377
 31
0.0
  0
LINE
  5
1EDE
  8
LY_1
  6
CONTINUOUS
 62
     3
 10
40438.69739020643
 20
-4768.33437488377
 30
0.0
 11
40438.69739020643
 21
-4780.33731988377
 31
0.0
  0
LINE
  5
1EDF
  8
LY_1
  6
CONTINUOUS
 62
     3
 10
40429.19739020643
 20
-4768.33437488377
 30
0.0
 11
40438.69739020643
 21
-4768.33437488377
 31
0.0
  0
LINE
  5
1EE0
  8
LY_1
  6
CONTINUOUS
 62
     3
 10
40397.19739020643
 20
-4766.034371883769
 30
0.0
 11
40397.19739020643
 21
-4773.903298883769
 31
0.0
  0
LINE
  5
1EE1
  8
LY_1
  6
CONTINUOUS
 62
     3
 10
40429.19739020643
 20
-4759.034371883769
 30
0.0
 11
40429.19739020643
 21
-4773.903298883769
 31
0.0
  0
LINE
  5
1EE2
  8
LY_1
  6
CONTINUOUS
 62
     3
 10
40408.19739020643
 20
-4759.83437488377
 30
0.0
 11
40429.19739020643
 21
-4759.83437488377
 31
0.0
  0
LINE
  5
1EE3
  8
LY_1
  6
CONTINUOUS
 62
     3
 10
40446.00441920642
 20
-4789.880603883769
 30
0.0
 11
40413.30117420643
 21
-4776.33447888377
 31
0.0
  0
LINE
  5
1EE4
  8
LY_1
  6
CONTINUOUS
 62
     3
 10
40413.09364720643
 20
-4869.33424688377
 30
0.0
 11
40380.39037420643
 21
-4855.788109883771
 31
0.0
  0
LINE
  5
1EE5
  8
LY_1
  6
CONTINUOUS
 62
     3
 10
40459.69721420643
 20
-4822.730628883769
 30
0.0
 11
40446.15109820644
 21
-4790.02741488377
 31
0.0
  0
LINE
  5
1EE6
  8
LY_1
  6
CONTINUOUS
 62
     3
 10
40380.24363120642
 20
-4855.64141688377
 30
0.0
 11
40366.69749220643
 21
-4822.93814588377
 31
0.0
  0
LINE
  5
1EE7
  8
LY_1
  6
CONTINUOUS
 62
     3
 10
40446.15109320643
 20
-4855.641355883769
 30
0.0
 11
40459.69722420642
 21
-4822.93809688377
 31
0.0
  0
LINE
  5
1EE8
  8
LY_1
  6
CONTINUOUS
 62
     3
 10
40366.69751320643
 20
-4822.73059288377
 30
0.0
 11
40380.24363220643
 21
-4790.02736288377
 31
0.0
  0
LINE
  5
1EE9
  8
LY_1
  6
CONTINUOUS
 62
     3
 10
40413.30113320643
 20
-4869.334280883771
 30
0.0
 11
40446.00441820643
 21
-4855.78813588377
 31
0.0
  0
LINE
  5
1EEA
  8
LY_1
  6
CONTINUOUS
 62
     3
 10
40380.39037020643
 20
-4789.88063788377
 30
0.0
 11
40413.09364120643
 21
-4776.33449888377
 31
0.0
  0
LINE
  5
1EEB
  8
0
 10
40413.5179407199
 20
-4914.445747658615
 30
0.0
 11
40413.00083618522
 21
-4766.660439883771
 31
0.0
  0
LINE
  5
1EEC
  8
0
 10
40413.19739120643
 20
-4822.834374883384
 30
0.0
 11
40413.19739120643
 21
-4877.486504883384
 31
0.0
  0
LINE
  5
1EED
  8
0
 10
40413.19739020643
 20
-4822.834374883384
 30
0.0
 11
40467.84952120643
 21
-4822.834374883384
 31
0.0
  0
TEXT
  5
1F32
  8
0
 10
45823.36529925541
 20
-5758.527068918804
 30
0.0
 40
150.0
  1
T０００１８３－０８△
 41
0.8
  0
TEXT
  5
1F33
  8
0
 10
44339.9949148912
 20
-5395.675681292545
 30
0.0
 40
70.0
  1
２０２１．９．３０
 41
0.6
  0
ENDSEC
  0
EOF
