  0
SECTION
  2
HEADER
  9
$ACADVER
  1
AC1018
  9
$ACADMAINTVER
 70
    39
  9
$DWGCODEPAGE
  3
ANSI_932
  9
$INSBASE
 10
0.0
 20
0.0
 30
0.0
  9
$EXTMIN
 10
6089.99829828809
 20
5906.76897719933
 30
0.0
  9
$EXTMAX
 10
15586.84964536624
 20
11906.76897719933
 30
0.0
  9
$LIMMIN
 10
-144.1413879999999
 20
-67.98339799999999
  9
$LIMMAX
 10
277.858612
 20
231.016602
  9
$ORTHOMODE
 70
     0
  9
$REGENMODE
 70
     1
  9
$FILLMODE
 70
     1
  9
$QTEXTMODE
 70
     0
  9
$MIRRTEXT
 70
     0
  9
$LTSCALE
 40
20.0
  9
$ATTMODE
 70
     1
  9
$TEXTSIZE
 40
60.0
  9
$TRACEWID
 40
0.05
  9
$TEXTSTYLE
  7
STANDARD
  9
$CLAYER
  8
0
  9
$CELTYPE
  6
BYLAYER
  9
$CECOLOR
 62
   256
  9
$CELTSCALE
 40
1.0
  9
$DISPSILH
 70
     0
  9
$DIMSCALE
 40
20.0
  9
$DIMASZ
 40
1.0
  9
$DIMEXO
 40
2.0
  9
$DIMDLI
 40
0.38
  9
$DIMRND
 40
0.0
  9
$DIMDLE
 40
0.0
  9
$DIMEXE
 40
3.0
  9
$DIMTP
 40
0.0
  9
$DIMTM
 40
0.0
  9
$DIMTXT
 40
3.0
  9
$DIMCEN
 40
0.09
  9
$DIMTSZ
 40
0.0
  9
$DIMTOL
 70
     0
  9
$DIMLIM
 70
     0
  9
$DIMTIH
 70
     0
  9
$DIMTOH
 70
     0
  9
$DIMSE1
 70
     0
  9
$DIMSE2
 70
     0
  9
$DIMTAD
 70
     1
  9
$DIMZIN
 70
     8
  9
$DIMBLK
  1
OPEN30
  9
$DIMASO
 70
     1
  9
$DIMSHO
 70
     0
  9
$DIMPOST
  1

  9
$DIMAPOST
  1

  9
$DIMALT
 70
     0
  9
$DIMALTD
 70
     3
  9
$DIMALTF
 40
0.03937007874016
  9
$DIMLFAC
 40
1.0
  9
$DIMTOFL
 70
     1
  9
$DIMTVP
 40
0.0
  9
$DIMTIX
 70
     0
  9
$DIMSOXD
 70
     0
  9
$DIMSAH
 70
     0
  9
$DIMBLK1
  1

  9
$DIMBLK2
  1

  9
$DIMSTYLE
  2
1-20
  9
$DIMCLRD
 70
     0
  9
$DIMCLRE
 70
     0
  9
$DIMCLRT
 70
     0
  9
$DIMTFAC
 40
1.0
  9
$DIMGAP
 40
1.7
  9
$DIMJUST
 70
     0
  9
$DIMSD1
 70
     0
  9
$DIMSD2
 70
     0
  9
$DIMTOLJ
 70
     0
  9
$DIMTZIN
 70
     8
  9
$DIMALTZ
 70
     0
  9
$DIMALTTZ
 70
     0
  9
$DIMUPT
 70
     0
  9
$DIMDEC
 70
     1
  9
$DIMTDEC
 70
     1
  9
$DIMALTU
 70
     2
  9
$DIMALTTD
 70
     3
  9
$DIMTXSTY
  7
STANDARD
  9
$DIMAUNIT
 70
     0
  9
$DIMADEC
 70
     0
  9
$DIMALTRND
 40
0.0
  9
$DIMAZIN
 70
     2
  9
$DIMDSEP
 70
    46
  9
$DIMATFIT
 70
     3
  9
$DIMFRAC
 70
     0
  9
$DIMLDRBLK
  1
OPEN30
  9
$DIMLUNIT
 70
     2
  9
$DIMLWD
 70
    -2
  9
$DIMLWE
 70
    -2
  9
$DIMTMOVE
 70
     0
  9
$LUNITS
 70
     2
  9
$LUPREC
 70
     4
  9
$SKETCHINC
 40
0.1
  9
$FILLETRAD
 40
0.0
  9
$AUNITS
 70
     0
  9
$AUPREC
 70
     0
  9
$MENU
  1
.
  9
$ELEVATION
 40
0.0
  9
$PELEVATION
 40
0.0
  9
$THICKNESS
 40
0.0
  9
$LIMCHECK
 70
     0
  9
$CHAMFERA
 40
0.0
  9
$CHAMFERB
 40
0.0
  9
$CHAMFERC
 40
0.0
  9
$CHAMFERD
 40
0.0
  9
$SKPOLY
 70
     0
  9
$TDCREATE
 40
2455237.452021481
  9
$TDUCREATE
 40
2455237.077021481
  9
$TDUPDATE
 40
2457892.641688577
  9
$TDUUPDATE
 40
2457892.266688577
  9
$TDINDWG
 40
0.0859028356
  9
$TDUSRTIMER
 40
0.0859028356
  9
$USRTIMER
 70
     1
  9
$ANGBASE
 50
0.0
  9
$ANGDIR
 70
     0
  9
$PDMODE
 70
     0
  9
$PDSIZE
 40
0.0
  9
$PLINEWID
 40
0.0
  9
$SPLFRAME
 70
     0
  9
$SPLINETYPE
 70
     6
  9
$SPLINESEGS
 70
     8
  9
$HANDSEED
  5
DE6
  9
$SURFTAB1
 70
     6
  9
$SURFTAB2
 70
     6
  9
$SURFTYPE
 70
     6
  9
$SURFU
 70
     6
  9
$SURFV
 70
     6
  9
$UCSBASE
  2

  9
$UCSNAME
  2

  9
$UCSORG
 10
0.0
 20
0.0
 30
0.0
  9
$UCSXDIR
 10
1.0
 20
0.0
 30
0.0
  9
$UCSYDIR
 10
0.0
 20
1.0
 30
0.0
  9
$UCSORTHOREF
  2

  9
$UCSORTHOVIEW
 70
     0
  9
$UCSORGTOP
 10
0.0
 20
0.0
 30
0.0
  9
$UCSORGBOTTOM
 10
0.0
 20
0.0
 30
0.0
  9
$UCSORGLEFT
 10
0.0
 20
0.0
 30
0.0
  9
$UCSORGRIGHT
 10
0.0
 20
0.0
 30
0.0
  9
$UCSORGFRONT
 10
0.0
 20
0.0
 30
0.0
  9
$UCSORGBACK
 10
0.0
 20
0.0
 30
0.0
  9
$PUCSBASE
  2

  9
$PUCSNAME
  2

  9
$PUCSORG
 10
0.0
 20
0.0
 30
0.0
  9
$PUCSXDIR
 10
1.0
 20
0.0
 30
0.0
  9
$PUCSYDIR
 10
0.0
 20
1.0
 30
0.0
  9
$PUCSORTHOREF
  2

  9
$PUCSORTHOVIEW
 70
     0
  9
$PUCSORGTOP
 10
0.0
 20
0.0
 30
0.0
  9
$PUCSORGBOTTOM
 10
0.0
 20
0.0
 30
0.0
  9
$PUCSORGLEFT
 10
0.0
 20
0.0
 30
0.0
  9
$PUCSORGRIGHT
 10
0.0
 20
0.0
 30
0.0
  9
$PUCSORGFRONT
 10
0.0
 20
0.0
 30
0.0
  9
$PUCSORGBACK
 10
0.0
 20
0.0
 30
0.0
  9
$USERI1
 70
     0
  9
$USERI2
 70
     0
  9
$USERI3
 70
     0
  9
$USERI4
 70
     0
  9
$USERI5
 70
     0
  9
$USERR1
 40
0.0
  9
$USERR2
 40
0.0
  9
$USERR3
 40
0.0
  9
$USERR4
 40
0.0
  9
$USERR5
 40
0.0
  9
$WORLDVIEW
 70
     1
  9
$SHADEDGE
 70
     3
  9
$SHADEDIF
 70
    70
  9
$TILEMODE
 70
     1
  9
$MAXACTVP
 70
    64
  9
$PINSBASE
 10
0.0
 20
0.0
 30
0.0
  9
$PLIMCHECK
 70
     0
  9
$PEXTMIN
 10
-144.1413879999999
 20
-67.98339799999999
 30
0.0
  9
$PEXTMAX
 10
277.858612
 20
231.016602
 30
0.0
  9
$PLIMMIN
 10
-144.1413879999999
 20
-67.98339799999999
  9
$PLIMMAX
 10
277.858612
 20
231.016602
  9
$UNITMODE
 70
     0
  9
$VISRETAIN
 70
     1
  9
$PLINEGEN
 70
     0
  9
$PSLTSCALE
 70
     1
  9
$TREEDEPTH
 70
  3020
  9
$CMLSTYLE
  2
STANDARD
  9
$CMLJUST
 70
     0
  9
$CMLSCALE
 40
1.0
  9
$PROXYGRAPHICS
 70
     1
  9
$MEASUREMENT
 70
     1
  9
$CELWEIGHT
370
    -1
  9
$ENDCAPS
280
     0
  9
$JOINSTYLE
280
     0
  9
$LWDISPLAY
290
     0
  9
$INSUNITS
 70
     0
  9
$HYPERLINKBASE
  1

  9
$STYLESHEET
  1

  9
$XEDIT
290
     1
  9
$CEPSNTYPE
380
     0
  9
$PSTYLEMODE
290
     1
  9
$FINGERPRINTGUID
  2
{7DD3B25E-F2C9-4175-B26F-5C869CE24E4E}
  9
$VERSIONGUID
  2
{AD0F2FEF-CA99-4E38-8A45-7978F1FE0EDC}
  9
$EXTNAMES
290
     1
  9
$PSVPSCALE
 40
0.0
  9
$OLESTARTUP
290
     0
  9
$SORTENTS
280
   127
  9
$INDEXCTL
280
     0
  9
$HIDETEXT
280
     0
  9
$XCLIPFRAME
290
     0
  9
$HALOGAP
280
     0
  9
$OBSCOLOR
 70
   257
  9
$OBSLTYPE
280
     0
  9
$INTERSECTIONDISPLAY
280
     0
  9
$INTERSECTIONCOLOR
 70
   257
  9
$DIMASSOC
280
     1
  9
$PROJECTNAME
  1

  0
ENDSEC
  0
SECTION
  2
CLASSES
  0
CLASS
  1
ACDBDICTIONARYWDFLT
  2
AcDbDictionaryWithDefault
  3
ObjectDBX Classes
 90
        0
 91
        1
280
     0
281
     0
  0
CLASS
  1
TABLESTYLE
  2
AcDbTableStyle
  3
ObjectDBX Classes
 90
     2047
 91
        1
280
     0
281
     0
  0
CLASS
  1
SORTENTSTABLE
  2
AcDbSortentsTable
  3
ObjectDBX Classes
 90
        0
 91
        2
280
     0
281
     0
  0
CLASS
  1
DICTIONARYVAR
  2
AcDbDictionaryVar
  3
ObjectDBX Classes
 90
        0
 91
        1
280
     0
281
     0
  0
ENDSEC
  0
SECTION
  2
TABLES
  0
TABLE
  2
VPORT
  5
105
330
0
100
AcDbSymbolTable
 70
     2
  0
VPORT
  5
DE5
330
105
100
AcDbSymbolTableRecord
100
AcDbViewportTableRecord
  2
*Active
 70
     0
 10
0.0
 20
0.0
 11
1.0
 21
1.0
 12
11558.76758067671
 22
8961.262002706593
 13
0.0
 23
0.0
 14
1.0
 24
1.0
 15
0.0
 25
0.0
 16
0.0
 26
0.0
 36
1.0
 17
0.0
 27
0.0
 37
0.0
 40
6283.712756802998
 41
2.240490797546012
 42
50.0
 43
0.0
 44
0.0
 50
0.0
 51
0.0
 71
     0
 72
  1000
 73
     1
 74
     3
 75
     0
 76
     0
 77
     0
 78
     0
281
     0
 65
     1
110
0.0
120
0.0
130
0.0
111
1.0
121
0.0
131
0.0
112
0.0
122
1.0
132
0.0
 79
     0
146
0.0
  0
ENDTAB
  0
TABLE
  2
LTYPE
  5
25
330
0
100
AcDbSymbolTable
 70
     3
  0
LTYPE
  5
26
330
25
100
AcDbSymbolTableRecord
100
AcDbLinetypeTableRecord
  2
BYBLOCK
 70
     0
  3

 72
    65
 73
     0
 40
0.0
  0
LTYPE
  5
27
330
25
100
AcDbSymbolTableRecord
100
AcDbLinetypeTableRecord
  2
BYLAYER
 70
     0
  3

 72
    65
 73
     0
 40
0.0
  0
LTYPE
  5
28
330
25
100
AcDbSymbolTableRecord
100
AcDbLinetypeTableRecord
  2
CONTINUOUS
 70
     0
  3
Solid line
 72
    65
 73
     0
 40
0.0
  0
LTYPE
  5
29
330
25
100
AcDbSymbolTableRecord
100
AcDbLinetypeTableRecord
  2
DASHED
 70
     0
  3
Dashed __ __ __ __ __ __ __ __ __ __ __ __ __ _
 72
    65
 73
     2
 40
4.5
 49
3.0
 74
     0
 49
-1.5
 74
     0
  0
LTYPE
  5
2A
330
25
100
AcDbSymbolTableRecord
100
AcDbLinetypeTableRecord
  2
CENTER
 70
     0
  3
Center ____ _ ____ _ ____ _ ____ _ ____ _ ____
 72
    65
 73
     4
 40
12.0
 49
7.5
 74
     0
 49
-1.5
 74
     0
 49
1.5
 74
     0
 49
-1.5
 74
     0
  0
ENDTAB
  0
TABLE
  2
LAYER
  5
C8
102
{ACAD_XDICTIONARY
360
4FD
102
}
330
0
100
AcDbSymbolTable
 70
     4
  0
LAYER
  5
C9
330
C8
100
AcDbSymbolTableRecord
100
AcDbLayerTableRecord
  2
0
 70
     0
 62
     7
  6
CONTINUOUS
370
    -3
390
4DE
  0
LAYER
  5
CC
330
C8
100
AcDbSymbolTableRecord
100
AcDbLayerTableRecord
  2
3
 70
     0
 62
     7
  6
CONTINUOUS
370
    -3
390
4DE
  0
LAYER
  5
CD
330
C8
100
AcDbSymbolTableRecord
100
AcDbLayerTableRecord
  2
DEFPOINTS
 70
     0
 62
     7
  6
CONTINUOUS
290
     0
370
    -3
390
4DE
  0
LAYER
  5
80E
330
C8
100
AcDbSymbolTableRecord
100
AcDbLayerTableRecord
  2
寸法線
 70
     0
 62
     8
  6
CONTINUOUS
370
    -3
390
4DE
1001
AcAecLayerStandard
1000

1000

  0
ENDTAB
  0
TABLE
  2
STYLE
  5
CE
330
0
100
AcDbSymbolTable
 70
     1
  0
STYLE
  5
23
330
CE
100
AcDbSymbolTableRecord
100
AcDbTextStyleTableRecord
  2
STANDARD
 70
     0
 40
0.0
 41
1.0
 50
0.0
 71
     0
 42
60.0
  3
txt.shx
  4
extfont.shx
  0
ENDTAB
  0
TABLE
  2
VIEW
  5
D3
330
0
100
AcDbSymbolTable
 70
     0
  0
ENDTAB
  0
TABLE
  2
UCS
  5
D4
330
0
100
AcDbSymbolTable
 70
     0
  0
ENDTAB
  0
TABLE
  2
APPID
  5
D1
330
0
100
AcDbSymbolTable
 70
     4
  0
APPID
  5
D2
330
D1
100
AcDbSymbolTableRecord
100
AcDbRegAppTableRecord
  2
ACAD
 70
     0
  0
APPID
  5
4EC
330
D1
100
AcDbSymbolTableRecord
100
AcDbRegAppTableRecord
  2
ACAD_PSEXT
 70
     0
  0
APPID
  5
762
330
D1
100
AcDbSymbolTableRecord
100
AcDbRegAppTableRecord
  2
ACAD_DSTYLE_DIMTEXT_FILL
 70
     0
  0
APPID
  5
80F
330
D1
100
AcDbSymbolTableRecord
100
AcDbRegAppTableRecord
  2
AcAecLayerStandard
 70
     0
  0
ENDTAB
  0
TABLE
  2
DIMSTYLE
  5
CF
330
0
100
AcDbSymbolTable
 70
     2
100
AcDbDimStyleTable
 71
     1
340
4F8
  0
DIMSTYLE
105
4F8
102
{ACAD_REACTORS
330
89D
330
8AA
330
8B7
330
A6D
330
B10
330
B1D
330
B50
330
B5E
330
B6D
330
BFD
330
C1B
330
CD1
330
D11
102
}
330
CF
100
AcDbSymbolTableRecord
100
AcDbDimStyleTableRecord
  2
1-20
 70
     0
 40
20.0
 41
1.0
 42
2.0
 44
3.0
 73
     0
 74
     0
 77
     1
 78
     8
 79
     2
140
3.0
143
0.03937007874016
147
1.7
171
     3
172
     1
271
     1
272
     1
274
     3
283
     0
284
     8
340
23
341
D9
342
D9
  0
DIMSTYLE
105
D99
330
CF
100
AcDbSymbolTableRecord
100
AcDbDimStyleTableRecord
  2
1-25
 70
     0
 40
25.0
 41
3.0
 42
2.0
 44
3.0
 73
     0
 74
     0
 77
     1
 78
     8
 79
     2
140
3.0
145
1.0
147
1.700000047683715
172
     1
271
     1
272
     1
340
23
341
D9
342
D9
  0
ENDTAB
  0
TABLE
  2
BLOCK_RECORD
  5
D5
330
0
100
AcDbSymbolTable
 70
    15
  0
BLOCK_RECORD
  5
D6
102
{ACAD_XDICTIONARY
360
79B
102
}
330
D5
100
AcDbSymbolTableRecord
100
AcDbBlockTableRecord
  2
*MODEL_SPACE
340
4E5
  0
BLOCK_RECORD
  5
D7
330
D5
100
AcDbSymbolTableRecord
100
AcDbBlockTableRecord
  2
*PAPER_SPACE
340
4E6
  0
BLOCK_RECORD
  5
D9
330
D5
100
AcDbSymbolTableRecord
100
AcDbBlockTableRecord
  2
_OPEN30
340
0
102
{BLKREFS
331
AD7
331
AD8
331
AE0
331
AE1
331
AE9
331
AEA
331
B7F
331
B80
331
B88
331
B89
331
B91
331
B92
331
C02
331
C03
331
C43
331
C44
331
C80
331
C81
331
C8B
331
C8C
331
CDC
331
D2A
331
D2B
331
DC2
331
DC3
102
}
  0
BLOCK_RECORD
  5
89E
330
D5
100
AcDbSymbolTableRecord
100
AcDbBlockTableRecord
  2
*D1
340
0
  0
BLOCK_RECORD
  5
8AB
330
D5
100
AcDbSymbolTableRecord
100
AcDbBlockTableRecord
  2
*D2
340
0
  0
BLOCK_RECORD
  5
8B8
330
D5
100
AcDbSymbolTableRecord
100
AcDbBlockTableRecord
  2
*D3
340
0
  0
BLOCK_RECORD
  5
A6E
330
D5
100
AcDbSymbolTableRecord
100
AcDbBlockTableRecord
  2
*D4
340
0
  0
BLOCK_RECORD
  5
B11
330
D5
100
AcDbSymbolTableRecord
100
AcDbBlockTableRecord
  2
*D5
340
0
  0
BLOCK_RECORD
  5
B1E
330
D5
100
AcDbSymbolTableRecord
100
AcDbBlockTableRecord
  2
*D6
340
0
  0
BLOCK_RECORD
  5
B51
330
D5
100
AcDbSymbolTableRecord
100
AcDbBlockTableRecord
  2
*D7
340
0
  0
BLOCK_RECORD
  5
B5F
330
D5
100
AcDbSymbolTableRecord
100
AcDbBlockTableRecord
  2
*D8
340
0
  0
BLOCK_RECORD
  5
B6E
330
D5
100
AcDbSymbolTableRecord
100
AcDbBlockTableRecord
  2
*D9
340
0
  0
BLOCK_RECORD
  5
BFE
330
D5
100
AcDbSymbolTableRecord
100
AcDbBlockTableRecord
  2
*D10
340
0
  0
BLOCK_RECORD
  5
C1C
330
D5
100
AcDbSymbolTableRecord
100
AcDbBlockTableRecord
  2
*D11
340
0
  0
BLOCK_RECORD
  5
CA6
330
D5
100
AcDbSymbolTableRecord
100
AcDbBlockTableRecord
  2
_DotSmall
340
0
  0
BLOCK_RECORD
  5
CD2
330
D5
100
AcDbSymbolTableRecord
100
AcDbBlockTableRecord
  2
*D13
340
0
  0
BLOCK_RECORD
  5
D12
330
D5
100
AcDbSymbolTableRecord
100
AcDbBlockTableRecord
  2
*D14
340
0
  0
ENDTAB
  0
ENDSEC
  0
SECTION
  2
BLOCKS
  0
BLOCK
  5
106
330
D6
100
AcDbEntity
  8
0
100
AcDbBlockBegin
  2
*MODEL_SPACE
 70
     0
 10
0.0
 20
0.0
 30
0.0
  3
*MODEL_SPACE
  1

  0
ENDBLK
  5
107
330
D6
100
AcDbEntity
  8
0
100
AcDbBlockEnd
  0
BLOCK
  5
108
330
D7
100
AcDbEntity
 67
     1
  8
0
100
AcDbBlockBegin
  2
*PAPER_SPACE
 70
     0
 10
0.0
 20
0.0
 30
0.0
  3
*PAPER_SPACE
  1

  0
ENDBLK
  5
109
330
D7
100
AcDbEntity
 67
     1
  8
0
100
AcDbBlockEnd
  0
BLOCK
  5
10D
330
D9
100
AcDbEntity
  8
0
100
AcDbBlockBegin
  2
_OPEN30
 70
     0
 10
0.0
 20
0.0
 30
0.0
  3
_OPEN30
  1

  0
LINE
  5
10E
330
D9
100
AcDbEntity
  8
0
  6
ByBlock
 62
     0
100
AcDbLine
 10
0.0
 20
0.0
 30
0.0
 11
-2.999999954944513
 21
-0.9999999849815248
 31
0.0
  0
LINE
  5
10F
330
D9
100
AcDbEntity
  8
0
  6
ByBlock
 62
     0
100
AcDbLine
 10
0.0
 20
0.0
 30
0.0
 11
-2.999999954944526
 21
0.9999999849814884
 31
0.0
  0
LINE
  5
110
330
D9
100
AcDbEntity
  8
0
  6
ByBlock
 62
     0
100
AcDbLine
 10
0.0
 20
0.0
 30
0.0
 11
-2.99999995494452
 21
0.0
 31
0.0
  0
ENDBLK
  5
111
330
D9
100
AcDbEntity
  8
0
100
AcDbBlockEnd
  0
BLOCK
  5
8A8
330
89E
100
AcDbEntity
  8
0
 48
20.0
100
AcDbBlockBegin
  2
*D1
 70
     1
 10
0.0
 20
0.0
 30
0.0
  3
*D1
  1

  0
LINE
  5
C40
330
89E
100
AcDbEntity
  8
寸法線
 62
     0
 48
20.0
370
    -2
100
AcDbLine
 10
7656.259485027373
 20
7029.001622053009
 30
0.0
 11
7656.259485027373
 21
6599.846825062414
 31
0.0
  0
LINE
  5
C41
330
89E
100
AcDbEntity
  8
寸法線
 62
     0
 48
20.0
370
    -2
100
AcDbLine
 10
9578.259454509794
 20
7029.001610370578
 30
0.0
 11
9578.259454509794
 21
6599.846825062414
 31
0.0
  0
LINE
  5
C42
330
89E
100
AcDbEntity
  8
寸法線
 62
     0
 48
20.0
370
    -2
100
AcDbLine
 10
7676.259485027372
 20
6659.846825062413
 30
0.0
 11
9558.259454509792
 21
6659.846825062413
 31
0.0
  0
INSERT
  5
C43
330
89E
100
AcDbEntity
  8
寸法線
 62
     0
 48
20.0
370
    -2
100
AcDbBlockReference
  2
_OPEN30
 10
7656.259485027373
 20
6659.846825062413
 30
0.0
 41
20.0
 42
20.0
 43
20.0
 50
180.0
  0
INSERT
  5
C44
330
89E
100
AcDbEntity
  8
寸法線
 62
     0
 48
20.0
370
    -2
100
AcDbBlockReference
  2
_OPEN30
 10
9578.259454509794
 20
6659.846825062413
 30
0.0
 41
20.0
 42
20.0
 43
20.0
  0
MTEXT
  5
C45
330
89E
100
AcDbEntity
  8
寸法線
 62
     0
 48
20.0
100
AcDbMText
 10
8617.259469768582
 20
6723.846825062413
 30
0.0
 40
60.0
 41
0.0
 71
     5
 72
     1
  1
O.Dφ1922
 73
     1
 44
1.0
  0
POINT
  5
C46
330
89E
100
AcDbEntity
  8
DEFPOINTS
 62
     0
 48
20.0
100
AcDbPoint
 10
7656.259485027373
 20
7069.001622053008
 30
0.0
  0
POINT
  5
C47
330
89E
100
AcDbEntity
  8
DEFPOINTS
 62
     0
 48
20.0
100
AcDbPoint
 10
9578.259454509794
 20
7069.001610370577
 30
0.0
  0
POINT
  5
C48
330
89E
100
AcDbEntity
  8
DEFPOINTS
 62
     0
 48
20.0
100
AcDbPoint
 10
9578.259454509794
 20
6659.846825062413
 30
0.0
  0
ENDBLK
  5
8A9
330
89E
100
AcDbEntity
  8
0
 48
20.0
100
AcDbBlockEnd
  0
BLOCK
  5
8B5
330
8AB
100
AcDbEntity
  8
0
 48
20.0
100
AcDbBlockBegin
  2
*D2
 70
     1
 10
0.0
 20
0.0
 30
0.0
  3
*D2
  1

  0
LINE
  5
AD4
330
8AB
100
AcDbEntity
  8
寸法線
 62
     0
 48
20.0
370
    -2
100
AcDbLine
 10
7646.25948502737
 20
7039.001610370577
 30
0.0
 11
7371.079720008187
 21
7039.001610370577
 31
0.0
  0
LINE
  5
AD5
330
8AB
100
AcDbEntity
  8
寸法線
 62
     0
 48
20.0
370
    -2
100
AcDbLine
 10
7616.25948502737
 20
9389.001610370575
 30
0.0
 11
7371.079720008187
 21
9389.001610370575
 31
0.0
  0
LINE
  5
AD6
330
8AB
100
AcDbEntity
  8
寸法線
 62
     0
 48
20.0
370
    -2
100
AcDbLine
 10
7431.079720008186
 20
7059.001610370578
 30
0.0
 11
7431.079720008186
 21
9369.001610370577
 31
0.0
  0
INSERT
  5
AD7
330
8AB
100
AcDbEntity
  8
寸法線
 62
     0
 48
20.0
370
    -2
100
AcDbBlockReference
  2
_OPEN30
 10
7431.079720008186
 20
7039.001610370577
 30
0.0
 41
20.0
 42
20.0
 43
20.0
 50
270.0
  0
INSERT
  5
AD8
330
8AB
100
AcDbEntity
  8
寸法線
 62
     0
 48
20.0
370
    -2
100
AcDbBlockReference
  2
_OPEN30
 10
7431.079720008186
 20
9389.001610370575
 30
0.0
 41
20.0
 42
20.0
 43
20.0
 50
90.0
  0
MTEXT
  5
AD9
330
8AB
100
AcDbEntity
  8
寸法線
 62
     0
 48
20.0
100
AcDbMText
 10
7367.079720008186
 20
8214.001610370578
 30
0.0
 40
60.0
 41
0.0
 71
     5
 72
     1
  1
2350
 11
0.0000000000000001
 21
1.0
 31
0.0
 73
     1
 44
1.0
  0
POINT
  5
ADA
330
8AB
100
AcDbEntity
  8
DEFPOINTS
 62
     0
 48
20.0
100
AcDbPoint
 10
7686.25948502737
 20
7039.001610370577
 30
0.0
  0
POINT
  5
ADB
330
8AB
100
AcDbEntity
  8
DEFPOINTS
 62
     0
 48
20.0
100
AcDbPoint
 10
7656.259485027371
 20
9389.001610370575
 30
0.0
  0
POINT
  5
ADC
330
8AB
100
AcDbEntity
  8
DEFPOINTS
 62
     0
 48
20.0
100
AcDbPoint
 10
7431.079720008186
 20
9389.001610370575
 30
0.0
  0
ENDBLK
  5
8B6
330
8AB
100
AcDbEntity
  8
0
 48
20.0
100
AcDbBlockEnd
  0
BLOCK
  5
8C2
330
8B8
100
AcDbEntity
  8
0
 48
20.0
100
AcDbBlockBegin
  2
*D3
 70
     1
 10
0.0
 20
0.0
 30
0.0
  3
*D3
  1

  0
LINE
  5
ADD
330
8B8
100
AcDbEntity
  8
寸法線
 62
     0
 48
20.0
370
    -2
100
AcDbLine
 10
7616.259521100634
 20
9389.001863756712
 30
0.0
 11
7371.079720008187
 21
9389.001863756712
 31
0.0
  0
LINE
  5
ADE
330
8B8
100
AcDbEntity
  8
寸法線
 62
     0
 48
20.0
370
    -2
100
AcDbLine
 10
8577.259412858692
 20
9839.001534076629
 30
0.0
 11
7371.079720008187
 21
9839.001534076629
 31
0.0
  0
LINE
  5
ADF
330
8B8
100
AcDbEntity
  8
寸法線
 62
     0
 48
20.0
370
    -2
100
AcDbLine
 10
7431.079720008186
 20
9409.001863756712
 30
0.0
 11
7431.079720008186
 21
9819.00153407663
 31
0.0
  0
INSERT
  5
AE0
330
8B8
100
AcDbEntity
  8
寸法線
 62
     0
 48
20.0
370
    -2
100
AcDbBlockReference
  2
_OPEN30
 10
7431.079720008186
 20
9389.001863756712
 30
0.0
 41
20.0
 42
20.0
 43
20.0
 50
270.0
  0
INSERT
  5
AE1
330
8B8
100
AcDbEntity
  8
寸法線
 62
     0
 48
20.0
370
    -2
100
AcDbBlockReference
  2
_OPEN30
 10
7431.079720008186
 20
9839.001534076629
 30
0.0
 41
20.0
 42
20.0
 43
20.0
 50
90.0
  0
MTEXT
  5
AE2
330
8B8
100
AcDbEntity
  8
寸法線
 62
     0
 48
20.0
100
AcDbMText
 10
7367.079720008186
 20
9614.001698916673
 30
0.0
 40
60.0
 41
0.0
 71
     5
 72
     1
  1
450
 11
0.0000000000000001
 21
1.0
 31
0.0
 73
     1
 44
1.0
  0
POINT
  5
AE3
330
8B8
100
AcDbEntity
  8
DEFPOINTS
 62
     0
 48
20.0
100
AcDbPoint
 10
7656.259521100633
 20
9389.001863756712
 30
0.0
  0
POINT
  5
AE4
330
8B8
100
AcDbEntity
  8
DEFPOINTS
 62
     0
 48
20.0
100
AcDbPoint
 10
8617.259412858693
 20
9839.001534076629
 30
0.0
  0
POINT
  5
AE5
330
8B8
100
AcDbEntity
  8
DEFPOINTS
 62
     0
 48
20.0
100
AcDbPoint
 10
7431.079720008186
 20
9839.001534076629
 30
0.0
  0
ENDBLK
  5
8C3
330
8B8
100
AcDbEntity
  8
0
 48
20.0
100
AcDbBlockEnd
  0
BLOCK
  5
A78
330
A6E
100
AcDbEntity
  8
0
 48
20.0
100
AcDbBlockBegin
  2
*D4
 70
     1
 10
0.0
 20
0.0
 30
0.0
  3
*D4
  1

  0
LINE
  5
AE6
330
A6E
100
AcDbEntity
  8
寸法線
 62
     0
 48
20.0
370
    -2
100
AcDbLine
 10
7646.259499690232
 20
7039.001610370582
 30
0.0
 11
7102.203197378199
 21
7039.001610370582
 31
0.0
  0
LINE
  5
AE7
330
A6E
100
AcDbEntity
  8
寸法線
 62
     0
 48
20.0
370
    -2
100
AcDbLine
 10
8577.259469768581
 20
9839.001534076635
 30
0.0
 11
7102.203197378199
 21
9839.001534076635
 31
0.0
  0
LINE
  5
AE8
330
A6E
100
AcDbEntity
  8
寸法線
 62
     0
 48
20.0
370
    -2
100
AcDbLine
 10
7162.2031973782
 20
7059.001610370581
 30
0.0
 11
7162.2031973782
 21
9819.001534076633
 31
0.0
  0
INSERT
  5
AE9
330
A6E
100
AcDbEntity
  8
寸法線
 62
     0
 48
20.0
370
    -2
100
AcDbBlockReference
  2
_OPEN30
 10
7162.2031973782
 20
7039.001610370582
 30
0.0
 41
20.0
 42
20.0
 43
20.0
 50
270.0
  0
INSERT
  5
AEA
330
A6E
100
AcDbEntity
  8
寸法線
 62
     0
 48
20.0
370
    -2
100
AcDbBlockReference
  2
_OPEN30
 10
7162.2031973782
 20
9839.001534076635
 30
0.0
 41
20.0
 42
20.0
 43
20.0
 50
90.0
  0
MTEXT
  5
AEB
330
A6E
100
AcDbEntity
  8
寸法線
 62
     0
 48
20.0
100
AcDbMText
 10
7098.203197378198
 20
8439.00157222361
 30
0.0
 40
60.0
 41
0.0
 71
     5
 72
     1
  1
2800
 11
0.0000000000000001
 21
1.0
 31
0.0
 73
     1
 44
1.0
  0
POINT
  5
AEC
330
A6E
100
AcDbEntity
  8
DEFPOINTS
 62
     0
 48
20.0
100
AcDbPoint
 10
7686.259499690233
 20
7039.001610370582
 30
0.0
  0
POINT
  5
AED
330
A6E
100
AcDbEntity
  8
DEFPOINTS
 62
     0
 48
20.0
100
AcDbPoint
 10
8617.25946976858
 20
9839.001534076635
 30
0.0
  0
POINT
  5
AEE
330
A6E
100
AcDbEntity
  8
DEFPOINTS
 62
     0
 48
20.0
100
AcDbPoint
 10
7162.2031973782
 20
9839.001534076635
 30
0.0
  0
ENDBLK
  5
A79
330
A6E
100
AcDbEntity
  8
0
 48
20.0
100
AcDbBlockEnd
  0
BLOCK
  5
B1B
330
B11
100
AcDbEntity
  8
0
 48
20.0
100
AcDbBlockBegin
  2
*D5
 70
     1
 10
0.0
 20
0.0
 30
0.0
  3
*D5
  1

  0
LINE
  5
B7C
330
B11
100
AcDbEntity
  8
寸法線
 62
     0
 48
20.0
370
    -2
100
AcDbLine
 10
13391.78504241905
 20
9243.634586309168
 30
0.0
 11
13689.52852862142
 21
9243.634586309168
 31
0.0
  0
LINE
  5
B7D
330
B11
100
AcDbEntity
  8
寸法線
 62
     0
 48
20.0
370
    -2
100
AcDbLine
 10
13391.78504241903
 20
8913.634583850477
 30
0.0
 11
13689.52852862142
 21
8913.634583850477
 31
0.0
  0
LINE
  5
B7E
330
B11
100
AcDbEntity
  8
寸法線
 62
     0
 48
20.0
370
    -2
100
AcDbLine
 10
13629.52852862142
 20
9223.634586309168
 30
0.0
 11
13629.52852862142
 21
8933.634583850476
 31
0.0
  0
INSERT
  5
B7F
330
B11
100
AcDbEntity
  8
寸法線
 62
     0
 48
20.0
370
    -2
100
AcDbBlockReference
  2
_OPEN30
 10
13629.52852862142
 20
9243.634586309168
 30
0.0
 41
20.0
 42
20.0
 43
20.0
 50
90.0
  0
INSERT
  5
B80
330
B11
100
AcDbEntity
  8
寸法線
 62
     0
 48
20.0
370
    -2
100
AcDbBlockReference
  2
_OPEN30
 10
13629.52852862142
 20
8913.634583850477
 30
0.0
 41
20.0
 42
20.0
 43
20.0
 50
270.0
  0
MTEXT
  5
B81
330
B11
100
AcDbEntity
  8
寸法線
 62
     0
 48
20.0
100
AcDbMText
 10
13565.52852862142
 20
9078.634585079827
 30
0.0
 40
60.0
 41
0.0
 71
     5
 72
     1
  1
110
 11
0.0000000000000001
 21
1.0
 31
0.0
 73
     1
 44
1.0
  0
POINT
  5
B82
330
B11
100
AcDbEntity
  8
DEFPOINTS
 62
     0
 48
20.0
100
AcDbPoint
 10
13351.78504241905
 20
9243.634586309168
 30
0.0
  0
POINT
  5
B83
330
B11
100
AcDbEntity
  8
DEFPOINTS
 62
     0
 48
20.0
100
AcDbPoint
 10
13351.78504241903
 20
8913.634583850477
 30
0.0
  0
POINT
  5
B84
330
B11
100
AcDbEntity
  8
DEFPOINTS
 62
     0
 48
20.0
100
AcDbPoint
 10
13629.52852862142
 20
8913.634583850477
 30
0.0
  0
ENDBLK
  5
B1C
330
B11
100
AcDbEntity
  8
0
 48
20.0
100
AcDbBlockEnd
  0
BLOCK
  5
B28
330
B1E
100
AcDbEntity
  8
0
 48
20.0
100
AcDbBlockBegin
  2
*D6
 70
     1
 10
0.0
 20
0.0
 30
0.0
  3
*D6
  1

  0
LINE
  5
B85
330
B1E
100
AcDbEntity
  8
寸法線
 62
     0
 48
20.0
370
    -2
100
AcDbLine
 10
13334.78504156967
 20
8853.634582956418
 30
0.0
 11
13846.31373924669
 21
8853.634582956418
 31
0.0
  0
LINE
  5
B86
330
B1E
100
AcDbEntity
  8
寸法線
 62
     0
 48
20.0
370
    -2
100
AcDbLine
 10
13334.78504156967
 20
9303.634589661935
 30
0.0
 11
13846.31373924669
 21
9303.634589661935
 31
0.0
  0
LINE
  5
B87
330
B1E
100
AcDbEntity
  8
寸法線
 62
     0
 48
20.0
370
    -2
100
AcDbLine
 10
13786.31373924669
 20
8873.634582956418
 30
0.0
 11
13786.31373924669
 21
9283.634589661934
 31
0.0
  0
INSERT
  5
B88
330
B1E
100
AcDbEntity
  8
寸法線
 62
     0
 48
20.0
370
    -2
100
AcDbBlockReference
  2
_OPEN30
 10
13786.31373924669
 20
8853.634582956418
 30
0.0
 41
20.0
 42
20.0
 43
20.0
 50
270.0
  0
INSERT
  5
B89
330
B1E
100
AcDbEntity
  8
寸法線
 62
     0
 48
20.0
370
    -2
100
AcDbBlockReference
  2
_OPEN30
 10
13786.31373924669
 20
9303.634589661935
 30
0.0
 41
20.0
 42
20.0
 43
20.0
 50
90.0
  0
MTEXT
  5
B8A
330
B1E
100
AcDbEntity
  8
寸法線
 62
     0
 48
20.0
100
AcDbMText
 10
13722.31373924668
 20
9078.634586309181
 30
0.0
 40
60.0
 41
0.0
 71
     5
 72
     1
  1
150
 11
0.0000000000000001
 21
1.0
 31
0.0
 73
     1
 44
1.0
  0
POINT
  5
B8B
330
B1E
100
AcDbEntity
  8
DEFPOINTS
 62
     0
 48
20.0
100
AcDbPoint
 10
13294.78504156967
 20
8853.634582956418
 30
0.0
  0
POINT
  5
B8C
330
B1E
100
AcDbEntity
  8
DEFPOINTS
 62
     0
 48
20.0
100
AcDbPoint
 10
13294.78504156967
 20
9303.634589661935
 30
0.0
  0
POINT
  5
B8D
330
B1E
100
AcDbEntity
  8
DEFPOINTS
 62
     0
 48
20.0
100
AcDbPoint
 10
13786.31373924669
 20
9303.634589661935
 30
0.0
  0
ENDBLK
  5
B29
330
B1E
100
AcDbEntity
  8
0
 48
20.0
100
AcDbBlockEnd
  0
BLOCK
  5
B5C
330
B51
100
AcDbEntity
  8
0
 48
20.0
100
AcDbBlockBegin
  2
*D7
 70
     1
 10
0.0
 20
0.0
 30
0.0
  3
*D7
  1

  0
LINE
  5
B8E
330
B51
100
AcDbEntity
  8
寸法線
 62
     0
 48
20.0
370
    -2
100
AcDbLine
 10
13124.73637346682
 20
8434.8814559554
 30
0.0
 11
13124.73637346682
 21
8575.446644753915
 31
0.0
  0
LINE
  5
B8F
330
B51
100
AcDbEntity
  8
寸法線
 62
     0
 48
20.0
370
    -2
100
AcDbLine
 10
13346.73637677488
 20
8434.8814559554
 30
0.0
 11
13346.73637677488
 21
8575.446644753915
 31
0.0
  0
LINE
  5
B90
330
B51
100
AcDbEntity
  8
寸法線
 62
     0
 48
20.0
370
    -2
100
AcDbLine
 10
13144.73637346682
 20
8515.446644753916
 30
0.0
 11
13326.73637677488
 21
8515.446644753916
 31
0.0
  0
INSERT
  5
B91
330
B51
100
AcDbEntity
  8
寸法線
 62
     0
 48
20.0
370
    -2
100
AcDbBlockReference
  2
_OPEN30
 10
13124.73637346682
 20
8515.446644753916
 30
0.0
 41
20.0
 42
20.0
 43
20.0
 50
180.0
  0
INSERT
  5
B92
330
B51
100
AcDbEntity
  8
寸法線
 62
     0
 48
20.0
370
    -2
100
AcDbBlockReference
  2
_OPEN30
 10
13346.73637677488
 20
8515.446644753916
 30
0.0
 41
20.0
 42
20.0
 43
20.0
  0
MTEXT
  5
B93
330
B51
100
AcDbEntity
  8
寸法線
 62
     0
 48
20.0
100
AcDbMText
 10
13235.73637512085
 20
8579.446644753916
 30
0.0
 40
60.0
 41
0.0
 71
     5
 72
     1
  1
74
 73
     1
 44
1.0
  0
POINT
  5
B94
330
B51
100
AcDbEntity
  8
DEFPOINTS
 62
     0
 48
20.0
100
AcDbPoint
 10
13124.73637346682
 20
8394.881455955399
 30
0.0
  0
POINT
  5
B95
330
B51
100
AcDbEntity
  8
DEFPOINTS
 62
     0
 48
20.0
100
AcDbPoint
 10
13346.73637677488
 20
8394.881455955399
 30
0.0
  0
POINT
  5
B96
330
B51
100
AcDbEntity
  8
DEFPOINTS
 62
     0
 48
20.0
100
AcDbPoint
 10
13346.73637677488
 20
8515.446644753916
 30
0.0
  0
ENDBLK
  5
B5D
330
B51
100
AcDbEntity
  8
0
 48
20.0
100
AcDbBlockEnd
  0
BLOCK
  5
B6B
330
B5F
100
AcDbEntity
  8
0
 48
20.0
100
AcDbBlockBegin
  2
*D8
 70
     1
 10
0.0
 20
0.0
 30
0.0
  3
*D8
  1

  0
LINE
  5
C7B
330
B5F
100
AcDbEntity
  8
寸法線
 62
     0
 48
20.0
370
    -2
100
AcDbLine
 10
13386.73637677488
 20
8307.881454658998
 30
0.0
 11
13621.08226064406
 21
8307.881454658998
 31
0.0
  0
LINE
  5
C7C
330
B5F
100
AcDbEntity
  8
寸法線
 62
     0
 48
20.0
370
    -2
100
AcDbLine
 10
13386.73637677488
 20
8394.881455955399
 30
0.0
 11
13621.08226064406
 21
8394.881455955399
 31
0.0
  0
LINE
  5
C7D
330
B5F
100
AcDbEntity
  8
寸法線
 62
     0
 48
20.0
370
    -2
100
AcDbLine
 10
13561.08226064406
 20
8287.881454658998
 30
0.0
 11
13561.08226064406
 21
8267.881454658999
 31
0.0
  0
LINE
  5
C7E
330
B5F
100
AcDbEntity
  8
寸法線
 62
     0
 48
20.0
370
    -2
100
AcDbLine
 10
13561.08226064406
 20
8414.8814559554
 30
0.0
 11
13561.08226064406
 21
8602.881455955399
 31
0.0
  0
LINE
  5
C7F
330
B5F
100
AcDbEntity
  8
寸法線
 62
     0
 48
20.0
370
    -2
100
AcDbLine
 10
13561.08226064406
 20
8307.881454658998
 30
0.0
 11
13561.08226064406
 21
8394.881455955399
 31
0.0
  0
INSERT
  5
C80
330
B5F
100
AcDbEntity
  8
寸法線
 62
     0
 48
20.0
370
    -2
100
AcDbBlockReference
  2
_OPEN30
 10
13561.08226064406
 20
8307.881454658998
 30
0.0
 41
20.0
 42
20.0
 43
20.0
 50
90.0
  0
INSERT
  5
C81
330
B5F
100
AcDbEntity
  8
寸法線
 62
     0
 48
20.0
370
    -2
100
AcDbBlockReference
  2
_OPEN30
 10
13561.08226064406
 20
8394.881455955399
 30
0.0
 41
20.0
 42
20.0
 43
20.0
 50
270.0
  0
MTEXT
  5
C82
330
B5F
100
AcDbEntity
  8
寸法線
 62
     0
 48
20.0
100
AcDbMText
 10
13497.08226064406
 20
8518.881455955403
 30
0.0
 40
60.0
 41
0.0
 71
     5
 72
     1
  1
29
 11
0.0000000000000001
 21
1.0
 31
0.0
 73
     1
 44
1.0
  0
POINT
  5
C83
330
B5F
100
AcDbEntity
  8
DEFPOINTS
 62
     0
 48
20.0
100
AcDbPoint
 10
13346.73637677488
 20
8307.881454658998
 30
0.0
  0
POINT
  5
C84
330
B5F
100
AcDbEntity
  8
DEFPOINTS
 62
     0
 48
20.0
100
AcDbPoint
 10
13346.73637677488
 20
8394.881455955399
 30
0.0
  0
POINT
  5
C85
330
B5F
100
AcDbEntity
  8
DEFPOINTS
 62
     0
 48
20.0
100
AcDbPoint
 10
13561.08226064406
 20
8394.881455955399
 30
0.0
  0
ENDBLK
  5
B6C
330
B5F
100
AcDbEntity
  8
0
 48
20.0
100
AcDbBlockEnd
  0
BLOCK
  5
B7A
330
B6E
100
AcDbEntity
  8
0
 48
20.0
100
AcDbBlockBegin
  2
*D9
 70
     1
 10
0.0
 20
0.0
 30
0.0
  3
*D9
  1

  0
LINE
  5
C86
330
B6E
100
AcDbEntity
  8
寸法線
 62
     0
 48
20.0
370
    -2
100
AcDbLine
 10
13365.73637662
 20
8292.88145443548
 30
0.0
 11
13755.65675455925
 21
8292.88145443548
 31
0.0
  0
LINE
  5
C87
330
B6E
100
AcDbEntity
  8
寸法線
 62
     0
 48
20.0
370
    -2
100
AcDbLine
 10
13386.73637677488
 20
8394.881455955399
 30
0.0
 11
13755.65675455925
 21
8394.881455955399
 31
0.0
  0
LINE
  5
C88
330
B6E
100
AcDbEntity
  8
寸法線
 62
     0
 48
20.0
370
    -2
100
AcDbLine
 10
13695.65675455925
 20
8272.881454435481
 30
0.0
 11
13695.65675455925
 21
8252.881454435481
 31
0.0
  0
LINE
  5
C89
330
B6E
100
AcDbEntity
  8
寸法線
 62
     0
 48
20.0
370
    -2
100
AcDbLine
 10
13695.65675455925
 20
8414.8814559554
 30
0.0
 11
13695.65675455925
 21
8602.881455955399
 31
0.0
  0
LINE
  5
C8A
330
B6E
100
AcDbEntity
  8
寸法線
 62
     0
 48
20.0
370
    -2
100
AcDbLine
 10
13695.65675455925
 20
8292.88145443548
 30
0.0
 11
13695.65675455925
 21
8394.881455955399
 31
0.0
  0
INSERT
  5
C8B
330
B6E
100
AcDbEntity
  8
寸法線
 62
     0
 48
20.0
370
    -2
100
AcDbBlockReference
  2
_OPEN30
 10
13695.65675455925
 20
8292.88145443548
 30
0.0
 41
20.0
 42
20.0
 43
20.0
 50
90.0
  0
INSERT
  5
C8C
330
B6E
100
AcDbEntity
  8
寸法線
 62
     0
 48
20.0
370
    -2
100
AcDbBlockReference
  2
_OPEN30
 10
13695.65675455925
 20
8394.881455955399
 30
0.0
 41
20.0
 42
20.0
 43
20.0
 50
270.0
  0
MTEXT
  5
C8D
330
B6E
100
AcDbEntity
  8
寸法線
 62
     0
 48
20.0
100
AcDbMText
 10
13631.65675455925
 20
8518.881455955403
 30
0.0
 40
60.0
 41
0.0
 71
     5
 72
     1
  1
34
 11
0.0000000000000001
 21
1.0
 31
0.0
 73
     1
 44
1.0
  0
POINT
  5
C8E
330
B6E
100
AcDbEntity
  8
DEFPOINTS
 62
     0
 48
20.0
100
AcDbPoint
 10
13325.73637662
 20
8292.88145443548
 30
0.0
  0
POINT
  5
C8F
330
B6E
100
AcDbEntity
  8
DEFPOINTS
 62
     0
 48
20.0
100
AcDbPoint
 10
13346.73637677488
 20
8394.881455955399
 30
0.0
  0
POINT
  5
C90
330
B6E
100
AcDbEntity
  8
DEFPOINTS
 62
     0
 48
20.0
100
AcDbPoint
 10
13695.65675455925
 20
8394.881455955399
 30
0.0
  0
ENDBLK
  5
B7B
330
B6E
100
AcDbEntity
  8
0
 48
20.0
100
AcDbBlockEnd
  0
BLOCK
  5
C08
330
BFE
100
AcDbEntity
  8
0
 48
20.0
100
AcDbBlockBegin
  2
*D10
 70
     1
 10
0.0
 20
0.0
 30
0.0
  3
*D10
  1

  0
LINE
  5
BFF
330
BFE
100
AcDbEntity
  8
寸法線
 62
     0
 48
20.0
370
    -2
100
AcDbLine
 10
11480.89857683172
 20
11088.10379554066
 30
0.0
 11
11480.89857683172
 21
11246.52757119387
 31
0.0
  0
LINE
  5
C00
330
BFE
100
AcDbEntity
  8
寸法線
 62
     0
 48
20.0
370
    -2
100
AcDbLine
 10
11780.89694325335
 20
11088.10379554066
 30
0.0
 11
11780.89694325335
 21
11246.52757119387
 31
0.0
  0
LINE
  5
C01
330
BFE
100
AcDbEntity
  8
寸法線
 62
     0
 48
20.0
370
    -2
100
AcDbLine
 10
11500.89857683172
 20
11186.52757119387
 30
0.0
 11
11760.89694325335
 21
11186.52757119387
 31
0.0
  0
INSERT
  5
C02
330
BFE
100
AcDbEntity
  8
寸法線
 62
     0
 48
20.0
370
    -2
100
AcDbBlockReference
  2
_OPEN30
 10
11480.89857683172
 20
11186.52757119387
 30
0.0
 41
20.0
 42
20.0
 43
20.0
 50
180.0
  0
INSERT
  5
C03
330
BFE
100
AcDbEntity
  8
寸法線
 62
     0
 48
20.0
370
    -2
100
AcDbBlockReference
  2
_OPEN30
 10
11780.89694325335
 20
11186.52757119387
 30
0.0
 41
20.0
 42
20.0
 43
20.0
  0
MTEXT
  5
C04
330
BFE
100
AcDbEntity
  8
寸法線
 62
     0
 48
20.0
100
AcDbMText
 10
11630.89776004253
 20
11250.52757119387
 30
0.0
 40
60.0
 41
0.0
 71
     5
 72
     1
  1
300
 73
     1
 44
1.0
  0
POINT
  5
C05
330
BFE
100
AcDbEntity
  8
DEFPOINTS
 62
     0
 48
20.0
100
AcDbPoint
 10
11480.89857683172
 20
11048.10379554066
 30
0.0
  0
POINT
  5
C06
330
BFE
100
AcDbEntity
  8
DEFPOINTS
 62
     0
 48
20.0
100
AcDbPoint
 10
11780.89694325335
 20
11048.10379554066
 30
0.0
  0
POINT
  5
C07
330
BFE
100
AcDbEntity
  8
DEFPOINTS
 62
     0
 48
20.0
100
AcDbPoint
 10
11780.89694325335
 20
11186.52757119387
 30
0.0
  0
ENDBLK
  5
C09
330
BFE
100
AcDbEntity
  8
0
 48
20.0
100
AcDbBlockEnd
  0
BLOCK
  5
C26
330
C1C
100
AcDbEntity
  8
0
 48
20.0
100
AcDbBlockBegin
  2
*D11
 70
     1
 10
0.0
 20
0.0
 30
0.0
  3
*D11
  1

  0
LINE
  5
DBF
330
C1C
100
AcDbEntity
  8
寸法線
 62
     0
 48
20.0
370
    -2
100
AcDbLine
 10
8382.258456968953
 20
9819.002426671341
 30
0.0
 11
8382.258456968953
 21
10066.57495198755
 31
0.0
  0
LINE
  5
DC0
330
C1C
100
AcDbEntity
  8
寸法線
 62
     0
 48
20.0
370
    -2
100
AcDbLine
 10
8852.258446463638
 20
9819.002426671341
 30
0.0
 11
8852.258446463638
 21
10066.57495198755
 31
0.0
  0
LINE
  5
DC1
330
C1C
100
AcDbEntity
  8
寸法線
 62
     0
 48
20.0
370
    -2
100
AcDbLine
 10
8402.258456968954
 20
10006.57495198755
 30
0.0
 11
8832.258446463638
 21
10006.57495198755
 31
0.0
  0
INSERT
  5
DC2
330
C1C
100
AcDbEntity
  8
寸法線
 62
     0
 48
20.0
370
    -2
100
AcDbBlockReference
  2
_OPEN30
 10
8382.258456968953
 20
10006.57495198755
 30
0.0
 41
20.0
 42
20.0
 43
20.0
 50
180.0
  0
INSERT
  5
DC3
330
C1C
100
AcDbEntity
  8
寸法線
 62
     0
 48
20.0
370
    -2
100
AcDbBlockReference
  2
_OPEN30
 10
8852.258446463638
 20
10006.57495198755
 30
0.0
 41
20.0
 42
20.0
 43
20.0
  0
MTEXT
  5
DC4
330
C1C
100
AcDbEntity
  8
寸法線
 62
     0
 48
20.0
100
AcDbMText
 10
8617.258451716296
 20
10070.57495198755
 30
0.0
 40
60.0
 41
0.0
 71
     5
 72
     1
  1
I.Dφ470
 73
     1
 44
1.0
  0
POINT
  5
DC5
330
C1C
100
AcDbEntity
  8
DEFPOINTS
 62
     0
 48
20.0
100
AcDbPoint
 10
8382.258456968953
 20
9779.002426671342
 30
0.0
  0
POINT
  5
DC6
330
C1C
100
AcDbEntity
  8
DEFPOINTS
 62
     0
 48
20.0
100
AcDbPoint
 10
8852.258446463638
 20
9779.002426671342
 30
0.0
  0
POINT
  5
DC7
330
C1C
100
AcDbEntity
  8
DEFPOINTS
 62
     0
 48
20.0
100
AcDbPoint
 10
8852.258446463638
 20
10006.57495198755
 30
0.0
  0
ENDBLK
  5
C27
330
C1C
100
AcDbEntity
  8
0
 48
20.0
100
AcDbBlockEnd
  0
BLOCK
  5
CA8
330
CA6
100
AcDbEntity
  8
0
 48
20.0
100
AcDbBlockBegin
  2
_DotSmall
 70
     0
 10
0.0
 20
0.0
 30
0.0
  3
_DotSmall
  1

  0
LWPOLYLINE
  5
CA7
330
CA6
100
AcDbEntity
  8
0
  6
ByBlock
 62
     0
100
AcDbPolyline
 90
        2
 70
     1
 43
0.5
 10
-0.0625
 20
0.0
 42
1.0
 10
0.0625
 20
0.0
 42
1.0
  0
ENDBLK
  5
CA9
330
CA6
100
AcDbEntity
  8
0
 48
20.0
100
AcDbBlockEnd
  0
BLOCK
  5
CD8
330
CD2
100
AcDbEntity
  8
0
 48
20.0
100
AcDbBlockBegin
  2
*D13
 70
     1
 10
0.0
 20
0.0
 30
0.0
  3
*D13
  1

  0
LINE
  5
CDA
330
CD2
100
AcDbEntity
  8
寸法線
 62
     0
 48
20.0
370
    -2
100
AcDbLine
 10
11981.85527939261
 20
10279.95749234508
 30
0.0
 11
12330.16480683802
 21
10429.51110373875
 31
0.0
  0
MTEXT
  5
CDB
330
CD2
100
AcDbEntity
  8
寸法線
 62
     0
 48
20.0
100
AcDbMText
 10
12079.73459287497
 20
10391.63398939
 30
0.0
 40
60.0
 41
0.0
 71
     5
 72
     1
  1
R781
 11
0.9188791863554154
 21
0.3945390232699543
 31
0.0
 73
     1
 44
1.0
  0
INSERT
  5
CDC
330
CD2
100
AcDbEntity
  8
寸法線
 62
     0
 48
20.0
370
    -2
100
AcDbBlockReference
  2
_OPEN30
 10
12348.54239056513
 20
10437.40188420415
 30
0.0
 41
20.0
 42
20.0
 43
20.0
 50
23.2372272275503
  0
POINT
  5
CDD
330
CD2
100
AcDbEntity
  8
DEFPOINTS
 62
     0
 48
20.0
100
AcDbPoint
 10
12348.54239056513
 20
10437.40188420415
 30
0.0
  0
POINT
  5
CDE
330
CD2
100
AcDbEntity
  8
DEFPOINTS
 62
     0
 48
20.0
100
AcDbPoint
 10
11630.89776004253
 20
10129.2669130505
 30
0.0
  0
ENDBLK
  5
CD9
330
CD2
100
AcDbEntity
  8
0
 48
20.0
100
AcDbBlockEnd
  0
BLOCK
  5
D1C
330
D12
100
AcDbEntity
  8
0
 48
20.0
100
AcDbBlockBegin
  2
*D14
 70
     1
 10
0.0
 20
0.0
 30
0.0
  3
*D14
  1

  0
LINE
  5
D27
330
D12
100
AcDbEntity
  8
寸法線
 62
     0
 48
20.0
370
    -2
100
AcDbLine
 10
9638.259455403863
 20
6981.687017498453
 30
0.0
 11
9638.259455403863
 21
6441.725871077117
 31
0.0
  0
LINE
  5
D28
330
D12
100
AcDbEntity
  8
寸法線
 62
     0
 48
20.0
370
    -2
100
AcDbLine
 10
7596.259484133297
 20
6981.687017498451
 30
0.0
 11
7596.259484133297
 21
6441.725871077117
 31
0.0
  0
LINE
  5
D29
330
D12
100
AcDbEntity
  8
寸法線
 62
     0
 48
20.0
370
    -2
100
AcDbLine
 10
9618.259455403864
 20
6501.725871077117
 30
0.0
 11
7616.259484133298
 21
6501.725871077117
 31
0.0
  0
INSERT
  5
D2A
330
D12
100
AcDbEntity
  8
寸法線
 62
     0
 48
20.0
370
    -2
100
AcDbBlockReference
  2
_OPEN30
 10
9638.259455403863
 20
6501.725871077117
 30
0.0
 41
20.0
 42
20.0
 43
20.0
  0
INSERT
  5
D2B
330
D12
100
AcDbEntity
  8
寸法線
 62
     0
 48
20.0
370
    -2
100
AcDbBlockReference
  2
_OPEN30
 10
7596.259484133297
 20
6501.725871077117
 30
0.0
 41
20.0
 42
20.0
 43
20.0
 50
180.0
  0
MTEXT
  5
D2C
330
D12
100
AcDbEntity
  8
寸法線
 62
     0
 48
20.0
100
AcDbMText
 10
8617.25946976858
 20
6565.725871077117
 30
0.0
 40
60.0
 41
0.0
 71
     5
 72
     1
  1
P.C.Dφ2042
 73
     1
 44
1.0
  0
POINT
  5
D2D
330
D12
100
AcDbEntity
  8
DEFPOINTS
 62
     0
 48
20.0
100
AcDbPoint
 10
9638.259455403863
 20
7021.687017498452
 30
0.0
  0
POINT
  5
D2E
330
D12
100
AcDbEntity
  8
DEFPOINTS
 62
     0
 48
20.0
100
AcDbPoint
 10
7596.259484133297
 20
7021.687017498452
 30
0.0
  0
POINT
  5
D2F
330
D12
100
AcDbEntity
  8
DEFPOINTS
 62
     0
 48
20.0
100
AcDbPoint
 10
7596.259484133297
 20
6501.725871077117
 30
0.0
  0
ENDBLK
  5
D1D
330
D12
100
AcDbEntity
  8
0
 48
20.0
100
AcDbBlockEnd
  0
ENDSEC
  0
SECTION
  2
ENTITIES
  0
LINE
  5
351
330
D6
100
AcDbEntity
  8
0
  6
CENTER
100
AcDbLine
 10
8617.25946976858
 20
9922.126610370579
 30
0.0
 11
8617.25946976858
 21
6877.655727954806
 31
0.0
  0
LINE
  5
352
330
D6
100
AcDbEntity
  8
0
  6
Continuous
100
AcDbLine
 10
7686.25948502737
 20
7039.001610370577
 30
0.0
 11
9548.259454509793
 21
7039.001610370577
 31
0.0
  0
LINE
  5
353
330
D6
100
AcDbEntity
  8
0
  6
Continuous
100
AcDbLine
 10
7656.259485027371
 20
9389.001610370575
 30
0.0
 11
9578.259454509794
 21
9389.001610370575
 31
0.0
  0
LINE
  5
354
330
D6
100
AcDbEntity
  8
0
  6
Continuous
100
AcDbLine
 10
7656.259485027371
 20
7069.001610370577
 30
0.0
 11
7656.259485027371
 21
9389.001610370575
 31
0.0
  0
LINE
  5
355
330
D6
100
AcDbEntity
  8
0
  6
Continuous
100
AcDbLine
 10
7690.358606121121
 20
9539.001610370576
 30
0.0
 11
7986.259370586452
 21
9539.001610370576
 31
0.0
  0
LINE
  5
356
330
D6
100
AcDbEntity
  8
0
  6
Continuous
100
AcDbLine
 10
7685.455664729627
 20
9534.982486512211
 30
0.0
 11
7656.259521100633
 21
9389.001863756712
 31
0.0
  0
LINE
  5
357
330
D6
100
AcDbEntity
  8
0
  6
Continuous
100
AcDbLine
 10
7756.259485027371
 20
9399.001762958468
 30
0.0
 11
8451.553769847926
 21
9399.001762958468
 31
0.0
  0
LINE
  5
358
330
D6
100
AcDbEntity
  8
0
  6
Continuous
100
AcDbLine
 10
7756.259485027371
 20
9399.001762958468
 30
0.0
 11
7756.259485027371
 21
9389.001610370575
 31
0.0
  0
LINE
  5
35F
330
D6
100
AcDbEntity
  8
0
  6
Continuous
100
AcDbLine
 10
9544.160333416042
 20
9539.001610370576
 30
0.0
 11
9248.259568950709
 21
9539.001610370576
 31
0.0
  0
LINE
  5
360
330
D6
100
AcDbEntity
  8
0
  6
Continuous
100
AcDbLine
 10
9549.063333151829
 20
9534.982418061826
 30
0.0
 11
9578.259405110733
 21
9389.001780972316
 31
0.0
  0
LINE
  5
361
330
D6
100
AcDbEntity
  8
0
  6
Continuous
100
AcDbLine
 10
9578.259454509794
 20
7069.001610370577
 30
0.0
 11
9578.259454509794
 21
9389.001610370575
 31
0.0
  0
LINE
  5
362
330
D6
100
AcDbEntity
  8
0
  6
Continuous
100
AcDbLine
 10
9478.259454509792
 20
9399.001762958468
 30
0.0
 11
9478.259454509792
 21
9389.001610370575
 31
0.0
  0
LINE
  5
363
330
D6
100
AcDbEntity
  8
0
  6
Continuous
100
AcDbLine
 10
8471.937223217066
 20
9539.001610370576
 30
0.0
 11
8762.581716320093
 21
9539.001610370576
 31
0.0
  0
LINE
  5
364
330
D6
100
AcDbEntity
  8
0
  6
Continuous
100
AcDbLine
 10
8466.948321505148
 20
9534.334347295063
 30
0.0
 11
8459.126559185971
 21
9417.006126131854
 31
0.0
  0
LINE
  5
365
330
D6
100
AcDbEntity
  8
0
  6
Continuous
100
AcDbLine
 10
8767.570618032015
 20
9534.334347295063
 30
0.0
 11
8775.39238035119
 21
9417.006126131854
 31
0.0
  0
LINE
  5
366
330
D6
100
AcDbEntity
  8
0
  6
Continuous
100
AcDbLine
 10
8782.965169689234
 20
9399.001762958468
 30
0.0
 11
9478.259530803738
 21
9399.001762958468
 31
0.0
  0
LINE
  5
367
330
D6
100
AcDbEntity
  8
0
  6
CENTER
100
AcDbLine
 10
9398.259683391628
 20
9445.251457782687
 30
0.0
 11
9398.259683391628
 21
9655.251610370576
 31
0.0
  0
LINE
  5
368
330
D6
100
AcDbEntity
  8
0
  6
CENTER
100
AcDbLine
 10
7836.259561321314
 20
9427.751610370576
 30
0.0
 11
7836.259561321314
 21
9629.001610370577
 31
0.0
  0
LINE
  5
36B
102
{ACAD_REACTORS
330
D09
102
}
330
D6
100
AcDbEntity
  8
0
  6
Continuous
100
AcDbLine
 10
9603.259454882323
 20
7069.001610817612
 30
0.0
 11
9678.25945599991
 21
7069.001610817612
 31
0.0
  0
LINE
  5
36C
102
{ACAD_REACTORS
330
D09
102
}
330
D6
100
AcDbEntity
  8
0
  6
CENTER
100
AcDbLine
 10
9638.259455403863
 20
7088.715627267287
 30
0.0
 11
9638.259455403863
 21
7021.687017498452
 31
0.0
  0
LINE
  5
36D
102
{ACAD_REACTORS
330
D09
102
}
330
D6
100
AcDbEntity
  8
0
  6
Continuous
100
AcDbLine
 10
9608.259454956829
 20
7073.001610877217
 30
0.0
 11
9608.259454956829
 21
7069.001610817612
 31
0.0
  0
LINE
  5
370
102
{ACAD_REACTORS
330
D09
102
}
330
D6
100
AcDbEntity
  8
0
  6
Continuous
100
AcDbLine
 10
9682.259456059513
 20
7073.001610877217
 30
0.0
 11
9682.259456059513
 21
7044.001610445083
 31
0.0
  0
LINE
  5
371
102
{ACAD_REACTORS
330
D09
102
}
330
D6
100
AcDbEntity
  8
0
  6
Continuous
100
AcDbLine
 10
9608.259454956829
 20
7073.001610877217
 30
0.0
 11
9682.259456059513
 21
7073.001610877217
 31
0.0
  0
LINE
  5
372
102
{ACAD_REACTORS
330
D09
102
}
330
D6
100
AcDbEntity
  8
0
  6
Continuous
100
AcDbLine
 10
9678.25945599991
 20
7044.001610445083
 30
0.0
 11
9682.259456059513
 21
7044.001610445083
 31
0.0
  0
LINE
  5
373
102
{ACAD_REACTORS
330
D09
102
}
330
D6
100
AcDbEntity
  8
0
  6
Continuous
100
AcDbLine
 10
9578.259454509794
 20
7129.001611711682
 30
0.0
 11
9595.259454763112
 21
7129.001611711682
 31
0.0
  0
LINE
  5
374
102
{ACAD_REACTORS
330
D09
102
}
330
D6
100
AcDbEntity
  8
0
  6
Continuous
100
AcDbLine
 10
9569.472657902386
 20
7047.788406977983
 30
0.0
 11
9578.259454509794
 21
7039.001610370579
 31
0.0
  0
LINE
  5
375
102
{ACAD_REACTORS
330
D09
102
}
330
D6
100
AcDbEntity
  8
0
  6
Continuous
100
AcDbLine
 10
9678.25945599991
 20
7069.001610817612
 30
0.0
 11
9678.25945599991
 21
7042.00161041528
 31
0.0
  0
LINE
  5
376
102
{ACAD_REACTORS
330
D09
102
}
330
D6
100
AcDbEntity
  8
0
  6
Continuous
100
AcDbLine
 10
9598.259454807816
 20
7126.001611666978
 30
0.0
 11
9598.259454807816
 21
7074.001610892118
 31
0.0
  0
LINE
  5
377
102
{ACAD_REACTORS
330
D09
102
}
330
D6
100
AcDbEntity
  8
0
  6
Continuous
100
AcDbLine
 10
9548.259454509793
 20
7039.001610370577
 30
0.0
 11
9675.259456007887
 21
7039.001610370577
 31
0.0
  0
ARC
  5
378
330
D6
100
AcDbEntity
  8
0
  6
Continuous
100
AcDbCircle
 10
7686.25948502737
 20
7069.001610370577
 30
0.0
 40
30.0
100
AcDbArc
 50
179.9999776881997
 51
270.0000280040028
  0
ARC
  5
379
330
D6
100
AcDbEntity
  8
0
  6
Continuous
100
AcDbCircle
 10
7690.358606121121
 20
9534.001762958467
 30
0.0
 40
4.999999701976776
100
AcDbArc
 50
89.99998201390992
 51
168.6903045736813
  0
ARC
  5
37E
330
D6
100
AcDbEntity
  8
0
  6
Continuous
100
AcDbCircle
 10
9548.259454509793
 20
7069.001610370577
 30
0.0
 40
30.0
100
AcDbArc
 50
269.9999633445766
 51
0.0
  0
ARC
  5
37F
330
D6
100
AcDbEntity
  8
0
  6
Continuous
100
AcDbCircle
 10
9544.160333416042
 20
9534.001762958467
 30
0.0
 40
4.999999701976776
100
AcDbArc
 50
11.30965945413884
 51
89.99998201390992
  0
ARC
  5
381
330
D6
100
AcDbEntity
  8
0
  6
Continuous
100
AcDbCircle
 10
8429.192987224634
 20
9419.001610370576
 30
0.0
 40
30.0
100
AcDbArc
 50
270.00001798609
 51
356.1861188438875
  0
ARC
  5
382
330
D6
100
AcDbEntity
  8
0
  6
Continuous
100
AcDbCircle
 10
8805.325952312525
 20
9419.001610370576
 30
0.0
 40
30.0
100
AcDbArc
 50
183.8138633405528
 51
270.00001798609
  0
ARC
  5
383
330
D6
100
AcDbEntity
  8
0
  6
Continuous
100
AcDbCircle
 10
8471.937223217066
 20
9534.001762958467
 30
0.0
 40
4.999999701976776
100
AcDbArc
 50
89.9999820139107
 51
176.1854126593953
  0
ARC
  5
384
330
D6
100
AcDbEntity
  8
0
  6
Continuous
100
AcDbCircle
 10
8762.581716320093
 20
9534.001762958467
 30
0.0
 40
4.999999701976776
100
AcDbArc
 50
3.814611132580482
 51
89.9999820139107
  0
ARC
  5
386
102
{ACAD_REACTORS
330
D09
102
}
330
D6
100
AcDbEntity
  8
0
  6
Continuous
100
AcDbCircle
 10
9595.259454763112
 20
7126.001611666978
 30
0.0
 40
3.000000044703484
100
AcDbArc
 50
0.0
 51
90.00000000000019
  0
ARC
  5
387
102
{ACAD_REACTORS
330
D09
102
}
330
D6
100
AcDbEntity
  8
0
  6
Continuous
100
AcDbCircle
 10
9675.259455955206
 20
7042.00161041528
 30
0.0
 40
3.000000044703484
100
AcDbArc
 50
270.0000000000005
 51
0.0
  0
ARC
  5
388
102
{ACAD_REACTORS
330
D09
102
}
330
D6
100
AcDbEntity
  8
0
  6
Continuous
100
AcDbCircle
 10
9603.259454882323
 20
7074.001610892118
 30
0.0
 40
5.000000074505805
100
AcDbArc
 50
180.0000000000004
 51
270.0000000000005
  0
ARC
  5
389
102
{ACAD_REACTORS
330
D09
102
}
330
D6
100
AcDbEntity
  8
0
  6
Continuous
100
AcDbCircle
 10
9675.259455955206
 20
7066.001610772909
 30
0.0
 40
3.000000044703484
100
AcDbArc
 50
0.0
 51
90.00000000000019
  0
LINE
  5
3E6
330
D6
100
AcDbEntity
  8
0
  6
CENTER
100
AcDbLine
 10
12630.89776004253
 20
10129.2669130505
 30
0.0
 11
10630.89760745464
 21
10129.2669130505
 31
0.0
  0
LINE
  5
3E7
330
D6
100
AcDbEntity
  8
0
  6
CENTER
100
AcDbLine
 10
11630.89776004254
 20
9129.266913050505
 30
0.0
 11
11630.89776004254
 21
11129.2669130505
 31
0.0
  0
LINE
  5
3E8
330
D6
100
AcDbEntity
  8
0
  6
Continuous
100
AcDbLine
 10
11480.89806521832
 20
10760.26666890988
 30
0.0
 11
11480.89806521832
 21
11048.10358297238
 31
0.0
  0
LINE
  5
3E9
330
D6
100
AcDbEntity
  8
0
  6
Continuous
100
AcDbLine
 10
11780.89806521832
 20
10760.26666890988
 30
0.0
 11
11780.89806521832
 21
11048.10358297238
 31
0.0
  0
LINE
  5
3EA
330
D6
100
AcDbEntity
  8
0
  6
Continuous
100
AcDbLine
 10
11470.89775276367
 20
11076.8544430226
 30
0.0
 11
11480.89762919044
 21
11048.10411507909
 31
0.0
  0
LINE
  5
3EB
330
D6
100
AcDbEntity
  8
0
  6
Continuous
100
AcDbLine
 10
11790.89797732021
 20
11076.8551332852
 30
0.0
 11
11780.89809142849
 21
11048.10480863377
 31
0.0
  0
LINE
  5
3EC
330
D6
100
AcDbEntity
  8
0
  6
Continuous
100
AcDbLine
 10
11470.89854227284
 20
11076.85343085877
 30
0.0
 11
11480.89831688724
 21
10760.26662899593
 31
0.0
  0
LINE
  5
3ED
330
D6
100
AcDbEntity
  8
0
  6
Continuous
100
AcDbLine
 10
11790.89805465734
 20
11076.85322789147
 30
0.0
 11
11780.89813858816
 21
10760.26643049668
 31
0.0
  0
LINE
  5
3EE
330
D6
100
AcDbEntity
  8
0
  6
Continuous
100
AcDbLine
 10
10999.89785159527
 20
10279.2669130505
 30
0.0
 11
10712.06109012066
 21
10279.2669130505
 31
0.0
  0
LINE
  5
3EF
330
D6
100
AcDbEntity
  8
0
  6
Continuous
100
AcDbLine
 10
10683.31095802262
 20
10289.26700136248
 30
0.0
 11
10999.89791016327
 21
10279.26715120339
 31
0.0
  0
LINE
  5
3F0
330
D6
100
AcDbEntity
  8
0
  6
Continuous
100
AcDbLine
 10
10683.31106336136
 20
10289.26679946111
 30
0.0
 11
10712.06131736062
 21
10279.26694267937
 31
0.0
  0
LINE
  5
3F1
330
D6
100
AcDbEntity
  8
0
  6
Continuous
100
AcDbLine
 10
10999.89785159527
 20
9979.266913050507
 30
0.0
 11
10712.06109012066
 21
9979.266913050507
 31
0.0
  0
LINE
  5
3F2
330
D6
100
AcDbEntity
  8
0
  6
Continuous
100
AcDbLine
 10
10683.31097821968
 20
9969.267325141986
 30
0.0
 11
10712.06130427851
 21
9979.267206987341
 31
0.0
  0
LINE
  5
3F3
330
D6
100
AcDbEntity
  8
0
  6
Continuous
100
AcDbLine
 10
10683.31098025172
 20
9969.266869388318
 30
0.0
 11
10999.89777988054
 21
9979.266714730103
 31
0.0
  0
LINE
  5
3F4
330
D6
100
AcDbEntity
  8
0
  6
Continuous
100
AcDbLine
 10
11480.89745486675
 20
9498.26700460324
 30
0.0
 11
11480.89745486675
 21
9210.430243128632
 31
0.0
  0
LINE
  5
3F5
330
D6
100
AcDbEntity
  8
0
  6
Continuous
100
AcDbLine
 10
11470.89737575736
 20
9181.680104799026
 30
0.0
 11
11480.89724949226
 21
9498.267056194995
 31
0.0
  0
LINE
  5
3F6
330
D6
100
AcDbEntity
  8
0
  6
Continuous
100
AcDbLine
 10
11470.89746050601
 20
9181.680128557438
 30
0.0
 11
11480.89734316064
 21
9210.430454334787
 31
0.0
  0
LINE
  5
3F7
330
D6
100
AcDbEntity
  8
0
  6
Continuous
100
AcDbLine
 10
11780.89745486676
 20
9498.26700460324
 30
0.0
 11
11780.89745486676
 21
9210.430243128632
 31
0.0
  0
LINE
  5
3F8
330
D6
100
AcDbEntity
  8
0
  6
Continuous
100
AcDbLine
 10
11790.89726323091
 20
9181.680189826947
 30
0.0
 11
11780.89738356705
 21
9210.430516644541
 31
0.0
  0
LINE
  5
3F9
330
D6
100
AcDbEntity
  8
0
  6
Continuous
100
AcDbLine
 10
11790.89720871995
 20
9181.680193177349
 30
0.0
 11
11780.89738695396
 21
9498.266993550842
 31
0.0
  0
LINE
  5
3FA
330
D6
100
AcDbEntity
  8
0
  6
Continuous
100
AcDbLine
 10
12261.89751590191
 20
9979.265997523162
 30
0.0
 11
12549.73442996441
 21
9979.265997523162
 31
0.0
  0
LINE
  5
3FB
330
D6
100
AcDbEntity
  8
0
  6
Continuous
100
AcDbLine
 10
12578.48418869672
 20
9969.266479250668
 30
0.0
 11
12261.89739055725
 21
9979.266371744049
 31
0.0
  0
LINE
  5
3FC
330
D6
100
AcDbEntity
  8
0
  6
Continuous
100
AcDbLine
 10
12578.48584955858
 20
9969.266712763555
 30
0.0
 11
12549.73552434419
 21
9979.266597036726
 31
0.0
  0
LINE
  5
3FD
330
D6
100
AcDbEntity
  8
0
  6
Continuous
100
AcDbLine
 10
12261.89751590191
 20
10279.26630269894
 30
0.0
 11
12549.73442996441
 21
10279.26630269894
 31
0.0
  0
LINE
  5
3FE
330
D6
100
AcDbEntity
  8
0
  6
Continuous
100
AcDbLine
 10
12578.48479604852
 20
10289.26683564412
 30
0.0
 11
12549.73446866797
 21
10279.26695759881
 31
0.0
  0
LINE
  5
3FF
330
D6
100
AcDbEntity
  8
0
  6
Continuous
100
AcDbLine
 10
12578.48411570847
 20
10289.26594465696
 30
0.0
 11
12261.8973145903
 21
10279.26614646677
 31
0.0
  0
CIRCLE
  5
46E
330
D6
100
AcDbEntity
  8
0
100
AcDbCircle
 10
11630.89776004254
 20
10129.2669130505
 30
0.0
 40
960.999984741211
  0
ARC
  5
46F
330
D6
100
AcDbEntity
  8
0
  6
Continuous
100
AcDbCircle
 10
11630.89776004254
 20
10129.2669130505
 30
0.0
 40
860.999984741211
100
AcDbArc
 50
10.49353551813971
 51
79.50638673161574
  0
ARC
  5
472
330
D6
100
AcDbEntity
  8
0
  6
Continuous
100
AcDbCircle
 10
11630.89776004254
 20
10129.2669130505
 30
0.0
 40
930.9999847412109
100
AcDbArc
 50
80.72827342318515
 51
99.27169060463617
  0
ARC
  5
473
330
D6
100
AcDbEntity
  8
0
  6
Continuous
100
AcDbCircle
 10
11630.89776004254
 20
10129.2669130505
 30
0.0
 40
860.999984741211
100
AcDbArc
 50
190.4935697827718
 51
259.5063680622818
  0
ARC
  5
474
330
D6
100
AcDbEntity
  8
0
  6
Continuous
100
AcDbCircle
 10
11630.89776004254
 20
10129.2669130505
 30
0.0
 40
930.9999847412109
100
AcDbArc
 50
170.7282827578525
 51
189.2716999393042
  0
ARC
  5
475
330
D6
100
AcDbEntity
  8
0
  6
Continuous
100
AcDbCircle
 10
11630.89776004254
 20
10129.2669130505
 30
0.0
 40
930.9999847412109
100
AcDbArc
 50
260.7282820746079
 51
279.2716992560589
  0
ARC
  5
476
330
D6
100
AcDbEntity
  8
0
  6
Continuous
100
AcDbCircle
 10
11630.89776004254
 20
10129.2669130505
 30
0.0
 40
930.9999847412109
100
AcDbArc
 50
350.7282777488969
 51
9.271694930347171
  0
ARC
  5
477
330
D6
100
AcDbEntity
  8
0
  6
Continuous
100
AcDbCircle
 10
11630.89776004254
 20
10129.2669130505
 30
0.0
 40
860.999984741211
100
AcDbArc
 50
280.4935654570608
 51
349.5063645903444
  0
ARC
  5
478
330
D6
100
AcDbEntity
  8
0
  6
Continuous
100
AcDbCircle
 10
11630.89776004254
 20
10129.2669130505
 30
0.0
 40
860.999984741211
100
AcDbArc
 50
100.4935772962056
 51
169.5064302172289
  0
CIRCLE
  5
479
330
D6
100
AcDbEntity
  8
0
  6
CENTER
100
AcDbCircle
 10
11630.89776004254
 20
10129.2669130505
 30
0.0
 40
780.9999847412109
  0
LINE
  5
4A7
330
D6
100
AcDbEntity
  8
3
  6
CENTER
100
AcDbLine
 10
13471.92457914078
 20
9078.634586309174
 30
0.0
 11
12609.01388947963
 21
9078.634586309174
 31
0.0
  0
LINE
  5
4B4
330
D6
100
AcDbEntity
  8
3
  6
Continuous
100
AcDbLine
 10
12763.73161738221
 20
8292.88145443548
 30
0.0
 11
12944.71387709538
 21
8292.88145443548
 31
0.0
  0
LINE
  5
4C0
330
D6
100
AcDbEntity
  8
3
  6
Continuous
100
AcDbLine
 10
13034.73637212572
 20
8645.324035981133
 30
0.0
 11
13034.73637212572
 21
8382.903949999679
 31
0.0
  0
ARC
  5
4C2
330
D6
100
AcDbEntity
  8
3
  6
Continuous
100
AcDbCircle
 10
8938.712579812507
 20
9078.634586309174
 30
0.0
 40
4096.023792313211
100
AcDbArc
 50
355.4804635680935
 51
5.089581616662532
  0
ARC
  5
4C9
330
D6
100
AcDbEntity
  8
3
  6
Continuous
100
AcDbCircle
 10
12944.71387119576
 20
8382.903949999684
 30
0.0
 40
90.02249556420151
100
AcDbArc
 50
269.9999962451214
 51
0.0
  0
SPLINE
  5
4CA
330
D6
100
AcDbEntity
  8
3
100
AcDbSpline
210
0.0
220
0.0
230
1.0
 70
     8
 71
     3
 72
    25
 73
    21
 74
    19
 42
0.0000000001
 43
0.0000000001
 44
0.0000000001
 12
-0.9088068481484354
 22
-0.4172171050646258
 32
0.0
 13
-0.3606669891202437
 23
-0.932694656872729
 33
0.0
 40
0.0
 40
0.0
 40
0.0
 40
0.0
 40
35.90325491024585
 40
71.80169009635623
 40
107.6930973229471
 40
143.5966288686032
 40
179.5037524729625
 40
215.4041665012707
 40
251.296376144173
 40
287.1705303301082
 40
322.9971792396746
 40
358.7275039592358
 40
394.4833527929759
 40
430.3061364586988
 40
466.149483723324
 40
502.0217744093654
 40
537.924759556425
 40
573.7075175893742
 40
609.5075790629444
 40
645.3742175797421
 40
645.3742175797421
 40
645.3742175797421
 40
645.3742175797421
 10
13071.33603550256
 20
8660.933652355547
 30
0.0
 10
13060.45966085815
 20
8655.940501663529
 30
0.0
 10
13038.50164973725
 20
8646.396067308367
 30
0.0
 10
13004.69849680548
 20
8634.178199685146
 30
0.0
 10
12969.7799313571
 20
8625.561612504284
 30
0.0
 10
12934.29223405854
 20
8620.032676400576
 30
0.0
 10
12898.74181664873
 20
8615.032299737251
 30
0.0
 10
12863.41317503837
 20
8608.514268737268
 30
0.0
 10
12828.74090079707
 20
8599.017974711541
 30
0.0
 10
12795.42217912849
 20
8585.43241986373
 30
0.0
 10
12764.96214406171
 20
8566.041742450924
 30
0.0
 10
12741.09659156981
 20
8538.352184608029
 30
0.0
 10
12729.30685532617
 20
8503.838773321568
 30
0.0
 10
12726.98679288729
 20
8467.846547091744
 30
0.0
 10
12732.17564671194
 20
8432.071163317752
 30
0.0
 10
12744.95817719557
 20
8398.378039702324
 30
0.0
 10
12760.0026937008
 20
8365.912811337675
 30
0.0
 10
12769.27253505053
 20
8330.692952885396
 30
0.0
 10
12765.26927656613
 20
8294.511776711667
 30
0.0
 10
12758.11423483927
 20
8271.665101294626
 30
0.0
 10
12753.80226399803
 20
8260.51422725976
 30
0.0
 11
13071.33603550256
 21
8660.933652355547
 31
0.0
 11
13038.35530657584
 21
8646.745092435249
 31
0.0
 11
13004.51038169428
 21
8634.777690521175
 31
0.0
 11
12969.68951710206
 21
8626.077086992928
 31
0.0
 11
12934.2834594493
 21
8620.121026303248
 31
0.0
 11
12898.77595264953
 21
8614.778883811451
 31
0.0
 11
12863.51812257559
 21
8608.016846701151
 31
0.0
 11
12828.95694734637
 21
8598.333051999413
 31
0.0
 11
12795.87670487227
 21
8584.453120572666
 31
0.0
 11
12766.03150029219
 21
8564.633621697508
 31
0.0
 11
12743.11183026576
 21
8537.222951686635
 31
0.0
 11
12730.89081016058
 21
8503.620460805599
 31
0.0
 11
12728.23796749408
 21
8467.896039811719
 31
0.0
 11
12733.43766666274
 21
8432.431851231013
 31
0.0
 11
12745.33277358544
 21
8398.589161173019
 31
0.0
 11
12759.05513893907
 21
8365.41204509022
 31
0.0
 11
12767.06199869916
 21
8330.536610050254
 31
0.0
 11
12764.1526027518
 21
8294.854964674334
 31
0.0
 11
12753.80226399803
 21
8260.51422725976
 31
0.0
  0
SPLINE
  5
4CB
330
D6
100
AcDbEntity
  8
3
100
AcDbSpline
210
0.0
220
0.0
230
1.0
 70
     8
 71
     3
 72
    29
 73
    25
 74
    23
 42
0.0000000001
 43
0.0000000001
 44
0.0000000001
 12
-0.9874086049190202
 22
-0.1581905399569598
 32
0.0
 13
0.9673712617183381
 23
0.2533630636092614
 33
0.0
 40
0.0
 40
0.0
 40
0.0
 40
0.0
 40
42.46962737898993
 40
84.93513300412317
 40
127.374897909476
 40
169.7116177545722
 40
211.7202847512204
 40
254.0622411091082
 40
296.5519006390149
 40
339.0025489545818
 40
381.3513043943445
 40
423.8081082713066
 40
466.2999366106238
 40
508.7460710711952
 40
550.9015428261134
 40
593.2036436536169
 40
635.6827114533577
 40
678.1671988914938
 40
720.6440114458689
 40
763.1080572708112
 40
805.4002048621953
 40
847.712018869015
 40
889.9820631652994
 40
932.316680369518
 40
932.316680369518
 40
932.316680369518
 40
932.316680369518
 10
13035.04469765645
 20
9445.039771795324
 30
0.0
 10
13021.06640581587
 20
9442.800340699706
 30
0.0
 10
12993.36409827783
 20
9436.654663772038
 30
0.0
 10
12953.05245906589
 20
9422.96578341398
 30
0.0
 10
12915.09132063732
 20
9403.790243872267
 30
0.0
 10
12881.25941196214
 20
9377.405597179597
 30
0.0
 10
12861.10294711496
 20
9337.988747985491
 30
0.0
 10
12863.38823766915
 20
9294.818869558012
 30
0.0
 10
12869.93337710959
 20
9253.167827884247
 30
0.0
 10
12874.57418808037
 20
9210.690690755765
 30
0.0
 10
12867.2122150155
 20
9168.303725540502
 30
0.0
 10
12850.24221005116
 20
9129.248700080738
 30
0.0
 10
12831.01144450017
 20
9091.417318584218
 30
0.0
 10
12813.62713505458
 20
9052.740605414747
 30
0.0
 10
12808.04548542196
 20
9009.212640032886
 30
0.0
 10
12824.98034040177
 20
8969.170543855831
 30
0.0
 10
12847.33659145882
 20
8933.369078452278
 30
0.0
 10
12870.23327322065
 20
8897.412233064487
 30
0.0
 10
12887.20681157906
 20
8858.424923240511
 30
0.0
 10
12903.74491849342
 20
8819.248437756156
 30
0.0
 10
12930.60029634987
 20
8785.459135094578
 30
0.0
 10
12967.33431525682
 20
8762.929470705005
 30
0.0
 10
13009.36753825882
 20
8753.24460548202
 30
0.0
 10
13037.88302489311
 20
8756.999480837187
 30
0.0
 10
13051.53412224618
 20
8760.574823607717
 30
0.0
 11
13035.04469765645
 21
9445.039771795324
 31
0.0
 11
12993.56827778562
 21
9435.908734372908
 31
0.0
 11
12953.42963635481
 21
9422.04480159441
 31
0.0
 11
12915.72968392417
 21
9402.555131716516
 31
0.0
 11
12883.46143081771
 21
9375.147875584254
 31
0.0
 11
12864.86158533058
 21
9337.481261047106
 31
0.0
 11
12864.09156525139
 21
9295.146306963145
 31
0.0
 11
12869.61734211157
 21
9253.017493105421
 31
0.0
 11
12872.57372850218
 21
9210.669915584134
 31
0.0
 11
12865.62271808552
 21
9168.895515032069
 31
0.0
 11
12849.8724753786
 21
9129.468239573069
 31
0.0
 11
12831.30577254965
 21
9091.247394191531
 31
0.0
 11
12815.56365172992
 21
9051.828363727276
 31
0.0
 11
12811.78453269864
 21
9009.842627360896
 31
0.0
 11
12825.84858496157
 21
8969.94688612996
 31
0.0
 11
12847.42058851585
 21
8933.352899413709
 31
0.0
 11
12869.24760450969
 21
8896.904126516863
 31
0.0
 11
12887.1400940463
 21
8858.379609349716
 31
0.0
 11
12905.49828102677
 21
8820.08898179397
 31
0.0
 11
12932.2490611268
 21
8787.331974727825
 31
0.0
 11
12968.22812709466
 21
8765.065488327229
 31
0.0
 11
13009.46982143801
 21
8755.798380229251
 31
0.0
 11
13051.53412224618
 21
8760.574823607717
 31
0.0
  0
LINE
  5
5E2
330
D6
100
AcDbEntity
  8
0
100
AcDbLine
 10
6289.998298288089
 20
11706.76897719933
 30
0.0
 11
6429.99829828809
 21
11706.76897719933
 31
0.0
  0
LINE
  5
5E3
330
D6
100
AcDbEntity
  8
0
100
AcDbLine
 10
6429.99829828809
 20
11706.76897719933
 30
0.0
 11
6532.398298288088
 21
11706.76897719933
 31
0.0
  0
LINE
  5
5E4
330
D6
100
AcDbEntity
  8
0
100
AcDbLine
 10
6289.998298288089
 20
11706.76897719933
 30
0.0
 11
6289.998298288089
 21
11571.035643866
 31
0.0
  0
LINE
  5
5E5
330
D6
100
AcDbEntity
  8
0
100
AcDbLine
 10
6532.398298288088
 20
11706.76897719933
 30
0.0
 11
6672.398298288088
 21
11706.76897719933
 31
0.0
  0
LINE
  5
5E6
330
D6
100
AcDbEntity
  8
0
100
AcDbLine
 10
6672.398298288088
 20
11706.76897719933
 30
0.0
 11
6812.398298288087
 21
11706.76897719933
 31
0.0
  0
LINE
  5
5E7
330
D6
100
AcDbEntity
  8
0
100
AcDbLine
 10
6812.398298288087
 20
11706.76897719933
 30
0.0
 11
6952.398298288088
 21
11706.76897719933
 31
0.0
  0
LINE
  5
5E8
330
D6
100
AcDbEntity
  8
0
100
AcDbLine
 10
6952.398298288088
 20
11706.76897719933
 30
0.0
 11
7092.398298288088
 21
11706.76897719933
 31
0.0
  0
LINE
  5
5E9
330
D6
100
AcDbEntity
  8
0
100
AcDbLine
 10
7092.398298288088
 20
11706.76897719933
 30
0.0
 11
7232.398298288088
 21
11706.76897719933
 31
0.0
  0
LINE
  5
5EA
330
D6
100
AcDbEntity
  8
0
100
AcDbLine
 10
7232.398298288088
 20
11706.76897719933
 30
0.0
 11
7372.398298288088
 21
11706.76897719933
 31
0.0
  0
LINE
  5
5EB
330
D6
100
AcDbEntity
  8
0
100
AcDbLine
 10
7372.398298288088
 20
11706.76897719933
 30
0.0
 11
7512.398298288087
 21
11706.76897719933
 31
0.0
  0
LINE
  5
5EC
330
D6
100
AcDbEntity
  8
0
100
AcDbLine
 10
7512.398298288087
 20
11706.76897719933
 30
0.0
 11
7652.398298288088
 21
11706.76897719933
 31
0.0
  0
LINE
  5
5ED
330
D6
100
AcDbEntity
  8
0
100
AcDbLine
 10
6532.398298288088
 20
11706.76897719933
 30
0.0
 11
6532.398298288088
 21
11571.035643866
 31
0.0
  0
LINE
  5
5EE
330
D6
100
AcDbEntity
  8
0
100
AcDbLine
 10
7652.398298288088
 20
11706.76897719933
 30
0.0
 11
7792.398298288088
 21
11706.76897719933
 31
0.0
  0
LINE
  5
5EF
330
D6
100
AcDbEntity
  8
0
100
AcDbLine
 10
7792.398298288088
 20
11706.76897719933
 30
0.0
 11
7932.398298288088
 21
11706.76897719933
 31
0.0
  0
LINE
  5
5F0
330
D6
100
AcDbEntity
  8
0
100
AcDbLine
 10
7932.398298288088
 20
11706.76897719933
 30
0.0
 11
8072.398298288089
 21
11706.76897719933
 31
0.0
  0
LINE
  5
5F1
330
D6
100
AcDbEntity
  8
0
100
AcDbLine
 10
7652.398298288088
 20
11706.76897719933
 30
0.0
 11
7652.398298288088
 21
11571.035643866
 31
0.0
  0
LINE
  5
5F2
330
D6
100
AcDbEntity
  8
0
100
AcDbLine
 10
8072.398298288089
 20
11706.76897719933
 30
0.0
 11
8212.398298288087
 21
11706.76897719933
 31
0.0
  0
LINE
  5
5F3
330
D6
100
AcDbEntity
  8
0
100
AcDbLine
 10
8212.398298288087
 20
11706.76897719933
 30
0.0
 11
8352.398298288088
 21
11706.76897719933
 31
0.0
  0
LINE
  5
5F4
330
D6
100
AcDbEntity
  8
0
100
AcDbLine
 10
8072.398298288089
 20
11706.76897719933
 30
0.0
 11
8072.398298288089
 21
11571.035643866
 31
0.0
  0
LINE
  5
5F5
330
D6
100
AcDbEntity
  8
0
100
AcDbLine
 10
8352.398298288088
 20
11706.76897719933
 30
0.0
 11
8352.398298288088
 21
11571.035643866
 31
0.0
  0
LINE
  5
5F6
330
D6
100
AcDbEntity
  8
0
100
AcDbLine
 10
6289.998298288089
 20
11571.035643866
 30
0.0
 11
6429.99829828809
 21
11571.035643866
 31
0.0
  0
LINE
  5
5F7
330
D6
100
AcDbEntity
  8
0
100
AcDbLine
 10
6429.99829828809
 20
11571.035643866
 30
0.0
 11
6532.398298288088
 21
11571.035643866
 31
0.0
  0
LINE
  5
5F8
330
D6
100
AcDbEntity
  8
0
100
AcDbLine
 10
6532.398298288088
 20
11571.035643866
 30
0.0
 11
6672.398298288088
 21
11571.035643866
 31
0.0
  0
LINE
  5
5F9
330
D6
100
AcDbEntity
  8
0
100
AcDbLine
 10
6672.398298288088
 20
11571.035643866
 30
0.0
 11
6812.398298288087
 21
11571.035643866
 31
0.0
  0
LINE
  5
5FA
330
D6
100
AcDbEntity
  8
0
100
AcDbLine
 10
6812.398298288087
 20
11571.035643866
 30
0.0
 11
6952.398298288088
 21
11571.035643866
 31
0.0
  0
LINE
  5
5FB
330
D6
100
AcDbEntity
  8
0
100
AcDbLine
 10
6952.398298288088
 20
11571.035643866
 30
0.0
 11
7092.398298288088
 21
11571.035643866
 31
0.0
  0
LINE
  5
5FC
330
D6
100
AcDbEntity
  8
0
100
AcDbLine
 10
7092.398298288088
 20
11571.035643866
 30
0.0
 11
7232.398298288088
 21
11571.035643866
 31
0.0
  0
LINE
  5
5FD
330
D6
100
AcDbEntity
  8
0
100
AcDbLine
 10
7232.398298288088
 20
11571.035643866
 30
0.0
 11
7372.398298288088
 21
11571.035643866
 31
0.0
  0
LINE
  5
5FE
330
D6
100
AcDbEntity
  8
0
100
AcDbLine
 10
7372.398298288088
 20
11571.035643866
 30
0.0
 11
7512.398298288087
 21
11571.035643866
 31
0.0
  0
LINE
  5
5FF
330
D6
100
AcDbEntity
  8
0
100
AcDbLine
 10
7512.398298288087
 20
11571.035643866
 30
0.0
 11
7652.398298288088
 21
11571.035643866
 31
0.0
  0
LINE
  5
600
330
D6
100
AcDbEntity
  8
0
100
AcDbLine
 10
7652.398298288088
 20
11571.035643866
 30
0.0
 11
7792.398298288088
 21
11571.035643866
 31
0.0
  0
LINE
  5
601
330
D6
100
AcDbEntity
  8
0
100
AcDbLine
 10
7792.398298288088
 20
11571.035643866
 30
0.0
 11
7932.398298288088
 21
11571.035643866
 31
0.0
  0
LINE
  5
602
330
D6
100
AcDbEntity
  8
0
100
AcDbLine
 10
7932.398298288088
 20
11571.035643866
 30
0.0
 11
8072.398298288089
 21
11571.035643866
 31
0.0
  0
LINE
  5
603
330
D6
100
AcDbEntity
  8
0
100
AcDbLine
 10
8072.398298288089
 20
11571.035643866
 30
0.0
 11
8212.398298288087
 21
11571.035643866
 31
0.0
  0
LINE
  5
604
330
D6
100
AcDbEntity
  8
0
100
AcDbLine
 10
8212.398298288087
 20
11571.035643866
 30
0.0
 11
8352.398298288088
 21
11571.035643866
 31
0.0
  0
TEXT
  5
605
330
D6
100
AcDbEntity
  8
0
100
AcDbText
 10
6326.329303438277
 20
11609.69526182808
 30
0.0
 40
64.0
  1
記 号
100
AcDbText
  0
TEXT
  5
606
330
D6
100
AcDbEntity
  8
0
100
AcDbText
 10
6672.259510224701
 20
11607.85345448576
 30
0.0
 40
64.0
  1
来　　　　　　　　歴
100
AcDbText
  0
TEXT
  5
607
330
D6
100
AcDbEntity
  8
0
100
AcDbText
 10
7676.618187737521
 20
11605.18002391282
 30
0.0
 40
64.0
  1
年・月・日
100
AcDbText
  0
TEXT
  5
608
330
D6
100
AcDbEntity
  8
0
100
AcDbText
 10
8123.28077747569
 20
11610.66988111742
 30
0.0
 40
64.0
  1
記 入
100
AcDbText
  0
LWPOLYLINE
  5
609
330
D6
100
AcDbEntity
  8
0
100
AcDbPolyline
 90
        4
 70
     1
 43
0.0
 10
6289.998298288089
 20
11706.76897719933
 10
14349.99829828809
 20
11706.76897719933
 10
14349.99829828809
 20
6106.76897719933
 10
6289.998298288089
 20
6106.76897719933
  0
LWPOLYLINE
  5
60A
330
D6
100
AcDbEntity
  8
0
100
AcDbPolyline
 90
        4
 70
     1
 43
0.0
 10
6089.99829828809
 20
11906.76897719933
 10
14549.99829828809
 20
11906.76897719933
 10
14549.99829828809
 20
5906.76897719933
 10
6089.99829828809
 20
5906.76897719933
  0
LINE
  5
60B
330
D6
100
AcDbEntity
  8
0
100
AcDbLine
 10
11689.99829828809
 20
7056.902310532665
 30
0.0
 11
11689.99829828809
 21
6921.16897719933
 31
0.0
  0
LINE
  5
60C
330
D6
100
AcDbEntity
  8
0
100
AcDbLine
 10
11969.99829828809
 20
7056.902310532665
 30
0.0
 11
11969.99829828809
 21
6921.16897719933
 31
0.0
  0
LINE
  5
60D
330
D6
100
AcDbEntity
  8
0
100
AcDbLine
 10
12249.99829828809
 20
7056.902310532665
 30
0.0
 11
12249.99829828809
 21
6921.16897719933
 31
0.0
  0
LINE
  5
60E
330
D6
100
AcDbEntity
  8
0
100
AcDbLine
 10
12529.99829828809
 20
7056.902310532665
 30
0.0
 11
12529.99829828809
 21
6921.16897719933
 31
0.0
  0
LINE
  5
60F
330
D6
100
AcDbEntity
  8
0
100
AcDbLine
 10
12809.99829828809
 20
7056.902310532665
 30
0.0
 11
12809.99829828809
 21
6921.16897719933
 31
0.0
  0
LINE
  5
610
330
D6
100
AcDbEntity
  8
0
100
AcDbLine
 10
12809.99829828809
 20
6921.16897719933
 30
0.0
 11
12809.99829828809
 21
6785.435643865996
 31
0.0
  0
LINE
  5
611
330
D6
100
AcDbEntity
  8
0
100
AcDbLine
 10
12809.99829828809
 20
6785.435643865996
 30
0.0
 11
12809.99829828809
 21
6649.702310532664
 31
0.0
  0
LINE
  5
612
330
D6
100
AcDbEntity
  8
0
100
AcDbLine
 10
12809.99829828809
 20
6649.702310532664
 30
0.0
 11
12809.99829828809
 21
6513.96897719933
 31
0.0
  0
LINE
  5
613
330
D6
100
AcDbEntity
  8
0
100
AcDbLine
 10
12809.99829828809
 20
6513.96897719933
 30
0.0
 11
12809.99829828809
 21
6378.235643865997
 31
0.0
  0
LINE
  5
614
330
D6
100
AcDbEntity
  8
0
100
AcDbLine
 10
12949.99829828809
 20
7056.902310532665
 30
0.0
 11
12949.99829828809
 21
6921.16897719933
 31
0.0
  0
LINE
  5
615
330
D6
100
AcDbEntity
  8
0
100
AcDbLine
 10
14349.99829828809
 20
7056.902310532665
 30
0.0
 11
14349.99829828809
 21
6921.16897719933
 31
0.0
  0
LINE
  5
616
330
D6
100
AcDbEntity
  8
0
100
AcDbLine
 10
12949.99829828809
 20
6921.16897719933
 30
0.0
 11
12949.99829828809
 21
6785.435643865996
 31
0.0
  0
LINE
  5
617
330
D6
100
AcDbEntity
  8
0
100
AcDbLine
 10
14349.99829828809
 20
6921.16897719933
 30
0.0
 11
14349.99829828809
 21
6785.435643865996
 31
0.0
  0
LINE
  5
618
330
D6
100
AcDbEntity
  8
0
100
AcDbLine
 10
12949.99829828809
 20
6785.435643865996
 30
0.0
 11
12949.99829828809
 21
6649.702310532664
 31
0.0
  0
LINE
  5
619
330
D6
100
AcDbEntity
  8
0
100
AcDbLine
 10
14349.99829828809
 20
6785.435643865996
 30
0.0
 11
14349.99829828809
 21
6649.702310532664
 31
0.0
  0
LINE
  5
61A
330
D6
100
AcDbEntity
  8
0
100
AcDbLine
 10
12949.99829828809
 20
6649.702310532664
 30
0.0
 11
12949.99829828809
 21
6513.96897719933
 31
0.0
  0
LINE
  5
61B
330
D6
100
AcDbEntity
  8
0
100
AcDbLine
 10
14349.99829828809
 20
6649.702310532664
 30
0.0
 11
14349.99829828809
 21
6513.96897719933
 31
0.0
  0
LINE
  5
61C
330
D6
100
AcDbEntity
  8
0
100
AcDbLine
 10
12949.99829828809
 20
6513.96897719933
 30
0.0
 11
12949.99829828809
 21
6378.235643865997
 31
0.0
  0
LINE
  5
61D
330
D6
100
AcDbEntity
  8
0
100
AcDbLine
 10
14349.99829828809
 20
6513.96897719933
 30
0.0
 11
14349.99829828809
 21
6378.235643865997
 31
0.0
  0
LINE
  5
61E
330
D6
100
AcDbEntity
  8
0
100
AcDbLine
 10
11689.99829828809
 20
6921.16897719933
 30
0.0
 11
11829.99829828809
 21
6921.16897719933
 31
0.0
  0
LINE
  5
61F
330
D6
100
AcDbEntity
  8
0
100
AcDbLine
 10
11829.99829828809
 20
6921.16897719933
 30
0.0
 11
11969.99829828809
 21
6921.16897719933
 31
0.0
  0
LINE
  5
620
330
D6
100
AcDbEntity
  8
0
100
AcDbLine
 10
11689.99829828809
 20
6921.16897719933
 30
0.0
 11
11689.99829828809
 21
6785.435643865996
 31
0.0
  0
LINE
  5
621
330
D6
100
AcDbEntity
  8
0
100
AcDbLine
 10
11689.99829828809
 20
6785.435643865996
 30
0.0
 11
11689.99829828809
 21
6649.702310532664
 31
0.0
  0
LINE
  5
622
330
D6
100
AcDbEntity
  8
0
100
AcDbLine
 10
11969.99829828809
 20
6921.16897719933
 30
0.0
 11
12109.99829828809
 21
6921.16897719933
 31
0.0
  0
LINE
  5
623
330
D6
100
AcDbEntity
  8
0
100
AcDbLine
 10
12109.99829828809
 20
6921.16897719933
 30
0.0
 11
12249.99829828809
 21
6921.16897719933
 31
0.0
  0
LINE
  5
624
330
D6
100
AcDbEntity
  8
0
100
AcDbLine
 10
11969.99829828809
 20
6921.16897719933
 30
0.0
 11
11969.99829828809
 21
6785.435643865996
 31
0.0
  0
LINE
  5
625
330
D6
100
AcDbEntity
  8
0
100
AcDbLine
 10
11969.99829828809
 20
6785.435643865996
 30
0.0
 11
11969.99829828809
 21
6649.702310532664
 31
0.0
  0
LINE
  5
626
330
D6
100
AcDbEntity
  8
0
100
AcDbLine
 10
12249.99829828809
 20
6921.16897719933
 30
0.0
 11
12389.99829828809
 21
6921.16897719933
 31
0.0
  0
LINE
  5
627
330
D6
100
AcDbEntity
  8
0
100
AcDbLine
 10
12389.99829828809
 20
6921.16897719933
 30
0.0
 11
12529.99829828809
 21
6921.16897719933
 31
0.0
  0
LINE
  5
628
330
D6
100
AcDbEntity
  8
0
100
AcDbLine
 10
12249.99829828809
 20
6921.16897719933
 30
0.0
 11
12249.99829828809
 21
6785.435643865996
 31
0.0
  0
LINE
  5
629
330
D6
100
AcDbEntity
  8
0
100
AcDbLine
 10
12249.99829828809
 20
6785.435643865996
 30
0.0
 11
12249.99829828809
 21
6649.702310532664
 31
0.0
  0
LINE
  5
62A
330
D6
100
AcDbEntity
  8
0
100
AcDbLine
 10
12529.99829828809
 20
6921.16897719933
 30
0.0
 11
12669.99829828809
 21
6921.16897719933
 31
0.0
  0
LINE
  5
62B
330
D6
100
AcDbEntity
  8
0
100
AcDbLine
 10
12669.99829828809
 20
6921.16897719933
 30
0.0
 11
12809.99829828809
 21
6921.16897719933
 31
0.0
  0
LINE
  5
62C
330
D6
100
AcDbEntity
  8
0
100
AcDbLine
 10
12529.99829828809
 20
6921.16897719933
 30
0.0
 11
12529.99829828809
 21
6785.435643865996
 31
0.0
  0
LINE
  5
62D
330
D6
100
AcDbEntity
  8
0
100
AcDbLine
 10
12529.99829828809
 20
6785.435643865996
 30
0.0
 11
12529.99829828809
 21
6649.702310532664
 31
0.0
  0
LINE
  5
62E
330
D6
100
AcDbEntity
  8
0
100
AcDbLine
 10
11689.99829828809
 20
6649.702310532664
 30
0.0
 11
11829.99829828809
 21
6649.702310532664
 31
0.0
  0
LINE
  5
62F
330
D6
100
AcDbEntity
  8
0
100
AcDbLine
 10
11689.99829828809
 20
6649.702310532664
 30
0.0
 11
11689.99829828809
 21
6513.96897719933
 31
0.0
  0
LINE
  5
630
330
D6
100
AcDbEntity
  8
0
100
AcDbLine
 10
11689.99829828809
 20
6513.96897719933
 30
0.0
 11
11689.99829828809
 21
6378.235643865997
 31
0.0
  0
LINE
  5
631
330
D6
100
AcDbEntity
  8
0
100
AcDbLine
 10
11829.99829828809
 20
6649.702310532664
 30
0.0
 11
11969.99829828809
 21
6649.702310532664
 31
0.0
  0
LINE
  5
632
330
D6
100
AcDbEntity
  8
0
100
AcDbLine
 10
11969.99829828809
 20
6649.702310532664
 30
0.0
 11
12109.99829828809
 21
6649.702310532664
 31
0.0
  0
LINE
  5
633
330
D6
100
AcDbEntity
  8
0
100
AcDbLine
 10
12109.99829828809
 20
6649.702310532664
 30
0.0
 11
12249.99829828809
 21
6649.702310532664
 31
0.0
  0
LINE
  5
634
330
D6
100
AcDbEntity
  8
0
100
AcDbLine
 10
11829.99829828809
 20
6649.702310532664
 30
0.0
 11
11829.99829828809
 21
6513.96897719933
 31
0.0
  0
LINE
  5
635
330
D6
100
AcDbEntity
  8
0
100
AcDbLine
 10
11829.99829828809
 20
6513.96897719933
 30
0.0
 11
11829.99829828809
 21
6378.235643865997
 31
0.0
  0
LINE
  5
636
330
D6
100
AcDbEntity
  8
0
100
AcDbLine
 10
12249.99829828809
 20
6649.702310532664
 30
0.0
 11
12389.99829828809
 21
6649.702310532664
 31
0.0
  0
LINE
  5
637
330
D6
100
AcDbEntity
  8
0
100
AcDbLine
 10
12249.99829828809
 20
6649.702310532664
 30
0.0
 11
12249.99829828809
 21
6513.96897719933
 31
0.0
  0
LINE
  5
638
330
D6
100
AcDbEntity
  8
0
100
AcDbLine
 10
12249.99829828809
 20
6513.96897719933
 30
0.0
 11
12249.99829828809
 21
6378.235643865997
 31
0.0
  0
LINE
  5
639
330
D6
100
AcDbEntity
  8
0
100
AcDbLine
 10
12389.99829828809
 20
6649.702310532664
 30
0.0
 11
12529.99829828809
 21
6649.702310532664
 31
0.0
  0
LINE
  5
63A
330
D6
100
AcDbEntity
  8
0
100
AcDbLine
 10
12529.99829828809
 20
6649.702310532664
 30
0.0
 11
12669.99829828809
 21
6649.702310532664
 31
0.0
  0
LINE
  5
63B
330
D6
100
AcDbEntity
  8
0
100
AcDbLine
 10
12669.99829828809
 20
6649.702310532664
 30
0.0
 11
12809.99829828809
 21
6649.702310532664
 31
0.0
  0
LINE
  5
63C
330
D6
100
AcDbEntity
  8
0
100
AcDbLine
 10
12389.99829828809
 20
6649.702310532664
 30
0.0
 11
12389.99829828809
 21
6513.96897719933
 31
0.0
  0
LINE
  5
63D
330
D6
100
AcDbEntity
  8
0
100
AcDbLine
 10
12389.99829828809
 20
6513.96897719933
 30
0.0
 11
12389.99829828809
 21
6378.235643865997
 31
0.0
  0
LINE
  5
63E
330
D6
100
AcDbEntity
  8
0
100
AcDbLine
 10
11689.99829828809
 20
6378.235643865997
 30
0.0
 11
11829.99829828809
 21
6378.235643865997
 31
0.0
  0
LINE
  5
63F
330
D6
100
AcDbEntity
  8
0
100
AcDbLine
 10
11689.99829828809
 20
6106.76897719933
 30
0.0
 11
11829.99829828809
 21
6106.76897719933
 31
0.0
  0
LINE
  5
640
330
D6
100
AcDbEntity
  8
0
100
AcDbLine
 10
11829.99829828809
 20
6378.235643865997
 30
0.0
 11
11969.99829828809
 21
6378.235643865997
 31
0.0
  0
LINE
  5
641
330
D6
100
AcDbEntity
  8
0
100
AcDbLine
 10
11829.99829828809
 20
6106.76897719933
 30
0.0
 11
11969.99829828809
 21
6106.76897719933
 31
0.0
  0
LINE
  5
642
330
D6
100
AcDbEntity
  8
0
100
AcDbLine
 10
11969.99829828809
 20
6378.235643865997
 30
0.0
 11
12109.99829828809
 21
6378.235643865997
 31
0.0
  0
LINE
  5
643
330
D6
100
AcDbEntity
  8
0
100
AcDbLine
 10
11969.99829828809
 20
6106.76897719933
 30
0.0
 11
12109.99829828809
 21
6106.76897719933
 31
0.0
  0
LINE
  5
644
330
D6
100
AcDbEntity
  8
0
100
AcDbLine
 10
12109.99829828809
 20
6378.235643865997
 30
0.0
 11
12249.99829828809
 21
6378.235643865997
 31
0.0
  0
LINE
  5
645
330
D6
100
AcDbEntity
  8
0
100
AcDbLine
 10
12109.99829828809
 20
6106.76897719933
 30
0.0
 11
12249.99829828809
 21
6106.76897719933
 31
0.0
  0
LINE
  5
646
330
D6
100
AcDbEntity
  8
0
100
AcDbLine
 10
12249.99829828809
 20
6378.235643865997
 30
0.0
 11
12389.99829828809
 21
6378.235643865997
 31
0.0
  0
LINE
  5
647
330
D6
100
AcDbEntity
  8
0
100
AcDbLine
 10
12249.99829828809
 20
6106.76897719933
 30
0.0
 11
12389.99829828809
 21
6106.76897719933
 31
0.0
  0
LINE
  5
648
330
D6
100
AcDbEntity
  8
0
100
AcDbLine
 10
12389.99829828809
 20
6378.235643865997
 30
0.0
 11
12529.99829828809
 21
6378.235643865997
 31
0.0
  0
LINE
  5
649
330
D6
100
AcDbEntity
  8
0
100
AcDbLine
 10
12389.99829828809
 20
6106.76897719933
 30
0.0
 11
12529.99829828809
 21
6106.76897719933
 31
0.0
  0
LINE
  5
64A
330
D6
100
AcDbEntity
  8
0
100
AcDbLine
 10
12529.99829828809
 20
6378.235643865997
 30
0.0
 11
12669.99829828809
 21
6378.235643865997
 31
0.0
  0
LINE
  5
64B
330
D6
100
AcDbEntity
  8
0
100
AcDbLine
 10
12529.99829828809
 20
6106.76897719933
 30
0.0
 11
12669.99829828809
 21
6106.76897719933
 31
0.0
  0
LINE
  5
64C
330
D6
100
AcDbEntity
  8
0
100
AcDbLine
 10
12669.99829828809
 20
6378.235643865997
 30
0.0
 11
12809.99829828809
 21
6378.235643865997
 31
0.0
  0
LINE
  5
64D
330
D6
100
AcDbEntity
  8
0
100
AcDbLine
 10
12669.99829828809
 20
6106.76897719933
 30
0.0
 11
12809.99829828809
 21
6106.76897719933
 31
0.0
  0
LINE
  5
64E
330
D6
100
AcDbEntity
  8
0
100
AcDbLine
 10
11689.99829828809
 20
6378.235643865997
 30
0.0
 11
11689.99829828809
 21
6242.502310532664
 31
0.0
  0
LINE
  5
64F
330
D6
100
AcDbEntity
  8
0
100
AcDbLine
 10
11689.99829828809
 20
6242.502310532664
 30
0.0
 11
11689.99829828809
 21
6106.76897719933
 31
0.0
  0
LINE
  5
650
330
D6
100
AcDbEntity
  8
0
100
AcDbLine
 10
12809.99829828809
 20
6378.235643865997
 30
0.0
 11
12949.99829828809
 21
6378.235643865997
 31
0.0
  0
LINE
  5
651
330
D6
100
AcDbEntity
  8
0
100
AcDbLine
 10
12809.99829828809
 20
6106.76897719933
 30
0.0
 11
12949.99829828809
 21
6106.76897719933
 31
0.0
  0
LINE
  5
652
330
D6
100
AcDbEntity
  8
0
100
AcDbLine
 10
12809.99829828809
 20
6378.235643865997
 30
0.0
 11
12809.99829828809
 21
6242.502310532664
 31
0.0
  0
LINE
  5
653
330
D6
100
AcDbEntity
  8
0
100
AcDbLine
 10
12809.99829828809
 20
6242.502310532664
 30
0.0
 11
12809.99829828809
 21
6106.76897719933
 31
0.0
  0
LINE
  5
654
330
D6
100
AcDbEntity
  8
0
100
AcDbLine
 10
12949.99829828809
 20
6378.235643865997
 30
0.0
 11
13089.99829828809
 21
6378.235643865997
 31
0.0
  0
LINE
  5
655
330
D6
100
AcDbEntity
  8
0
100
AcDbLine
 10
12949.99829828809
 20
6106.76897719933
 30
0.0
 11
13089.99829828809
 21
6106.76897719933
 31
0.0
  0
LINE
  5
656
330
D6
100
AcDbEntity
  8
0
100
AcDbLine
 10
13089.99829828809
 20
6378.235643865997
 30
0.0
 11
13229.99829828809
 21
6378.235643865997
 31
0.0
  0
LINE
  5
657
330
D6
100
AcDbEntity
  8
0
100
AcDbLine
 10
13089.99829828809
 20
6106.76897719933
 30
0.0
 11
13229.99829828809
 21
6106.76897719933
 31
0.0
  0
LINE
  5
658
330
D6
100
AcDbEntity
  8
0
100
AcDbLine
 10
13229.99829828809
 20
6378.235643865997
 30
0.0
 11
13369.99829828809
 21
6378.235643865997
 31
0.0
  0
LINE
  5
659
330
D6
100
AcDbEntity
  8
0
100
AcDbLine
 10
13229.99829828809
 20
6106.76897719933
 30
0.0
 11
13369.99829828809
 21
6106.76897719933
 31
0.0
  0
LINE
  5
65A
330
D6
100
AcDbEntity
  8
0
100
AcDbLine
 10
13369.99829828809
 20
6378.235643865997
 30
0.0
 11
13509.99829828809
 21
6378.235643865997
 31
0.0
  0
LINE
  5
65B
330
D6
100
AcDbEntity
  8
0
100
AcDbLine
 10
13369.99829828809
 20
6106.76897719933
 30
0.0
 11
13509.99829828809
 21
6106.76897719933
 31
0.0
  0
LINE
  5
65C
330
D6
100
AcDbEntity
  8
0
100
AcDbLine
 10
13509.99829828809
 20
6378.235643865997
 30
0.0
 11
13649.99829828809
 21
6378.235643865997
 31
0.0
  0
LINE
  5
65D
330
D6
100
AcDbEntity
  8
0
100
AcDbLine
 10
13509.99829828809
 20
6106.76897719933
 30
0.0
 11
13649.99829828809
 21
6106.76897719933
 31
0.0
  0
LINE
  5
65E
330
D6
100
AcDbEntity
  8
0
100
AcDbLine
 10
13649.99829828809
 20
6378.235643865997
 30
0.0
 11
13789.99829828809
 21
6378.235643865997
 31
0.0
  0
LINE
  5
65F
330
D6
100
AcDbEntity
  8
0
100
AcDbLine
 10
13649.99829828809
 20
6106.76897719933
 30
0.0
 11
13789.99829828809
 21
6106.76897719933
 31
0.0
  0
LINE
  5
660
330
D6
100
AcDbEntity
  8
0
100
AcDbLine
 10
13789.99829828809
 20
6378.235643865997
 30
0.0
 11
13929.99829828809
 21
6378.235643865997
 31
0.0
  0
LINE
  5
661
330
D6
100
AcDbEntity
  8
0
100
AcDbLine
 10
13789.99829828809
 20
6106.76897719933
 30
0.0
 11
13929.99829828809
 21
6106.76897719933
 31
0.0
  0
LINE
  5
662
330
D6
100
AcDbEntity
  8
0
100
AcDbLine
 10
13929.99829828809
 20
6378.235643865997
 30
0.0
 11
14069.99829828809
 21
6378.235643865997
 31
0.0
  0
LINE
  5
663
330
D6
100
AcDbEntity
  8
0
100
AcDbLine
 10
13929.99829828809
 20
6106.76897719933
 30
0.0
 11
14069.99829828809
 21
6106.76897719933
 31
0.0
  0
LINE
  5
664
330
D6
100
AcDbEntity
  8
0
100
AcDbLine
 10
14069.99829828809
 20
6378.235643865997
 30
0.0
 11
14209.99829828809
 21
6378.235643865997
 31
0.0
  0
LINE
  5
665
330
D6
100
AcDbEntity
  8
0
100
AcDbLine
 10
14069.99829828809
 20
6106.76897719933
 30
0.0
 11
14209.99829828809
 21
6106.76897719933
 31
0.0
  0
LINE
  5
666
330
D6
100
AcDbEntity
  8
0
100
AcDbLine
 10
14209.99829828809
 20
6378.235643865997
 30
0.0
 11
14349.99829828809
 21
6378.235643865997
 31
0.0
  0
LINE
  5
667
330
D6
100
AcDbEntity
  8
0
100
AcDbLine
 10
14209.99829828809
 20
6106.76897719933
 30
0.0
 11
14349.99829828809
 21
6106.76897719933
 31
0.0
  0
LINE
  5
668
330
D6
100
AcDbEntity
  8
0
100
AcDbLine
 10
12949.99829828809
 20
6378.235643865997
 30
0.0
 11
12949.99829828809
 21
6242.502310532664
 31
0.0
  0
LINE
  5
669
330
D6
100
AcDbEntity
  8
0
100
AcDbLine
 10
14349.99829828809
 20
6378.235643865997
 30
0.0
 11
14349.99829828809
 21
6242.502310532664
 31
0.0
  0
LINE
  5
66A
330
D6
100
AcDbEntity
  8
0
100
AcDbLine
 10
12949.99829828809
 20
6242.502310532664
 30
0.0
 11
12949.99829828809
 21
6106.76897719933
 31
0.0
  0
LINE
  5
66B
330
D6
100
AcDbEntity
  8
0
100
AcDbLine
 10
14349.99829828809
 20
6242.502310532664
 30
0.0
 11
14349.99829828809
 21
6106.76897719933
 31
0.0
  0
MTEXT
  5
66C
330
D6
100
AcDbEntity
  8
0
100
AcDbMText
 10
11712.26801441805
 20
6306.184911953174
 30
0.0
 40
30.0
 41
280.0
 71
     1
 72
     5
  1
HOKKAIDO
 73
     1
 44
1.0
  0
MTEXT
  5
66D
330
D6
100
AcDbEntity
  8
0
100
AcDbMText
 10
11710.14677807707
 20
6238.263968129476
 30
0.0
 40
60.0
 41
280.0
 71
     1
 72
     5
  1
SUIKO
 73
     1
 44
1.0
  0
MTEXT
  5
66E
330
D6
100
AcDbEntity
  8
0
100
AcDbMText
 10
11999.54501598126
 20
6259.908877971748
 30
0.0
 40
60.0
 41
893.3007031411397
 71
     1
 72
     5
  1
北海道スイコー株式会社
 73
     1
 44
1.0
  0
MTEXT
  5
66F
330
D6
100
AcDbEntity
  8
0
100
AcDbMText
 10
12842.72659778133
 20
6338.99454246352
 30
0.0
 40
70.0
 41
140.0
 71
     1
 72
     5
  1
図
 73
     1
 44
1.0
  0
MTEXT
  5
670
330
D6
100
AcDbEntity
  8
0
100
AcDbMText
 10
12839.45396375897
 20
6213.071484480797
 30
0.0
 40
70.0
 41
140.0
 71
     1
 72
     5
  1
番
 73
     1
 44
1.0
  0
MTEXT
  5
671
330
D6
100
AcDbEntity
  8
0
100
AcDbMText
 10
12839.45396375897
 20
6921.16897719933
 30
0.0
 40
70.0
 41
140.0
 71
     1
 72
     5
  1
名
 73
     1
 44
1.0
  0
MTEXT
  5
672
330
D6
100
AcDbEntity
  8
0
100
AcDbMText
 10
12839.01104480152
 20
6586.604157887411
 30
0.0
 40
70.0
 41
140.0
 71
     1
 72
     5
  1
称
 73
     1
 44
1.0
  0
MTEXT
  5
673
330
D6
100
AcDbEntity
  8
0
100
AcDbMText
 10
11732.54547948327
 20
6643.162126965615
 30
0.0
 40
50.0
 41
140.0
 71
     1
 72
     5
  1
年
 73
     1
 44
1.0
  0
MTEXT
  5
674
330
D6
100
AcDbEntity
  8
0
100
AcDbMText
 10
11755.45522381949
 20
6588.375827433083
 30
0.0
 40
50.0
 41
140.0
 71
     1
 72
     5
  1
・
 73
     1
 44
1.0
  0
MTEXT
  5
675
330
D6
100
AcDbEntity
  8
0
100
AcDbMText
 10
11729.27251891594
 20
6543.399803251161
 30
0.0
 40
50.0
 41
140.0
 71
     1
 72
     5
  1
月
 73
     1
 44
1.0
  0
MTEXT
  5
676
330
D6
100
AcDbEntity
  8
0
100
AcDbMText
 10
11752.18226325222
 20
6498.423779069202
 30
0.0
 40
50.0
 41
140.0
 71
     1
 72
     5
  1
・
 73
     1
 44
1.0
  0
MTEXT
  5
677
330
D6
100
AcDbEntity
  8
0
100
AcDbMText
 10
11739.0910740729
 20
6452.64249409975
 30
0.0
 40
50.0
 41
140.0
 71
     1
 72
     5
  1
日
 73
     1
 44
1.0
  0
MTEXT
  5
678
330
D6
100
AcDbEntity
  8
0
100
AcDbMText
 10
12281.73344751595
 20
6613.554948649988
 30
0.0
 40
60.0
 41
140.0
 71
     1
 72
     5
  1
尺
 73
     1
 44
1.0
  0
MTEXT
  5
679
330
D6
100
AcDbEntity
  8
0
100
AcDbMText
 10
12281.61608312355
 20
6493.062455909257
 30
0.0
 40
60.0
 41
140.0
 71
     1
 72
     5
  1
度
 73
     1
 44
1.0
  0
MTEXT
  5
67A
330
D6
100
AcDbEntity
  8
0
100
AcDbMText
 10
11719.45429030402
 20
7020.931300913786
 30
0.0
 40
60.0
 41
280.0
 71
     1
 72
     5
  1
設　計
 73
     1
 44
1.0
  0
MTEXT
  5
67B
330
D6
100
AcDbEntity
  8
0
100
AcDbMText
 10
11996.18100319164
 20
7020.931300913749
 30
0.0
 40
60.0
 41
280.0
 71
     1
 72
     5
  1
製　図
 73
     1
 44
1.0
  0
MTEXT
  5
67C
330
D6
100
AcDbEntity
  8
0
100
AcDbMText
 10
12276.18100319164
 20
7024.20139269731
 30
0.0
 40
60.0
 41
280.0
 71
     1
 72
     5
  1
検　図
 73
     1
 44
1.0
  0
MTEXT
  5
67D
330
D6
100
AcDbEntity
  8
0
100
AcDbMText
 10
12562.72659778126
 20
7020.931300913786
 30
0.0
 40
60.0
 41
280.0
 71
     1
 72
     5
  1
承　認
 73
     1
 44
1.0
  0
LINE
  5
67E
330
D6
100
AcDbEntity
  8
0
100
AcDbLine
 10
11689.99829828809
 20
7056.902310532665
 30
0.0
 11
11829.99829828809
 21
7056.902310532665
 31
0.0
  0
LINE
  5
67F
330
D6
100
AcDbEntity
  8
0
100
AcDbLine
 10
11829.99829828809
 20
7056.902310532665
 30
0.0
 11
11969.99829828809
 21
7056.902310532665
 31
0.0
  0
LINE
  5
680
330
D6
100
AcDbEntity
  8
0
100
AcDbLine
 10
11969.99829828809
 20
7056.902310532665
 30
0.0
 11
12109.99829828809
 21
7056.902310532665
 31
0.0
  0
LINE
  5
681
330
D6
100
AcDbEntity
  8
0
100
AcDbLine
 10
12109.99829828809
 20
7056.902310532665
 30
0.0
 11
12249.99829828809
 21
7056.902310532665
 31
0.0
  0
LINE
  5
682
330
D6
100
AcDbEntity
  8
0
100
AcDbLine
 10
12249.99829828809
 20
7056.902310532665
 30
0.0
 11
12389.99829828809
 21
7056.902310532665
 31
0.0
  0
LINE
  5
683
330
D6
100
AcDbEntity
  8
0
100
AcDbLine
 10
12389.99829828809
 20
7056.902310532665
 30
0.0
 11
12529.99829828809
 21
7056.902310532665
 31
0.0
  0
LINE
  5
684
330
D6
100
AcDbEntity
  8
0
100
AcDbLine
 10
12529.99829828809
 20
7056.902310532665
 30
0.0
 11
12669.99829828809
 21
7056.902310532665
 31
0.0
  0
LINE
  5
685
330
D6
100
AcDbEntity
  8
0
100
AcDbLine
 10
12669.99829828809
 20
7056.902310532665
 30
0.0
 11
12809.99829828809
 21
7056.902310532665
 31
0.0
  0
LINE
  5
686
330
D6
100
AcDbEntity
  8
0
100
AcDbLine
 10
12809.99829828809
 20
7056.902310532665
 30
0.0
 11
12949.99829828809
 21
7056.902310532665
 31
0.0
  0
LINE
  5
687
330
D6
100
AcDbEntity
  8
0
100
AcDbLine
 10
12949.99829828809
 20
7056.902310532665
 30
0.0
 11
13089.99829828809
 21
7056.902310532665
 31
0.0
  0
LINE
  5
688
330
D6
100
AcDbEntity
  8
0
100
AcDbLine
 10
13089.99829828809
 20
7056.902310532665
 30
0.0
 11
13229.99829828809
 21
7056.902310532665
 31
0.0
  0
LINE
  5
689
330
D6
100
AcDbEntity
  8
0
100
AcDbLine
 10
13229.99829828809
 20
7056.902310532665
 30
0.0
 11
13369.99829828809
 21
7056.902310532665
 31
0.0
  0
LINE
  5
68A
330
D6
100
AcDbEntity
  8
0
100
AcDbLine
 10
13369.99829828809
 20
7056.902310532665
 30
0.0
 11
13509.99829828809
 21
7056.902310532665
 31
0.0
  0
LINE
  5
68B
330
D6
100
AcDbEntity
  8
0
100
AcDbLine
 10
13509.99829828809
 20
7056.902310532665
 30
0.0
 11
13649.99829828809
 21
7056.902310532665
 31
0.0
  0
LINE
  5
68C
330
D6
100
AcDbEntity
  8
0
100
AcDbLine
 10
13649.99829828809
 20
7056.902310532665
 30
0.0
 11
13789.99829828809
 21
7056.902310532665
 31
0.0
  0
LINE
  5
68D
330
D6
100
AcDbEntity
  8
0
100
AcDbLine
 10
13789.99829828809
 20
7056.902310532665
 30
0.0
 11
13929.99829828809
 21
7056.902310532665
 31
0.0
  0
LINE
  5
68E
330
D6
100
AcDbEntity
  8
0
100
AcDbLine
 10
13929.99829828809
 20
7056.902310532665
 30
0.0
 11
14069.99829828809
 21
7056.902310532665
 31
0.0
  0
LINE
  5
68F
330
D6
100
AcDbEntity
  8
0
100
AcDbLine
 10
14069.99829828809
 20
7056.902310532665
 30
0.0
 11
14209.99829828809
 21
7056.902310532665
 31
0.0
  0
LINE
  5
690
330
D6
100
AcDbEntity
  8
0
100
AcDbLine
 10
14209.99829828809
 20
7056.902310532665
 30
0.0
 11
14349.99829828809
 21
7056.902310532665
 31
0.0
  0
LINE
  5
691
330
D6
100
AcDbEntity
  8
0
100
AcDbLine
 10
11689.99829828809
 20
7336.902310532664
 30
0.0
 11
11829.99829828809
 21
7336.902310532664
 31
0.0
  0
LINE
  5
692
330
D6
100
AcDbEntity
  8
0
100
AcDbLine
 10
11689.99829828809
 20
7056.902310532665
 30
0.0
 11
11829.99829828809
 21
7056.902310532665
 31
0.0
  0
LINE
  5
693
330
D6
100
AcDbEntity
  8
0
100
AcDbLine
 10
11829.99829828809
 20
7336.902310532664
 30
0.0
 11
11969.99829828809
 21
7336.902310532664
 31
0.0
  0
LINE
  5
694
330
D6
100
AcDbEntity
  8
0
100
AcDbLine
 10
11829.99829828809
 20
7056.902310532665
 30
0.0
 11
11969.99829828809
 21
7056.902310532665
 31
0.0
  0
LINE
  5
695
330
D6
100
AcDbEntity
  8
0
100
AcDbLine
 10
11969.99829828809
 20
7336.902310532664
 30
0.0
 11
12109.99829828809
 21
7336.902310532664
 31
0.0
  0
LINE
  5
696
330
D6
100
AcDbEntity
  8
0
100
AcDbLine
 10
11969.99829828809
 20
7056.902310532665
 30
0.0
 11
12109.99829828809
 21
7056.902310532665
 31
0.0
  0
LINE
  5
697
330
D6
100
AcDbEntity
  8
0
100
AcDbLine
 10
12109.99829828809
 20
7336.902310532664
 30
0.0
 11
12249.99829828809
 21
7336.902310532664
 31
0.0
  0
LINE
  5
698
330
D6
100
AcDbEntity
  8
0
100
AcDbLine
 10
12109.99829828809
 20
7056.902310532665
 30
0.0
 11
12249.99829828809
 21
7056.902310532665
 31
0.0
  0
LINE
  5
699
330
D6
100
AcDbEntity
  8
0
100
AcDbLine
 10
11689.99829828809
 20
7336.902310532664
 30
0.0
 11
11689.99829828809
 21
7196.902310532664
 31
0.0
  0
LINE
  5
69A
330
D6
100
AcDbEntity
  8
0
100
AcDbLine
 10
11689.99829828809
 20
7196.902310532664
 30
0.0
 11
11689.99829828809
 21
7056.902310532665
 31
0.0
  0
LINE
  5
69B
330
D6
100
AcDbEntity
  8
0
100
AcDbLine
 10
12249.99829828809
 20
7336.902310532664
 30
0.0
 11
12389.99829828809
 21
7336.902310532664
 31
0.0
  0
LINE
  5
69C
330
D6
100
AcDbEntity
  8
0
100
AcDbLine
 10
12249.99829828809
 20
7056.902310532665
 30
0.0
 11
12389.99829828809
 21
7056.902310532665
 31
0.0
  0
LINE
  5
69D
330
D6
100
AcDbEntity
  8
0
100
AcDbLine
 10
12389.99829828809
 20
7336.902310532664
 30
0.0
 11
12529.99829828809
 21
7336.902310532664
 31
0.0
  0
LINE
  5
69E
330
D6
100
AcDbEntity
  8
0
100
AcDbLine
 10
12389.99829828809
 20
7056.902310532665
 30
0.0
 11
12529.99829828809
 21
7056.902310532665
 31
0.0
  0
LINE
  5
69F
330
D6
100
AcDbEntity
  8
0
100
AcDbLine
 10
12529.99829828809
 20
7336.902310532664
 30
0.0
 11
12669.99829828809
 21
7336.902310532664
 31
0.0
  0
LINE
  5
6A0
330
D6
100
AcDbEntity
  8
0
100
AcDbLine
 10
12529.99829828809
 20
7056.902310532665
 30
0.0
 11
12669.99829828809
 21
7056.902310532665
 31
0.0
  0
LINE
  5
6A1
330
D6
100
AcDbEntity
  8
0
100
AcDbLine
 10
12669.99829828809
 20
7336.902310532664
 30
0.0
 11
12809.99829828809
 21
7336.902310532664
 31
0.0
  0
LINE
  5
6A2
330
D6
100
AcDbEntity
  8
0
100
AcDbLine
 10
12669.99829828809
 20
7056.902310532665
 30
0.0
 11
12809.99829828809
 21
7056.902310532665
 31
0.0
  0
LINE
  5
6A3
330
D6
100
AcDbEntity
  8
0
100
AcDbLine
 10
12809.99829828809
 20
7336.902310532664
 30
0.0
 11
12949.99829828809
 21
7336.902310532664
 31
0.0
  0
LINE
  5
6A4
330
D6
100
AcDbEntity
  8
0
100
AcDbLine
 10
12809.99829828809
 20
7056.902310532665
 30
0.0
 11
12949.99829828809
 21
7056.902310532665
 31
0.0
  0
LINE
  5
6A5
330
D6
100
AcDbEntity
  8
0
100
AcDbLine
 10
12949.99829828809
 20
7336.902310532664
 30
0.0
 11
13089.99829828809
 21
7336.902310532664
 31
0.0
  0
LINE
  5
6A6
330
D6
100
AcDbEntity
  8
0
100
AcDbLine
 10
12949.99829828809
 20
7056.902310532665
 30
0.0
 11
13089.99829828809
 21
7056.902310532665
 31
0.0
  0
LINE
  5
6A7
330
D6
100
AcDbEntity
  8
0
100
AcDbLine
 10
13089.99829828809
 20
7336.902310532664
 30
0.0
 11
13229.99829828809
 21
7336.902310532664
 31
0.0
  0
LINE
  5
6A8
330
D6
100
AcDbEntity
  8
0
100
AcDbLine
 10
13089.99829828809
 20
7056.902310532665
 30
0.0
 11
13229.99829828809
 21
7056.902310532665
 31
0.0
  0
LINE
  5
6A9
330
D6
100
AcDbEntity
  8
0
100
AcDbLine
 10
13229.99829828809
 20
7336.902310532664
 30
0.0
 11
13369.99829828809
 21
7336.902310532664
 31
0.0
  0
LINE
  5
6AA
330
D6
100
AcDbEntity
  8
0
100
AcDbLine
 10
13229.99829828809
 20
7056.902310532665
 30
0.0
 11
13369.99829828809
 21
7056.902310532665
 31
0.0
  0
LINE
  5
6AB
330
D6
100
AcDbEntity
  8
0
100
AcDbLine
 10
13369.99829828809
 20
7336.902310532664
 30
0.0
 11
13509.99829828809
 21
7336.902310532664
 31
0.0
  0
LINE
  5
6AC
330
D6
100
AcDbEntity
  8
0
100
AcDbLine
 10
13369.99829828809
 20
7056.902310532665
 30
0.0
 11
13509.99829828809
 21
7056.902310532665
 31
0.0
  0
LINE
  5
6AD
330
D6
100
AcDbEntity
  8
0
100
AcDbLine
 10
13509.99829828809
 20
7336.902310532664
 30
0.0
 11
13649.99829828809
 21
7336.902310532664
 31
0.0
  0
LINE
  5
6AE
330
D6
100
AcDbEntity
  8
0
100
AcDbLine
 10
13509.99829828809
 20
7056.902310532665
 30
0.0
 11
13649.99829828809
 21
7056.902310532665
 31
0.0
  0
LINE
  5
6AF
330
D6
100
AcDbEntity
  8
0
100
AcDbLine
 10
13649.99829828809
 20
7336.902310532664
 30
0.0
 11
13789.99829828809
 21
7336.902310532664
 31
0.0
  0
LINE
  5
6B0
330
D6
100
AcDbEntity
  8
0
100
AcDbLine
 10
13649.99829828809
 20
7056.902310532665
 30
0.0
 11
13789.99829828809
 21
7056.902310532665
 31
0.0
  0
LINE
  5
6B1
330
D6
100
AcDbEntity
  8
0
100
AcDbLine
 10
13789.99829828809
 20
7336.902310532664
 30
0.0
 11
13929.99829828809
 21
7336.902310532664
 31
0.0
  0
LINE
  5
6B2
330
D6
100
AcDbEntity
  8
0
100
AcDbLine
 10
13789.99829828809
 20
7056.902310532665
 30
0.0
 11
13929.99829828809
 21
7056.902310532665
 31
0.0
  0
LINE
  5
6B3
330
D6
100
AcDbEntity
  8
0
100
AcDbLine
 10
13929.99829828809
 20
7336.902310532664
 30
0.0
 11
14069.99829828809
 21
7336.902310532664
 31
0.0
  0
LINE
  5
6B4
330
D6
100
AcDbEntity
  8
0
100
AcDbLine
 10
13929.99829828809
 20
7056.902310532665
 30
0.0
 11
14069.99829828809
 21
7056.902310532665
 31
0.0
  0
LINE
  5
6B5
330
D6
100
AcDbEntity
  8
0
100
AcDbLine
 10
14069.99829828809
 20
7336.902310532664
 30
0.0
 11
14209.99829828809
 21
7336.902310532664
 31
0.0
  0
LINE
  5
6B6
330
D6
100
AcDbEntity
  8
0
100
AcDbLine
 10
14069.99829828809
 20
7056.902310532665
 30
0.0
 11
14209.99829828809
 21
7056.902310532665
 31
0.0
  0
LINE
  5
6B7
330
D6
100
AcDbEntity
  8
0
100
AcDbLine
 10
14209.99829828809
 20
7336.902310532664
 30
0.0
 11
14349.99829828809
 21
7336.902310532664
 31
0.0
  0
LINE
  5
6B8
330
D6
100
AcDbEntity
  8
0
100
AcDbLine
 10
14209.99829828809
 20
7056.902310532665
 30
0.0
 11
14349.99829828809
 21
7056.902310532665
 31
0.0
  0
LINE
  5
6B9
330
D6
100
AcDbEntity
  8
0
100
AcDbLine
 10
12249.99829828809
 20
7336.902310532664
 30
0.0
 11
12249.99829828809
 21
7196.902310532664
 31
0.0
  0
LINE
  5
6BA
330
D6
100
AcDbEntity
  8
0
100
AcDbLine
 10
14349.99829828809
 20
7336.902310532664
 30
0.0
 11
14349.99829828809
 21
7196.902310532664
 31
0.0
  0
LINE
  5
6BB
330
D6
100
AcDbEntity
  8
0
100
AcDbLine
 10
12249.99829828809
 20
7196.902310532664
 30
0.0
 11
12249.99829828809
 21
7056.902310532665
 31
0.0
  0
LINE
  5
6BC
330
D6
100
AcDbEntity
  8
0
100
AcDbLine
 10
14349.99829828809
 20
7196.902310532664
 30
0.0
 11
14349.99829828809
 21
7056.902310532665
 31
0.0
  0
MTEXT
  5
6BD
330
D6
100
AcDbEntity
  8
0
100
AcDbMText
 10
11762.00748442574
 20
7230.861953230474
 30
0.0
 40
70.0
 41
560.0
 71
     1
 72
     5
  1
納　入　先
 73
     1
 44
1.0
  0
LINE
  5
78D
330
D6
100
AcDbEntity
  8
0
  6
Continuous
100
AcDbLine
 10
15487.41297979312
 20
10309.52287175043
 30
0.0
 11
15487.41297979312
 21
10314.5228726445
 31
0.0
  0
LINE
  5
78E
330
D6
100
AcDbEntity
  8
0
  6
Continuous
100
AcDbLine
 10
15487.41297979312
 20
10314.5228726445
 30
0.0
 11
15472.4129795696
 21
10329.52287286802
 31
0.0
  0
LINE
  5
78F
330
D6
100
AcDbEntity
  8
0
  6
CENTER
100
AcDbLine
 10
15447.41297919707
 20
10234.70078116477
 30
0.0
 11
15447.41297919707
 21
10278.05821846698
 31
0.0
  0
LINE
  5
790
330
D6
100
AcDbEntity
  8
0
  6
Continuous
100
AcDbLine
 10
15472.4129795696
 20
10179.52287063285
 30
0.0
 11
15487.41297979312
 21
10194.52287085636
 31
0.0
  0
LINE
  5
791
330
D6
100
AcDbEntity
  8
0
  6
Continuous
100
AcDbLine
 10
15383.66860885668
 20
10179.52287063284
 30
0.0
 11
15472.4129795696
 21
10179.52287063285
 31
0.0
  0
LINE
  5
792
330
D6
100
AcDbEntity
  8
0
  6
Continuous
100
AcDbLine
 10
15383.66860885668
 20
10329.52287286802
 30
0.0
 11
15472.4129795696
 21
10329.52287286802
 31
0.0
  0
LINE
  5
793
330
D6
100
AcDbEntity
  8
0
  6
Continuous
100
AcDbLine
 10
15487.41297979312
 20
10194.52287085636
 30
0.0
 11
15487.41297979312
 21
10199.52287093087
 31
0.0
  0
LINE
  5
794
330
D6
100
AcDbEntity
  8
0
  6
CENTER
100
AcDbLine
 10
15586.84964536624
 20
10254.52287175043
 30
0.0
 11
15357.28956835482
 21
10254.52287175043
 31
0.0
  0
LINE
  5
795
330
D6
100
AcDbEntity
  8
0
  6
Continuous
100
AcDbLine
 10
15491.41297985273
 20
10309.52287256999
 30
0.0
 11
15491.41297985272
 21
10199.52287093087
 31
0.0
  0
LINE
  5
796
330
D6
100
AcDbEntity
  8
0
  6
Continuous
100
AcDbLine
 10
15417.41297875004
 20
10309.52287256999
 30
0.0
 11
15417.41297875004
 21
10199.52287093087
 31
0.0
  0
ARC
  5
799
330
D6
100
AcDbEntity
  8
0
  6
Continuous
100
AcDbCircle
 10
14032.41295811193
 20
10254.52287175043
 30
0.0
 40
1375.000020489096
100
AcDbArc
 50
356.8732238864202
 51
3.126776113579702
  0
LINE
  5
79A
102
{ACAD_REACTORS
330
D09
102
}
330
D6
100
AcDbEntity
  8
0
  6
DASHED
100
AcDbLine
 10
9623.259455403863
 20
7069.001610817612
 30
0.0
 11
9623.259455403863
 21
7039.001610370577
 31
0.0
  0
LINE
  5
79D
102
{ACAD_REACTORS
330
D09
102
}
330
D6
100
AcDbEntity
  8
0
  6
DASHED
100
AcDbLine
 10
9653.259455403862
 20
7069.001610817612
 30
0.0
 11
9653.259455403862
 21
7039.001610370577
 31
0.0
  0
LINE
  5
7AB
330
D6
100
AcDbEntity
  8
0
100
AcDbLine
 10
15452.41297919708
 20
10244.52287175043
 30
0.0
 11
15442.41297919707
 21
10244.52287175043
 31
0.0
  0
LINE
  5
7AC
330
D6
100
AcDbEntity
  8
0
100
AcDbLine
 10
15452.41297919708
 20
10264.52287175043
 30
0.0
 11
15442.41297919707
 21
10264.52287175043
 31
0.0
  0
LWPOLYLINE
  5
80A
102
{ACAD_REACTORS
330
D09
102
}
330
D6
100
AcDbEntity
  8
0
  6
DASHED
 48
20.0
100
AcDbPolyline
 90
        2
 70
     0
 43
0.0
 10
9623.259455403863
 20
7069.001610817612
 10
9623.259455403863
 20
7073.001610877217
  0
LWPOLYLINE
  5
80B
330
D6
100
AcDbEntity
  8
0
  6
DASHED
 48
20.0
100
AcDbPolyline
 90
        2
 70
     0
 43
0.0
 10
9653.259455403862
 20
7069.001610817612
 10
9653.259455403862
 20
7073.001610877217
  0
TEXT
  5
80C
330
D6
100
AcDbEntity
  8
0
 48
20.0
100
AcDbText
 10
11783.3220192187
 20
7525.251698896216
 30
0.0
 40
60.0
  1
注記　１）タンク寸法公差：±１．５％
100
AcDbText
  0
TEXT
  5
80D
330
D6
100
AcDbEntity
  8
0
 48
20.0
100
AcDbText
 10
11783.3220192187
 20
7642.703608942494
 30
0.0
 40
60.0
  1
　　　２）アンカープレート融着公差：Ｐ．Ｄ．Ｃ±１．５％
100
AcDbText
  0
DIMENSION
  5
89D
330
D6
100
AcDbEntity
  8
寸法線
 48
20.0
100
AcDbDimension
  2
*D1
 10
9578.259454509794
 20
6659.846825062413
 30
0.0
 11
8617.259469768582
 21
6723.846825062413
 31
0.0
 70
    32
  1
O.Dφ<>
 71
     5
 42
1921.99996948242
  3
1-20
100
AcDbAlignedDimension
 13
7656.259485027373
 23
7069.001622053008
 33
0.0
 14
9578.259454509794
 24
7069.001610370577
 34
0.0
100
AcDbRotatedDimension
  0
DIMENSION
  5
8AA
330
D6
100
AcDbEntity
  8
寸法線
 48
20.0
100
AcDbDimension
  2
*D2
 10
7431.079720008186
 20
9389.001610370575
 30
0.0
 11
7367.079720008186
 21
8214.001610370578
 31
0.0
 70
    32
 71
     5
 42
2349.999999999999
  3
1-20
100
AcDbAlignedDimension
 13
7686.25948502737
 23
7039.001610370577
 33
0.0
 14
7656.259485027371
 24
9389.001610370575
 34
0.0
 50
90.0
100
AcDbRotatedDimension
  0
DIMENSION
  5
8B7
330
D6
100
AcDbEntity
  8
寸法線
 48
20.0
100
AcDbDimension
  2
*D3
 10
7431.079720008186
 20
9839.001534076629
 30
0.0
 11
7367.079720008186
 21
9614.001698916673
 31
0.0
 70
    32
 71
     5
 42
449.9996703199176
  3
1-20
100
AcDbAlignedDimension
 13
7656.259521100633
 23
9389.001863756712
 33
0.0
 14
8617.259412858693
 24
9839.001534076629
 34
0.0
 50
90.0
100
AcDbRotatedDimension
  0
DIMENSION
  5
A6D
330
D6
100
AcDbEntity
  8
寸法線
 48
20.0
100
AcDbDimension
  2
*D4
 10
7162.2031973782
 20
9839.001534076635
 30
0.0
 11
7098.203197378198
 21
8439.00157222361
 31
0.0
 70
    32
 71
     5
 42
2799.999923706052
  3
1-20
100
AcDbAlignedDimension
 13
7686.259499690233
 23
7039.001610370582
 33
0.0
 14
8617.25946976858
 24
9839.001534076635
 34
0.0
 50
90.0
100
AcDbRotatedDimension
  0
LINE
  5
AF9
330
D6
100
AcDbEntity
  8
0
100
AcDbLine
 10
15491.41297985273
 20
10309.52287175043
 30
0.0
 11
15417.41297875004
 21
10309.52287175043
 31
0.0
  0
LINE
  5
AFA
330
D6
100
AcDbEntity
  8
0
100
AcDbLine
 10
15491.41297985272
 20
10199.52287093087
 30
0.0
 11
15417.41297875004
 21
10199.52287175043
 31
0.0
  0
LINE
  5
AFB
330
D6
100
AcDbEntity
  8
0
  6
Continuous
100
AcDbLine
 10
13339.78504224023
 20
9243.634586309168
 30
0.0
 11
13339.78504224023
 21
9258.634588991382
 31
0.0
  0
LINE
  5
AFC
330
D6
100
AcDbEntity
  8
0
  6
Continuous
100
AcDbLine
 10
13339.78504224023
 20
9258.634588991382
 30
0.0
 11
13294.78504156968
 21
9303.634589661941
 31
0.0
  0
LINE
  5
AFD
330
D6
100
AcDbEntity
  8
0
  6
CENTER
100
AcDbLine
 10
13219.78504045209
 20
9019.168314552189
 30
0.0
 11
13219.78504045209
 21
9149.24062645881
 31
0.0
  0
LINE
  5
AFE
330
D6
100
AcDbEntity
  8
0
  6
Continuous
100
AcDbLine
 10
13294.78504156967
 20
8853.634582956418
 30
0.0
 11
13339.78504224022
 21
8898.63458362697
 31
0.0
  0
LINE
  5
AFF
330
D6
100
AcDbEntity
  8
0
  6
Continuous
100
AcDbLine
 10
13028.55192943092
 20
8853.634582956413
 30
0.0
 11
13294.78504156968
 21
8853.634582956418
 31
0.0
  0
LINE
  5
B00
330
D6
100
AcDbEntity
  8
0
  6
Continuous
100
AcDbLine
 10
13028.55192943091
 20
9303.634589661935
 30
0.0
 11
13294.78504156968
 21
9303.634589661935
 31
0.0
  0
LINE
  5
B01
330
D6
100
AcDbEntity
  8
0
  6
Continuous
100
AcDbLine
 10
13339.78504224023
 20
8898.63458362697
 30
0.0
 11
13339.78504224023
 21
8913.634583850482
 31
0.0
  0
LINE
  5
B03
330
D6
100
AcDbEntity
  8
0
100
AcDbLine
 10
13351.78504241903
 20
8913.634583850477
 30
0.0
 11
13129.78503911099
 21
8913.634586309173
 31
0.0
  0
LINE
  5
B04
330
D6
100
AcDbEntity
  8
0
100
AcDbLine
 10
13351.78504241905
 20
9243.634586309168
 30
0.0
 11
13129.78503911099
 21
9243.634586309175
 31
0.0
  0
LINE
  5
B05
330
D6
100
AcDbEntity
  8
0
100
AcDbLine
 10
13234.78504045209
 20
9108.634586309168
 30
0.0
 11
13204.78504045209
 21
9108.634586309172
 31
0.0
  0
LINE
  5
B06
330
D6
100
AcDbEntity
  8
0
100
AcDbLine
 10
13234.78504045209
 20
9048.634586309168
 30
0.0
 11
13204.78504045209
 21
9048.634586309168
 31
0.0
  0
LINE
  5
B07
330
D6
100
AcDbEntity
  8
0
  6
Continuous
100
AcDbLine
 10
13351.78504241905
 20
9243.634588767859
 30
0.0
 11
13351.78504241903
 21
8913.634583850477
 31
0.0
  0
LINE
  5
B08
330
D6
100
AcDbEntity
  8
0
  6
Continuous
100
AcDbLine
 10
13129.78503911099
 20
9243.634588767859
 30
0.0
 11
13129.78503911099
 21
8913.634583850482
 31
0.0
  0
ARC
  5
B09
330
D6
100
AcDbEntity
  8
0
  6
Continuous
100
AcDbCircle
 10
8974.784977196661
 20
9078.634586309179
 30
0.0
 40
4125.000061467289
100
AcDbArc
 50
356.8732238864202
 51
3.126776113579702
  0
DIMENSION
  5
B10
330
D6
100
AcDbEntity
  8
寸法線
 48
20.0
100
AcDbDimension
  2
*D5
 10
13629.52852862142
 20
8913.634583850477
 30
0.0
 11
13565.52852862142
 21
9078.634585079827
 31
0.0
 70
    32
  1
110
 71
     5
 42
330.0000024586916
  3
1-20
100
AcDbAlignedDimension
 13
13351.78504241905
 23
9243.634586309168
 33
0.0
 14
13351.78504241903
 24
8913.634583850477
 34
0.0
 50
90.0
100
AcDbRotatedDimension
  0
DIMENSION
  5
B1D
330
D6
100
AcDbEntity
  8
寸法線
 48
20.0
100
AcDbDimension
  2
*D6
 10
13786.31373924669
 20
9303.634589661935
 30
0.0
 11
13722.31373924668
 21
9078.634586309181
 31
0.0
 70
    32
  1
150
 71
     5
 42
450.0000067055171
  3
1-20
100
AcDbAlignedDimension
 13
13294.78504156967
 23
8853.634582956418
 33
0.0
 14
13294.78504156967
 24
9303.634589661935
 34
0.0
 50
90.0
100
AcDbRotatedDimension
  0
LINE
  5
B2A
330
D6
100
AcDbEntity
  8
0
  6
Continuous
100
AcDbLine
 10
15438.40892214351
 20
10008.35773946542
 30
0.0
 11
15513.4089232611
 21
10008.35773946542
 31
0.0
  0
LINE
  5
B2B
330
D6
100
AcDbEntity
  8
0
  6
CENTER
100
AcDbLine
 10
15473.40892266505
 20
10028.0717559151
 30
0.0
 11
15473.40892266505
 21
9961.043146146268
 31
0.0
  0
LINE
  5
B2C
330
D6
100
AcDbEntity
  8
0
  6
DASHED
100
AcDbLine
 10
15488.40892266505
 20
10008.35773946542
 30
0.0
 11
15488.40892266505
 21
9978.357739018393
 31
0.0
  0
LINE
  5
B2D
330
D6
100
AcDbEntity
  8
0
  6
DASHED
100
AcDbLine
 10
15458.40892266505
 20
10008.35773946542
 30
0.0
 11
15458.40892266505
 21
9978.357739018393
 31
0.0
  0
LINE
  5
B2E
330
D6
100
AcDbEntity
  8
0
  6
Continuous
100
AcDbLine
 10
15443.40892221802
 20
10012.35773952503
 30
0.0
 11
15443.40892221802
 21
10008.35773946542
 31
0.0
  0
LINE
  5
B2F
330
D6
100
AcDbEntity
  8
0
  6
Continuous
100
AcDbLine
 10
15517.4089233207
 20
10012.35773952503
 30
0.0
 11
15517.4089233207
 21
9983.3577390929
 31
0.0
  0
LINE
  5
B30
330
D6
100
AcDbEntity
  8
0
  6
Continuous
100
AcDbLine
 10
15443.40892221802
 20
10012.35773952503
 30
0.0
 11
15517.4089233207
 21
10012.35773952503
 31
0.0
  0
LINE
  5
B31
330
D6
100
AcDbEntity
  8
0
  6
Continuous
100
AcDbLine
 10
15513.4089232611
 20
9983.3577390929
 30
0.0
 11
15517.4089233207
 21
9983.3577390929
 31
0.0
  0
LINE
  5
B32
330
D6
100
AcDbEntity
  8
0
  6
Continuous
100
AcDbLine
 10
15413.40892177098
 20
10068.35774035949
 30
0.0
 11
15430.4089220243
 21
10068.35774035949
 31
0.0
  0
LINE
  5
B33
330
D6
100
AcDbEntity
  8
0
  6
Continuous
100
AcDbLine
 10
15404.62212516358
 20
9987.144535625798
 30
0.0
 11
15413.40892177098
 21
9978.357739018393
 31
0.0
  0
LINE
  5
B34
330
D6
100
AcDbEntity
  8
0
  6
Continuous
100
AcDbLine
 10
15513.4089232611
 20
10008.35773946542
 30
0.0
 11
15513.4089232611
 21
9981.357739063097
 31
0.0
  0
LINE
  5
B35
330
D6
100
AcDbEntity
  8
0
  6
Continuous
100
AcDbLine
 10
15433.408922069
 20
10065.35774031479
 30
0.0
 11
15433.408922069
 21
10013.35773953993
 31
0.0
  0
LINE
  5
B36
330
D6
100
AcDbEntity
  8
0
  6
Continuous
100
AcDbLine
 10
15383.40892485462
 20
9978.357739018393
 30
0.0
 11
15510.40892326908
 21
9978.357739018393
 31
0.0
  0
ARC
  5
B37
330
D6
100
AcDbEntity
  8
0
  6
Continuous
100
AcDbCircle
 10
15430.4089220243
 20
10065.35774031479
 30
0.0
 40
3.000000044703484
100
AcDbArc
 50
0.0
 51
90.00000000000019
  0
ARC
  5
B38
330
D6
100
AcDbEntity
  8
0
  6
Continuous
100
AcDbCircle
 10
15510.40892321639
 20
9981.357739063097
 30
0.0
 40
3.000000044703484
100
AcDbArc
 50
270.0000000000005
 51
0.0
  0
ARC
  5
B39
330
D6
100
AcDbEntity
  8
0
  6
Continuous
100
AcDbCircle
 10
15438.40892214351
 20
10013.35773953993
 30
0.0
 40
5.000000074505805
100
AcDbArc
 50
180.0000000000004
 51
270.0000000000005
  0
ARC
  5
B3A
330
D6
100
AcDbEntity
  8
0
  6
Continuous
100
AcDbCircle
 10
15510.40892321639
 20
10005.35773942072
 30
0.0
 40
3.000000044703484
100
AcDbArc
 50
0.0
 51
90.00000000000019
  0
LWPOLYLINE
  5
B3B
330
D6
100
AcDbEntity
  8
0
  6
DASHED
 48
20.0
100
AcDbPolyline
 90
        2
 70
     0
 43
0.0
 10
15458.40892266505
 20
10008.35773946542
 10
15458.40892266505
 20
10012.35773952503
  0
LWPOLYLINE
  5
B3C
330
D6
100
AcDbEntity
  8
0
  6
DASHED
 48
20.0
100
AcDbPolyline
 90
        2
 70
     0
 43
0.0
 10
15488.40892266505
 20
10008.35773946542
 10
15488.40892266505
 20
10012.35773952503
  0
LINE
  5
B3D
330
D6
100
AcDbEntity
  8
0
  6
Continuous
100
AcDbLine
 10
13109.73637324331
 20
8382.881455776585
 30
0.0
 11
13334.73637659607
 21
8382.881455776585
 31
0.0
  0
LINE
  5
B3E
330
D6
100
AcDbEntity
  8
0
  6
CENTER
100
AcDbLine
 10
13214.73637480793
 20
8442.023505125609
 30
0.0
 11
13214.73637480793
 21
8240.937675819109
 31
0.0
  0
LINE
  5
B3F
330
D6
100
AcDbEntity
  8
0
  6
DASHED
100
AcDbLine
 10
13259.73637480793
 20
8382.881455776585
 30
0.0
 11
13259.73637480793
 21
8292.88145443548
 31
0.0
  0
LINE
  5
B40
330
D6
100
AcDbEntity
  8
0
  6
DASHED
100
AcDbLine
 10
13169.73637480793
 20
8382.881455776585
 30
0.0
 11
13169.73637480793
 21
8292.88145443548
 31
0.0
  0
LINE
  5
B41
330
D6
100
AcDbEntity
  8
0
  6
Continuous
100
AcDbLine
 10
13124.73637346682
 20
8394.881455955399
 30
0.0
 11
13124.73637346682
 21
8382.881455776585
 31
0.0
  0
LINE
  5
B42
330
D6
100
AcDbEntity
  8
0
  6
Continuous
100
AcDbLine
 10
13346.73637677488
 20
8394.881455955399
 30
0.0
 11
13346.73637677488
 21
8307.881454658998
 31
0.0
  0
LINE
  5
B43
330
D6
100
AcDbEntity
  8
0
  6
Continuous
100
AcDbLine
 10
13124.73637346682
 20
8394.881455955399
 30
0.0
 11
13346.73637677488
 21
8394.881455955399
 31
0.0
  0
LINE
  5
B44
330
D6
100
AcDbEntity
  8
0
  6
Continuous
100
AcDbLine
 10
13334.73637659607
 20
8307.881454658998
 30
0.0
 11
13346.73637677488
 21
8307.881454658998
 31
0.0
  0
LINE
  5
B45
330
D6
100
AcDbEntity
  8
0
  6
Continuous
100
AcDbLine
 10
13034.73637212572
 20
8562.881458458795
 30
0.0
 11
13085.73637288568
 21
8562.881458458795
 31
0.0
  0
LINE
  5
B46
330
D6
100
AcDbEntity
  8
0
  6
Continuous
100
AcDbLine
 10
13008.3759823035
 20
8319.241844257694
 30
0.0
 11
13034.73637212572
 21
8292.88145443548
 31
0.0
  0
LINE
  5
B47
330
D6
100
AcDbEntity
  8
0
  6
Continuous
100
AcDbLine
 10
13334.73637659607
 20
8382.881455776585
 30
0.0
 11
13334.73637659607
 21
8301.881454569592
 31
0.0
  0
LINE
  5
B48
330
D6
100
AcDbEntity
  8
0
  6
Continuous
100
AcDbLine
 10
13094.73637301979
 20
8553.881458324685
 30
0.0
 11
13094.73637301979
 21
8397.881456000103
 31
0.0
  0
LINE
  5
B49
330
D6
100
AcDbEntity
  8
0
  6
Continuous
100
AcDbLine
 10
13034.73637212572
 20
8292.88145443548
 30
0.0
 11
13325.73637662
 21
8292.88145443548
 31
0.0
  0
ARC
  5
B4A
330
D6
100
AcDbEntity
  8
0
  6
Continuous
100
AcDbCircle
 10
13085.73637288568
 20
8553.881458324685
 30
0.0
 40
9.000000134110452
100
AcDbArc
 50
0.0
 51
90.00000000000019
  0
ARC
  5
B4B
330
D6
100
AcDbEntity
  8
0
  6
Continuous
100
AcDbCircle
 10
13325.73637646196
 20
8301.881454569592
 30
0.0
 40
9.000000134110452
100
AcDbArc
 50
270.0000000000005
 51
0.0
  0
ARC
  5
B4C
330
D6
100
AcDbEntity
  8
0
  6
Continuous
100
AcDbCircle
 10
13109.73637324331
 20
8397.881456000103
 30
0.0
 40
15.00000022351741
100
AcDbArc
 50
180.0000000000004
 51
270.0000000000005
  0
ARC
  5
B4D
330
D6
100
AcDbEntity
  8
0
  6
Continuous
100
AcDbCircle
 10
13325.73637646196
 20
8373.881455642475
 30
0.0
 40
9.000000134110452
100
AcDbArc
 50
0.0
 51
90.00000000000019
  0
LWPOLYLINE
  5
B4E
330
D6
100
AcDbEntity
  8
0
  6
DASHED
 48
20.0
100
AcDbPolyline
 90
        2
 70
     0
 43
0.0
 10
13169.73637480793
 20
8382.881455776585
 10
13169.73637480793
 20
8394.881455955399
  0
LWPOLYLINE
  5
B4F
330
D6
100
AcDbEntity
  8
0
  6
DASHED
 48
20.0
100
AcDbPolyline
 90
        2
 70
     0
 43
0.0
 10
13259.73637480793
 20
8382.881455776585
 10
13259.73637480793
 20
8394.881455955399
  0
DIMENSION
  5
B50
330
D6
100
AcDbEntity
  8
寸法線
 48
20.0
100
AcDbDimension
  2
*D7
 10
13346.73637677488
 20
8515.446644753916
 30
0.0
 11
13235.73637512085
 21
8579.446644753916
 31
0.0
 70
    32
  1
74
 71
     5
 42
222.0000033080578
  3
1-20
100
AcDbAlignedDimension
 13
13124.73637346682
 23
8394.881455955399
 33
0.0
 14
13346.73637677488
 24
8394.881455955399
 34
0.0
100
AcDbRotatedDimension
  0
DIMENSION
  5
B5E
330
D6
100
AcDbEntity
  8
寸法線
 48
20.0
100
AcDbDimension
  2
*D8
 10
13561.08226064406
 20
8394.881455955399
 30
0.0
 11
13497.08226064406
 21
8518.881455955403
 31
0.0
 70
    32
  1
29
 71
     5
 42
87.00000129640102
  3
1-20
100
AcDbAlignedDimension
 13
13346.73637677488
 23
8307.881454658998
 33
0.0
 14
13346.73637677488
 24
8394.881455955399
 34
0.0
 50
90.0
100
AcDbRotatedDimension
  0
DIMENSION
  5
B6D
330
D6
100
AcDbEntity
  8
寸法線
 48
20.0
100
AcDbDimension
  2
*D9
 10
13695.65675455925
 20
8394.881455955399
 30
0.0
 11
13631.65675455925
 21
8518.881455955403
 31
0.0
 70
    32
  1
34
 71
     5
 42
102.0000015199184
  3
1-20
100
AcDbAlignedDimension
 13
13325.73637662
 23
8292.88145443548
 33
0.0
 14
13346.73637677488
 24
8394.881455955399
 34
0.0
 50
90.0
100
AcDbRotatedDimension
  0
LEADER
  5
BCE
330
D6
100
AcDbEntity
  8
0
 48
20.0
100
AcDbLeader
  3
1-20
 40
60.0
 41
128.0
 76
     3
 10
13034.73637212572
 20
8562.881458458795
 30
0.0
 10
13222.69388752919
 20
8701.675141644024
 30
0.0
 10
13476.98988448793
 20
8701.675141644024
 30
0.0
213
0.0
223
-30.0
233
0.0
1001
ACAD
1000
DSTYLE
1002
{
1070
   147
1040
1.7
1070
    77
1070
     0
1002
}
  0
TEXT
  5
BE6
330
D6
100
AcDbEntity
  8
0
 48
20.0
100
AcDbText
 10
13311.1973129893
 20
8714.990592747133
 30
0.0
 40
50.0
  1
融着
100
AcDbText
  0
LEADER
  5
BE9
330
D6
100
AcDbEntity
  8
0
 48
20.0
100
AcDbLeader
  3
1-20
 73
     0
 40
50.00000000000001
 41
576.6666666666667
 76
     3
 10
13097.00646496694
 20
8342.186286867464
 30
0.0
 10
13061.08398769432
 20
8154.587347471077
 30
0.0
 10
12412.35851147903
 20
8154.587347471077
 30
0.0
340
BEA
213
-630.7642940170335
223
-12.23518956713815
233
0.0
1001
ACAD
1000
DSTYLE
1002
{
1070
    41
1040
3.0
1070
   341
1005
CA6
1070
   147
1040
1.7
1070
    77
1070
     0
1002
}
  0
MTEXT
  5
BEA
102
{ACAD_REACTORS
330
BE9
102
}
330
D6
100
AcDbEntity
  8
0
 48
20.0
100
AcDbMText
 10
13009.12280549606
 20
8166.822537038212
 30
0.0
 40
50.0
 41
0.0
 71
     9
 72
     1
  1
融着アンカープレート
 73
     1
 44
1.0
  0
LEADER
  5
BEC
330
D6
100
AcDbEntity
  8
0
 48
20.0
100
AcDbLeader
  3
1-20
 73
     0
 40
50.00000000000002
 41
530.0
 76
     3
 10
13234.78504045209
 20
9108.634586309168
 30
0.0
 10
13435.84925841317
 20
9436.303531344275
 30
0.0
 10
14066.16312038983
 20
9436.303531344275
 30
0.0
340
BED
213
610.6165326256159
223
-69.36156580858369
233
0.0
1001
ACAD
1000
DSTYLE
1002
{
1070
   147
1040
1.7
1070
    77
1070
     0
1002
}
  0
MTEXT
  5
BED
102
{ACAD_REACTORS
330
BEC
102
}
330
D6
100
AcDbEntity
  8
0
 48
20.0
100
AcDbMText
 10
13489.54658776421
 20
9505.665097152858
 30
0.0
 40
50.0
 41
0.0
 71
     1
 72
     1
  1
20×30アンカー穴
 73
     1
 44
1.0
  0
TEXT
  5
BF0
330
D6
100
AcDbEntity
  8
0
 48
20.0
100
AcDbText
 10
12930.33408077847
 20
8027.389337693987
 30
0.0
 40
60.0
  1
融着アンカープレート詳細図
100
AcDbText
  0
LWPOLYLINE
  5
BF2
330
D6
100
AcDbEntity
  8
0
 48
20.0
100
AcDbPolyline
 90
        2
 70
     0
 43
0.0
 10
12886.8459706431
 20
8008.71164587442
 10
13884.73427553539
 20
8008.71164587442
  0
LWPOLYLINE
  5
BF3
330
D6
100
AcDbEntity
  8
0
 48
20.0
100
AcDbPolyline
 90
        2
 70
     0
 43
0.0
 10
12886.8459706431
 20
8001.856554933459
 10
13884.73427553539
 20
8001.856554933459
  0
LWPOLYLINE
  5
BF4
330
D6
100
AcDbEntity
  8
0
 48
20.0
100
AcDbPolyline
 90
        2
 70
     0
 43
0.0
 10
11689.99829828809
 20
7493.657427552782
 10
14349.99829828809
 20
7493.657427552782
  0
TEXT
  5
BF5
330
D6
100
AcDbEntity
  8
0
 48
20.0
100
AcDbText
 10
11606.4670190054
 20
11347.45213279127
 30
0.0
 40
60.0
  1
０°
100
AcDbText
  0
TEXT
  5
BF6
330
D6
100
AcDbEntity
  8
0
 48
20.0
100
AcDbText
 10
12477.78747614642
 20
10966.8325088091
 30
0.0
 40
60.0
  1
４５°
100
AcDbText
  0
TEXT
  5
BF7
330
D6
100
AcDbEntity
  8
0
 48
20.0
100
AcDbText
 10
12699.84680358319
 20
10104.27825388107
 30
0.0
 40
60.0
  1
９０°
100
AcDbText
  0
TEXT
  5
BF8
330
D6
100
AcDbEntity
  8
0
 48
20.0
100
AcDbText
 10
12370.91227338841
 20
9218.22318258798
 30
0.0
 40
60.0
  1
１３５°
100
AcDbText
  0
TEXT
  5
BF9
330
D6
100
AcDbEntity
  8
0
 48
20.0
100
AcDbText
 10
11532.91052429522
 20
9024.48549576586
 30
0.0
 40
60.0
  1
１８０°
100
AcDbText
  0
TEXT
  5
BFA
330
D6
100
AcDbEntity
  8
0
 48
20.0
100
AcDbText
 10
10575.89549845659
 20
9211.025744879698
 30
0.0
 40
60.0
  1
２２５°
100
AcDbText
  0
TEXT
  5
BFB
330
D6
100
AcDbEntity
  8
0
 48
20.0
100
AcDbText
 10
10342.85372245015
 20
10101.97276138967
 30
0.0
 40
60.0
  1
２７０°
100
AcDbText
  0
TEXT
  5
BFC
330
D6
100
AcDbEntity
  8
0
 48
20.0
100
AcDbText
 10
10601.73718137294
 20
11007.24545623276
 30
0.0
 40
60.0
  1
３１５°
100
AcDbText
  0
DIMENSION
  5
BFD
330
D6
100
AcDbEntity
  8
寸法線
 48
20.0
100
AcDbDimension
  2
*D10
 10
11780.89694325335
 20
11186.52757119387
 30
0.0
 11
11630.89776004253
 21
11250.52757119387
 31
0.0
 70
    32
 71
     5
 42
299.9983664216252
  3
1-20
100
AcDbAlignedDimension
 13
11480.89857683172
 23
11048.10379554066
 33
0.0
 14
11780.89694325335
 24
11048.10379554066
 34
0.0
100
AcDbRotatedDimension
  0
DIMENSION
  5
C1B
330
D6
100
AcDbEntity
  8
寸法線
 48
20.0
100
AcDbDimension
  2
*D11
 10
8852.258446463638
 20
10006.57495198755
 30
0.0
 11
8617.258451716296
 21
10070.57495198755
 31
0.0
 70
    32
  1
I.Dφ<>
 71
     5
 42
469.9999894946849
  3
1-20
100
AcDbAlignedDimension
 13
8382.258456968953
 23
9779.002426671342
 33
0.0
 14
8852.258446463638
 24
9779.002426671342
 34
0.0
100
AcDbRotatedDimension
  0
TEXT
  5
C31
330
D6
100
AcDbEntity
  8
0
 48
20.0
100
AcDbText
 10
12461.29893186693
 20
6481.928721217016
 30
0.0
 40
60.0
  1
１／２０
100
AcDbText
  0
TEXT
  5
C32
330
D6
100
AcDbEntity
  8
0
 48
20.0
100
AcDbText
 10
13065.17235970353
 20
6775.67689627831
 30
0.0
 40
120.0
  1
ＬＡ－６０００
100
AcDbText
  0
TEXT
  5
C33
330
D6
100
AcDbEntity
  8
0
 48
20.0
100
AcDbText
 10
13083.84454839783
 20
6540.399629373403
 30
0.0
 40
90.0
  1
製品図
100
AcDbText
  0
LEADER
  5
C76
330
D6
100
AcDbEntity
  8
0
 48
20.0
100
AcDbLeader
  3
1-20
 73
     0
 40
60.00000000000003
 41
756.0000000000002
 76
     3
 10
9645.25945550817
 20
7073.001610877217
 30
0.0
 10
9752.068592042506
 20
7329.666259241822
 30
0.0
 10
10609.97274595484
 20
7329.666259241822
 30
0.0
340
C77
213
119.986585523653
223
-30.0
233
0.0
1001
ACAD
1000
DSTYLE
1002
{
1070
   147
1040
1.7
1070
    77
1070
     0
1002
}
  0
MTEXT
  5
C77
102
{ACAD_REACTORS
330
C76
102
}
330
D6
100
AcDbEntity
  8
0
 48
20.0
100
AcDbMText
 10
9798.067239358498
 20
7413.61488840246
 30
0.0
 40
60.0
 41
0.0
 71
     1
 72
     1
  1
4-20×30アンカー穴
 73
     1
 44
1.0
  0
LEADER
  5
C79
330
D6
100
AcDbEntity
  8
0
 48
20.0
100
AcDbLeader
  3
1-20
 73
     0
 40
50.0
 41
495.4761904761905
 76
     3
 10
13346.73637677488
 20
8394.881455955399
 30
0.0
 10
13512.65550015617
 20
8701.685950016294
 30
0.0
 10
14076.15381786943
 20
8701.685950016294
 30
0.0
340
C7A
213
289.3078100180719
223
-30.0
233
0.0
1001
ACAD
1000
DSTYLE
1002
{
1070
   147
1040
1.7
1070
    77
1070
     0
1002
}
  0
MTEXT
  5
C7A
102
{ACAD_REACTORS
330
C79
102
}
330
D6
100
AcDbEntity
  8
0
 48
20.0
100
AcDbMText
 10
13553.75862880282
 20
8764.032988784915
 30
0.0
 40
50.0
 41
0.0
 71
     1
 72
     1
  1
押え金具（ＳＵＳ）
 73
     1
 44
1.0
  0
TEXT
  5
CBB
330
D6
100
AcDbEntity
  8
0
 48
20.0
100
AcDbText
 10
12407.79321670844
 20
8093.301060307528
 30
0.0
 40
50.0
  1
（ＰＥ製）
100
AcDbText
  0
DIMENSION
  5
CD1
330
D6
100
AcDbEntity
  8
寸法線
 48
20.0
100
AcDbDimension
  2
*D13
 10
11630.89776004253
 20
10129.2669130505
 30
0.0
 11
12104.98509036424
 21
10332.82572146326
 31
0.0
 70
   164
 71
     5
 42
780.99998474122
  3
1-20
100
AcDbRadialDimension
 15
12348.54239056513
 25
10437.40188420415
 35
0.0
 40
0.0
1001
ACAD
1000
DSTYLE
1002
{
1070
   288
1070
     1
1002
}
  0
DIMENSION
  5
D11
330
D6
100
AcDbEntity
  8
寸法線
 48
20.0
100
AcDbDimension
  2
*D14
 10
7596.259484133297
 20
6501.725871077117
 30
0.0
 11
8617.25946976858
 21
6565.725871077117
 31
0.0
 70
    32
  1
P.C.Dφ<>
 71
     5
 42
2041.999971270565
  3
1-20
100
AcDbAlignedDimension
 13
9638.259455403863
 23
7021.687017498452
 33
0.0
 14
7596.259484133297
 24
7021.687017498452
 34
0.0
100
AcDbRotatedDimension
  0
ARC
  5
D3E
330
D6
100
AcDbEntity
  8
0
 48
20.0
100
AcDbCircle
 10
15442.41297919708
 20
10254.52287175043
 30
0.0
 40
10.0
100
AcDbArc
 50
90.00000000002083
 51
269.9999999999791
  0
ARC
  5
D3F
330
D6
100
AcDbEntity
  8
0
 48
20.0
100
AcDbCircle
 10
15452.41297919708
 20
10254.52287175043
 30
0.0
 40
10.0
100
AcDbArc
 50
269.9999999999896
 51
90.00000000001037
  0
LINE
  5
D40
102
{ACAD_REACTORS
330
CF6
102
}
330
D6
100
AcDbEntity
  8
0
  6
Continuous
100
AcDbLine
 10
12342.82223409805
 20
10918.97313303653
 30
0.0
 11
12339.28669955991
 21
10922.50866757467
 31
0.0
  0
LINE
  5
D41
102
{ACAD_REACTORS
330
CF6
102
}
330
D6
100
AcDbEntity
  8
0
  6
Continuous
100
AcDbLine
 10
12339.28669955991
 20
10922.50866757467
 30
0.0
 11
12318.07349580821
 21
10922.50866757467
 31
0.0
  0
LINE
  5
D42
102
{ACAD_REACTORS
330
CF6
102
}
330
D6
100
AcDbEntity
  8
0
  6
CENTER
100
AcDbLine
 10
12367.44517006479
 20
10837.78165373193
 30
0.0
 11
12336.78683213353
 21
10868.43999166319
 31
0.0
  0
LINE
  5
D43
102
{ACAD_REACTORS
330
CF6
102
}
330
D6
100
AcDbEntity
  8
0
  6
Continuous
100
AcDbLine
 10
12424.1395145667
 20
10816.44264881618
 30
0.0
 11
12424.1395145667
 21
10837.65585256788
 31
0.0
  0
LINE
  5
D44
102
{ACAD_REACTORS
330
CF6
102
}
330
D6
100
AcDbEntity
  8
0
  6
Continuous
100
AcDbLine
 10
12361.38776824347
 20
10753.69090249294
 30
0.0
 11
12424.1395145667
 21
10816.44264881618
 31
0.0
  0
LINE
  5
D45
102
{ACAD_REACTORS
330
CF6
102
}
330
D6
100
AcDbEntity
  8
0
  6
Continuous
100
AcDbLine
 10
12255.32174948497
 20
10859.75692125143
 30
0.0
 11
12318.07349580821
 21
10922.50866757467
 31
0.0
  0
LINE
  5
D46
102
{ACAD_REACTORS
330
CF6
102
}
330
D6
100
AcDbEntity
  8
0
  6
Continuous
100
AcDbLine
 10
12424.1395145667
 20
10837.65585256788
 30
0.0
 11
12420.60398060809
 21
10841.1913865265
 31
0.0
  0
LINE
  5
D47
102
{ACAD_REACTORS
330
CF6
102
}
330
D6
100
AcDbEntity
  8
0
  6
CENTER
100
AcDbLine
 10
12452.02544758864
 20
10950.3946005966
 30
0.0
 11
12289.70196044416
 21
10788.07111345212
 31
0.0
  0
LINE
  5
D48
102
{ACAD_REACTORS
330
CF6
102
}
330
D6
100
AcDbEntity
  8
0
100
AcDbLine
 10
12423.43240777498
 20
10844.01981369338
 30
0.0
 11
12371.10650460794
 21
10791.69391168539
 31
0.0
  0
LINE
  5
D49
102
{ACAD_REACTORS
330
CF6
102
}
330
D6
100
AcDbEntity
  8
0
100
AcDbLine
 10
12345.65066126494
 20
10921.80156020343
 30
0.0
 11
12293.32475867742
 21
10869.47565761591
 31
0.0
  0
LINE
  5
D4A
102
{ACAD_REACTORS
330
CF6
102
}
330
D6
100
AcDbEntity
  8
0
100
AcDbLine
 10
12349.89330148845
 20
10862.40459012014
 30
0.0
 11
12342.82223367658
 21
10855.33352230828
 31
0.0
  0
LINE
  5
D4B
102
{ACAD_REACTORS
330
CF6
102
}
330
D6
100
AcDbEntity
  8
0
100
AcDbLine
 10
12364.03543711218
 20
10848.26245449642
 30
0.0
 11
12356.96436930031
 21
10841.19138668454
 31
0.0
  0
LINE
  5
D4C
102
{ACAD_REACTORS
330
CF6
102
}
330
D6
100
AcDbEntity
  8
0
  6
Continuous
100
AcDbLine
 10
12345.65066068542
 20
10921.80156078295
 30
0.0
 11
12423.43240777498
 21
10844.01981369338
 31
0.0
  0
LINE
  5
D4D
102
{ACAD_REACTORS
330
CF6
102
}
330
D6
100
AcDbEntity
  8
0
  6
Continuous
100
AcDbLine
 10
12293.3247580979
 20
10869.47565819542
 30
0.0
 11
12371.10650518746
 21
10791.69391110587
 31
0.0
  0
ARC
  5
D4E
102
{ACAD_REACTORS
330
CF6
102
}
330
D6
100
AcDbEntity
  8
0
  6
Continuous
100
AcDbCircle
 10
11352.87272510596
 20
9851.241878113931
 30
0.0
 40
1375.000020489096
100
AcDbArc
 50
41.87322388642026
 51
48.12677611357969
  0
ARC
  5
D4F
102
{ACAD_REACTORS
330
CF6
102
}
330
D6
100
AcDbEntity
  8
0
 48
20.0
100
AcDbCircle
 10
12349.89330148845
 20
10848.26245449641
 30
0.0
 40
10.0
100
AcDbArc
 50
135.0000000000208
 51
314.9999999999792
  0
ARC
  5
D50
102
{ACAD_REACTORS
330
CF6
102
}
330
D6
100
AcDbEntity
  8
0
 48
20.0
100
AcDbCircle
 10
12356.96436930031
 20
10855.33352230827
 30
0.0
 40
10.0
100
AcDbArc
 50
314.9999999999896
 51
135.0000000000104
  0
LINE
  5
D52
102
{ACAD_REACTORS
330
CF6
102
}
330
D6
100
AcDbEntity
  8
0
  6
Continuous
100
AcDbLine
 10
10841.1915400565
 20
10841.19138710602
 30
0.0
 11
10837.65600551837
 21
10837.65585256788
 31
0.0
  0
LINE
  5
D53
102
{ACAD_REACTORS
330
CF6
102
}
330
D6
100
AcDbEntity
  8
0
  6
Continuous
100
AcDbLine
 10
10837.65600551837
 20
10837.65585256788
 30
0.0
 11
10837.65600551837
 21
10816.44264881618
 31
0.0
  0
LINE
  5
D54
102
{ACAD_REACTORS
330
CF6
102
}
330
D6
100
AcDbEntity
  8
0
  6
CENTER
100
AcDbLine
 10
10922.38301936111
 20
10865.81432307276
 30
0.0
 11
10891.72468142985
 21
10835.1559851415
 31
0.0
  0
LINE
  5
D55
102
{ACAD_REACTORS
330
CF6
102
}
330
D6
100
AcDbEntity
  8
0
  6
Continuous
100
AcDbLine
 10
10943.72202427686
 20
10922.50866757467
 30
0.0
 11
10922.50882052516
 21
10922.50866757467
 31
0.0
  0
LINE
  5
D56
102
{ACAD_REACTORS
330
CF6
102
}
330
D6
100
AcDbEntity
  8
0
  6
Continuous
100
AcDbLine
 10
11006.47377060009
 20
10859.75692125144
 30
0.0
 11
10943.72202427685
 21
10922.50866757467
 31
0.0
  0
LINE
  5
D57
102
{ACAD_REACTORS
330
CF6
102
}
330
D6
100
AcDbEntity
  8
0
  6
Continuous
100
AcDbLine
 10
10900.40775184161
 20
10753.69090249294
 30
0.0
 11
10837.65600551837
 21
10816.44264881618
 31
0.0
  0
LINE
  5
D58
102
{ACAD_REACTORS
330
CF6
102
}
330
D6
100
AcDbEntity
  8
0
  6
Continuous
100
AcDbLine
 10
10922.50882052516
 20
10922.50866757467
 30
0.0
 11
10918.97328656654
 21
10918.97313361605
 31
0.0
  0
LINE
  5
D59
102
{ACAD_REACTORS
330
CF6
102
}
330
D6
100
AcDbEntity
  8
0
  6
CENTER
100
AcDbLine
 10
10809.77007249643
 20
10950.39460059661
 30
0.0
 11
10972.09355964091
 21
10788.07111345213
 31
0.0
  0
LINE
  5
D5A
102
{ACAD_REACTORS
330
CF6
102
}
330
D6
100
AcDbEntity
  8
0
100
AcDbLine
 10
10916.14485939965
 20
10921.80156078295
 30
0.0
 11
10968.47076140765
 21
10869.47565761591
 31
0.0
  0
LINE
  5
D5B
102
{ACAD_REACTORS
330
CF6
102
}
330
D6
100
AcDbEntity
  8
0
100
AcDbLine
 10
10838.36311288961
 20
10844.01981427291
 30
0.0
 11
10890.68901547713
 21
10791.69391168539
 31
0.0
  0
LINE
  5
D5C
102
{ACAD_REACTORS
330
CF6
102
}
330
D6
100
AcDbEntity
  8
0
100
AcDbLine
 10
10897.7600829729
 20
10848.26245449642
 30
0.0
 11
10904.83115078476
 21
10841.19138668455
 31
0.0
  0
LINE
  5
D5D
102
{ACAD_REACTORS
330
CF6
102
}
330
D6
100
AcDbEntity
  8
0
100
AcDbLine
 10
10911.90221859662
 20
10862.40459012015
 30
0.0
 11
10918.97328640849
 21
10855.33352230828
 31
0.0
  0
LINE
  5
D5E
102
{ACAD_REACTORS
330
CF6
102
}
330
D6
100
AcDbEntity
  8
0
  6
Continuous
100
AcDbLine
 10
10838.36311231009
 20
10844.01981369339
 30
0.0
 11
10916.14485939965
 21
10921.80156078295
 31
0.0
  0
LINE
  5
D5F
102
{ACAD_REACTORS
330
CF6
102
}
330
D6
100
AcDbEntity
  8
0
  6
Continuous
100
AcDbLine
 10
10890.68901489761
 20
10791.69391110587
 30
0.0
 11
10968.47076198717
 21
10869.47565819543
 31
0.0
  0
ARC
  5
D60
102
{ACAD_REACTORS
330
CF6
102
}
330
D6
100
AcDbEntity
  8
0
  6
Continuous
100
AcDbCircle
 10
11908.92279497911
 20
9851.241878113931
 30
0.0
 40
1375.000020489096
100
AcDbArc
 50
131.8732238864202
 51
138.1267761135796
  0
ARC
  5
D61
102
{ACAD_REACTORS
330
CF6
102
}
330
D6
100
AcDbEntity
  8
0
 48
20.0
100
AcDbCircle
 10
10911.90221859662
 20
10848.26245449642
 30
0.0
 40
10.0
100
AcDbArc
 50
225.0000000000208
 51
44.99999999997913
  0
ARC
  5
D62
102
{ACAD_REACTORS
330
CF6
102
}
330
D6
100
AcDbEntity
  8
0
 48
20.0
100
AcDbCircle
 10
10904.83115078476
 20
10855.33352230828
 30
0.0
 40
10.0
100
AcDbArc
 50
44.9999999999896
 51
225.0000000000104
  0
LINE
  5
D64
102
{ACAD_REACTORS
330
CF6
102
}
330
D6
100
AcDbEntity
  8
0
  6
Continuous
100
AcDbLine
 10
10918.97328598702
 20
9339.560693064475
 30
0.0
 11
10922.50882052516
 21
9336.025158526339
 31
0.0
  0
LINE
  5
D65
102
{ACAD_REACTORS
330
CF6
102
}
330
D6
100
AcDbEntity
  8
0
  6
Continuous
100
AcDbLine
 10
10922.50882052516
 20
9336.025158526339
 30
0.0
 11
10943.72202427685
 21
9336.025158526339
 31
0.0
  0
LINE
  5
D66
102
{ACAD_REACTORS
330
CF6
102
}
330
D6
100
AcDbEntity
  8
0
  6
CENTER
100
AcDbLine
 10
10894.35035002027
 20
9420.752172369081
 30
0.0
 11
10925.00868795154
 21
9390.093834437818
 31
0.0
  0
LINE
  5
D67
102
{ACAD_REACTORS
330
CF6
102
}
330
D6
100
AcDbEntity
  8
0
  6
Continuous
100
AcDbLine
 10
10837.65600551837
 20
9442.091177284829
 30
0.0
 11
10837.65600551837
 21
9420.877973533132
 31
0.0
  0
LINE
  5
D68
102
{ACAD_REACTORS
330
CF6
102
}
330
D6
100
AcDbEntity
  8
0
  6
Continuous
100
AcDbLine
 10
10900.4077518416
 20
9504.842923608066
 30
0.0
 11
10837.65600551837
 21
9442.091177284828
 31
0.0
  0
LINE
  5
D69
102
{ACAD_REACTORS
330
CF6
102
}
330
D6
100
AcDbEntity
  8
0
  6
Continuous
100
AcDbLine
 10
11006.47377060009
 20
9398.776904849581
 30
0.0
 11
10943.72202427685
 21
9336.025158526339
 31
0.0
  0
LINE
  5
D6A
102
{ACAD_REACTORS
330
CF6
102
}
330
D6
100
AcDbEntity
  8
0
  6
Continuous
100
AcDbLine
 10
10837.65600551837
 20
9420.877973533128
 30
0.0
 11
10841.19153947698
 21
9417.342439574513
 31
0.0
  0
LINE
  5
D6B
102
{ACAD_REACTORS
330
CF6
102
}
330
D6
100
AcDbEntity
  8
0
  6
CENTER
100
AcDbLine
 10
10809.77007249642
 20
9308.139225504405
 30
0.0
 11
10972.09355964091
 21
9470.462712648885
 31
0.0
  0
LINE
  5
D6C
102
{ACAD_REACTORS
330
CF6
102
}
330
D6
100
AcDbEntity
  8
0
100
AcDbLine
 10
10838.36311231009
 20
9414.514012407627
 30
0.0
 11
10890.68901547713
 21
9466.839914415622
 31
0.0
  0
LINE
  5
D6D
102
{ACAD_REACTORS
330
CF6
102
}
330
D6
100
AcDbEntity
  8
0
100
AcDbLine
 10
10916.14485882012
 20
9336.732265897582
 30
0.0
 11
10968.47076140765
 21
9389.058168485103
 31
0.0
  0
LINE
  5
D6E
102
{ACAD_REACTORS
330
CF6
102
}
330
D6
100
AcDbEntity
  8
0
100
AcDbLine
 10
10911.90221859662
 20
9396.129235980868
 30
0.0
 11
10918.97328640849
 21
9403.200303792734
 31
0.0
  0
LINE
  5
D6F
102
{ACAD_REACTORS
330
CF6
102
}
330
D6
100
AcDbEntity
  8
0
100
AcDbLine
 10
10897.76008297289
 20
9410.271371604595
 30
0.0
 11
10904.83115078475
 21
9417.342439416465
 31
0.0
  0
LINE
  5
D70
102
{ACAD_REACTORS
330
CF6
102
}
330
D6
100
AcDbEntity
  8
0
  6
Continuous
100
AcDbLine
 10
10916.14485939964
 20
9336.732265318063
 30
0.0
 11
10838.36311231009
 21
9414.514012407627
 31
0.0
  0
LINE
  5
D71
102
{ACAD_REACTORS
330
CF6
102
}
330
D6
100
AcDbEntity
  8
0
  6
Continuous
100
AcDbLine
 10
10968.47076198717
 20
9389.058167905586
 30
0.0
 11
10890.68901489761
 21
9466.839914995142
 31
0.0
  0
ARC
  5
D72
102
{ACAD_REACTORS
330
CF6
102
}
330
D6
100
AcDbEntity
  8
0
  6
Continuous
100
AcDbCircle
 10
11908.92279497911
 20
10407.29194798708
 30
0.0
 40
1375.000020489096
100
AcDbArc
 50
221.8732238864202
 51
228.1267761135796
  0
ARC
  5
D73
102
{ACAD_REACTORS
330
CF6
102
}
330
D6
100
AcDbEntity
  8
0
 48
20.0
100
AcDbCircle
 10
10911.90221859662
 20
9410.271371604599
 30
0.0
 40
10.0
100
AcDbArc
 50
315.0000000000208
 51
134.999999999979
  0
ARC
  5
D74
102
{ACAD_REACTORS
330
CF6
102
}
330
D6
100
AcDbEntity
  8
0
 48
20.0
100
AcDbCircle
 10
10904.83115078475
 20
9403.200303792736
 30
0.0
 40
10.0
100
AcDbArc
 50
134.9999999999895
 51
315.0000000000103
  0
LINE
  5
D76
102
{ACAD_REACTORS
330
CF6
102
}
330
D6
100
AcDbEntity
  8
0
  6
Continuous
100
AcDbLine
 10
12420.60398002857
 20
9417.342438994991
 30
0.0
 11
12424.1395145667
 21
9420.877973533126
 31
0.0
  0
LINE
  5
D77
102
{ACAD_REACTORS
330
CF6
102
}
330
D6
100
AcDbEntity
  8
0
  6
Continuous
100
AcDbLine
 10
12424.1395145667
 20
9420.877973533126
 30
0.0
 11
12424.1395145667
 21
9442.091177284826
 31
0.0
  0
LINE
  5
D78
102
{ACAD_REACTORS
330
CF6
102
}
330
D6
100
AcDbEntity
  8
0
  6
CENTER
100
AcDbLine
 10
12339.41250072396
 20
9392.719503028246
 30
0.0
 11
12370.07083865522
 21
9423.377840959508
 31
0.0
  0
LINE
  5
D79
102
{ACAD_REACTORS
330
CF6
102
}
330
D6
100
AcDbEntity
  8
0
  6
Continuous
100
AcDbLine
 10
12318.07349580821
 20
9336.025158526338
 30
0.0
 11
12339.28669955991
 21
9336.025158526338
 31
0.0
  0
LINE
  5
D7A
102
{ACAD_REACTORS
330
CF6
102
}
330
D6
100
AcDbEntity
  8
0
  6
Continuous
100
AcDbLine
 10
12255.32174948497
 20
9398.776904849572
 30
0.0
 11
12318.07349580821
 21
9336.025158526336
 31
0.0
  0
LINE
  5
D7B
102
{ACAD_REACTORS
330
CF6
102
}
330
D6
100
AcDbEntity
  8
0
  6
Continuous
100
AcDbLine
 10
12361.38776824346
 20
9504.842923608064
 30
0.0
 11
12424.1395145667
 21
9442.091177284822
 31
0.0
  0
LINE
  5
D7C
102
{ACAD_REACTORS
330
CF6
102
}
330
D6
100
AcDbEntity
  8
0
  6
Continuous
100
AcDbLine
 10
12339.28669955991
 20
9336.025158526336
 30
0.0
 11
12342.82223351853
 21
9339.560692484953
 31
0.0
  0
LINE
  5
D7D
102
{ACAD_REACTORS
330
CF6
102
}
330
D6
100
AcDbEntity
  8
0
  6
CENTER
100
AcDbLine
 10
12452.02544758864
 20
9308.139225504396
 30
0.0
 11
12289.70196044415
 21
9470.462712648878
 31
0.0
  0
LINE
  5
D7E
102
{ACAD_REACTORS
330
CF6
102
}
330
D6
100
AcDbEntity
  8
0
100
AcDbLine
 10
12345.65066068541
 20
9336.73226531806
 30
0.0
 11
12293.32475867742
 21
9389.058168485098
 31
0.0
  0
LINE
  5
D7F
102
{ACAD_REACTORS
330
CF6
102
}
330
D6
100
AcDbEntity
  8
0
100
AcDbLine
 10
12423.43240719546
 20
9414.514011828094
 30
0.0
 11
12371.10650460794
 21
9466.839914415617
 31
0.0
  0
LINE
  5
D80
102
{ACAD_REACTORS
330
CF6
102
}
330
D6
100
AcDbEntity
  8
0
100
AcDbLine
 10
12364.03543711217
 20
9410.271371604592
 30
0.0
 11
12356.96436930031
 21
9417.342439416458
 31
0.0
  0
LINE
  5
D81
102
{ACAD_REACTORS
330
CF6
102
}
330
D6
100
AcDbEntity
  8
0
100
AcDbLine
 10
12349.89330148845
 20
9396.129235980861
 30
0.0
 11
12342.82223367658
 21
9403.200303792724
 31
0.0
  0
LINE
  5
D82
102
{ACAD_REACTORS
330
CF6
102
}
330
D6
100
AcDbEntity
  8
0
  6
Continuous
100
AcDbLine
 10
12423.43240777498
 20
9414.514012407613
 30
0.0
 11
12345.65066068541
 21
9336.73226531806
 31
0.0
  0
LINE
  5
D83
102
{ACAD_REACTORS
330
CF6
102
}
330
D6
100
AcDbEntity
  8
0
  6
Continuous
100
AcDbLine
 10
12371.10650518746
 20
9466.839914995137
 30
0.0
 11
12293.3247580979
 21
9389.058167905579
 31
0.0
  0
ARC
  5
D84
102
{ACAD_REACTORS
330
CF6
102
}
330
D6
100
AcDbEntity
  8
0
  6
Continuous
100
AcDbCircle
 10
11352.87272510596
 20
10407.29194798707
 30
0.0
 40
1375.000020489096
100
AcDbArc
 50
311.8732238864202
 51
318.1267761135796
  0
ARC
  5
D85
102
{ACAD_REACTORS
330
CF6
102
}
330
D6
100
AcDbEntity
  8
0
 48
20.0
100
AcDbCircle
 10
12349.89330148844
 20
9410.27137160459
 30
0.0
 40
10.0
100
AcDbArc
 50
45.00000000002077
 51
224.9999999999791
  0
ARC
  5
D86
102
{ACAD_REACTORS
330
CF6
102
}
330
D6
100
AcDbEntity
  8
0
 48
20.0
100
AcDbCircle
 10
12356.9643693003
 20
9403.200303792724
 30
0.0
 40
10.0
100
AcDbArc
 50
224.9999999999896
 51
45.00000000001032
  0
ARC
  5
D91
330
D6
100
AcDbEntity
  8
0
 48
20.0
100
AcDbCircle
 10
13204.7850404521
 20
9078.634586309169
 30
0.0
 40
30.00000000000182
100
AcDbArc
 50
90.00000000000698
 51
269.999999999993
  0
ARC
  5
D92
330
D6
100
AcDbEntity
  8
0
 48
20.0
100
AcDbCircle
 10
13234.78504045209
 20
9078.634586309169
 30
0.0
 40
30.00000000000182
100
AcDbArc
 50
270.0000000000035
 51
89.99999999999653
  0
LINE
  5
DAB
330
D6
100
AcDbEntity
  8
0
100
AcDbLine
 10
8302.258465462617
 20
9779.002426671342
 30
0.0
 11
8932.258437969975
 21
9779.002426671342
 31
0.0
  0
LINE
  5
DAC
330
D6
100
AcDbEntity
  8
0
100
AcDbLine
 10
8302.258465462617
 20
9744.00238852437
 30
0.0
 11
8932.258437969975
 21
9744.00238852437
 31
0.0
  0
LINE
  5
DAD
330
D6
100
AcDbEntity
  8
0
100
AcDbLine
 10
8342.258465686134
 20
9744.00238852437
 30
0.0
 11
8342.258465686134
 21
9677.55498994477
 31
0.0
  0
LINE
  5
DAE
330
D6
100
AcDbEntity
  8
0
100
AcDbLine
 10
8892.258437746457
 20
9744.00238852437
 30
0.0
 11
8892.258437746457
 21
9677.55498994477
 31
0.0
  0
LINE
  5
DAF
330
D6
100
AcDbEntity
  8
0
100
AcDbLine
 10
8302.258465462617
 20
9744.00238852437
 30
0.0
 11
8302.258465462617
 21
9779.002426671342
 31
0.0
  0
LINE
  5
DB0
330
D6
100
AcDbEntity
  8
0
100
AcDbLine
 10
8932.258437969975
 20
9744.00238852437
 30
0.0
 11
8932.258437969975
 21
9779.002426671342
 31
0.0
  0
ARC
  5
DB1
330
D6
100
AcDbEntity
  8
0
100
AcDbCircle
 10
8648.030994669786
 20
8192.875813054397
 30
0.0
 40
1500.0
100
AcDbArc
 50
102.3758727795542
 51
126.4780825972434
  0
ARC
  5
DB2
330
D6
100
AcDbEntity
  8
0
100
AcDbCircle
 10
8586.485908762805
 20
8192.875813054397
 30
0.0
 40
1500.0
100
AcDbArc
 50
53.52188143061447
 51
77.62412722044576
  0
ARC
  5
DB3
330
D6
100
AcDbEntity
  8
0
100
AcDbCircle
 10
8912.258437299422
 20
9677.55498994477
 30
0.0
 40
19.99999955296516
100
AcDbArc
 50
180.0
 51
257.6241272204458
  0
ARC
  5
DB4
330
D6
100
AcDbEntity
  8
0
100
AcDbCircle
 10
8322.258466133169
 20
9677.55498994477
 30
0.0
 40
19.99999955296516
100
AcDbArc
 50
282.3758727795542
 51
0.0
  0
ARC
  5
DB5
330
D6
100
AcDbEntity
  8
0
100
AcDbCircle
 10
8617.258451716296
 20
9348.793646411428
 30
0.0
 40
490.2087230394549
100
AcDbArc
 50
61.35458562418585
 51
118.6454143758141
  0
CIRCLE
  5
DCE
330
D6
100
AcDbEntity
  8
0
 48
20.0
100
AcDbCircle
 10
11630.89776004254
 20
10129.2669130505
 30
0.0
 40
235.0
  0
CIRCLE
  5
DCF
330
D6
100
AcDbEntity
  8
0
 48
20.0
100
AcDbCircle
 10
11630.89776004254
 20
10129.2669130505
 30
0.0
 40
315.0
  0
ENDSEC
  0
SECTION
  2
OBJECTS
  0
DICTIONARY
  5
4D7
330
0
100
AcDbDictionary
281
     1
  3
ACAD_COLOR
350
4E0
  3
ACAD_GROUP
350
4D8
  3
ACAD_LAYOUT
350
4E3
  3
ACAD_MATERIAL
350
4DF
  3
ACAD_MLINESTYLE
350
4D9
  3
ACAD_PLOTSETTINGS
350
4E4
  3
ACAD_PLOTSTYLENAME
350
4DD
  3
ACAD_TABLESTYLE
350
4E1
  3
AcDbVariableDictionary
350
7A7
  0
DICTIONARY
  5
4FD
330
C8
100
AcDbDictionary
280
     1
281
     1
  3
ACAD_LAYERFILTERS
360
813
  3
ACAD_LAYERSTATES
360
4FE
  3
ACLYDICTIONARY
360
812
  0
DICTIONARY
  5
79B
330
D6
100
AcDbDictionary
280
     1
281
     1
  3
ACAD_SORTENTS
360
79C
  0
DICTIONARY
  5
4E0
102
{ACAD_REACTORS
330
4D7
102
}
330
4D7
100
AcDbDictionary
281
     1
  0
DICTIONARY
  5
4D8
102
{ACAD_REACTORS
330
4D7
102
}
330
4D7
100
AcDbDictionary
281
     1
  3
A-P
350
CF6
  3
A-P2
350
D09
  0
DICTIONARY
  5
4E3
102
{ACAD_REACTORS
330
4D7
102
}
330
4D7
100
AcDbDictionary
281
     1
  3
Model
350
4E5
  3
レイアウト1
350
4E6
  0
DICTIONARY
  5
4DF
102
{ACAD_REACTORS
330
4D7
102
}
330
4D7
100
AcDbDictionary
281
     1
  0
DICTIONARY
  5
4D9
102
{ACAD_REACTORS
330
4D7
102
}
330
4D7
100
AcDbDictionary
281
     1
  3
STANDARD
350
4DA
  0
DICTIONARY
  5
4E4
102
{ACAD_REACTORS
330
4D7
102
}
330
4D7
100
AcDbDictionary
281
     1
  0
ACDBDICTIONARYWDFLT
  5
4DD
102
{ACAD_REACTORS
330
4D7
102
}
330
4D7
100
AcDbDictionary
281
     1
  3
Normal
350
4DE
100
AcDbDictionaryWithDefault
340
4DE
  0
DICTIONARY
  5
4E1
102
{ACAD_REACTORS
330
4D7
102
}
330
4D7
100
AcDbDictionary
281
     1
  3
Standard
350
4E2
  0
DICTIONARY
  5
7A7
102
{ACAD_REACTORS
330
4D7
102
}
330
4D7
100
AcDbDictionary
281
     1
  3
CTABLESTYLE
350
7A8
  0
DICTIONARY
  5
813
102
{ACAD_REACTORS
330
4FD
102
}
330
4FD
100
AcDbDictionary
281
     1
  0
DICTIONARY
  5
4FE
102
{ACAD_REACTORS
330
4FD
102
}
330
4FD
100
AcDbDictionary
281
     1
  0
DICTIONARY
  5
812
102
{ACAD_REACTORS
330
4FD
102
}
330
4FD
100
AcDbDictionary
281
     1
1001
ACAD
1000
<All
  0
SORTENTSTABLE
  5
79C
102
{ACAD_REACTORS
330
79B
102
}
330
79B
100
AcDbSortentsTable
330
D6
331
375
  5
377
331
668
  5
672
331
5F2
  5
5FC
331
3FC
  5
3FE
331
631
  5
63B
331
AFC
  5
AFE
331
B43
  5
B47
331
6AF
  5
6B9
331
670
  5
67A
331
639
  5
643
331
5FA
  5
604
331
D3E
  5
D40
331
D7D
  5
D7F
331
B04
  5
B08
331
B4B
  5
B4F
331
678
  5
682
331
641
  5
64B
331
474
  5
476
331
602
  5
60C
331
6B7
  5
78F
331
A6D
  5
AFC
331
D46
  5
D48
331
D85
  5
D8F
331
60A
  5
614
331
680
  5
68A
331
D4E
  5
D50
331
D56
  5
D58
331
356
  5
356
331
688
  5
692
331
612
  5
61C
331
649
  5
653
331
C31
  5
C77
331
BEA
  5
BF2
331
690
  5
69A
331
61A
  5
624
331
366
  5
366
331
4B4
  5
4BC
331
651
  5
65B
331
D5E
  5
D60
331
B2C
  5
B30
331
BF2
  5
BF6
331
698
  5
6A2
331
659
  5
663
331
5E3
  5
5ED
331
3ED
  5
3EF
331
622
  5
62C
331
78F
  5
7AA
331
D66
  5
D68
331
B34
  5
B38
331
BFA
  5
C1B
331
6A0
  5
6AA
331
661
  5
66B
331
62A
  5
634
331
3F5
  5
3F7
331
5EB
  5
5F5
331
D6E
  5
D70
331
B3C
  5
B40
331
D76
  5
D78
331
376
  5
378
331
6A8
  5
6B2
331
632
  5
63C
331
37E
  5
380
331
3FD
  5
3FF
331
5F3
  5
5FD
331
669
  5
673
331
C79
  5
D11
331
AFD
  5
AFF
331
B44
  5
B48
331
6B0
  5
6BA
331
671
  5
67B
331
386
  5
388
331
5FB
  5
605
331
63A
  5
644
331
D3F
  5
D41
331
D7E
  5
D80
331
B05
  5
B09
331
B4C
  5
B50
331
6B8
  5
790
331
679
  5
683
331
603
  5
60D
331
475
  5
477
331
642
  5
64C
331
D47
  5
D49
331
D86
  5
D90
331
681
  5
68B
331
60B
  5
615
331
D4F
  5
D52
331
D57
  5
D59
331
357
  5
357
331
689
  5
693
331
64A
  5
654
331
35F
  5
35F
331
613
  5
61D
331
C32
  5
C79
331
B1D
  5
B2D
331
652
  5
65C
331
61B
  5
625
331
367
  5
367
331
3E6
  5
3E8
331
691
  5
69B
331
D5F
  5
D61
331
B2D
  5
B31
331
BF3
  5
BF7
331
790
  5
7AE
331
699
  5
6A3
331
623
  5
62D
331
3EE
  5
3F0
331
5E4
  5
5EE
331
65A
  5
664
331
D67
  5
D69
331
B35
  5
B39
331
BFB
  5
C31
331
6A1
  5
6AB
331
662
  5
66C
331
3F6
  5
3F8
331
5EC
  5
5F6
331
62B
  5
635
331
8B7
  5
AFB
331
CD1
  5
D3E
331
D6F
  5
D71
331
B3D
  5
B41
331
D77
  5
D79
331
377
  5
379
331
6A9
  5
6B3
331
66A
  5
674
331
5F4
  5
5FE
331
37F
  5
381
331
3FE
  5
41C
331
633
  5
63D
331
C7A
  5
D3C
331
AFE
  5
B03
331
B45
  5
B49
331
6B1
  5
6BB
331
672
  5
67C
331
63B
  5
645
331
387
  5
389
331
46E
  5
470
331
5FC
  5
606
331
D40
  5
D42
331
D7F
  5
D81
331
B4D
  5
B5E
331
B06
  5
B0A
331
C1B
  5
C76
331
6B9
  5
791
331
643
  5
64D
331
476
  5
478
331
604
  5
60E
331
67A
  5
684
331
D48
  5
D4A
331
60C
  5
616
331
682
  5
68C
331
D50
  5
D53
331
358
  5
358
331
68A
  5
694
331
614
  5
61E
331
64B
  5
655
331
360
  5
360
331
C33
  5
C7A
331
D11
  5
D3F
331
D58
  5
D5A
331
BEC
  5
BF3
331
692
  5
69C
331
653
  5
65D
331
61C
  5
626
331
3E7
  5
3E9
331
368
  5
368
331
D60
  5
D62
331
BF4
  5
BF8
331
B2E
  5
B32
331
B6D
  5
BEA
331
791
  5
7AF
331
65B
  5
665
331
5E5
  5
5EF
331
3EF
  5
3F1
331
624
  5
62E
331
69A
  5
6A4
331
D68
  5
D6A
331
B36
  5
B3A
331
BFC
  5
C32
331
799
  5
7BC
331
663
  5
66D
331
62C
  5
636
331
3F7
  5
3F9
331
5ED
  5
5F7
331
6A2
  5
6AC
331
D70
  5
D72
331
B3E
  5
B42
331
370
  5
372
331
378
  5
37A
331
6AA
  5
6B4
331
634
  5
63E
331
3FF
  5
41D
331
5F5
  5
5FF
331
66B
  5
675
331
D78
  5
D7A
331
AFF
  5
B04
331
B46
  5
B4A
331
6B2
  5
6BC
331
673
  5
67D
331
46F
  5
471
331
5FD
  5
607
331
63C
  5
646
331
D41
  5
D43
331
D80
  5
D82
331
B07
  5
B0B
331
B4E
  5
B6D
331
6BA
  5
796
331
67B
  5
685
331
605
  5
60F
331
477
  5
479
331
644
  5
64E
331
D49
  5
D4B
331
683
  5
68D
331
60D
  5
617
331
351
  5
351
331
388
  5
3E6
331
64C
  5
656
331
4A7
  5
4A9
331
615
  5
61F
331
68B
  5
695
331
361
  5
361
331
D59
  5
D5B
331
B5E
  5
BE9
331
BED
  5
BF4
331
654
  5
65E
331
61D
  5
627
331
3E8
  5
3EA
331
693
  5
69D
331
D61
  5
D64
331
B2F
  5
B33
331
BF5
  5
BF9
331
792
  5
7B0
331
69B
  5
6A5
331
625
  5
62F
331
3F0
  5
3F2
331
5E6
  5
5F0
331
65C
  5
666
331
CBB
  5
D3D
331
D69
  5
D6B
331
B37
  5
B3B
331
BFD
  5
C33
331
79A
  5
36E
331
6A3
  5
6AD
331
664
  5
66E
331
5EE
  5
5F8
331
62D
  5
637
331
D71
  5
D73
331
B3F
  5
B43
331
371
  5
373
331
3F8
  5
3FA
331
379
  5
37B
331
6AB
  5
6B5
331
66C
  5
676
331
5F6
  5
600
331
635
  5
63F
331
381
  5
383
331
D79
  5
D7B
331
B00
  5
B05
331
B47
  5
B4B
331
674
  5
67E
331
63D
  5
647
331
5FE
  5
608
331
6B3
  5
6BD
331
D42
  5
D44
331
D81
  5
D83
331
B08
  5
B10
331
B4F
  5
BCE
331
6BB
  5
797
331
645
  5
64F
331
478
  5
482
331
606
  5
610
331
67C
  5
686
331
80A
  5
8B7
331
D4A
  5
D4C
331
B10
  5
B2C
331
BCE
  5
BEC
331
60E
  5
618
331
684
  5
68E
331
D52
  5
D54
331
BE6
  5
BED
331
352
  5
352
331
389
  5
3E7
331
68C
  5
696
331
616
  5
620
331
64D
  5
657
331
362
  5
362
331
D5A
  5
D5C
331
694
  5
69E
331
655
  5
65F
331
4C0
  5
4CA
331
3E9
  5
3EB
331
61E
  5
628
331
8AA
  5
AFA
331
D62
  5
D65
331
B30
  5
B34
331
BF6
  5
BFA
331
793
  5
7B3
331
65D
  5
667
331
5E7
  5
5F1
331
3F1
  5
3F3
331
626
  5
630
331
69C
  5
6A6
331
D6A
  5
D6C
331
B38
  5
B3C
331
665
  5
66F
331
62E
  5
638
331
5EF
  5
5F9
331
6A4
  5
6AE
331
D72
  5
D74
331
372
  5
374
331
3F9
  5
3FB
331
AF9
  5
7B6
331
B40
  5
B44
331
6AC
  5
6B6
331
66D
  5
677
331
5F7
  5
601
331
636
  5
640
331
382
  5
384
331
D7A
  5
D7C
331
B01
  5
B06
331
B48
  5
B4C
331
7AB
  5
7B9
331
6B4
  5
78C
331
675
  5
67F
331
5FF
  5
609
331
63E
  5
648
331
D43
  5
D45
331
D82
  5
D84
331
B09
  5
B1D
331
B50
  5
BE6
331
80B
  5
A6D
331
67D
  5
687
331
607
  5
611
331
479
  5
483
331
646
  5
650
331
6BC
  5
798
331
D4B
  5
D4D
331
685
  5
68F
331
60F
  5
619
331
D53
  5
D55
331
353
  5
353
331
64E
  5
658
331
617
  5
621
331
68D
  5
697
331
363
  5
363
331
D5B
  5
D5D
331
656
  5
660
331
61F
  5
629
331
3EA
  5
3EC
331
695
  5
69F
331
36B
  5
36B
331
B31
  5
B35
331
BF7
  5
BFB
331
794
  5
7B4
331
69D
  5
6A7
331
627
  5
631
331
3F2
  5
3F4
331
4C9
  5
5E9
331
5E8
  5
5F2
331
65E
  5
668
331
D6B
  5
D6D
331
B39
  5
B3D
331
6A5
  5
6AF
331
666
  5
670
331
62F
  5
639
331
C76
  5
CBB
331
D73
  5
D76
331
373
  5
375
331
5F0
  5
5FA
331
3FA
  5
3FC
331
AFA
  5
7B5
331
B41
  5
B45
331
6AD
  5
6B7
331
66E
  5
678
331
5F8
  5
602
331
637
  5
641
331
383
  5
386
331
D7B
  5
D7D
331
7AC
  5
7B8
331
676
  5
680
331
63F
  5
649
331
472
  5
474
331
600
  5
60A
331
6B5
  5
78D
331
B49
  5
B4D
331
80C
  5
AF7
331
6BD
  5
799
331
67E
  5
688
331
608
  5
612
331
647
  5
651
331
D44
  5
D46
331
D83
  5
D85
331
686
  5
690
331
D4C
  5
D4E
331
D54
  5
D56
331
354
  5
354
331
610
  5
61A
331
68E
  5
698
331
364
  5
364
331
618
  5
622
331
64F
  5
659
331
D5C
  5
D5E
331
B2A
  5
B2E
331
BF0
  5
BF5
331
696
  5
6A0
331
657
  5
661
331
4C2
  5
5E3
331
36C
  5
36C
331
3EB
  5
3ED
331
620
  5
62A
331
78D
  5
79D
331
D64
  5
D66
331
B32
  5
B36
331
BF8
  5
BFC
331
795
  5
7BA
331
65F
  5
669
331
628
  5
632
331
3F3
  5
3F5
331
4CA
  5
5EA
331
5E9
  5
5F3
331
69E
  5
6A8
331
D6C
  5
D6E
331
B3A
  5
B3E
331
79D
  5
36D
331
667
  5
671
331
6A6
  5
6B0
331
C77
  5
CD1
331
D74
  5
D77
331
374
  5
376
331
630
  5
63A
331
3FB
  5
3FD
331
5F1
  5
5FB
331
AFB
  5
AFD
331
B42
  5
B46
331
6AE
  5
6B8
331
66F
  5
679
331
384
  5
387
331
5F9
  5
603
331
638
  5
642
331
D7C
  5
D7E
331
B03
  5
B07
331
B4A
  5
B4E
331
6B6
  5
78E
331
677
  5
681
331
601
  5
60B
331
473
  5
475
331
640
  5
64A
331
D45
  5
D47
331
D84
  5
D86
331
609
  5
613
331
67F
  5
689
331
80D
  5
AF8
331
D4D
  5
D4F
331
687
  5
691
331
D55
  5
D57
331
355
  5
355
331
648
  5
652
331
611
  5
61B
331
BE9
  5
BF0
331
650
  5
65A
331
365
  5
365
331
619
  5
623
331
68F
  5
699
331
89D
  5
AF9
331
D5D
  5
D5F
331
B2B
  5
B2F
331
697
  5
6A1
331
621
  5
62B
331
36D
  5
36F
331
3EC
  5
3EE
331
5E2
  5
5EC
331
658
  5
662
331
78E
  5
7A9
331
D65
  5
D67
331
B33
  5
B37
331
BF9
  5
BFD
331
796
  5
7BB
331
69F
  5
6A9
331
660
  5
66A
331
3F4
  5
3F6
331
4CB
  5
5EB
331
5EA
  5
5F4
331
629
  5
633
331
D6D
  5
D6F
331
B3B
  5
B3F
331
6A7
  5
6B1
  0
GROUP
  5
CF6
102
{ACAD_REACTORS
330
4D8
102
}
330
4D8
100
AcDbGroup
300

 70
     0
 71
     1
340
D74
340
D73
340
D72
340
D71
340
D70
340
D6F
340
D6E
340
D6C
340
D6B
340
D6A
340
D68
340
D67
340
D66
340
D6D
340
D69
340
D65
340
D64
340
D86
340
D85
340
D84
340
D83
340
D82
340
D81
340
D80
340
D7E
340
D7D
340
D7C
340
D7A
340
D79
340
D78
340
D7F
340
D7B
340
D77
340
D76
340
D50
340
D4F
340
D4E
340
D4D
340
D4C
340
D4B
340
D4A
340
D49
340
D47
340
D45
340
D42
340
D41
340
D40
340
D48
340
D46
340
D44
340
D43
340
D62
340
D61
340
D60
340
D5F
340
D5E
340
D5D
340
D5C
340
D5B
340
D59
340
D57
340
D54
340
D53
340
D52
340
D5A
340
D58
340
D56
340
D55
  0
GROUP
  5
D09
102
{ACAD_REACTORS
330
4D8
102
}
330
4D8
100
AcDbGroup
300

 70
     0
 71
     1
340
80A
340
388
340
386
340
377
340
376
340
373
340
371
340
36D
340
79A
340
36B
340
389
340
387
340
375
340
372
340
370
340
79D
340
36C
340
374
  0
LAYOUT
  5
4E5
102
{ACAD_REACTORS
330
4E3
102
}
330
4E3
100
AcDbPlotSettings
  1

  2
DocuCentre-II C2200.pc3
  4
A3
  6

 40
4.900083065032958
 41
4.900057315826416
 42
4.85772705078125
 43
4.90008544921875
 44
419.9889831542968
 45
297.0106506347656
 46
0.0
 47
0.0
 48
6289.998298288089
 49
6106.76897719933
140
14349.99829828809
141
11706.76897719933
142
1.0
143
19.64745862753807
 70
 11952
 72
     1
 73
     0
 74
     4
  7

 75
     0
147
0.0508971678707795
 76
     0
 77
     2
 78
   300
148
-6289.998298288089
149
-6106.76897719933
100
AcDbLayout
  1
Model
 70
     1
 71
     0
 10
0.0
 20
0.0
 11
12.0
 21
9.0
 12
0.0
 22
0.0
 32
0.0
 14
0.0
 24
0.0
 34
0.0
 15
0.0
 25
0.0
 35
0.0
146
0.0
 13
0.0
 23
0.0
 33
0.0
 16
1.0
 26
0.0
 36
0.0
 17
0.0
 27
1.0
 37
0.0
 76
     0
330
D6
1001
ACAD_PSEXT
1000
DocuCentre-II C2200.pc3
1000
FX DocuCentre-II C2200
1000
192.168.8.52
1000

1070
     0
  0
LAYOUT
  5
4E6
102
{ACAD_REACTORS
330
4E3
102
}
330
4E3
100
AcDbPlotSettings
  1

  2
DocuCentre-II C2200
  4

  6

 40
0.0
 41
0.0
 42
0.0
 43
0.0
 44
0.0
 45
0.0
 46
0.0
 47
0.0
 48
0.0
 49
0.0
140
0.0
141
0.0
142
1.0
143
1.0
 70
   688
 72
     0
 73
     0
 74
     5
  7

 75
    16
147
1.0
 76
     0
 77
     2
 78
   300
148
0.0
149
0.0
100
AcDbLayout
  1
レイアウト1
 70
     1
 71
     1
 10
-144.1413879999999
 20
-67.98339799999999
 11
277.858612
 21
231.016602
 12
0.0
 22
0.0
 32
0.0
 14
-144.1413879999999
 24
-67.98339799999999
 34
0.0
 15
277.858612
 25
231.016602
 35
0.0
146
0.0
 13
0.0
 23
0.0
 33
0.0
 16
1.0
 26
0.0
 36
0.0
 17
0.0
 27
1.0
 37
0.0
 76
     0
330
D7
  0
MLINESTYLE
  5
4DA
102
{ACAD_REACTORS
330
4D9
102
}
330
4D9
100
AcDbMlineStyle
  2
STANDARD
 70
     0
  3

 62
     0
 51
90.0
 52
90.0
 71
     2
 49
0.5
 62
   256
  6
BYLAYER
 49
-0.5
 62
   256
  6
BYLAYER
  0
ACDBPLACEHOLDER
  5
4DE
102
{ACAD_REACTORS
330
4DD
102
}
330
4DD
  0
TABLESTYLE
  5
4E2
102
{ACAD_REACTORS
330
4E1
102
}
330
4E1
100
AcDbTableStyle
  3
Standard
 70
     0
 71
     0
 40
1.5
 41
1.5
280
     0
281
     0
  7
STANDARD
140
4.5
170
     2
 62
     0
 63
     7
283
     0
274
    -2
284
     1
 64
     0
275
    -2
285
     1
 65
     0
276
    -2
286
     1
 66
     0
277
    -2
287
     1
 67
     0
278
    -2
288
     1
 68
     0
279
    -2
289
     1
 69
     0
  7
STANDARD
140
6.0
170
     5
 62
     0
 63
     7
283
     0
274
    -2
284
     1
 64
     0
275
    -2
285
     1
 65
     0
276
    -2
286
     1
 66
     0
277
    -2
287
     1
 67
     0
278
    -2
288
     1
 68
     0
279
    -2
289
     1
 69
     0
  7
STANDARD
140
4.5
170
     5
 62
     0
 63
     7
283
     0
274
    -2
284
     1
 64
     0
275
    -2
285
     1
 65
     0
276
    -2
286
     1
 66
     0
277
    -2
287
     1
 67
     0
278
    -2
288
     1
 68
     0
279
    -2
289
     1
 69
     0
  0
DICTIONARYVAR
  5
7A8
102
{ACAD_REACTORS
330
7A7
102
}
330
7A7
100
DictionaryVariables
280
     0
  1
STANDARD
  0
ENDSEC
  0
EOF
