  0
SECTION
  2
HEADER
  9
$ACADVER
  1
AC1018
  9
$ACADMAINTVER
 70
    39
  9
$DWGCODEPAGE
  3
ANSI_932
  9
$INSBASE
 10
0.0
 20
0.0
 30
0.0
  9
$EXTMIN
 10
4151.175116071473
 20
2136.948791183248
 30
-0.0015258207003583
  9
$EXTMAX
 10
12612.17778116273
 20
8137.739818506892
 30
0.0000000349246037
  9
$LIMMIN
 10
4351.788471376523
 20
2337.166326973587
  9
$LIMMAX
 10
12411.78847137652
 20
7937.166326973588
  9
$ORTHOMODE
 70
     0
  9
$REGENMODE
 70
     1
  9
$FILLMODE
 70
     1
  9
$QTEXTMODE
 70
     0
  9
$MIRRTEXT
 70
     0
  9
$LTSCALE
 40
20.0
  9
$ATTMODE
 70
     1
  9
$TEXTSIZE
 40
60.0
  9
$TRACEWID
 40
0.05
  9
$TEXTSTYLE
  7
STANDARD
  9
$CLAYER
  8
0
  9
$CELTYPE
  6
BYLAYER
  9
$CECOLOR
 62
   256
  9
$CELTSCALE
 40
1.0
  9
$DISPSILH
 70
     0
  9
$DIMSCALE
 40
20.0
  9
$DIMASZ
 40
1.0
  9
$DIMEXO
 40
2.0
  9
$DIMDLI
 40
0.38
  9
$DIMRND
 40
0.0
  9
$DIMDLE
 40
0.0
  9
$DIMEXE
 40
3.0
  9
$DIMTP
 40
0.0
  9
$DIMTM
 40
0.0
  9
$DIMTXT
 40
3.0
  9
$DIMCEN
 40
0.09
  9
$DIMTSZ
 40
0.0
  9
$DIMTOL
 70
     0
  9
$DIMLIM
 70
     0
  9
$DIMTIH
 70
     0
  9
$DIMTOH
 70
     0
  9
$DIMSE1
 70
     0
  9
$DIMSE2
 70
     0
  9
$DIMTAD
 70
     1
  9
$DIMZIN
 70
     8
  9
$DIMBLK
  1
OPEN30
  9
$DIMASO
 70
     1
  9
$DIMSHO
 70
     0
  9
$DIMPOST
  1

  9
$DIMAPOST
  1

  9
$DIMALT
 70
     0
  9
$DIMALTD
 70
     3
  9
$DIMALTF
 40
0.03937007874016
  9
$DIMLFAC
 40
1.0
  9
$DIMTOFL
 70
     1
  9
$DIMTVP
 40
0.0
  9
$DIMTIX
 70
     0
  9
$DIMSOXD
 70
     0
  9
$DIMSAH
 70
     0
  9
$DIMBLK1
  1

  9
$DIMBLK2
  1

  9
$DIMSTYLE
  2
1-20
  9
$DIMCLRD
 70
     0
  9
$DIMCLRE
 70
     0
  9
$DIMCLRT
 70
     0
  9
$DIMTFAC
 40
1.0
  9
$DIMGAP
 40
1.7
  9
$DIMJUST
 70
     0
  9
$DIMSD1
 70
     0
  9
$DIMSD2
 70
     0
  9
$DIMTOLJ
 70
     0
  9
$DIMTZIN
 70
     8
  9
$DIMALTZ
 70
     0
  9
$DIMALTTZ
 70
     0
  9
$DIMUPT
 70
     0
  9
$DIMDEC
 70
     1
  9
$DIMTDEC
 70
     1
  9
$DIMALTU
 70
     2
  9
$DIMALTTD
 70
     3
  9
$DIMTXSTY
  7
STANDARD
  9
$DIMAUNIT
 70
     0
  9
$DIMADEC
 70
     0
  9
$DIMALTRND
 40
0.0
  9
$DIMAZIN
 70
     2
  9
$DIMDSEP
 70
    46
  9
$DIMATFIT
 70
     3
  9
$DIMFRAC
 70
     0
  9
$DIMLDRBLK
  1
OPEN30
  9
$DIMLUNIT
 70
     2
  9
$DIMLWD
 70
    -2
  9
$DIMLWE
 70
    -2
  9
$DIMTMOVE
 70
     0
  9
$LUNITS
 70
     2
  9
$LUPREC
 70
     4
  9
$SKETCHINC
 40
0.1
  9
$FILLETRAD
 40
0.0
  9
$AUNITS
 70
     0
  9
$AUPREC
 70
     0
  9
$MENU
  1
.
  9
$ELEVATION
 40
0.0
  9
$PELEVATION
 40
0.0
  9
$THICKNESS
 40
0.0
  9
$LIMCHECK
 70
     0
  9
$CHAMFERA
 40
0.0
  9
$CHAMFERB
 40
0.0
  9
$CHAMFERC
 40
0.0
  9
$CHAMFERD
 40
0.0
  9
$SKPOLY
 70
     0
  9
$TDCREATE
 40
2455237.506937211
  9
$TDUCREATE
 40
2455237.131937210
  9
$TDUPDATE
 40
2457892.704415648
  9
$TDUUPDATE
 40
2457892.329415649
  9
$TDINDWG
 40
0.0353901389
  9
$TDUSRTIMER
 40
0.0353901389
  9
$USRTIMER
 70
     1
  9
$ANGBASE
 50
0.0
  9
$ANGDIR
 70
     0
  9
$PDMODE
 70
     0
  9
$PDSIZE
 40
0.0
  9
$PLINEWID
 40
0.0
  9
$SPLFRAME
 70
     0
  9
$SPLINETYPE
 70
     6
  9
$SPLINESEGS
 70
     8
  9
$HANDSEED
  5
1147
  9
$SURFTAB1
 70
     6
  9
$SURFTAB2
 70
     6
  9
$SURFTYPE
 70
     6
  9
$SURFU
 70
     6
  9
$SURFV
 70
     6
  9
$UCSBASE
  2

  9
$UCSNAME
  2

  9
$UCSORG
 10
0.0
 20
0.0
 30
0.0
  9
$UCSXDIR
 10
1.0
 20
0.0
 30
0.0
  9
$UCSYDIR
 10
0.0
 20
1.0
 30
0.0
  9
$UCSORTHOREF
  2

  9
$UCSORTHOVIEW
 70
     0
  9
$UCSORGTOP
 10
0.0
 20
0.0
 30
0.0
  9
$UCSORGBOTTOM
 10
0.0
 20
0.0
 30
0.0
  9
$UCSORGLEFT
 10
0.0
 20
0.0
 30
0.0
  9
$UCSORGRIGHT
 10
0.0
 20
0.0
 30
0.0
  9
$UCSORGFRONT
 10
0.0
 20
0.0
 30
0.0
  9
$UCSORGBACK
 10
0.0
 20
0.0
 30
0.0
  9
$PUCSBASE
  2

  9
$PUCSNAME
  2

  9
$PUCSORG
 10
0.0
 20
0.0
 30
0.0
  9
$PUCSXDIR
 10
1.0
 20
0.0
 30
0.0
  9
$PUCSYDIR
 10
0.0
 20
1.0
 30
0.0
  9
$PUCSORTHOREF
  2

  9
$PUCSORTHOVIEW
 70
     0
  9
$PUCSORGTOP
 10
0.0
 20
0.0
 30
0.0
  9
$PUCSORGBOTTOM
 10
0.0
 20
0.0
 30
0.0
  9
$PUCSORGLEFT
 10
0.0
 20
0.0
 30
0.0
  9
$PUCSORGRIGHT
 10
0.0
 20
0.0
 30
0.0
  9
$PUCSORGFRONT
 10
0.0
 20
0.0
 30
0.0
  9
$PUCSORGBACK
 10
0.0
 20
0.0
 30
0.0
  9
$USERI1
 70
     0
  9
$USERI2
 70
     0
  9
$USERI3
 70
     0
  9
$USERI4
 70
     0
  9
$USERI5
 70
     0
  9
$USERR1
 40
0.0
  9
$USERR2
 40
0.0
  9
$USERR3
 40
0.0
  9
$USERR4
 40
0.0
  9
$USERR5
 40
0.0
  9
$WORLDVIEW
 70
     1
  9
$SHADEDGE
 70
     3
  9
$SHADEDIF
 70
    70
  9
$TILEMODE
 70
     1
  9
$MAXACTVP
 70
    64
  9
$PINSBASE
 10
0.0
 20
0.0
 30
0.0
  9
$PLIMCHECK
 70
     0
  9
$PEXTMIN
 10
-144.1413879999999
 20
-67.98339799999999
 30
0.0
  9
$PEXTMAX
 10
277.858612
 20
231.016602
 30
0.0
  9
$PLIMMIN
 10
-144.1413879999999
 20
-67.98339799999999
  9
$PLIMMAX
 10
277.858612
 20
231.016602
  9
$UNITMODE
 70
     0
  9
$VISRETAIN
 70
     1
  9
$PLINEGEN
 70
     0
  9
$PSLTSCALE
 70
     1
  9
$TREEDEPTH
 70
  3020
  9
$CMLSTYLE
  2
STANDARD
  9
$CMLJUST
 70
     0
  9
$CMLSCALE
 40
1.0
  9
$PROXYGRAPHICS
 70
     1
  9
$MEASUREMENT
 70
     1
  9
$CELWEIGHT
370
    -1
  9
$ENDCAPS
280
     0
  9
$JOINSTYLE
280
     0
  9
$LWDISPLAY
290
     0
  9
$INSUNITS
 70
     0
  9
$HYPERLINKBASE
  1

  9
$STYLESHEET
  1
monochrome.ctb
  9
$XEDIT
290
     1
  9
$CEPSNTYPE
380
     0
  9
$PSTYLEMODE
290
     1
  9
$FINGERPRINTGUID
  2
{390A147B-AACD-4045-B5C8-359D9C0717A1}
  9
$VERSIONGUID
  2
{7F2556D8-8CC6-4AFE-92FE-92731E20DC99}
  9
$EXTNAMES
290
     1
  9
$PSVPSCALE
 40
0.0
  9
$OLESTARTUP
290
     0
  9
$SORTENTS
280
   127
  9
$INDEXCTL
280
     0
  9
$HIDETEXT
280
     0
  9
$XCLIPFRAME
290
     0
  9
$HALOGAP
280
     0
  9
$OBSCOLOR
 70
   257
  9
$OBSLTYPE
280
     0
  9
$INTERSECTIONDISPLAY
280
     0
  9
$INTERSECTIONCOLOR
 70
   257
  9
$DIMASSOC
280
     1
  9
$PROJECTNAME
  1

  0
ENDSEC
  0
SECTION
  2
CLASSES
  0
CLASS
  1
ACDBDICTIONARYWDFLT
  2
AcDbDictionaryWithDefault
  3
ObjectDBX Classes
 90
        0
 91
        1
280
     0
281
     0
  0
CLASS
  1
TABLESTYLE
  2
AcDbTableStyle
  3
ObjectDBX Classes
 90
     2047
 91
        1
280
     0
281
     0
  0
CLASS
  1
SORTENTSTABLE
  2
AcDbSortentsTable
  3
ObjectDBX Classes
 90
        0
 91
        9
280
     0
281
     0
  0
CLASS
  1
DICTIONARYVAR
  2
AcDbDictionaryVar
  3
ObjectDBX Classes
 90
        0
 91
        1
280
     0
281
     0
  0
ENDSEC
  0
SECTION
  2
TABLES
  0
TABLE
  2
VPORT
  5
106
330
0
100
AcDbSymbolTable
 70
    13
  0
VPORT
  5
1146
330
106
100
AcDbSymbolTableRecord
100
AcDbViewportTableRecord
  2
*Active
 70
     0
 10
0.0
 20
0.0
 11
1.0
 21
1.0
 12
8802.251165864221
 22
5310.733141811756
 13
0.0
 23
0.0
 14
1.0
 24
1.0
 15
0.0
 25
0.0
 16
0.0
 26
0.0
 36
1.0
 17
0.0
 27
0.0
 37
0.0
 40
7224.615608574208
 41
1.822085889570552
 42
50.0
 43
0.0
 44
0.0
 50
0.0
 51
0.0
 71
     0
 72
  1000
 73
     1
 74
     3
 75
     0
 76
     0
 77
     0
 78
     0
281
     0
 65
     1
110
0.0
120
0.0
130
0.0
111
1.0
121
0.0
131
0.0
112
0.0
122
1.0
132
0.0
 79
     0
146
0.0
  0
ENDTAB
  0
TABLE
  2
LTYPE
  5
25
330
0
100
AcDbSymbolTable
 70
     3
  0
LTYPE
  5
26
330
25
100
AcDbSymbolTableRecord
100
AcDbLinetypeTableRecord
  2
BYBLOCK
 70
     0
  3

 72
    65
 73
     0
 40
0.0
  0
LTYPE
  5
27
330
25
100
AcDbSymbolTableRecord
100
AcDbLinetypeTableRecord
  2
BYLAYER
 70
     0
  3

 72
    65
 73
     0
 40
0.0
  0
LTYPE
  5
28
330
25
100
AcDbSymbolTableRecord
100
AcDbLinetypeTableRecord
  2
CONTINUOUS
 70
     0
  3
Solid line
 72
    65
 73
     0
 40
0.0
  0
LTYPE
  5
29
330
25
100
AcDbSymbolTableRecord
100
AcDbLinetypeTableRecord
  2
DASHED
 70
     0
  3
Dashed __ __ __ __ __ __ __ __ __ __ __ __ __ _
 72
    65
 73
     2
 40
4.5
 49
3.0
 74
     0
 49
-1.5
 74
     0
  0
LTYPE
  5
2A
330
25
100
AcDbSymbolTableRecord
100
AcDbLinetypeTableRecord
  2
CENTER
 70
     0
  3
Center ____ _ ____ _ ____ _ ____ _ ____ _ ____
 72
    65
 73
     4
 40
12.0
 49
7.5
 74
     0
 49
-1.5
 74
     0
 49
1.5
 74
     0
 49
-1.5
 74
     0
  0
ENDTAB
  0
TABLE
  2
LAYER
  5
C8
102
{ACAD_XDICTIONARY
360
5B5
102
}
330
0
100
AcDbSymbolTable
 70
     5
  0
LAYER
  5
C9
330
C8
100
AcDbSymbolTableRecord
100
AcDbLayerTableRecord
  2
0
 70
     0
 62
     7
  6
CONTINUOUS
370
    -3
390
4FA
  0
LAYER
  5
CD
330
C8
100
AcDbSymbolTableRecord
100
AcDbLayerTableRecord
  2
DEFPOINTS
 70
     0
 62
     7
  6
CONTINUOUS
290
     0
370
    -3
390
4FA
  0
LAYER
  5
899
330
C8
100
AcDbSymbolTableRecord
100
AcDbLayerTableRecord
  2
3
 70
     0
 62
     7
  6
CONTINUOUS
370
    -3
390
4FA
  0
LAYER
  5
89A
330
C8
100
AcDbSymbolTableRecord
100
AcDbLayerTableRecord
  2
寸法線
 70
     0
 62
     8
  6
CONTINUOUS
370
    -3
390
4FA
1001
AcAecLayerStandard
1000

1000

  0
LAYER
  5
CC2
330
C8
100
AcDbSymbolTableRecord
100
AcDbLayerTableRecord
  2
2
 70
     0
 62
     7
  6
CONTINUOUS
370
    -3
390
4FA
  0
ENDTAB
  0
TABLE
  2
STYLE
  5
CE
330
0
100
AcDbSymbolTable
 70
     3
  0
STYLE
  5
23
330
CE
100
AcDbSymbolTableRecord
100
AcDbTextStyleTableRecord
  2
STANDARD
 70
     0
 40
0.0
 41
1.0
 50
0.0
 71
     0
 42
60.0
  3
txt.shx
  4
extfont.shx
  0
ENDTAB
  0
TABLE
  2
VIEW
  5
D3
330
0
100
AcDbSymbolTable
 70
     0
  0
ENDTAB
  0
TABLE
  2
UCS
  5
D4
330
0
100
AcDbSymbolTable
 70
     0
  0
ENDTAB
  0
TABLE
  2
APPID
  5
D1
330
0
100
AcDbSymbolTable
 70
     4
  0
APPID
  5
D2
330
D1
100
AcDbSymbolTableRecord
100
AcDbRegAppTableRecord
  2
ACAD
 70
     0
  0
APPID
  5
5B3
330
D1
100
AcDbSymbolTableRecord
100
AcDbRegAppTableRecord
  2
ACAD_PSEXT
 70
     0
  0
APPID
  5
7A4
330
D1
100
AcDbSymbolTableRecord
100
AcDbRegAppTableRecord
  2
ACAD_DSTYLE_DIMTEXT_FILL
 70
     0
  0
APPID
  5
89B
330
D1
100
AcDbSymbolTableRecord
100
AcDbRegAppTableRecord
  2
AcAecLayerStandard
 70
     0
  0
ENDTAB
  0
TABLE
  2
DIMSTYLE
  5
CF
330
0
100
AcDbSymbolTable
 70
     4
100
AcDbDimStyleTable
 71
     2
340
5AF
340
BD4
  0
DIMSTYLE
105
5AF
102
{ACAD_REACTORS
330
8F5
330
8F6
330
90A
330
90B
330
90C
330
90D
330
90F
330
911
330
916
330
A13
330
A20
330
A2D
330
A3A
330
A47
330
AE0
330
B14
102
}
330
CF
100
AcDbSymbolTableRecord
100
AcDbDimStyleTableRecord
  2
1-20
 70
     0
 40
20.0
 41
1.0
 42
2.0
 44
3.0
 73
     0
 74
     0
 77
     1
 78
     8
 79
     2
140
3.0
143
0.03937007874016
147
1.7
171
     3
172
     1
271
     1
272
     1
274
     3
283
     0
284
     8
340
23
341
D9
342
D9
  0
DIMSTYLE
105
BD4
102
{ACAD_REACTORS
330
BF5
330
BF6
330
BF8
330
BF9
330
BFA
330
BFB
330
EE3
330
F6E
330
10E2
330
110F
102
}
330
CF
100
AcDbSymbolTableRecord
100
AcDbDimStyleTableRecord
  2
1-25
 70
     0
 40
25.0
 41
3.0
 42
2.0
 44
3.0
 73
     0
 74
     0
 77
     1
 78
     8
 79
     2
140
3.0
145
1.0
147
1.700000047683715
172
     1
271
     1
272
     1
340
23
341
1056
342
1056
  0
ENDTAB
  0
TABLE
  2
BLOCK_RECORD
  5
D5
330
0
100
AcDbSymbolTable
 70
    52
  0
BLOCK_RECORD
  5
D6
102
{ACAD_XDICTIONARY
360
A68
102
}
330
D5
100
AcDbSymbolTableRecord
100
AcDbBlockTableRecord
  2
*MODEL_SPACE
340
501
  0
BLOCK_RECORD
  5
D7
330
D5
100
AcDbSymbolTableRecord
100
AcDbBlockTableRecord
  2
*PAPER_SPACE
340
502
  0
BLOCK_RECORD
  5
D9
330
D5
100
AcDbSymbolTableRecord
100
AcDbBlockTableRecord
  2
_OPEN30
340
0
102
{BLKREFS
331
9DD
331
9DE
331
9E6
331
9E7
331
9EF
331
9F0
331
9FA
331
9FB
331
A05
331
A06
331
A18
331
A19
331
A25
331
A26
331
A32
331
A33
331
A3F
331
A40
331
A85
331
A86
331
AAB
331
AAC
331
AEB
331
B2D
331
B2E
331
B8F
331
B90
331
B9D
331
B9E
331
BA9
331
BAA
331
BB5
331
BB6
331
BC1
331
BC2
331
BCD
331
BCE
331
CBD
331
CBE
331
ED3
331
ED4
331
EFF
331
F00
331
F0B
331
F0C
331
F17
331
F18
331
F23
331
F24
331
FAD
331
FAE
331
FB6
331
FB7
331
FBF
331
FC0
102
}
  0
BLOCK_RECORD
  5
918
330
D5
100
AcDbSymbolTableRecord
100
AcDbBlockTableRecord
  2
*D1
340
0
  0
BLOCK_RECORD
  5
924
330
D5
100
AcDbSymbolTableRecord
100
AcDbBlockTableRecord
  2
*D2
340
0
  0
BLOCK_RECORD
  5
930
330
D5
100
AcDbSymbolTableRecord
100
AcDbBlockTableRecord
  2
*D3
340
0
  0
BLOCK_RECORD
  5
93C
330
D5
100
AcDbSymbolTableRecord
100
AcDbBlockTableRecord
  2
*D4
340
0
  0
BLOCK_RECORD
  5
94A
330
D5
100
AcDbSymbolTableRecord
100
AcDbBlockTableRecord
  2
*D5
340
0
  0
BLOCK_RECORD
  5
A14
330
D5
100
AcDbSymbolTableRecord
100
AcDbBlockTableRecord
  2
*D6
340
0
  0
BLOCK_RECORD
  5
A21
330
D5
100
AcDbSymbolTableRecord
100
AcDbBlockTableRecord
  2
*D7
340
0
  0
BLOCK_RECORD
  5
A2E
330
D5
100
AcDbSymbolTableRecord
100
AcDbBlockTableRecord
  2
*D8
340
0
  0
BLOCK_RECORD
  5
A3B
330
D5
100
AcDbSymbolTableRecord
100
AcDbBlockTableRecord
  2
*D9
340
0
  0
BLOCK_RECORD
  5
A48
330
D5
100
AcDbSymbolTableRecord
100
AcDbBlockTableRecord
  2
*D10
340
0
  0
BLOCK_RECORD
  5
A93
330
D5
100
AcDbSymbolTableRecord
100
AcDbBlockTableRecord
  2
*D11
340
0
  0
BLOCK_RECORD
  5
AC7
330
D5
100
AcDbSymbolTableRecord
100
AcDbBlockTableRecord
  2
_DotSmall
340
0
  0
BLOCK_RECORD
  5
AE1
330
D5
100
AcDbSymbolTableRecord
100
AcDbBlockTableRecord
  2
*D13
340
0
  0
BLOCK_RECORD
  5
B15
330
D5
100
AcDbSymbolTableRecord
100
AcDbBlockTableRecord
  2
*D14
340
0
  0
BLOCK_RECORD
  5
B8A
330
D5
100
AcDbSymbolTableRecord
100
AcDbBlockTableRecord
  2
*D15
340
0
  0
BLOCK_RECORD
  5
B96
330
D5
100
AcDbSymbolTableRecord
100
AcDbBlockTableRecord
  2
*D16
340
0
  0
BLOCK_RECORD
  5
BA4
330
D5
100
AcDbSymbolTableRecord
100
AcDbBlockTableRecord
  2
*D17
340
0
  0
BLOCK_RECORD
  5
BB0
330
D5
100
AcDbSymbolTableRecord
100
AcDbBlockTableRecord
  2
*D18
340
0
  0
BLOCK_RECORD
  5
BBC
330
D5
100
AcDbSymbolTableRecord
100
AcDbBlockTableRecord
  2
*D19
340
0
  0
BLOCK_RECORD
  5
BC8
330
D5
100
AcDbSymbolTableRecord
100
AcDbBlockTableRecord
  2
*D20
340
0
  0
BLOCK_RECORD
  5
C35
330
D5
100
AcDbSymbolTableRecord
100
AcDbBlockTableRecord
  2
*D22
340
0
  0
BLOCK_RECORD
  5
C41
330
D5
100
AcDbSymbolTableRecord
100
AcDbBlockTableRecord
  2
*D23
340
0
  0
BLOCK_RECORD
  5
C4F
330
D5
100
AcDbSymbolTableRecord
100
AcDbBlockTableRecord
  2
*D24
340
0
  0
BLOCK_RECORD
  5
C5B
330
D5
100
AcDbSymbolTableRecord
100
AcDbBlockTableRecord
  2
*D25
340
0
  0
BLOCK_RECORD
  5
C67
330
D5
100
AcDbSymbolTableRecord
100
AcDbBlockTableRecord
  2
*D26
340
0
  0
BLOCK_RECORD
  5
C73
330
D5
100
AcDbSymbolTableRecord
100
AcDbBlockTableRecord
  2
*D27
340
0
  0
BLOCK_RECORD
  5
CB7
330
D5
100
AcDbSymbolTableRecord
100
AcDbBlockTableRecord
  2
*D28
340
0
  0
BLOCK_RECORD
  5
D17
330
D5
100
AcDbSymbolTableRecord
100
AcDbBlockTableRecord
  2
*D30
340
0
  0
BLOCK_RECORD
  5
ECD
330
D5
100
AcDbSymbolTableRecord
100
AcDbBlockTableRecord
  2
*D31
340
0
  0
BLOCK_RECORD
  5
EE4
330
D5
100
AcDbSymbolTableRecord
100
AcDbBlockTableRecord
  2
*D33
340
0
  0
BLOCK_RECORD
  5
EF8
330
D5
100
AcDbSymbolTableRecord
100
AcDbBlockTableRecord
  2
*D34
340
0
  0
BLOCK_RECORD
  5
F06
330
D5
100
AcDbSymbolTableRecord
100
AcDbBlockTableRecord
  2
*D35
340
0
  0
BLOCK_RECORD
  5
F12
330
D5
100
AcDbSymbolTableRecord
100
AcDbBlockTableRecord
  2
*D36
340
0
  0
BLOCK_RECORD
  5
F1E
330
D5
100
AcDbSymbolTableRecord
100
AcDbBlockTableRecord
  2
*D37
340
0
  0
BLOCK_RECORD
  5
F76
330
D5
100
AcDbSymbolTableRecord
100
AcDbBlockTableRecord
  2
*D39
340
0
  0
BLOCK_RECORD
  5
F84
330
D5
100
AcDbSymbolTableRecord
100
AcDbBlockTableRecord
  2
*D40
340
0
  0
BLOCK_RECORD
  5
F90
330
D5
100
AcDbSymbolTableRecord
100
AcDbBlockTableRecord
  2
*D41
340
0
  0
BLOCK_RECORD
  5
F9C
330
D5
100
AcDbSymbolTableRecord
100
AcDbBlockTableRecord
  2
*D42
340
0
  0
BLOCK_RECORD
  5
1056
330
D5
100
AcDbSymbolTableRecord
100
AcDbBlockTableRecord
  2
_Open
340
0
102
{BLKREFS
331
1078
331
1079
331
1083
331
1084
331
108C
331
108D
331
1095
331
1096
331
109E
331
109F
331
10A7
331
10A8
331
10B1
331
10B2
331
10B9
331
10BA
331
10C0
331
10C1
331
10D4
331
10D5
331
10F2
331
10F3
331
1101
331
1102
331
112E
331
112F
102
}
  0
BLOCK_RECORD
  5
10CF
330
D5
100
AcDbSymbolTableRecord
100
AcDbBlockTableRecord
  2
*D44
340
0
  0
BLOCK_RECORD
  5
10E3
330
D5
100
AcDbSymbolTableRecord
100
AcDbBlockTableRecord
  2
*D46
340
0
  0
BLOCK_RECORD
  5
10FA
330
D5
100
AcDbSymbolTableRecord
100
AcDbBlockTableRecord
  2
*D47
340
0
  0
BLOCK_RECORD
  5
1110
330
D5
100
AcDbSymbolTableRecord
100
AcDbBlockTableRecord
  2
*D49
340
0
  0
ENDTAB
  0
ENDSEC
  0
SECTION
  2
BLOCKS
  0
BLOCK
  5
107
330
D6
100
AcDbEntity
  8
0
100
AcDbBlockBegin
  2
*MODEL_SPACE
 70
     0
 10
0.0
 20
0.0
 30
0.0
  3
*MODEL_SPACE
  1

  0
ENDBLK
  5
108
330
D6
100
AcDbEntity
  8
0
100
AcDbBlockEnd
  0
BLOCK
  5
109
330
D7
100
AcDbEntity
 67
     1
  8
0
100
AcDbBlockBegin
  2
*PAPER_SPACE
 70
     0
 10
0.0
 20
0.0
 30
0.0
  3
*PAPER_SPACE
  1

  0
ENDBLK
  5
10A
330
D7
100
AcDbEntity
 67
     1
  8
0
100
AcDbBlockEnd
  0
BLOCK
  5
10E
330
D9
100
AcDbEntity
  8
0
100
AcDbBlockBegin
  2
_OPEN30
 70
     0
 10
0.0
 20
0.0
 30
0.0
  3
_OPEN30
  1

  0
LINE
  5
10F
330
D9
100
AcDbEntity
  8
0
  6
ByBlock
 62
     0
100
AcDbLine
 10
0.0
 20
0.0
 30
0.0
 11
-2.999999954944513
 21
-0.9999999849815248
 31
0.0
  0
LINE
  5
110
330
D9
100
AcDbEntity
  8
0
  6
ByBlock
 62
     0
100
AcDbLine
 10
0.0
 20
0.0
 30
0.0
 11
-2.999999954944526
 21
0.9999999849814884
 31
0.0
  0
LINE
  5
111
330
D9
100
AcDbEntity
  8
0
  6
ByBlock
 62
     0
100
AcDbLine
 10
0.0
 20
0.0
 30
0.0
 11
-2.99999995494452
 21
0.0
 31
0.0
  0
ENDBLK
  5
112
330
D9
100
AcDbEntity
  8
0
100
AcDbBlockEnd
  0
BLOCK
  5
922
330
918
100
AcDbEntity
  8
0
 48
20.0
100
AcDbBlockBegin
  2
*D1
 70
     1
 10
0.0
 20
0.0
 30
0.0
  3
*D1
  1

  0
LINE
  5
9DA
330
918
100
AcDbEntity
  8
寸法線
 62
     0
 48
20.0
370
    -2
100
AcDbLine
 10
11575.62061353701
 20
5460.393223772306
 30
0.0
 11
11873.36409973938
 21
5460.393223772306
 31
0.0
  0
LINE
  5
9DB
330
918
100
AcDbEntity
  8
寸法線
 62
     0
 48
20.0
370
    -2
100
AcDbLine
 10
11575.620613537
 20
5130.393221313614
 30
0.0
 11
11873.36409973938
 21
5130.393221313614
 31
0.0
  0
LINE
  5
9DC
330
918
100
AcDbEntity
  8
寸法線
 62
     0
 48
20.0
370
    -2
100
AcDbLine
 10
11813.36409973938
 20
5440.393223772305
 30
0.0
 11
11813.36409973938
 21
5150.393221313613
 31
0.0
  0
INSERT
  5
9DD
330
918
100
AcDbEntity
  8
寸法線
 62
     0
 48
20.0
370
    -2
100
AcDbBlockReference
  2
_OPEN30
 10
11813.36409973938
 20
5460.393223772306
 30
0.0
 41
20.0
 42
20.0
 43
20.0
 50
90.0
  0
INSERT
  5
9DE
330
918
100
AcDbEntity
  8
寸法線
 62
     0
 48
20.0
370
    -2
100
AcDbBlockReference
  2
_OPEN30
 10
11813.36409973938
 20
5130.393221313614
 30
0.0
 41
20.0
 42
20.0
 43
20.0
 50
270.0
  0
MTEXT
  5
9DF
330
918
100
AcDbEntity
  8
寸法線
 62
     0
 48
20.0
100
AcDbMText
 10
11749.36409973938
 20
5295.393222542962
 30
0.0
 40
60.0
 41
0.0
 71
     5
 72
     1
  1
110
 11
0.0000000000000001
 21
1.0
 31
0.0
 73
     1
 44
1.0
  0
POINT
  5
9E0
330
918
100
AcDbEntity
  8
DEFPOINTS
 62
     0
 48
20.0
100
AcDbPoint
 10
11535.62061353701
 20
5460.393223772306
 30
0.0
  0
POINT
  5
9E1
330
918
100
AcDbEntity
  8
DEFPOINTS
 62
     0
 48
20.0
100
AcDbPoint
 10
11535.620613537
 20
5130.393221313614
 30
0.0
  0
POINT
  5
9E2
330
918
100
AcDbEntity
  8
DEFPOINTS
 62
     0
 48
20.0
100
AcDbPoint
 10
11813.36409973938
 20
5130.393221313614
 30
0.0
  0
ENDBLK
  5
923
330
918
100
AcDbEntity
  8
0
 48
20.0
100
AcDbBlockEnd
  0
BLOCK
  5
92E
330
924
100
AcDbEntity
  8
0
 48
20.0
100
AcDbBlockBegin
  2
*D2
 70
     1
 10
0.0
 20
0.0
 30
0.0
  3
*D2
  1

  0
LINE
  5
9E3
330
924
100
AcDbEntity
  8
寸法線
 62
     0
 48
20.0
370
    -2
100
AcDbLine
 10
11518.62061268763
 20
5070.393220419555
 30
0.0
 11
12030.14931036465
 21
5070.393220419555
 31
0.0
  0
LINE
  5
9E4
330
924
100
AcDbEntity
  8
寸法線
 62
     0
 48
20.0
370
    -2
100
AcDbLine
 10
11518.62061268763
 20
5520.393227125072
 30
0.0
 11
12030.14931036465
 21
5520.393227125072
 31
0.0
  0
LINE
  5
9E5
330
924
100
AcDbEntity
  8
寸法線
 62
     0
 48
20.0
370
    -2
100
AcDbLine
 10
11970.14931036465
 20
5090.393220419556
 30
0.0
 11
11970.14931036465
 21
5500.393227125073
 31
0.0
  0
INSERT
  5
9E6
330
924
100
AcDbEntity
  8
寸法線
 62
     0
 48
20.0
370
    -2
100
AcDbBlockReference
  2
_OPEN30
 10
11970.14931036465
 20
5070.393220419555
 30
0.0
 41
20.0
 42
20.0
 43
20.0
 50
270.0
  0
INSERT
  5
9E7
330
924
100
AcDbEntity
  8
寸法線
 62
     0
 48
20.0
370
    -2
100
AcDbBlockReference
  2
_OPEN30
 10
11970.14931036465
 20
5520.393227125072
 30
0.0
 41
20.0
 42
20.0
 43
20.0
 50
90.0
  0
MTEXT
  5
9E8
330
924
100
AcDbEntity
  8
寸法線
 62
     0
 48
20.0
100
AcDbMText
 10
11906.14931036465
 20
5295.393223772316
 30
0.0
 40
60.0
 41
0.0
 71
     5
 72
     1
  1
150
 11
0.0000000000000001
 21
1.0
 31
0.0
 73
     1
 44
1.0
  0
POINT
  5
9E9
330
924
100
AcDbEntity
  8
DEFPOINTS
 62
     0
 48
20.0
100
AcDbPoint
 10
11478.62061268763
 20
5070.393220419555
 30
0.0
  0
POINT
  5
9EA
330
924
100
AcDbEntity
  8
DEFPOINTS
 62
     0
 48
20.0
100
AcDbPoint
 10
11478.62061268763
 20
5520.393227125072
 30
0.0
  0
POINT
  5
9EB
330
924
100
AcDbEntity
  8
DEFPOINTS
 62
     0
 48
20.0
100
AcDbPoint
 10
11970.14931036465
 20
5520.393227125072
 30
0.0
  0
ENDBLK
  5
92F
330
924
100
AcDbEntity
  8
0
 48
20.0
100
AcDbBlockEnd
  0
BLOCK
  5
93A
330
930
100
AcDbEntity
  8
0
 48
20.0
100
AcDbBlockBegin
  2
*D3
 70
     1
 10
0.0
 20
0.0
 30
0.0
  3
*D3
  1

  0
LINE
  5
9EC
330
930
100
AcDbEntity
  8
寸法線
 62
     0
 48
20.0
370
    -2
100
AcDbLine
 10
11308.57194458479
 20
4651.640093418537
 30
0.0
 11
11308.57194458479
 21
4792.205282217053
 31
0.0
  0
LINE
  5
9ED
330
930
100
AcDbEntity
  8
寸法線
 62
     0
 48
20.0
370
    -2
100
AcDbLine
 10
11530.57194789285
 20
4651.640093418537
 30
0.0
 11
11530.57194789285
 21
4792.205282217053
 31
0.0
  0
LINE
  5
9EE
330
930
100
AcDbEntity
  8
寸法線
 62
     0
 48
20.0
370
    -2
100
AcDbLine
 10
11328.57194458479
 20
4732.205282217053
 30
0.0
 11
11510.57194789285
 21
4732.205282217053
 31
0.0
  0
INSERT
  5
9EF
330
930
100
AcDbEntity
  8
寸法線
 62
     0
 48
20.0
370
    -2
100
AcDbBlockReference
  2
_OPEN30
 10
11308.57194458479
 20
4732.205282217053
 30
0.0
 41
20.0
 42
20.0
 43
20.0
 50
180.0
  0
INSERT
  5
9F0
330
930
100
AcDbEntity
  8
寸法線
 62
     0
 48
20.0
370
    -2
100
AcDbBlockReference
  2
_OPEN30
 10
11530.57194789285
 20
4732.205282217053
 30
0.0
 41
20.0
 42
20.0
 43
20.0
  0
MTEXT
  5
9F1
330
930
100
AcDbEntity
  8
寸法線
 62
     0
 48
20.0
100
AcDbMText
 10
11419.57194623882
 20
4796.205282217053
 30
0.0
 40
60.0
 41
0.0
 71
     5
 72
     1
  1
74
 73
     1
 44
1.0
  0
POINT
  5
9F2
330
930
100
AcDbEntity
  8
DEFPOINTS
 62
     0
 48
20.0
100
AcDbPoint
 10
11308.57194458479
 20
4611.640093418537
 30
0.0
  0
POINT
  5
9F3
330
930
100
AcDbEntity
  8
DEFPOINTS
 62
     0
 48
20.0
100
AcDbPoint
 10
11530.57194789285
 20
4611.640093418537
 30
0.0
  0
POINT
  5
9F4
330
930
100
AcDbEntity
  8
DEFPOINTS
 62
     0
 48
20.0
100
AcDbPoint
 10
11530.57194789285
 20
4732.205282217053
 30
0.0
  0
ENDBLK
  5
93B
330
930
100
AcDbEntity
  8
0
 48
20.0
100
AcDbBlockEnd
  0
BLOCK
  5
948
330
93C
100
AcDbEntity
  8
0
 48
20.0
100
AcDbBlockBegin
  2
*D4
 70
     1
 10
0.0
 20
0.0
 30
0.0
  3
*D4
  1

  0
LINE
  5
9F5
330
93C
100
AcDbEntity
  8
寸法線
 62
     0
 48
20.0
370
    -2
100
AcDbLine
 10
11570.57194789285
 20
4524.640092122136
 30
0.0
 11
11804.91783176203
 21
4524.640092122136
 31
0.0
  0
LINE
  5
9F6
330
93C
100
AcDbEntity
  8
寸法線
 62
     0
 48
20.0
370
    -2
100
AcDbLine
 10
11570.57194789285
 20
4611.640093418537
 30
0.0
 11
11804.91783176203
 21
4611.640093418537
 31
0.0
  0
LINE
  5
9F7
330
93C
100
AcDbEntity
  8
寸法線
 62
     0
 48
20.0
370
    -2
100
AcDbLine
 10
11744.91783176203
 20
4504.640092122135
 30
0.0
 11
11744.91783176203
 21
4484.640092122136
 31
0.0
  0
LINE
  5
9F8
330
93C
100
AcDbEntity
  8
寸法線
 62
     0
 48
20.0
370
    -2
100
AcDbLine
 10
11744.91783176203
 20
4631.640093418536
 30
0.0
 11
11744.91783176203
 21
4819.640093418537
 31
0.0
  0
LINE
  5
9F9
330
93C
100
AcDbEntity
  8
寸法線
 62
     0
 48
20.0
370
    -2
100
AcDbLine
 10
11744.91783176203
 20
4524.640092122136
 30
0.0
 11
11744.91783176203
 21
4611.640093418537
 31
0.0
  0
INSERT
  5
9FA
330
93C
100
AcDbEntity
  8
寸法線
 62
     0
 48
20.0
370
    -2
100
AcDbBlockReference
  2
_OPEN30
 10
11744.91783176203
 20
4524.640092122136
 30
0.0
 41
20.0
 42
20.0
 43
20.0
 50
90.0
  0
INSERT
  5
9FB
330
93C
100
AcDbEntity
  8
寸法線
 62
     0
 48
20.0
370
    -2
100
AcDbBlockReference
  2
_OPEN30
 10
11744.91783176203
 20
4611.640093418537
 30
0.0
 41
20.0
 42
20.0
 43
20.0
 50
270.0
  0
MTEXT
  5
9FC
330
93C
100
AcDbEntity
  8
寸法線
 62
     0
 48
20.0
100
AcDbMText
 10
11680.91783176202
 20
4735.640093418538
 30
0.0
 40
60.0
 41
0.0
 71
     5
 72
     1
  1
29
 11
0.0000000000000001
 21
1.0
 31
0.0
 73
     1
 44
1.0
  0
POINT
  5
9FD
330
93C
100
AcDbEntity
  8
DEFPOINTS
 62
     0
 48
20.0
100
AcDbPoint
 10
11530.57194789285
 20
4524.640092122136
 30
0.0
  0
POINT
  5
9FE
330
93C
100
AcDbEntity
  8
DEFPOINTS
 62
     0
 48
20.0
100
AcDbPoint
 10
11530.57194789285
 20
4611.640093418537
 30
0.0
  0
POINT
  5
9FF
330
93C
100
AcDbEntity
  8
DEFPOINTS
 62
     0
 48
20.0
100
AcDbPoint
 10
11744.91783176203
 20
4611.640093418537
 30
0.0
  0
ENDBLK
  5
949
330
93C
100
AcDbEntity
  8
0
 48
20.0
100
AcDbBlockEnd
  0
BLOCK
  5
956
330
94A
100
AcDbEntity
  8
0
 48
20.0
100
AcDbBlockBegin
  2
*D5
 70
     1
 10
0.0
 20
0.0
 30
0.0
  3
*D5
  1

  0
LINE
  5
A00
330
94A
100
AcDbEntity
  8
寸法線
 62
     0
 48
20.0
370
    -2
100
AcDbLine
 10
11549.57194773797
 20
4509.640091898618
 30
0.0
 11
11939.49232567721
 21
4509.640091898618
 31
0.0
  0
LINE
  5
A01
330
94A
100
AcDbEntity
  8
寸法線
 62
     0
 48
20.0
370
    -2
100
AcDbLine
 10
11570.57194789285
 20
4611.640093418537
 30
0.0
 11
11939.49232567721
 21
4611.640093418537
 31
0.0
  0
LINE
  5
A02
330
94A
100
AcDbEntity
  8
寸法線
 62
     0
 48
20.0
370
    -2
100
AcDbLine
 10
11879.49232567721
 20
4489.640091898618
 30
0.0
 11
11879.49232567721
 21
4469.640091898618
 31
0.0
  0
LINE
  5
A03
330
94A
100
AcDbEntity
  8
寸法線
 62
     0
 48
20.0
370
    -2
100
AcDbLine
 10
11879.49232567721
 20
4631.640093418536
 30
0.0
 11
11879.49232567721
 21
4819.640093418537
 31
0.0
  0
LINE
  5
A04
330
94A
100
AcDbEntity
  8
寸法線
 62
     0
 48
20.0
370
    -2
100
AcDbLine
 10
11879.49232567721
 20
4509.640091898618
 30
0.0
 11
11879.49232567721
 21
4611.640093418537
 31
0.0
  0
INSERT
  5
A05
330
94A
100
AcDbEntity
  8
寸法線
 62
     0
 48
20.0
370
    -2
100
AcDbBlockReference
  2
_OPEN30
 10
11879.49232567721
 20
4509.640091898618
 30
0.0
 41
20.0
 42
20.0
 43
20.0
 50
90.0
  0
INSERT
  5
A06
330
94A
100
AcDbEntity
  8
寸法線
 62
     0
 48
20.0
370
    -2
100
AcDbBlockReference
  2
_OPEN30
 10
11879.49232567721
 20
4611.640093418537
 30
0.0
 41
20.0
 42
20.0
 43
20.0
 50
270.0
  0
MTEXT
  5
A07
330
94A
100
AcDbEntity
  8
寸法線
 62
     0
 48
20.0
100
AcDbMText
 10
11815.49232567721
 20
4735.640093418538
 30
0.0
 40
60.0
 41
0.0
 71
     5
 72
     1
  1
34
 11
0.0000000000000001
 21
1.0
 31
0.0
 73
     1
 44
1.0
  0
POINT
  5
A08
330
94A
100
AcDbEntity
  8
DEFPOINTS
 62
     0
 48
20.0
100
AcDbPoint
 10
11509.57194773797
 20
4509.640091898618
 30
0.0
  0
POINT
  5
A09
330
94A
100
AcDbEntity
  8
DEFPOINTS
 62
     0
 48
20.0
100
AcDbPoint
 10
11530.57194789285
 20
4611.640093418537
 30
0.0
  0
POINT
  5
A0A
330
94A
100
AcDbEntity
  8
DEFPOINTS
 62
     0
 48
20.0
100
AcDbPoint
 10
11879.49232567721
 20
4611.640093418537
 30
0.0
  0
ENDBLK
  5
957
330
94A
100
AcDbEntity
  8
0
 48
20.0
100
AcDbBlockEnd
  0
BLOCK
  5
A1E
330
A14
100
AcDbEntity
  8
0
 48
20.0
100
AcDbBlockBegin
  2
*D6
 70
     1
 10
0.0
 20
0.0
 30
0.0
  3
*D6
  1

  0
LINE
  5
A15
330
A14
100
AcDbEntity
  8
寸法線
  6
Continuous
 62
     0
 48
20.0
370
    -2
100
AcDbLine
 10
9672.232967427069
 20
7304.314569357178
 30
0.0
 11
9672.232967427069
 21
7478.165624326095
 31
0.0
  0
LINE
  5
A16
330
A14
100
AcDbEntity
  8
寸法線
  6
Continuous
 62
     0
 48
20.0
370
    -2
100
AcDbLine
 10
9972.232164213608
 20
7304.315315535982
 30
0.0
 11
9972.232164213608
 21
7478.165624326095
 31
0.0
  0
LINE
  5
A17
330
A14
100
AcDbEntity
  8
寸法線
  6
Continuous
 62
     0
 48
20.0
370
    -2
100
AcDbLine
 10
9692.232967427068
 20
7418.165624326094
 30
0.0
 11
9952.232164213606
 21
7418.165624326094
 31
0.0
  0
INSERT
  5
A18
330
A14
100
AcDbEntity
  8
寸法線
  6
Continuous
 62
     0
 48
20.0
370
    -2
100
AcDbBlockReference
  2
_OPEN30
 10
9672.232967427069
 20
7418.165624326094
 30
0.0
 41
20.0
 42
20.0
 43
20.0
 50
180.0
  0
INSERT
  5
A19
330
A14
100
AcDbEntity
  8
寸法線
  6
Continuous
 62
     0
 48
20.0
370
    -2
100
AcDbBlockReference
  2
_OPEN30
 10
9972.232164213608
 20
7418.165624326094
 30
0.0
 41
20.0
 42
20.0
 43
20.0
  0
MTEXT
  5
A1A
330
A14
100
AcDbEntity
  8
寸法線
  6
Continuous
 62
     0
 48
20.0
100
AcDbMText
 10
9822.232565820337
 20
7482.165624326094
 30
0.0
 40
60.0
 41
0.0
 71
     5
 72
     1
  1
300
 73
     1
 44
1.0
  0
POINT
  5
A1B
330
A14
100
AcDbEntity
  8
DEFPOINTS
  6
Continuous
 62
     0
 48
20.0
100
AcDbPoint
 10
9672.232967427069
 20
7264.314569357178
 30
0.0
  0
POINT
  5
A1C
330
A14
100
AcDbEntity
  8
DEFPOINTS
  6
Continuous
 62
     0
 48
20.0
100
AcDbPoint
 10
9972.232164213608
 20
7264.315315535981
 30
0.0
  0
POINT
  5
A1D
330
A14
100
AcDbEntity
  8
DEFPOINTS
  6
Continuous
 62
     0
 48
20.0
100
AcDbPoint
 10
9972.232164213608
 20
7418.165624326094
 30
0.0
  0
ENDBLK
  5
A1F
330
A14
100
AcDbEntity
  8
0
 48
20.0
100
AcDbBlockEnd
  0
BLOCK
  5
A2B
330
A21
100
AcDbEntity
  8
0
 48
20.0
100
AcDbBlockBegin
  2
*D7
 70
     1
 10
0.0
 20
0.0
 30
0.0
  3
*D7
  1

  0
LINE
  5
A22
330
A21
100
AcDbEntity
  8
寸法線
  6
Continuous
 62
     0
 48
20.0
370
    -2
100
AcDbLine
 10
5651.747030526985
 20
3333.914897593673
 30
0.0
 11
5404.224572085542
 21
3333.914897593673
 31
0.0
  0
LINE
  5
A23
330
A21
100
AcDbEntity
  8
寸法線
  6
Continuous
 62
     0
 48
20.0
370
    -2
100
AcDbLine
 10
5621.747015864123
 20
5383.914897593669
 30
0.0
 11
5404.224572085542
 21
5383.914897593669
 31
0.0
  0
LINE
  5
A24
330
A21
100
AcDbEntity
  8
寸法線
  6
Continuous
 62
     0
 48
20.0
370
    -2
100
AcDbLine
 10
5464.224572085543
 20
3353.914897593674
 30
0.0
 11
5464.224572085543
 21
5363.914897593669
 31
0.0
  0
INSERT
  5
A25
330
A21
100
AcDbEntity
  8
寸法線
  6
Continuous
 62
     0
 48
20.0
370
    -2
100
AcDbBlockReference
  2
_OPEN30
 10
5464.224572085543
 20
3333.914897593673
 30
0.0
 41
20.0
 42
20.0
 43
20.0
 50
270.0
  0
INSERT
  5
A26
330
A21
100
AcDbEntity
  8
寸法線
  6
Continuous
 62
     0
 48
20.0
370
    -2
100
AcDbBlockReference
  2
_OPEN30
 10
5464.224572085543
 20
5383.914897593669
 30
0.0
 41
20.0
 42
20.0
 43
20.0
 50
90.0
  0
MTEXT
  5
A27
330
A21
100
AcDbEntity
  8
寸法線
  6
Continuous
 62
     0
 48
20.0
100
AcDbMText
 10
5400.224572085542
 20
4358.914897593672
 30
0.0
 40
60.0
 41
0.0
 71
     5
 72
     1
  1
2050
 11
0.0000000000000001
 21
1.0
 31
0.0
 73
     1
 44
1.0
  0
POINT
  5
A28
330
A21
100
AcDbEntity
  8
DEFPOINTS
  6
Continuous
 62
     0
 48
20.0
100
AcDbPoint
 10
5691.747030526985
 20
3333.914897593673
 30
0.0
  0
POINT
  5
A29
330
A21
100
AcDbEntity
  8
DEFPOINTS
  6
Continuous
 62
     0
 48
20.0
100
AcDbPoint
 10
5661.747015864124
 20
5383.914897593669
 30
0.0
  0
POINT
  5
A2A
330
A21
100
AcDbEntity
  8
DEFPOINTS
  6
Continuous
 62
     0
 48
20.0
100
AcDbPoint
 10
5464.224572085543
 20
5383.914897593669
 30
0.0
  0
ENDBLK
  5
A2C
330
A21
100
AcDbEntity
  8
0
 48
20.0
100
AcDbBlockEnd
  0
BLOCK
  5
A38
330
A2E
100
AcDbEntity
  8
0
 48
20.0
100
AcDbBlockBegin
  2
*D8
 70
     1
 10
0.0
 20
0.0
 30
0.0
  3
*D8
  1

  0
LINE
  5
A2F
330
A2E
100
AcDbEntity
  8
寸法線
  6
Continuous
 62
     0
 48
20.0
370
    -2
100
AcDbLine
 10
5621.74698323138
 20
5383.915065678769
 30
0.0
 11
5404.224572085542
 21
5383.915065678769
 31
0.0
  0
LINE
  5
A30
330
A2E
100
AcDbEntity
  8
寸法線
  6
Continuous
 62
     0
 48
20.0
370
    -2
100
AcDbLine
 10
6566.747015864123
 20
5813.914935740642
 30
0.0
 11
5404.224572085542
 21
5813.914935740643
 31
0.0
  0
LINE
  5
A31
330
A2E
100
AcDbEntity
  8
寸法線
  6
Continuous
 62
     0
 48
20.0
370
    -2
100
AcDbLine
 10
5464.224572085543
 20
5403.91506567877
 30
0.0
 11
5464.224572085543
 21
5793.914935740644
 31
0.0
  0
INSERT
  5
A32
330
A2E
100
AcDbEntity
  8
寸法線
  6
Continuous
 62
     0
 48
20.0
370
    -2
100
AcDbBlockReference
  2
_OPEN30
 10
5464.224572085543
 20
5383.915065678769
 30
0.0
 41
20.0
 42
20.0
 43
20.0
 50
270.0
  0
INSERT
  5
A33
330
A2E
100
AcDbEntity
  8
寸法線
  6
Continuous
 62
     0
 48
20.0
370
    -2
100
AcDbBlockReference
  2
_OPEN30
 10
5464.224572085543
 20
5813.914935740643
 30
0.0
 41
20.0
 42
20.0
 43
20.0
 50
90.0
  0
MTEXT
  5
A34
330
A2E
100
AcDbEntity
  8
寸法線
  6
Continuous
 62
     0
 48
20.0
100
AcDbMText
 10
5400.224572085542
 20
5598.915000709706
 30
0.0
 40
60.0
 41
0.0
 71
     5
 72
     1
  1
430
 11
0.0000000000000001
 21
1.0
 31
0.0
 73
     1
 44
1.0
  0
POINT
  5
A35
330
A2E
100
AcDbEntity
  8
DEFPOINTS
  6
Continuous
 62
     0
 48
20.0
100
AcDbPoint
 10
5661.74698323138
 20
5383.915065678769
 30
0.0
  0
POINT
  5
A36
330
A2E
100
AcDbEntity
  8
DEFPOINTS
  6
Continuous
 62
     0
 48
20.0
100
AcDbPoint
 10
6606.747015864124
 20
5813.914935740642
 30
0.0
  0
POINT
  5
A37
330
A2E
100
AcDbEntity
  8
DEFPOINTS
  6
Continuous
 62
     0
 48
20.0
100
AcDbPoint
 10
5464.224572085543
 20
5813.914935740643
 30
0.0
  0
ENDBLK
  5
A39
330
A2E
100
AcDbEntity
  8
0
 48
20.0
100
AcDbBlockEnd
  0
BLOCK
  5
A45
330
A3B
100
AcDbEntity
  8
0
 48
20.0
100
AcDbBlockBegin
  2
*D9
 70
     1
 10
0.0
 20
0.0
 30
0.0
  3
*D9
  1

  0
LINE
  5
A3C
330
A3B
100
AcDbEntity
  8
寸法線
  6
Continuous
 62
     0
 48
20.0
370
    -2
100
AcDbLine
 10
6566.747015864123
 20
5813.914935740642
 30
0.0
 11
5195.442185613094
 21
5813.914935740643
 31
0.0
  0
LINE
  5
A3D
330
A3B
100
AcDbEntity
  8
寸法線
  6
Continuous
 62
     0
 48
20.0
370
    -2
100
AcDbLine
 10
5651.747015864124
 20
3333.91489759367
 30
0.0
 11
5195.442185613094
 21
3333.91489759367
 31
0.0
  0
LINE
  5
A3E
330
A3B
100
AcDbEntity
  8
寸法線
  6
Continuous
 62
     0
 48
20.0
370
    -2
100
AcDbLine
 10
5255.442185613095
 20
5793.914935740644
 30
0.0
 11
5255.442185613095
 21
3353.91489759367
 31
0.0
  0
INSERT
  5
A3F
330
A3B
100
AcDbEntity
  8
寸法線
  6
Continuous
 62
     0
 48
20.0
370
    -2
100
AcDbBlockReference
  2
_OPEN30
 10
5255.442185613095
 20
5813.914935740643
 30
0.0
 41
20.0
 42
20.0
 43
20.0
 50
90.0
  0
INSERT
  5
A40
330
A3B
100
AcDbEntity
  8
寸法線
  6
Continuous
 62
     0
 48
20.0
370
    -2
100
AcDbBlockReference
  2
_OPEN30
 10
5255.442185613095
 20
3333.91489759367
 30
0.0
 41
20.0
 42
20.0
 43
20.0
 50
270.0
  0
MTEXT
  5
A41
330
A3B
100
AcDbEntity
  8
寸法線
  6
Continuous
 62
     0
 48
20.0
100
AcDbMText
 10
5191.442185613093
 20
4573.914916667158
 30
0.0
 40
60.0
 41
0.0
 71
     5
 72
     1
  1
2480
 11
0.0000000000000001
 21
1.0
 31
0.0
 73
     1
 44
1.0
  0
POINT
  5
A42
330
A3B
100
AcDbEntity
  8
DEFPOINTS
  6
Continuous
 62
     0
 48
20.0
100
AcDbPoint
 10
6606.747015864124
 20
5813.914935740642
 30
0.0
  0
POINT
  5
A43
330
A3B
100
AcDbEntity
  8
DEFPOINTS
  6
Continuous
 62
     0
 48
20.0
100
AcDbPoint
 10
5691.747015864123
 20
3333.91489759367
 30
0.0
  0
POINT
  5
A44
330
A3B
100
AcDbEntity
  8
DEFPOINTS
  6
Continuous
 62
     0
 48
20.0
100
AcDbPoint
 10
5255.442185613095
 20
3333.91489759367
 30
0.0
  0
ENDBLK
  5
A46
330
A3B
100
AcDbEntity
  8
0
 48
20.0
100
AcDbBlockEnd
  0
BLOCK
  5
A52
330
A48
100
AcDbEntity
  8
0
 48
20.0
100
AcDbBlockBegin
  2
*D10
 70
     1
 10
0.0
 20
0.0
 30
0.0
  3
*D10
  1

  0
LINE
  5
A82
330
A48
100
AcDbEntity
  8
寸法線
  6
Continuous
 62
     0
 48
20.0
370
    -2
100
AcDbLine
 10
5661.747015864126
 20
3323.914909276101
 30
0.0
 11
5661.747015864126
 21
2945.521903618006
 31
0.0
  0
LINE
  5
A83
330
A48
100
AcDbEntity
  8
寸法線
  6
Continuous
 62
     0
 48
20.0
370
    -2
100
AcDbLine
 10
7551.747015864123
 20
3323.914897593669
 30
0.0
 11
7551.747015864123
 21
2945.521903618006
 31
0.0
  0
LINE
  5
A84
330
A48
100
AcDbEntity
  8
寸法線
  6
Continuous
 62
     0
 48
20.0
370
    -2
100
AcDbLine
 10
5681.747015864126
 20
3005.521903618006
 30
0.0
 11
7531.747015864123
 21
3005.521903618006
 31
0.0
  0
INSERT
  5
A85
330
A48
100
AcDbEntity
  8
寸法線
  6
Continuous
 62
     0
 48
20.0
370
    -2
100
AcDbBlockReference
  2
_OPEN30
 10
5661.747015864126
 20
3005.521903618006
 30
0.0
 41
20.0
 42
20.0
 43
20.0
 50
180.0
  0
INSERT
  5
A86
330
A48
100
AcDbEntity
  8
寸法線
  6
Continuous
 62
     0
 48
20.0
370
    -2
100
AcDbBlockReference
  2
_OPEN30
 10
7551.747015864123
 20
3005.521903618006
 30
0.0
 41
20.0
 42
20.0
 43
20.0
  0
MTEXT
  5
A87
330
A48
100
AcDbEntity
  8
寸法線
  6
Continuous
 62
     0
 48
20.0
100
AcDbMText
 10
6606.747015864124
 20
3069.521903618006
 30
0.0
 40
60.0
 41
0.0
 71
     5
 72
     1
  1
O.Dφ1890
 73
     1
 44
1.0
  0
POINT
  5
A88
330
A48
100
AcDbEntity
  8
DEFPOINTS
  6
Continuous
 62
     0
 48
20.0
100
AcDbPoint
 10
5661.747015864126
 20
3363.914909276101
 30
0.0
  0
POINT
  5
A89
330
A48
100
AcDbEntity
  8
DEFPOINTS
  6
Continuous
 62
     0
 48
20.0
100
AcDbPoint
 10
7551.747015864123
 20
3363.91489759367
 30
0.0
  0
POINT
  5
A8A
330
A48
100
AcDbEntity
  8
DEFPOINTS
  6
Continuous
 62
     0
 48
20.0
100
AcDbPoint
 10
7551.747015864123
 20
3005.521903618006
 30
0.0
  0
ENDBLK
  5
A53
330
A48
100
AcDbEntity
  8
0
 48
20.0
100
AcDbBlockEnd
  0
BLOCK
  5
A9D
330
A93
100
AcDbEntity
  8
0
 48
20.0
100
AcDbBlockBegin
  2
*D11
 70
     1
 10
0.0
 20
0.0
 30
0.0
  3
*D11
  1

  0
LINE
  5
AA8
330
A93
100
AcDbEntity
  8
寸法線
  6
Continuous
 62
     0
 48
20.0
370
    -2
100
AcDbLine
 10
6356.747017262899
 20
5793.91489759367
 30
0.0
 11
6356.747017262899
 21
6107.014056066621
 31
0.0
  0
LINE
  5
AA9
330
A93
100
AcDbEntity
  8
寸法線
  6
Continuous
 62
     0
 48
20.0
370
    -2
100
AcDbLine
 10
6856.747014465348
 20
5793.91489759367
 30
0.0
 11
6856.747014465348
 21
6107.014056066621
 31
0.0
  0
LINE
  5
AAA
330
A93
100
AcDbEntity
  8
寸法線
  6
Continuous
 62
     0
 48
20.0
370
    -2
100
AcDbLine
 10
6376.747017262898
 20
6047.014056066621
 30
0.0
 11
6836.747014465348
 21
6047.014056066621
 31
0.0
  0
INSERT
  5
AAB
330
A93
100
AcDbEntity
  8
寸法線
  6
Continuous
 62
     0
 48
20.0
370
    -2
100
AcDbBlockReference
  2
_OPEN30
 10
6356.747017262899
 20
6047.014056066621
 30
0.0
 41
20.0
 42
20.0
 43
20.0
 50
180.0
  0
INSERT
  5
AAC
330
A93
100
AcDbEntity
  8
寸法線
  6
Continuous
 62
     0
 48
20.0
370
    -2
100
AcDbBlockReference
  2
_OPEN30
 10
6856.747014465348
 20
6047.014056066621
 30
0.0
 41
20.0
 42
20.0
 43
20.0
  0
MTEXT
  5
AAD
330
A93
100
AcDbEntity
  8
寸法線
  6
Continuous
 62
     0
 48
20.0
100
AcDbMText
 10
6606.747015864122
 20
6111.01405606662
 30
0.0
 40
60.0
 41
0.0
 71
     5
 72
     1
  1
I.Dφ500
 73
     1
 44
1.0
  0
POINT
  5
AAE
330
A93
100
AcDbEntity
  8
DEFPOINTS
  6
Continuous
 62
     0
 48
20.0
100
AcDbPoint
 10
6356.747017262899
 20
5753.91489759367
 30
0.0
  0
POINT
  5
AAF
330
A93
100
AcDbEntity
  8
DEFPOINTS
  6
Continuous
 62
     0
 48
20.0
100
AcDbPoint
 10
6856.747014465348
 20
5753.91489759367
 30
0.0
  0
POINT
  5
AB0
330
A93
100
AcDbEntity
  8
DEFPOINTS
  6
Continuous
 62
     0
 48
20.0
100
AcDbPoint
 10
6856.747014465348
 20
6047.014056066621
 30
0.0
  0
ENDBLK
  5
A9E
330
A93
100
AcDbEntity
  8
0
 48
20.0
100
AcDbBlockEnd
  0
BLOCK
  5
AC9
330
AC7
100
AcDbEntity
  8
0
 48
20.0
100
AcDbBlockBegin
  2
_DotSmall
 70
     0
 10
0.0
 20
0.0
 30
0.0
  3
_DotSmall
  1

  0
LWPOLYLINE
  5
AC8
330
AC7
100
AcDbEntity
  8
0
  6
ByBlock
 62
     0
100
AcDbPolyline
 90
        2
 70
     1
 43
0.5
 10
-0.0625
 20
0.0
 42
1.0
 10
0.0625
 20
0.0
 42
1.0
  0
ENDBLK
  5
ACA
330
AC7
100
AcDbEntity
  8
0
 48
20.0
100
AcDbBlockEnd
  0
BLOCK
  5
AE7
330
AE1
100
AcDbEntity
  8
0
 48
20.0
100
AcDbBlockBegin
  2
*D13
 70
     1
 10
0.0
 20
0.0
 30
0.0
  3
*D13
  1

  0
LINE
  5
AE9
330
AE1
100
AcDbEntity
  8
寸法線
  6
Continuous
 62
     0
 48
20.0
370
    -2
100
AcDbLine
 10
10155.14715048717
 20
6502.404299873531
 30
0.0
 11
10508.45529145281
 21
6651.73400968343
 31
0.0
  0
MTEXT
  5
AEA
330
AE1
100
AcDbEntity
  8
寸法線
  6
Continuous
 62
     0
 48
20.0
100
AcDbMText
 10
10262.87002368734
 20
6617.416397452443
 30
0.0
 40
60.0
 41
0.0
 71
     5
 72
     1
  1
R765
 11
0.9211045419569135
 21
0.3893153256504868
 31
0.0
 73
     1
 44
1.0
  0
INSERT
  5
AEB
330
AE1
100
AcDbEntity
  8
寸法線
  6
Continuous
 62
     0
 48
20.0
370
    -2
100
AcDbBlockReference
  2
_OPEN30
 10
10526.87738229195
 20
6659.520316196441
 30
0.0
 41
20.0
 42
20.0
 43
20.0
 50
22.91190367348695
  0
POINT
  5
AEC
330
AE1
100
AcDbEntity
  8
DEFPOINTS
  6
Continuous
 62
     0
 48
20.0
100
AcDbPoint
 10
10526.87738229195
 20
6659.520316196441
 30
0.0
  0
POINT
  5
AED
330
AE1
100
AcDbEntity
  8
DEFPOINTS
  6
Continuous
 62
     0
 48
20.0
100
AcDbPoint
 10
9822.232407694919
 20
6361.69409207382
 30
0.0
  0
ENDBLK
  5
AE8
330
AE1
100
AcDbEntity
  8
0
 48
20.0
100
AcDbBlockEnd
  0
BLOCK
  5
B1F
330
B15
100
AcDbEntity
  8
0
 48
20.0
100
AcDbBlockBegin
  2
*D14
 70
     1
 10
0.0
 20
0.0
 30
0.0
  3
*D14
  1

  0
LINE
  5
B2A
330
B15
100
AcDbEntity
  8
寸法線
 62
     0
 48
20.0
370
    -2
100
AcDbLine
 10
7611.747016758193
 20
3276.600304721544
 30
0.0
 11
7611.747016758193
 21
2780.13711366299
 31
0.0
  0
LINE
  5
B2B
330
B15
100
AcDbEntity
  8
寸法線
 62
     0
 48
20.0
370
    -2
100
AcDbLine
 10
5601.747014970052
 20
3276.600304721544
 30
0.0
 11
5601.747014970052
 21
2780.13711366299
 31
0.0
  0
LINE
  5
B2C
330
B15
100
AcDbEntity
  8
寸法線
 62
     0
 48
20.0
370
    -2
100
AcDbLine
 10
7591.747016758194
 20
2840.13711366299
 30
0.0
 11
5621.747014970052
 21
2840.13711366299
 31
0.0
  0
INSERT
  5
B2D
330
B15
100
AcDbEntity
  8
寸法線
 62
     0
 48
20.0
370
    -2
100
AcDbBlockReference
  2
_OPEN30
 10
7611.747016758193
 20
2840.13711366299
 30
0.0
 41
20.0
 42
20.0
 43
20.0
  0
INSERT
  5
B2E
330
B15
100
AcDbEntity
  8
寸法線
 62
     0
 48
20.0
370
    -2
100
AcDbBlockReference
  2
_OPEN30
 10
5601.747014970052
 20
2840.13711366299
 30
0.0
 41
20.0
 42
20.0
 43
20.0
 50
180.0
  0
MTEXT
  5
B2F
330
B15
100
AcDbEntity
  8
寸法線
 62
     0
 48
20.0
100
AcDbMText
 10
6606.747015864122
 20
2904.13711366299
 30
0.0
 40
60.0
 41
0.0
 71
     5
 72
     1
  1
P.C.Dφ2010
 73
     1
 44
1.0
  0
POINT
  5
B30
330
B15
100
AcDbEntity
  8
DEFPOINTS
 62
     0
 48
20.0
100
AcDbPoint
 10
7611.747016758193
 20
3316.600304721543
 30
0.0
  0
POINT
  5
B31
330
B15
100
AcDbEntity
  8
DEFPOINTS
 62
     0
 48
20.0
100
AcDbPoint
 10
5601.747014970052
 20
3316.600304721544
 30
0.0
  0
POINT
  5
B32
330
B15
100
AcDbEntity
  8
DEFPOINTS
 62
     0
 48
20.0
100
AcDbPoint
 10
5601.747014970052
 20
2840.13711366299
 30
0.0
  0
ENDBLK
  5
B20
330
B15
100
AcDbEntity
  8
0
 48
20.0
100
AcDbBlockEnd
  0
BLOCK
  5
B8B
330
B8A
100
AcDbEntity
  8
0
 48
25.0
100
AcDbBlockBegin
  2
*D15
 70
     1
 10
0.0
 20
0.0
 30
0.0
  3
*D15
  1

  0
LINE
  5
B8C
330
B8A
100
AcDbEntity
  8
寸法線
 62
     0
 48
25.0
370
    -2
100
AcDbLine
 10
14422.31562025355
 20
-5520.398437499999
 30
0.0
 11
14081.44411216262
 21
-5520.398437499998
 31
0.0
  0
LINE
  5
B8D
330
B8A
100
AcDbEntity
  8
寸法線
 62
     0
 48
25.0
370
    -2
100
AcDbLine
 10
14422.31562025355
 20
-3470.3984375
 30
0.0
 11
14081.44411216262
 21
-3470.3984375
 31
0.0
  0
LINE
  5
B8E
330
B8A
100
AcDbEntity
  8
寸法線
 62
     0
 48
25.0
370
    -2
100
AcDbLine
 10
14156.44411216262
 20
-5445.398437499997
 30
0.0
 11
14156.44411216262
 21
-3545.3984375
 31
0.0
  0
INSERT
  5
B8F
330
B8A
100
AcDbEntity
  8
寸法線
 62
     0
 48
25.0
370
    -2
100
AcDbBlockReference
  2
_OPEN30
 10
14156.44411216262
 20
-5520.398437499998
 30
0.0
 41
75.0
 42
75.0
 43
75.0
 50
270.0
  0
INSERT
  5
B90
330
B8A
100
AcDbEntity
  8
寸法線
 62
     0
 48
25.0
370
    -2
100
AcDbBlockReference
  2
_OPEN30
 10
14156.44411216262
 20
-3470.3984375
 30
0.0
 41
75.0
 42
75.0
 43
75.0
 50
90.0
  0
MTEXT
  5
B91
330
B8A
100
AcDbEntity
  8
寸法線
 62
     0
 48
25.0
100
AcDbMText
 10
14076.44411097053
 20
-4495.398437499996
 30
0.0
 40
75.0
 41
0.0
 71
     5
 72
     1
  1
\A1;2050
 11
0.0000000000000001
 21
1.0
 31
0.0
 73
     1
 44
1.0
  0
POINT
  5
B92
330
B8A
100
AcDbEntity
  8
DEFPOINTS
 62
     0
 48
25.0
100
AcDbPoint
 10
14472.31562025355
 20
-5520.398437499999
 30
0.0
  0
POINT
  5
B93
330
B8A
100
AcDbEntity
  8
DEFPOINTS
 62
     0
 48
25.0
100
AcDbPoint
 10
14472.31562025355
 20
-3470.3984375
 30
0.0
  0
POINT
  5
B94
330
B8A
100
AcDbEntity
  8
DEFPOINTS
 62
     0
 48
25.0
100
AcDbPoint
 10
14156.44411216262
 20
-3470.3984375
 30
0.0
  0
ENDBLK
  5
B95
330
B8A
100
AcDbEntity
  8
0
 48
25.0
100
AcDbBlockEnd
  0
BLOCK
  5
B97
330
B96
100
AcDbEntity
  8
0
 48
25.0
100
AcDbBlockBegin
  2
*D16
 70
     1
 10
0.0
 20
0.0
 30
0.0
  3
*D16
  1

  0
LINE
  5
B98
330
B96
100
AcDbEntity
  8
寸法線
 62
     0
 48
25.0
370
    -2
100
AcDbLine
 10
14426.35766405871
 20
-3330.398475646973
 30
0.0
 11
14081.44411216262
 21
-3330.398475646973
 31
0.0
  0
LINE
  5
B99
330
B96
100
AcDbEntity
  8
寸法線
 62
     0
 48
25.0
370
    -2
100
AcDbLine
 10
14426.35766405871
 20
-3470.3984375
 30
0.0
 11
14081.44411216262
 21
-3470.3984375
 31
0.0
  0
LINE
  5
B9A
330
B96
100
AcDbEntity
  8
寸法線
 62
     0
 48
25.0
370
    -2
100
AcDbLine
 10
14156.44411216262
 20
-3545.3984375
 30
0.0
 11
14156.44411216262
 21
-3620.3984375
 31
0.0
  0
LINE
  5
B9B
330
B96
100
AcDbEntity
  8
寸法線
 62
     0
 48
25.0
370
    -2
100
AcDbLine
 10
14156.44411216262
 20
-3255.398475646972
 30
0.0
 11
14156.44411216262
 21
-2793.419894156078
 31
0.0
  0
LINE
  5
B9C
330
B96
100
AcDbEntity
  8
寸法線
 62
     0
 48
25.0
370
    -2
100
AcDbLine
 10
14156.44411216262
 20
-3470.3984375
 30
0.0
 11
14156.44411216262
 21
-3330.398475646973
 31
0.0
  0
INSERT
  5
B9D
330
B96
100
AcDbEntity
  8
寸法線
 62
     0
 48
25.0
370
    -2
100
AcDbBlockReference
  2
_OPEN30
 10
14156.44411216262
 20
-3470.3984375
 30
0.0
 41
75.0
 42
75.0
 43
75.0
 50
90.0
  0
INSERT
  5
B9E
330
B96
100
AcDbEntity
  8
寸法線
 62
     0
 48
25.0
370
    -2
100
AcDbBlockReference
  2
_OPEN30
 10
14156.44411216262
 20
-3330.398475646973
 30
0.0
 41
75.0
 42
75.0
 43
75.0
 50
270.0
  0
MTEXT
  5
B9F
330
B96
100
AcDbEntity
  8
寸法線
 62
     0
 48
25.0
100
AcDbMText
 10
14076.44411097053
 20
-2917.169895348168
 30
0.0
 40
75.0
 41
0.0
 71
     5
 72
     1
  1
\A1;140
 11
0.0000000000000001
 21
1.0
 31
0.0
 73
     1
 44
1.0
  0
POINT
  5
BA0
330
B96
100
AcDbEntity
  8
DEFPOINTS
 62
     0
 48
25.0
100
AcDbPoint
 10
14476.35766405871
 20
-3330.398475646973
 30
0.0
  0
POINT
  5
BA1
330
B96
100
AcDbEntity
  8
DEFPOINTS
 62
     0
 48
25.0
100
AcDbPoint
 10
14476.35766405871
 20
-3470.3984375
 30
0.0
  0
POINT
  5
BA2
330
B96
100
AcDbEntity
  8
DEFPOINTS
 62
     0
 48
25.0
100
AcDbPoint
 10
14156.44411216262
 20
-3470.3984375
 30
0.0
  0
ENDBLK
  5
BA3
330
B96
100
AcDbEntity
  8
0
 48
25.0
100
AcDbBlockEnd
  0
BLOCK
  5
BA5
330
BA4
100
AcDbEntity
  8
0
 48
25.0
100
AcDbBlockBegin
  2
*D17
 70
     1
 10
0.0
 20
0.0
 30
0.0
  3
*D17
  1

  0
LINE
  5
BA6
330
BA4
100
AcDbEntity
  8
寸法線
 62
     0
 48
25.0
370
    -2
100
AcDbLine
 10
14472.3158267666
 20
-3280.398475646972
 30
0.0
 11
14472.3158267666
 21
-3104.743508344695
 31
0.0
  0
LINE
  5
BA7
330
BA4
100
AcDbEntity
  8
寸法線
 62
     0
 48
25.0
370
    -2
100
AcDbLine
 10
14772.3158267666
 20
-3280.398475646973
 30
0.0
 11
14772.3158267666
 21
-3104.743508344695
 31
0.0
  0
LINE
  5
BA8
330
BA4
100
AcDbEntity
  8
寸法線
 62
     0
 48
25.0
370
    -2
100
AcDbLine
 10
14547.3158267666
 20
-3179.743508344694
 30
0.0
 11
14697.3158267666
 21
-3179.743508344694
 31
0.0
  0
INSERT
  5
BA9
330
BA4
100
AcDbEntity
  8
寸法線
 62
     0
 48
25.0
370
    -2
100
AcDbBlockReference
  2
_OPEN30
 10
14472.3158267666
 20
-3179.743508344694
 30
0.0
 41
75.0
 42
75.0
 43
75.0
 50
180.0
  0
INSERT
  5
BAA
330
BA4
100
AcDbEntity
  8
寸法線
 62
     0
 48
25.0
370
    -2
100
AcDbBlockReference
  2
_OPEN30
 10
14772.3158267666
 20
-3179.743508344694
 30
0.0
 41
75.0
 42
75.0
 43
75.0
  0
MTEXT
  5
BAB
330
BA4
100
AcDbEntity
  8
寸法線
 62
     0
 48
25.0
100
AcDbMText
 10
14622.3158267666
 20
-3099.743507152602
 30
0.0
 40
75.0
 41
0.0
 71
     5
 72
     1
  1
\A1;300
 73
     1
 44
1.0
  0
POINT
  5
BAC
330
BA4
100
AcDbEntity
  8
DEFPOINTS
 62
     0
 48
25.0
100
AcDbPoint
 10
14472.3158267666
 20
-3330.398475646973
 30
0.0
  0
POINT
  5
BAD
330
BA4
100
AcDbEntity
  8
DEFPOINTS
 62
     0
 48
25.0
100
AcDbPoint
 10
14772.3158267666
 20
-3330.398475646973
 30
0.0
  0
POINT
  5
BAE
330
BA4
100
AcDbEntity
  8
DEFPOINTS
 62
     0
 48
25.0
100
AcDbPoint
 10
14772.3158267666
 20
-3179.743508344694
 30
0.0
  0
ENDBLK
  5
BAF
330
BA4
100
AcDbEntity
  8
0
 48
25.0
100
AcDbBlockEnd
  0
BLOCK
  5
BB1
330
BB0
100
AcDbEntity
  8
0
 48
25.0
100
AcDbBlockBegin
  2
*D18
 70
     1
 10
0.0
 20
0.0
 30
0.0
  3
*D18
  1

  0
LINE
  5
BB2
330
BB0
100
AcDbEntity
  8
寸法線
 62
     0
 48
25.0
370
    -2
100
AcDbLine
 10
14422.31562025355
 20
-5520.398437499999
 30
0.0
 11
13667.08733722251
 21
-5520.398437499998
 31
0.0
  0
LINE
  5
BB3
330
BB0
100
AcDbEntity
  8
寸法線
 62
     0
 48
25.0
370
    -2
100
AcDbLine
 10
15337.31545011479
 20
-3040.398466110243
 30
0.0
 11
13667.08733722251
 21
-3040.398466110243
 31
0.0
  0
LINE
  5
BB4
330
BB0
100
AcDbEntity
  8
寸法線
 62
     0
 48
25.0
370
    -2
100
AcDbLine
 10
13742.08733722251
 20
-5445.398437499997
 30
0.0
 11
13742.08733722251
 21
-3115.398466110243
 31
0.0
  0
INSERT
  5
BB5
330
BB0
100
AcDbEntity
  8
寸法線
 62
     0
 48
25.0
370
    -2
100
AcDbBlockReference
  2
_OPEN30
 10
13742.08733722251
 20
-5520.398437499998
 30
0.0
 41
75.0
 42
75.0
 43
75.0
 50
270.0
  0
INSERT
  5
BB6
330
BB0
100
AcDbEntity
  8
寸法線
 62
     0
 48
25.0
370
    -2
100
AcDbBlockReference
  2
_OPEN30
 10
13742.08733722251
 20
-3040.398466110243
 30
0.0
 41
75.0
 42
75.0
 43
75.0
 50
90.0
  0
MTEXT
  5
BB7
330
BB0
100
AcDbEntity
  8
寸法線
 62
     0
 48
25.0
100
AcDbMText
 10
13662.08733603041
 20
-4280.398451805117
 30
0.0
 40
75.0
 41
0.0
 71
     5
 72
     1
  1
\A1;2480
 11
0.0000000000000001
 21
1.0
 31
0.0
 73
     1
 44
1.0
  0
POINT
  5
BB8
330
BB0
100
AcDbEntity
  8
DEFPOINTS
 62
     0
 48
25.0
100
AcDbPoint
 10
14472.31562025355
 20
-5520.398437499999
 30
0.0
  0
POINT
  5
BB9
330
BB0
100
AcDbEntity
  8
DEFPOINTS
 62
     0
 48
25.0
100
AcDbPoint
 10
15387.31545011479
 20
-3040.398466110243
 30
0.0
  0
POINT
  5
BBA
330
BB0
100
AcDbEntity
  8
DEFPOINTS
 62
     0
 48
25.0
100
AcDbPoint
 10
13742.08733722251
 20
-3040.398466110243
 30
0.0
  0
ENDBLK
  5
BBB
330
BB0
100
AcDbEntity
  8
0
 48
25.0
100
AcDbBlockEnd
  0
BLOCK
  5
BBD
330
BBC
100
AcDbEntity
  8
0
 48
25.0
100
AcDbBlockBegin
  2
*D19
 70
     1
 10
0.0
 20
0.0
 30
0.0
  3
*D19
  1

  0
LINE
  5
BBE
330
BBC
100
AcDbEntity
  8
寸法線
 62
     0
 48
25.0
370
    -2
100
AcDbLine
 10
14442.31559176257
 20
-5540.398439288139
 30
0.0
 11
14442.31559176257
 21
-6123.443089612865
 31
0.0
  0
LINE
  5
BBF
330
BBC
100
AcDbEntity
  8
寸法線
 62
     0
 48
25.0
370
    -2
100
AcDbLine
 10
16332.31553275397
 20
-5540.398439288139
 30
0.0
 11
16332.31553275397
 21
-6123.443089612865
 31
0.0
  0
LINE
  5
BC0
330
BBC
100
AcDbEntity
  8
寸法線
 62
     0
 48
25.0
370
    -2
100
AcDbLine
 10
14517.31559176257
 20
-6048.443089612865
 30
0.0
 11
16257.31553275397
 21
-6048.443089612865
 31
0.0
  0
INSERT
  5
BC1
330
BBC
100
AcDbEntity
  8
寸法線
 62
     0
 48
25.0
370
    -2
100
AcDbBlockReference
  2
_OPEN30
 10
14442.31559176257
 20
-6048.443089612865
 30
0.0
 41
75.0
 42
75.0
 43
75.0
 50
180.0
  0
INSERT
  5
BC2
330
BBC
100
AcDbEntity
  8
寸法線
 62
     0
 48
25.0
370
    -2
100
AcDbBlockReference
  2
_OPEN30
 10
16332.31553275397
 20
-6048.443089612865
 30
0.0
 41
75.0
 42
75.0
 43
75.0
  0
MTEXT
  5
BC3
330
BBC
100
AcDbEntity
  8
寸法線
 62
     0
 48
25.0
100
AcDbMText
 10
15387.31556225827
 20
-5968.443088420772
 30
0.0
 40
75.0
 41
0.0
 71
     5
 72
     1
  1
\A1;O.Dφ1890
 73
     1
 44
1.0
  0
POINT
  5
BC4
330
BBC
100
AcDbEntity
  8
DEFPOINTS
 62
     0
 48
25.0
100
AcDbPoint
 10
14442.31559176257
 20
-5490.398439288139
 30
0.0
  0
POINT
  5
BC5
330
BBC
100
AcDbEntity
  8
DEFPOINTS
 62
     0
 48
25.0
100
AcDbPoint
 10
16332.31553275397
 20
-5490.398439288139
 30
0.0
  0
POINT
  5
BC6
330
BBC
100
AcDbEntity
  8
DEFPOINTS
 62
     0
 48
25.0
100
AcDbPoint
 10
16332.31553275397
 20
-6048.443089612865
 30
0.0
  0
ENDBLK
  5
BC7
330
BBC
100
AcDbEntity
  8
0
 48
25.0
100
AcDbBlockEnd
  0
BLOCK
  5
BC9
330
BC8
100
AcDbEntity
  8
0
 48
25.0
100
AcDbBlockBegin
  2
*D20
 70
     1
 10
0.0
 20
0.0
 30
0.0
  3
*D20
  1

  0
LINE
  5
BCA
330
BC8
100
AcDbEntity
  8
寸法線
 62
     0
 48
25.0
370
    -2
100
AcDbLine
 10
15152.31557794212
 20
-3050.398408889578
 30
0.0
 11
15152.31557794212
 21
-2779.847326991803
 31
0.0
  0
LINE
  5
BCB
330
BC8
100
AcDbEntity
  8
寸法線
 62
     0
 48
25.0
370
    -2
100
AcDbLine
 10
15622.31556743605
 20
-3050.398408889579
 30
0.0
 11
15622.31556743605
 21
-2779.847326991803
 31
0.0
  0
LINE
  5
BCC
330
BC8
100
AcDbEntity
  8
寸法線
 62
     0
 48
25.0
370
    -2
100
AcDbLine
 10
15227.31557794212
 20
-2854.847326991803
 30
0.0
 11
15547.31556743605
 21
-2854.847326991803
 31
0.0
  0
INSERT
  5
BCD
330
BC8
100
AcDbEntity
  8
寸法線
 62
     0
 48
25.0
370
    -2
100
AcDbBlockReference
  2
_OPEN30
 10
15152.31557794212
 20
-2854.847326991803
 30
0.0
 41
75.0
 42
75.0
 43
75.0
 50
180.0
  0
INSERT
  5
BCE
330
BC8
100
AcDbEntity
  8
寸法線
 62
     0
 48
25.0
370
    -2
100
AcDbBlockReference
  2
_OPEN30
 10
15622.31556743605
 20
-2854.847326991803
 30
0.0
 41
75.0
 42
75.0
 43
75.0
  0
MTEXT
  5
BCF
330
BC8
100
AcDbEntity
  8
寸法線
 62
     0
 48
25.0
100
AcDbMText
 10
15387.31557268908
 20
-2774.84732579971
 30
0.0
 40
75.0
 41
0.0
 71
     5
 72
     1
  1
\A1;I.Dφ470
 73
     1
 44
1.0
  0
POINT
  5
BD0
330
BC8
100
AcDbEntity
  8
DEFPOINTS
 62
     0
 48
25.0
100
AcDbPoint
 10
15152.31557794212
 20
-3100.398408889578
 30
0.0
  0
POINT
  5
BD1
330
BC8
100
AcDbEntity
  8
DEFPOINTS
 62
     0
 48
25.0
100
AcDbPoint
 10
15622.31556743605
 20
-3100.398408889579
 30
0.0
  0
POINT
  5
BD2
330
BC8
100
AcDbEntity
  8
DEFPOINTS
 62
     0
 48
25.0
100
AcDbPoint
 10
15622.31556743605
 20
-2854.847326991803
 30
0.0
  0
ENDBLK
  5
BD3
330
BC8
100
AcDbEntity
  8
0
 48
25.0
100
AcDbBlockEnd
  0
BLOCK
  5
C3F
330
C35
100
AcDbEntity
  8
0
100
AcDbBlockBegin
  2
*D22
 70
     1
 10
0.0
 20
0.0
 30
0.0
  3
*D22
  1

  0
LINE
  5
1075
330
C35
100
AcDbEntity
  8
寸法線
 62
     0
370
    -2
100
AcDbLine
 10
5432.748581496383
 20
10770.98978361929
 30
0.0
 11
5091.877073405456
 21
10770.98978361929
 31
0.0
  0
LINE
  5
1076
330
C35
100
AcDbEntity
  8
寸法線
 62
     0
370
    -2
100
AcDbLine
 10
5432.748581496383
 20
12820.98978361928
 30
0.0
 11
5091.877073405456
 21
12820.98978361928
 31
0.0
  0
LINE
  5
1077
330
C35
100
AcDbEntity
  8
寸法線
 62
     0
370
    -2
100
AcDbLine
 10
5166.877073405456
 20
10845.98978361929
 30
0.0
 11
5166.877073405456
 21
12745.98978361928
 31
0.0
  0
INSERT
  5
1078
330
C35
100
AcDbEntity
  8
寸法線
 62
     0
370
    -2
100
AcDbBlockReference
  2
_Open
 10
5166.877073405456
 20
10770.98978361929
 30
0.0
 41
75.0
 42
75.0
 43
75.0
 50
270.0
  0
INSERT
  5
1079
330
C35
100
AcDbEntity
  8
寸法線
 62
     0
370
    -2
100
AcDbBlockReference
  2
_Open
 10
5166.877073405456
 20
12820.98978361928
 30
0.0
 41
75.0
 42
75.0
 43
75.0
 50
90.0
  0
MTEXT
  5
107A
330
C35
100
AcDbEntity
  8
寸法線
 62
     0
100
AcDbMText
 10
5086.877072213361
 20
11795.98978361929
 30
0.0
 40
75.0
 41
0.0
 71
     5
 72
     1
  1
\A1;2050
 11
0.0000000000000001
 21
1.0
 31
0.0
 73
     1
 44
1.0
  0
POINT
  5
107B
330
C35
100
AcDbEntity
  8
DEFPOINTS
 62
     0
100
AcDbPoint
 10
5482.748581496384
 20
10770.98978361929
 30
0.0
  0
POINT
  5
107C
330
C35
100
AcDbEntity
  8
DEFPOINTS
 62
     0
100
AcDbPoint
 10
5482.748581496384
 20
12820.98978361928
 30
0.0
  0
POINT
  5
107D
330
C35
100
AcDbEntity
  8
DEFPOINTS
 62
     0
100
AcDbPoint
 10
5166.877073405456
 20
12820.98978361928
 30
0.0
  0
ENDBLK
  5
C40
330
C35
100
AcDbEntity
  8
0
100
AcDbBlockEnd
  0
BLOCK
  5
C4D
330
C41
100
AcDbEntity
  8
0
100
AcDbBlockBegin
  2
*D23
 70
     1
 10
0.0
 20
0.0
 30
0.0
  3
*D23
  1

  0
LINE
  5
107E
330
C41
100
AcDbEntity
  8
寸法線
 62
     0
370
    -2
100
AcDbLine
 10
5436.790625301546
 20
12960.98974547231
 30
0.0
 11
5091.877073405458
 21
12960.98974547231
 31
0.0
  0
LINE
  5
107F
330
C41
100
AcDbEntity
  8
寸法線
 62
     0
370
    -2
100
AcDbLine
 10
5436.790625301546
 20
12820.98978361928
 30
0.0
 11
5091.877073405458
 21
12820.98978361928
 31
0.0
  0
LINE
  5
1080
330
C41
100
AcDbEntity
  8
寸法線
 62
     0
370
    -2
100
AcDbLine
 10
5166.877073405458
 20
12745.98978361928
 30
0.0
 11
5166.877073405458
 21
12670.98978361928
 31
0.0
  0
LINE
  5
1081
330
C41
100
AcDbEntity
  8
寸法線
 62
     0
370
    -2
100
AcDbLine
 10
5166.877073405458
 20
13035.98974547231
 30
0.0
 11
5166.877073405458
 21
13497.96832696321
 31
0.0
  0
LINE
  5
1082
330
C41
100
AcDbEntity
  8
寸法線
 62
     0
370
    -2
100
AcDbLine
 10
5166.877073405458
 20
12820.98978361928
 30
0.0
 11
5166.877073405458
 21
12960.98974547231
 31
0.0
  0
INSERT
  5
1083
330
C41
100
AcDbEntity
  8
寸法線
 62
     0
370
    -2
100
AcDbBlockReference
  2
_Open
 10
5166.877073405458
 20
12820.98978361928
 30
0.0
 41
75.0
 42
75.0
 43
75.0
 50
90.0
  0
INSERT
  5
1084
330
C41
100
AcDbEntity
  8
寸法線
 62
     0
370
    -2
100
AcDbBlockReference
  2
_Open
 10
5166.877073405458
 20
12960.98974547231
 30
0.0
 41
75.0
 42
75.0
 43
75.0
 50
270.0
  0
MTEXT
  5
1085
330
C41
100
AcDbEntity
  8
寸法線
 62
     0
100
AcDbMText
 10
5086.877072213363
 20
13374.21832577112
 30
0.0
 40
75.0
 41
0.0
 71
     5
 72
     1
  1
\A1;140
 11
0.0000000000000001
 21
1.0
 31
0.0
 73
     1
 44
1.0
  0
POINT
  5
1086
330
C41
100
AcDbEntity
  8
DEFPOINTS
 62
     0
100
AcDbPoint
 10
5486.790625301546
 20
12960.98974547231
 30
0.0
  0
POINT
  5
1087
330
C41
100
AcDbEntity
  8
DEFPOINTS
 62
     0
100
AcDbPoint
 10
5486.790625301546
 20
12820.98978361928
 30
0.0
  0
POINT
  5
1088
330
C41
100
AcDbEntity
  8
DEFPOINTS
 62
     0
100
AcDbPoint
 10
5166.877073405458
 20
12820.98978361928
 30
0.0
  0
ENDBLK
  5
C4E
330
C41
100
AcDbEntity
  8
0
100
AcDbBlockEnd
  0
BLOCK
  5
C59
330
C4F
100
AcDbEntity
  8
0
100
AcDbBlockBegin
  2
*D24
 70
     1
 10
0.0
 20
0.0
 30
0.0
  3
*D24
  1

  0
LINE
  5
1089
330
C4F
100
AcDbEntity
  8
寸法線
 62
     0
370
    -2
100
AcDbLine
 10
5482.748788009438
 20
13010.98974547231
 30
0.0
 11
5482.748788009438
 21
13186.64471277459
 31
0.0
  0
LINE
  5
108A
330
C4F
100
AcDbEntity
  8
寸法線
 62
     0
370
    -2
100
AcDbLine
 10
5782.748788009438
 20
13010.98974547231
 30
0.0
 11
5782.748788009438
 21
13186.64471277459
 31
0.0
  0
LINE
  5
108B
330
C4F
100
AcDbEntity
  8
寸法線
 62
     0
370
    -2
100
AcDbLine
 10
5557.748788009438
 20
13111.64471277459
 30
0.0
 11
5707.748788009438
 21
13111.64471277459
 31
0.0
  0
INSERT
  5
108C
330
C4F
100
AcDbEntity
  8
寸法線
 62
     0
370
    -2
100
AcDbBlockReference
  2
_Open
 10
5482.748788009438
 20
13111.64471277459
 30
0.0
 41
75.0
 42
75.0
 43
75.0
 50
180.0
  0
INSERT
  5
108D
330
C4F
100
AcDbEntity
  8
寸法線
 62
     0
370
    -2
100
AcDbBlockReference
  2
_Open
 10
5782.748788009438
 20
13111.64471277459
 30
0.0
 41
75.0
 42
75.0
 43
75.0
  0
MTEXT
  5
108E
330
C4F
100
AcDbEntity
  8
寸法線
 62
     0
100
AcDbMText
 10
5632.748788009438
 20
13191.64471396668
 30
0.0
 40
75.0
 41
0.0
 71
     5
 72
     1
  1
\A1;300
 73
     1
 44
1.0
  0
POINT
  5
108F
330
C4F
100
AcDbEntity
  8
DEFPOINTS
 62
     0
100
AcDbPoint
 10
5482.748788009438
 20
12960.98974547231
 30
0.0
  0
POINT
  5
1090
330
C4F
100
AcDbEntity
  8
DEFPOINTS
 62
     0
100
AcDbPoint
 10
5782.748788009438
 20
12960.98974547231
 30
0.0
  0
POINT
  5
1091
330
C4F
100
AcDbEntity
  8
DEFPOINTS
 62
     0
100
AcDbPoint
 10
5782.748788009438
 20
13111.64471277459
 30
0.0
  0
ENDBLK
  5
C5A
330
C4F
100
AcDbEntity
  8
0
100
AcDbBlockEnd
  0
BLOCK
  5
C65
330
C5B
100
AcDbEntity
  8
0
100
AcDbBlockBegin
  2
*D25
 70
     1
 10
0.0
 20
0.0
 30
0.0
  3
*D25
  1

  0
LINE
  5
1092
330
C5B
100
AcDbEntity
  8
寸法線
 62
     0
370
    -2
100
AcDbLine
 10
5432.748581496383
 20
10770.98978361929
 30
0.0
 11
4677.520298465344
 21
10770.98978361929
 31
0.0
  0
LINE
  5
1093
330
C5B
100
AcDbEntity
  8
寸法線
 62
     0
370
    -2
100
AcDbLine
 10
6347.748411357629
 20
13250.98975500904
 30
0.0
 11
4677.520298465344
 21
13250.98975500904
 31
0.0
  0
LINE
  5
1094
330
C5B
100
AcDbEntity
  8
寸法線
 62
     0
370
    -2
100
AcDbLine
 10
4752.520298465344
 20
10845.98978361929
 30
0.0
 11
4752.520298465344
 21
13175.98975500904
 31
0.0
  0
INSERT
  5
1095
330
C5B
100
AcDbEntity
  8
寸法線
 62
     0
370
    -2
100
AcDbBlockReference
  2
_Open
 10
4752.520298465344
 20
10770.98978361929
 30
0.0
 41
75.0
 42
75.0
 43
75.0
 50
270.0
  0
INSERT
  5
1096
330
C5B
100
AcDbEntity
  8
寸法線
 62
     0
370
    -2
100
AcDbBlockReference
  2
_Open
 10
4752.520298465344
 20
13250.98975500904
 30
0.0
 41
75.0
 42
75.0
 43
75.0
 50
90.0
  0
MTEXT
  5
1097
330
C5B
100
AcDbEntity
  8
寸法線
 62
     0
100
AcDbMText
 10
4672.52029727325
 20
12010.98976931417
 30
0.0
 40
75.0
 41
0.0
 71
     5
 72
     1
  1
\A1;2480
 11
0.0000000000000001
 21
1.0
 31
0.0
 73
     1
 44
1.0
  0
POINT
  5
1098
330
C5B
100
AcDbEntity
  8
DEFPOINTS
 62
     0
100
AcDbPoint
 10
5482.748581496384
 20
10770.98978361929
 30
0.0
  0
POINT
  5
1099
330
C5B
100
AcDbEntity
  8
DEFPOINTS
 62
     0
100
AcDbPoint
 10
6397.748411357628
 20
13250.98975500904
 30
0.0
  0
POINT
  5
109A
330
C5B
100
AcDbEntity
  8
DEFPOINTS
 62
     0
100
AcDbPoint
 10
4752.520298465344
 20
13250.98975500904
 30
0.0
  0
ENDBLK
  5
C66
330
C5B
100
AcDbEntity
  8
0
100
AcDbBlockEnd
  0
BLOCK
  5
C71
330
C67
100
AcDbEntity
  8
0
100
AcDbBlockBegin
  2
*D26
 70
     1
 10
0.0
 20
0.0
 30
0.0
  3
*D26
  1

  0
LINE
  5
109B
330
C67
100
AcDbEntity
  8
寸法線
 62
     0
370
    -2
100
AcDbLine
 10
5452.748553005403
 20
10750.98978183115
 30
0.0
 11
5452.748553005403
 21
10167.94513150642
 31
0.0
  0
LINE
  5
109C
330
C67
100
AcDbEntity
  8
寸法線
 62
     0
370
    -2
100
AcDbLine
 10
7342.748493996805
 20
10750.98978183115
 30
0.0
 11
7342.748493996805
 21
10167.94513150642
 31
0.0
  0
LINE
  5
109D
330
C67
100
AcDbEntity
  8
寸法線
 62
     0
370
    -2
100
AcDbLine
 10
5527.748553005404
 20
10242.94513150642
 30
0.0
 11
7267.748493996805
 21
10242.94513150642
 31
0.0
  0
INSERT
  5
109E
330
C67
100
AcDbEntity
  8
寸法線
 62
     0
370
    -2
100
AcDbBlockReference
  2
_Open
 10
5452.748553005403
 20
10242.94513150642
 30
0.0
 41
75.0
 42
75.0
 43
75.0
 50
180.0
  0
INSERT
  5
109F
330
C67
100
AcDbEntity
  8
寸法線
 62
     0
370
    -2
100
AcDbBlockReference
  2
_Open
 10
7342.748493996805
 20
10242.94513150642
 30
0.0
 41
75.0
 42
75.0
 43
75.0
  0
MTEXT
  5
10A0
330
C67
100
AcDbEntity
  8
寸法線
 62
     0
100
AcDbMText
 10
6397.748523501104
 20
10322.94513269851
 30
0.0
 40
75.0
 41
0.0
 71
     5
 72
     1
  1
\A1;O.Dφ1890
 73
     1
 44
1.0
  0
POINT
  5
10A1
330
C67
100
AcDbEntity
  8
DEFPOINTS
 62
     0
100
AcDbPoint
 10
5452.748553005403
 20
10800.98978183114
 30
0.0
  0
POINT
  5
10A2
330
C67
100
AcDbEntity
  8
DEFPOINTS
 62
     0
100
AcDbPoint
 10
7342.748493996805
 20
10800.98978183114
 30
0.0
  0
POINT
  5
10A3
330
C67
100
AcDbEntity
  8
DEFPOINTS
 62
     0
100
AcDbPoint
 10
7342.748493996805
 20
10242.94513150642
 30
0.0
  0
ENDBLK
  5
C72
330
C67
100
AcDbEntity
  8
0
100
AcDbBlockEnd
  0
BLOCK
  5
C7D
330
C73
100
AcDbEntity
  8
0
100
AcDbBlockBegin
  2
*D27
 70
     1
 10
0.0
 20
0.0
 30
0.0
  3
*D27
  1

  0
LINE
  5
10A4
330
C73
100
AcDbEntity
  8
寸法線
 62
     0
370
    -2
100
AcDbLine
 10
6162.748539184953
 20
13240.98981222971
 30
0.0
 11
6162.748539184953
 21
13511.54089412748
 31
0.0
  0
LINE
  5
10A5
330
C73
100
AcDbEntity
  8
寸法線
 62
     0
370
    -2
100
AcDbLine
 10
6632.748528678881
 20
13240.98981222971
 30
0.0
 11
6632.748528678881
 21
13511.54089412748
 31
0.0
  0
LINE
  5
10A6
330
C73
100
AcDbEntity
  8
寸法線
 62
     0
370
    -2
100
AcDbLine
 10
6237.748539184953
 20
13436.54089412748
 30
0.0
 11
6557.748528678882
 21
13436.54089412748
 31
0.0
  0
INSERT
  5
10A7
330
C73
100
AcDbEntity
  8
寸法線
 62
     0
370
    -2
100
AcDbBlockReference
  2
_Open
 10
6162.748539184953
 20
13436.54089412748
 30
0.0
 41
75.0
 42
75.0
 43
75.0
 50
180.0
  0
INSERT
  5
10A8
330
C73
100
AcDbEntity
  8
寸法線
 62
     0
370
    -2
100
AcDbBlockReference
  2
_Open
 10
6632.748528678881
 20
13436.54089412748
 30
0.0
 41
75.0
 42
75.0
 43
75.0
  0
MTEXT
  5
10A9
330
C73
100
AcDbEntity
  8
寸法線
 62
     0
100
AcDbMText
 10
6397.748533931917
 20
13516.54089531957
 30
0.0
 40
75.0
 41
0.0
 71
     5
 72
     1
  1
\A1;I.Dφ470
 73
     1
 44
1.0
  0
POINT
  5
10AA
330
C73
100
AcDbEntity
  8
DEFPOINTS
 62
     0
100
AcDbPoint
 10
6162.748539184953
 20
13190.98981222971
 30
0.0
  0
POINT
  5
10AB
330
C73
100
AcDbEntity
  8
DEFPOINTS
 62
     0
100
AcDbPoint
 10
6632.748528678881
 20
13190.98981222971
 30
0.0
  0
POINT
  5
10AC
330
C73
100
AcDbEntity
  8
DEFPOINTS
 62
     0
100
AcDbPoint
 10
6632.748528678881
 20
13436.54089412748
 30
0.0
  0
ENDBLK
  5
C7E
330
C73
100
AcDbEntity
  8
0
100
AcDbBlockEnd
  0
BLOCK
  5
CB8
330
CB7
100
AcDbEntity
  8
0
 48
25.0
100
AcDbBlockBegin
  2
*D28
 70
     1
 10
0.0
 20
0.0
 30
0.0
  3
*D28
  1

  0
LINE
  5
CB9
330
CB7
100
AcDbEntity
  8
寸法線
 62
     0
 48
25.0
370
    -2
100
AcDbLine
 10
18204.65832004334
 20
-1566.315875720655
 30
0.0
 11
19377.40125172999
 21
-1915.785636129054
 31
0.0
  0
LINE
  5
CBA
330
CB7
100
AcDbEntity
  8
寸法線
 62
     0
 48
25.0
370
    -2
100
AcDbLine
 10
19971.58067694869
 20
-2092.8472374061
 30
0.0
 11
20043.45722032192
 21
-2114.265979496065
 31
0.0
  0
MTEXT
  5
CBB
330
CB7
100
AcDbEntity
  8
寸法線
 62
     0
 48
25.0
100
AcDbMText
 10
18465.89551527673
 20
-1560.686389918923
 30
0.0
 40
75.0
 41
0.0
 71
     5
 72
     1
  1
\A1;I.D\U+2205470
 11
0.9583539116430433
 21
-0.2855832278662002
 31
0.0
 73
     1
 44
1.0
  0
LINE
  5
CBC
330
CB7
100
AcDbEntity
  8
寸法線
 62
     0
 48
25.0
370
    -2
100
AcDbLine
 10
19899.70413357546
 20
-2071.428495316134
 30
0.0
 11
19449.27779510322
 21
-1937.204378219018
 31
0.0
  0
INSERT
  5
CBD
330
CB7
100
AcDbEntity
  8
寸法線
 62
     0
 48
25.0
370
    -2
100
AcDbBlockReference
  2
_OPEN30
 10
19899.70413357546
 20
-2071.428495316134
 30
0.0
 41
75.0
 42
75.0
 43
75.0
 50
163.4062859349183
  0
INSERT
  5
CBE
330
CB7
100
AcDbEntity
  8
寸法線
 62
     0
 48
25.0
370
    -2
100
AcDbBlockReference
  2
_OPEN30
 10
19449.27779510322
 20
-1937.204378219018
 30
0.0
 41
75.0
 42
75.0
 43
75.0
 50
343.4062859349183
  0
POINT
  5
CBF
330
CB7
100
AcDbEntity
  8
DEFPOINTS
 62
     0
 48
25.0
100
AcDbPoint
 10
19449.27779510322
 20
-1937.204378219018
 30
0.0
  0
POINT
  5
CC0
330
CB7
100
AcDbEntity
  8
DEFPOINTS
 62
     0
 48
25.0
100
AcDbPoint
 10
19899.70413357546
 20
-2071.428495316134
 30
0.0
  0
ENDBLK
  5
CC1
330
CB7
100
AcDbEntity
  8
0
 48
25.0
100
AcDbBlockEnd
  0
BLOCK
  5
D20
330
D17
100
AcDbEntity
  8
0
100
AcDbBlockBegin
  2
*D30
 70
     1
 10
0.0
 20
0.0
 30
0.0
  3
*D30
  1

  0
LINE
  5
10AD
330
D17
100
AcDbEntity
  8
寸法線
 62
     0
370
    -2
100
AcDbLine
 10
8909.194439841821
 20
11952.74310060813
 30
0.0
 11
10081.93737152847
 21
11603.27334019974
 31
0.0
  0
LINE
  5
10AE
330
D17
100
AcDbEntity
  8
寸法線
 62
     0
370
    -2
100
AcDbLine
 10
10676.11679674717
 20
11426.2117389227
 30
0.0
 11
10747.9933401204
 21
11404.79299683273
 31
0.0
  0
MTEXT
  5
10AF
330
D17
100
AcDbEntity
  8
寸法線
 62
     0
100
AcDbMText
 10
9170.431635075212
 20
11958.37258640986
 30
0.0
 40
75.0
 41
0.0
 71
     5
 72
     1
  1
\A1;I.D\U+2205470
 11
0.9583539116430445
 21
-0.2855832278661961
 31
0.0
 73
     1
 44
1.0
  0
LINE
  5
10B0
330
D17
100
AcDbEntity
  8
寸法線
 62
     0
370
    -2
100
AcDbLine
 10
10604.24025337394
 20
11447.63048101266
 30
0.0
 11
10153.81391490171
 21
11581.85459810977
 31
0.0
  0
INSERT
  5
10B1
330
D17
100
AcDbEntity
  8
寸法線
 62
     0
370
    -2
100
AcDbBlockReference
  2
_Open
 10
10604.24025337394
 20
11447.63048101266
 30
0.0
 41
75.0
 42
75.0
 43
75.0
 50
163.4062859349186
  0
INSERT
  5
10B2
330
D17
100
AcDbEntity
  8
寸法線
 62
     0
370
    -2
100
AcDbBlockReference
  2
_Open
 10
10153.81391490171
 20
11581.85459810977
 30
0.0
 41
75.0
 42
75.0
 43
75.0
 50
343.4062859349186
  0
POINT
  5
10B3
330
D17
100
AcDbEntity
  8
DEFPOINTS
 62
     0
100
AcDbPoint
 10
10153.81391490171
 20
11581.85459810977
 30
0.0
  0
POINT
  5
10B4
330
D17
100
AcDbEntity
  8
DEFPOINTS
 62
     0
100
AcDbPoint
 10
10604.24025337394
 20
11447.63048101266
 30
0.0
  0
ENDBLK
  5
D21
330
D17
100
AcDbEntity
  8
0
100
AcDbBlockEnd
  0
BLOCK
  5
ECE
330
ECD
100
AcDbEntity
  8
0
100
AcDbBlockBegin
  2
*D31
 70
     1
 10
0.0
 20
0.0
 30
0.0
  3
*D31
  1

  0
LINE
  5
ECF
330
ECD
100
AcDbEntity
  8
寸法線
 62
     0
370
    -2
100
AcDbLine
 10
8909.194439841822
 20
11952.74310060814
 30
0.0
 11
10081.93737152848
 21
11603.27334019974
 31
0.0
  0
LINE
  5
ED0
330
ECD
100
AcDbEntity
  8
寸法線
 62
     0
370
    -2
100
AcDbLine
 10
10676.11679674717
 20
11426.21173892269
 30
0.0
 11
10747.9933401204
 21
11404.79299683273
 31
0.0
  0
MTEXT
  5
ED1
330
ECD
100
AcDbEntity
  8
寸法線
 62
     0
100
AcDbMText
 10
9170.431635075214
 20
11958.37258640987
 30
0.0
 40
75.0
 41
0.0
 71
     5
 72
     1
  1
\A1;I.D\U+2205470
 11
0.9583539116430436
 21
-0.2855832278661996
 31
0.0
 73
     1
 44
1.0
  0
LINE
  5
ED2
330
ECD
100
AcDbEntity
  8
寸法線
 62
     0
370
    -2
100
AcDbLine
 10
10604.24025337394
 20
11447.63048101266
 30
0.0
 11
10153.81391490171
 21
11581.85459810977
 31
0.0
  0
INSERT
  5
ED3
330
ECD
100
AcDbEntity
  8
寸法線
 62
     0
370
    -2
100
AcDbBlockReference
  2
_OPEN30
 10
10604.24025337394
 20
11447.63048101266
 30
0.0
 41
75.0
 42
75.0
 43
75.0
 50
163.4062859349184
  0
INSERT
  5
ED4
330
ECD
100
AcDbEntity
  8
寸法線
 62
     0
370
    -2
100
AcDbBlockReference
  2
_OPEN30
 10
10153.81391490171
 20
11581.85459810977
 30
0.0
 41
75.0
 42
75.0
 43
75.0
 50
343.4062859349184
  0
POINT
  5
ED5
330
ECD
100
AcDbEntity
  8
DEFPOINTS
 62
     0
100
AcDbPoint
 10
10153.81391490171
 20
11581.85459810977
 30
0.0
  0
POINT
  5
ED6
330
ECD
100
AcDbEntity
  8
DEFPOINTS
 62
     0
100
AcDbPoint
 10
10604.24025337394
 20
11447.63048101266
 30
0.0
  0
ENDBLK
  5
ED7
330
ECD
100
AcDbEntity
  8
0
100
AcDbBlockEnd
  0
BLOCK
  5
EED
330
EE4
100
AcDbEntity
  8
0
100
AcDbBlockBegin
  2
*D33
 70
     1
 10
0.0
 20
0.0
 30
0.0
  3
*D33
  1

  0
LINE
  5
10B5
330
EE4
100
AcDbEntity
  8
寸法線
 62
     0
370
    -2
100
AcDbLine
 10
8352.399687104961
 20
6799.694653120742
 30
0.0
 11
9525.142618791617
 21
6450.224892712345
 31
0.0
  0
LINE
  5
10B6
330
EE4
100
AcDbEntity
  8
寸法線
 62
     0
370
    -2
100
AcDbLine
 10
10119.32204401031
 20
6273.163291435299
 30
0.0
 11
10191.19858738354
 21
6251.744549345334
 31
0.0
  0
MTEXT
  5
10B7
330
EE4
100
AcDbEntity
  8
寸法線
 62
     0
100
AcDbMText
 10
8613.636882338353
 20
6805.324138922474
 30
0.0
 40
75.0
 41
0.0
 71
     5
 72
     1
  1
\A1;I.D\U+2205470
 11
0.9583539116430436
 21
-0.2855832278661996
 31
0.0
 73
     1
 44
1.0
  0
LINE
  5
10B8
330
EE4
100
AcDbEntity
  8
寸法線
 62
     0
370
    -2
100
AcDbLine
 10
10047.44550063708
 20
6294.582033525264
 30
0.0
 11
9597.019162164846
 21
6428.80615062238
 31
0.0
  0
INSERT
  5
10B9
330
EE4
100
AcDbEntity
  8
寸法線
 62
     0
370
    -2
100
AcDbBlockReference
  2
_Open
 10
10047.44550063708
 20
6294.582033525264
 30
0.0
 41
75.0
 42
75.0
 43
75.0
 50
163.4062859349184
  0
INSERT
  5
10BA
330
EE4
100
AcDbEntity
  8
寸法線
 62
     0
370
    -2
100
AcDbBlockReference
  2
_Open
 10
9597.019162164846
 20
6428.80615062238
 30
0.0
 41
75.0
 42
75.0
 43
75.0
 50
343.4062859349184
  0
POINT
  5
10BB
330
EE4
100
AcDbEntity
  8
DEFPOINTS
 62
     0
100
AcDbPoint
 10
9597.019162164846
 20
6428.80615062238
 30
0.0
  0
POINT
  5
10BC
330
EE4
100
AcDbEntity
  8
DEFPOINTS
 62
     0
100
AcDbPoint
 10
10047.44550063708
 20
6294.582033525264
 30
0.0
  0
ENDBLK
  5
EEE
330
EE4
100
AcDbEntity
  8
0
100
AcDbBlockEnd
  0
BLOCK
  5
EF9
330
EF8
100
AcDbEntity
  8
0
100
AcDbBlockBegin
  2
*D34
 70
     1
 10
0.0
 20
0.0
 30
0.0
  3
*D34
  1

  0
LINE
  5
EFA
330
EF8
100
AcDbEntity
  8
寸法線
 62
     0
370
    -2
100
AcDbLine
 10
5436.790625301546
 20
12960.98974547231
 30
0.0
 11
5091.877073405458
 21
12960.98974547231
 31
0.0
  0
LINE
  5
EFB
330
EF8
100
AcDbEntity
  8
寸法線
 62
     0
370
    -2
100
AcDbLine
 10
5436.790625301546
 20
12820.98978361928
 30
0.0
 11
5091.877073405458
 21
12820.98978361928
 31
0.0
  0
LINE
  5
EFC
330
EF8
100
AcDbEntity
  8
寸法線
 62
     0
370
    -2
100
AcDbLine
 10
5166.877073405458
 20
12745.98978361928
 30
0.0
 11
5166.877073405458
 21
12670.98978361928
 31
0.0
  0
LINE
  5
EFD
330
EF8
100
AcDbEntity
  8
寸法線
 62
     0
370
    -2
100
AcDbLine
 10
5166.877073405458
 20
13035.98974547231
 30
0.0
 11
5166.877073405458
 21
13497.96832696321
 31
0.0
  0
LINE
  5
EFE
330
EF8
100
AcDbEntity
  8
寸法線
 62
     0
370
    -2
100
AcDbLine
 10
5166.877073405458
 20
12820.98978361928
 30
0.0
 11
5166.877073405458
 21
12960.98974547231
 31
0.0
  0
INSERT
  5
EFF
330
EF8
100
AcDbEntity
  8
寸法線
 62
     0
370
    -2
100
AcDbBlockReference
  2
_OPEN30
 10
5166.877073405458
 20
12820.98978361928
 30
0.0
 41
75.0
 42
75.0
 43
75.0
 50
90.0
  0
INSERT
  5
F00
330
EF8
100
AcDbEntity
  8
寸法線
 62
     0
370
    -2
100
AcDbBlockReference
  2
_OPEN30
 10
5166.877073405458
 20
12960.98974547231
 30
0.0
 41
75.0
 42
75.0
 43
75.0
 50
270.0
  0
MTEXT
  5
F01
330
EF8
100
AcDbEntity
  8
寸法線
 62
     0
100
AcDbMText
 10
5086.877072213363
 20
13374.21832577112
 30
0.0
 40
75.0
 41
0.0
 71
     5
 72
     1
  1
\A1;140
 11
0.0000000000000001
 21
1.0
 31
0.0
 73
     1
 44
1.0
  0
POINT
  5
F02
330
EF8
100
AcDbEntity
  8
DEFPOINTS
 62
     0
100
AcDbPoint
 10
5486.790625301546
 20
12960.98974547231
 30
0.0
  0
POINT
  5
F03
330
EF8
100
AcDbEntity
  8
DEFPOINTS
 62
     0
100
AcDbPoint
 10
5486.790625301546
 20
12820.98978361928
 30
0.0
  0
POINT
  5
F04
330
EF8
100
AcDbEntity
  8
DEFPOINTS
 62
     0
100
AcDbPoint
 10
5166.877073405458
 20
12820.98978361928
 30
0.0
  0
ENDBLK
  5
F05
330
EF8
100
AcDbEntity
  8
0
100
AcDbBlockEnd
  0
BLOCK
  5
F07
330
F06
100
AcDbEntity
  8
0
100
AcDbBlockBegin
  2
*D35
 70
     1
 10
0.0
 20
0.0
 30
0.0
  3
*D35
  1

  0
LINE
  5
F08
330
F06
100
AcDbEntity
  8
寸法線
 62
     0
370
    -2
100
AcDbLine
 10
5482.748788009438
 20
13010.98974547231
 30
0.0
 11
5482.748788009438
 21
13186.64471277459
 31
0.0
  0
LINE
  5
F09
330
F06
100
AcDbEntity
  8
寸法線
 62
     0
370
    -2
100
AcDbLine
 10
5782.748788009438
 20
13010.98974547231
 30
0.0
 11
5782.748788009438
 21
13186.64471277459
 31
0.0
  0
LINE
  5
F0A
330
F06
100
AcDbEntity
  8
寸法線
 62
     0
370
    -2
100
AcDbLine
 10
5557.748788009438
 20
13111.64471277459
 30
0.0
 11
5707.748788009438
 21
13111.64471277459
 31
0.0
  0
INSERT
  5
F0B
330
F06
100
AcDbEntity
  8
寸法線
 62
     0
370
    -2
100
AcDbBlockReference
  2
_OPEN30
 10
5482.748788009438
 20
13111.64471277459
 30
0.0
 41
75.0
 42
75.0
 43
75.0
 50
180.0
  0
INSERT
  5
F0C
330
F06
100
AcDbEntity
  8
寸法線
 62
     0
370
    -2
100
AcDbBlockReference
  2
_OPEN30
 10
5782.748788009438
 20
13111.64471277459
 30
0.0
 41
75.0
 42
75.0
 43
75.0
  0
MTEXT
  5
F0D
330
F06
100
AcDbEntity
  8
寸法線
 62
     0
100
AcDbMText
 10
5632.748788009438
 20
13191.64471396668
 30
0.0
 40
75.0
 41
0.0
 71
     5
 72
     1
  1
\A1;300
 73
     1
 44
1.0
  0
POINT
  5
F0E
330
F06
100
AcDbEntity
  8
DEFPOINTS
 62
     0
100
AcDbPoint
 10
5482.748788009438
 20
12960.98974547231
 30
0.0
  0
POINT
  5
F0F
330
F06
100
AcDbEntity
  8
DEFPOINTS
 62
     0
100
AcDbPoint
 10
5782.748788009438
 20
12960.98974547231
 30
0.0
  0
POINT
  5
F10
330
F06
100
AcDbEntity
  8
DEFPOINTS
 62
     0
100
AcDbPoint
 10
5782.748788009438
 20
13111.64471277459
 30
0.0
  0
ENDBLK
  5
F11
330
F06
100
AcDbEntity
  8
0
100
AcDbBlockEnd
  0
BLOCK
  5
F13
330
F12
100
AcDbEntity
  8
0
100
AcDbBlockBegin
  2
*D36
 70
     1
 10
0.0
 20
0.0
 30
0.0
  3
*D36
  1

  0
LINE
  5
F14
330
F12
100
AcDbEntity
  8
寸法線
 62
     0
370
    -2
100
AcDbLine
 10
5432.748581496383
 20
10770.98978361929
 30
0.0
 11
4677.520298465344
 21
10770.98978361929
 31
0.0
  0
LINE
  5
F15
330
F12
100
AcDbEntity
  8
寸法線
 62
     0
370
    -2
100
AcDbLine
 10
6347.748411357629
 20
13250.98975500904
 30
0.0
 11
4677.520298465344
 21
13250.98975500904
 31
0.0
  0
LINE
  5
F16
330
F12
100
AcDbEntity
  8
寸法線
 62
     0
370
    -2
100
AcDbLine
 10
4752.520298465344
 20
10845.98978361929
 30
0.0
 11
4752.520298465344
 21
13175.98975500904
 31
0.0
  0
INSERT
  5
F17
330
F12
100
AcDbEntity
  8
寸法線
 62
     0
370
    -2
100
AcDbBlockReference
  2
_OPEN30
 10
4752.520298465344
 20
10770.98978361929
 30
0.0
 41
75.0
 42
75.0
 43
75.0
 50
270.0
  0
INSERT
  5
F18
330
F12
100
AcDbEntity
  8
寸法線
 62
     0
370
    -2
100
AcDbBlockReference
  2
_OPEN30
 10
4752.520298465344
 20
13250.98975500904
 30
0.0
 41
75.0
 42
75.0
 43
75.0
 50
90.0
  0
MTEXT
  5
F19
330
F12
100
AcDbEntity
  8
寸法線
 62
     0
100
AcDbMText
 10
4672.52029727325
 20
12010.98976931417
 30
0.0
 40
75.0
 41
0.0
 71
     5
 72
     1
  1
\A1;2480
 11
0.0000000000000001
 21
1.0
 31
0.0
 73
     1
 44
1.0
  0
POINT
  5
F1A
330
F12
100
AcDbEntity
  8
DEFPOINTS
 62
     0
100
AcDbPoint
 10
5482.748581496384
 20
10770.98978361929
 30
0.0
  0
POINT
  5
F1B
330
F12
100
AcDbEntity
  8
DEFPOINTS
 62
     0
100
AcDbPoint
 10
6397.748411357628
 20
13250.98975500904
 30
0.0
  0
POINT
  5
F1C
330
F12
100
AcDbEntity
  8
DEFPOINTS
 62
     0
100
AcDbPoint
 10
4752.520298465344
 20
13250.98975500904
 30
0.0
  0
ENDBLK
  5
F1D
330
F12
100
AcDbEntity
  8
0
100
AcDbBlockEnd
  0
BLOCK
  5
F1F
330
F1E
100
AcDbEntity
  8
0
100
AcDbBlockBegin
  2
*D37
 70
     1
 10
0.0
 20
0.0
 30
0.0
  3
*D37
  1

  0
LINE
  5
F20
330
F1E
100
AcDbEntity
  8
寸法線
 62
     0
370
    -2
100
AcDbLine
 10
6162.748539184953
 20
13240.98981222971
 30
0.0
 11
6162.748539184953
 21
13511.54089412748
 31
0.0
  0
LINE
  5
F21
330
F1E
100
AcDbEntity
  8
寸法線
 62
     0
370
    -2
100
AcDbLine
 10
6632.748528678881
 20
13240.98981222971
 30
0.0
 11
6632.748528678881
 21
13511.54089412748
 31
0.0
  0
LINE
  5
F22
330
F1E
100
AcDbEntity
  8
寸法線
 62
     0
370
    -2
100
AcDbLine
 10
6237.748539184953
 20
13436.54089412748
 30
0.0
 11
6557.748528678882
 21
13436.54089412748
 31
0.0
  0
INSERT
  5
F23
330
F1E
100
AcDbEntity
  8
寸法線
 62
     0
370
    -2
100
AcDbBlockReference
  2
_OPEN30
 10
6162.748539184953
 20
13436.54089412748
 30
0.0
 41
75.0
 42
75.0
 43
75.0
 50
180.0
  0
INSERT
  5
F24
330
F1E
100
AcDbEntity
  8
寸法線
 62
     0
370
    -2
100
AcDbBlockReference
  2
_OPEN30
 10
6632.748528678881
 20
13436.54089412748
 30
0.0
 41
75.0
 42
75.0
 43
75.0
  0
MTEXT
  5
F25
330
F1E
100
AcDbEntity
  8
寸法線
 62
     0
100
AcDbMText
 10
6397.748533931917
 20
13516.54089531957
 30
0.0
 40
75.0
 41
0.0
 71
     5
 72
     1
  1
\A1;I.Dφ470
 73
     1
 44
1.0
  0
POINT
  5
F26
330
F1E
100
AcDbEntity
  8
DEFPOINTS
 62
     0
100
AcDbPoint
 10
6162.748539184953
 20
13190.98981222971
 30
0.0
  0
POINT
  5
F27
330
F1E
100
AcDbEntity
  8
DEFPOINTS
 62
     0
100
AcDbPoint
 10
6632.748528678881
 20
13190.98981222971
 30
0.0
  0
POINT
  5
F28
330
F1E
100
AcDbEntity
  8
DEFPOINTS
 62
     0
100
AcDbPoint
 10
6632.748528678881
 20
13436.54089412748
 30
0.0
  0
ENDBLK
  5
F29
330
F1E
100
AcDbEntity
  8
0
100
AcDbBlockEnd
  0
BLOCK
  5
F82
330
F76
100
AcDbEntity
  8
0
100
AcDbBlockBegin
  2
*D39
 70
     1
 10
0.0
 20
0.0
 30
0.0
  3
*D39
  1

  0
LINE
  5
FA8
330
F76
100
AcDbEntity
  8
寸法線
 62
     0
370
    -2
100
AcDbLine
 10
5645.789107233753
 20
5523.914859446697
 30
0.0
 11
5300.875555337663
 21
5523.914859446697
 31
0.0
  0
LINE
  5
FA9
330
F76
100
AcDbEntity
  8
寸法線
 62
     0
370
    -2
100
AcDbLine
 10
5645.789107233753
 20
5383.914897593669
 30
0.0
 11
5300.875555337663
 21
5383.914897593669
 31
0.0
  0
LINE
  5
FAA
330
F76
100
AcDbEntity
  8
寸法線
 62
     0
370
    -2
100
AcDbLine
 10
5375.875555337663
 20
5308.91489759367
 30
0.0
 11
5375.875555337663
 21
5233.91489759367
 31
0.0
  0
LINE
  5
FAB
330
F76
100
AcDbEntity
  8
寸法線
 62
     0
370
    -2
100
AcDbLine
 10
5375.875555337663
 20
5598.914859446697
 30
0.0
 11
5375.875555337663
 21
6060.893440937594
 31
0.0
  0
LINE
  5
FAC
330
F76
100
AcDbEntity
  8
寸法線
 62
     0
370
    -2
100
AcDbLine
 10
5375.875555337663
 20
5383.914897593669
 30
0.0
 11
5375.875555337663
 21
5523.914859446697
 31
0.0
  0
INSERT
  5
FAD
330
F76
100
AcDbEntity
  8
寸法線
 62
     0
370
    -2
100
AcDbBlockReference
  2
_OPEN30
 10
5375.875555337663
 20
5383.914897593669
 30
0.0
 41
75.0
 42
75.0
 43
75.0
 50
90.0
  0
INSERT
  5
FAE
330
F76
100
AcDbEntity
  8
寸法線
 62
     0
370
    -2
100
AcDbBlockReference
  2
_OPEN30
 10
5375.875555337663
 20
5523.914859446697
 30
0.0
 41
75.0
 42
75.0
 43
75.0
 50
270.0
  0
MTEXT
  5
FAF
330
F76
100
AcDbEntity
  8
寸法線
 62
     0
100
AcDbMText
 10
5295.875554145569
 20
5937.143439745501
 30
0.0
 40
75.0
 41
0.0
 71
     5
 72
     1
  1
\A1;140
 11
0.0000000000000001
 21
1.0
 31
0.0
 73
     1
 44
1.0
  0
POINT
  5
FB0
330
F76
100
AcDbEntity
  8
DEFPOINTS
 62
     0
100
AcDbPoint
 10
5695.789107233752
 20
5523.914859446697
 30
0.0
  0
POINT
  5
FB1
330
F76
100
AcDbEntity
  8
DEFPOINTS
 62
     0
100
AcDbPoint
 10
5695.789107233752
 20
5383.914897593669
 30
0.0
  0
POINT
  5
FB2
330
F76
100
AcDbEntity
  8
DEFPOINTS
 62
     0
100
AcDbPoint
 10
5375.875555337663
 20
5383.914897593669
 30
0.0
  0
ENDBLK
  5
F83
330
F76
100
AcDbEntity
  8
0
100
AcDbBlockEnd
  0
BLOCK
  5
F8E
330
F84
100
AcDbEntity
  8
0
100
AcDbBlockBegin
  2
*D40
 70
     1
 10
0.0
 20
0.0
 30
0.0
  3
*D40
  1

  0
LINE
  5
FB3
330
F84
100
AcDbEntity
  8
寸法線
 62
     0
370
    -2
100
AcDbLine
 10
5691.747269941644
 20
5573.914859446697
 30
0.0
 11
5691.747269941644
 21
5749.569826748975
 31
0.0
  0
LINE
  5
FB4
330
F84
100
AcDbEntity
  8
寸法線
 62
     0
370
    -2
100
AcDbLine
 10
5991.747269941644
 20
5573.914859446697
 30
0.0
 11
5991.747269941644
 21
5749.569826748975
 31
0.0
  0
LINE
  5
FB5
330
F84
100
AcDbEntity
  8
寸法線
 62
     0
370
    -2
100
AcDbLine
 10
5766.747269941644
 20
5674.569826748975
 30
0.0
 11
5916.747269941645
 21
5674.569826748975
 31
0.0
  0
INSERT
  5
FB6
330
F84
100
AcDbEntity
  8
寸法線
 62
     0
370
    -2
100
AcDbBlockReference
  2
_OPEN30
 10
5691.747269941644
 20
5674.569826748975
 30
0.0
 41
75.0
 42
75.0
 43
75.0
 50
180.0
  0
INSERT
  5
FB7
330
F84
100
AcDbEntity
  8
寸法線
 62
     0
370
    -2
100
AcDbBlockReference
  2
_OPEN30
 10
5991.747269941644
 20
5674.569826748975
 30
0.0
 41
75.0
 42
75.0
 43
75.0
  0
MTEXT
  5
FB8
330
F84
100
AcDbEntity
  8
寸法線
 62
     0
100
AcDbMText
 10
5841.747269941644
 20
5754.569827941068
 30
0.0
 40
75.0
 41
0.0
 71
     5
 72
     1
  1
\A1;300
 73
     1
 44
1.0
  0
POINT
  5
FB9
330
F84
100
AcDbEntity
  8
DEFPOINTS
 62
     0
100
AcDbPoint
 10
5691.747269941644
 20
5523.914859446697
 30
0.0
  0
POINT
  5
FBA
330
F84
100
AcDbEntity
  8
DEFPOINTS
 62
     0
100
AcDbPoint
 10
5991.747269941644
 20
5523.914859446697
 30
0.0
  0
POINT
  5
FBB
330
F84
100
AcDbEntity
  8
DEFPOINTS
 62
     0
100
AcDbPoint
 10
5991.747269941644
 20
5674.569826748975
 30
0.0
  0
ENDBLK
  5
F8F
330
F84
100
AcDbEntity
  8
0
100
AcDbBlockEnd
  0
BLOCK
  5
F9A
330
F90
100
AcDbEntity
  8
0
100
AcDbBlockBegin
  2
*D41
 70
     1
 10
0.0
 20
0.0
 30
0.0
  3
*D41
  1

  0
LINE
  5
FBC
330
F90
100
AcDbEntity
  8
寸法線
 62
     0
370
    -2
100
AcDbLine
 10
5641.74706342859
 20
3333.914897593672
 30
0.0
 11
4886.518780397551
 21
3333.914897593672
 31
0.0
  0
LINE
  5
FBD
330
F90
100
AcDbEntity
  8
寸法線
 62
     0
370
    -2
100
AcDbLine
 10
6556.746893289835
 20
5813.914868983426
 30
0.0
 11
4886.518780397551
 21
5813.914868983427
 31
0.0
  0
LINE
  5
FBE
330
F90
100
AcDbEntity
  8
寸法線
 62
     0
370
    -2
100
AcDbLine
 10
4961.51878039755
 20
3408.914897593672
 30
0.0
 11
4961.51878039755
 21
5738.914868983426
 31
0.0
  0
INSERT
  5
FBF
330
F90
100
AcDbEntity
  8
寸法線
 62
     0
370
    -2
100
AcDbBlockReference
  2
_OPEN30
 10
4961.51878039755
 20
3333.914897593672
 30
0.0
 41
75.0
 42
75.0
 43
75.0
 50
270.0
  0
INSERT
  5
FC0
330
F90
100
AcDbEntity
  8
寸法線
 62
     0
370
    -2
100
AcDbBlockReference
  2
_OPEN30
 10
4961.51878039755
 20
5813.914868983427
 30
0.0
 41
75.0
 42
75.0
 43
75.0
 50
90.0
  0
MTEXT
  5
FC1
330
F90
100
AcDbEntity
  8
寸法線
 62
     0
100
AcDbMText
 10
4881.518779205457
 20
4573.914883288551
 30
0.0
 40
75.0
 41
0.0
 71
     5
 72
     1
  1
\A1;2480
 11
0.0000000000000001
 21
1.0
 31
0.0
 73
     1
 44
1.0
  0
POINT
  5
FC2
330
F90
100
AcDbEntity
  8
DEFPOINTS
 62
     0
100
AcDbPoint
 10
5691.74706342859
 20
3333.914897593672
 30
0.0
  0
POINT
  5
FC3
330
F90
100
AcDbEntity
  8
DEFPOINTS
 62
     0
100
AcDbPoint
 10
6606.746893289835
 20
5813.914868983426
 30
0.0
  0
POINT
  5
FC4
330
F90
100
AcDbEntity
  8
DEFPOINTS
 62
     0
100
AcDbPoint
 10
4961.51878039755
 20
5813.914868983427
 30
0.0
  0
ENDBLK
  5
F9B
330
F90
100
AcDbEntity
  8
0
100
AcDbBlockEnd
  0
BLOCK
  5
FA6
330
F9C
100
AcDbEntity
  8
0
100
AcDbBlockBegin
  2
*D42
 70
     1
 10
0.0
 20
0.0
 30
0.0
  3
*D42
  1

  0
LINE
  5
10BD
330
F9C
100
AcDbEntity
  8
寸法線
 62
     0
370
    -2
100
AcDbLine
 10
6371.747021117159
 20
5803.914926204092
 30
0.0
 11
6371.747021117159
 21
6074.466008101866
 31
0.0
  0
LINE
  5
10BE
330
F9C
100
AcDbEntity
  8
寸法線
 62
     0
370
    -2
100
AcDbLine
 10
6841.747010611088
 20
5803.914926204092
 30
0.0
 11
6841.747010611088
 21
6074.466008101866
 31
0.0
  0
LINE
  5
10BF
330
F9C
100
AcDbEntity
  8
寸法線
 62
     0
370
    -2
100
AcDbLine
 10
6446.74702111716
 20
5999.466008101866
 30
0.0
 11
6766.747010611088
 21
5999.466008101866
 31
0.0
  0
INSERT
  5
10C0
330
F9C
100
AcDbEntity
  8
寸法線
 62
     0
370
    -2
100
AcDbBlockReference
  2
_Open
 10
6371.747021117159
 20
5999.466008101866
 30
0.0
 41
75.0
 42
75.0
 43
75.0
 50
180.0
  0
INSERT
  5
10C1
330
F9C
100
AcDbEntity
  8
寸法線
 62
     0
370
    -2
100
AcDbBlockReference
  2
_Open
 10
6841.747010611088
 20
5999.466008101866
 30
0.0
 41
75.0
 42
75.0
 43
75.0
  0
MTEXT
  5
10C2
330
F9C
100
AcDbEntity
  8
寸法線
 62
     0
100
AcDbMText
 10
6606.747015864124
 20
6079.466009293959
 30
0.0
 40
75.0
 41
0.0
 71
     5
 72
     1
  1
\A1;I.Dφ470
 73
     1
 44
1.0
  0
POINT
  5
10C3
330
F9C
100
AcDbEntity
  8
DEFPOINTS
 62
     0
100
AcDbPoint
 10
6371.747021117159
 20
5753.914926204092
 30
0.0
  0
POINT
  5
10C4
330
F9C
100
AcDbEntity
  8
DEFPOINTS
 62
     0
100
AcDbPoint
 10
6841.747010611088
 20
5753.914926204092
 30
0.0
  0
POINT
  5
10C5
330
F9C
100
AcDbEntity
  8
DEFPOINTS
 62
     0
100
AcDbPoint
 10
6841.747010611088
 20
5999.466008101866
 30
0.0
  0
ENDBLK
  5
FA7
330
F9C
100
AcDbEntity
  8
0
100
AcDbBlockEnd
  0
BLOCK
  5
105A
330
1056
100
AcDbEntity
  8
0
100
AcDbBlockBegin
  2
_Open
 70
     0
 10
0.0
 20
0.0
 30
0.0
  3
_Open
  1

  0
LINE
  5
1057
330
1056
100
AcDbEntity
  8
0
  6
ByBlock
 62
     0
370
    -2
100
AcDbLine
 10
-1.0
 20
0.1666666666666666
 30
0.0
 11
0.0
 21
0.0
 31
0.0
  0
LINE
  5
1058
330
1056
100
AcDbEntity
  8
0
  6
ByBlock
 62
     0
370
    -2
100
AcDbLine
 10
-1.0
 20
-0.1666666666666666
 30
0.0
 11
0.0
 21
0.0
 31
0.0
  0
LINE
  5
1059
330
1056
100
AcDbEntity
  8
0
  6
ByBlock
 62
     0
370
    -2
100
AcDbLine
 10
0.0
 20
0.0
 30
0.0
 11
-1.0
 21
0.0
 31
0.0
  0
ENDBLK
  5
105B
330
1056
100
AcDbEntity
  8
0
100
AcDbBlockEnd
  0
BLOCK
  5
10D0
330
10CF
100
AcDbEntity
  8
0
100
AcDbBlockBegin
  2
*D44
 70
     1
 10
0.0
 20
0.0
 30
0.0
  3
*D44
  1

  0
LINE
  5
10D1
330
10CF
100
AcDbEntity
  8
寸法線
 62
     0
370
    -2
100
AcDbLine
 10
5482.748788009438
 20
13010.98974547231
 30
0.0
 11
5482.748788009438
 21
13186.64471277459
 31
0.0
  0
LINE
  5
10D2
330
10CF
100
AcDbEntity
  8
寸法線
 62
     0
370
    -2
100
AcDbLine
 10
5782.748788009438
 20
13010.98974547231
 30
0.0
 11
5782.748788009438
 21
13186.64471277459
 31
0.0
  0
LINE
  5
10D3
330
10CF
100
AcDbEntity
  8
寸法線
 62
     0
370
    -2
100
AcDbLine
 10
5557.748788009438
 20
13111.64471277459
 30
0.0
 11
5707.748788009438
 21
13111.64471277459
 31
0.0
  0
INSERT
  5
10D4
330
10CF
100
AcDbEntity
  8
寸法線
 62
     0
370
    -2
100
AcDbBlockReference
  2
_Open
 10
5482.748788009438
 20
13111.64471277459
 30
0.0
 41
75.0
 42
75.0
 43
75.0
 50
180.0
  0
INSERT
  5
10D5
330
10CF
100
AcDbEntity
  8
寸法線
 62
     0
370
    -2
100
AcDbBlockReference
  2
_Open
 10
5782.748788009438
 20
13111.64471277459
 30
0.0
 41
75.0
 42
75.0
 43
75.0
  0
MTEXT
  5
10D6
330
10CF
100
AcDbEntity
  8
寸法線
 62
     0
100
AcDbMText
 10
5632.748788009438
 20
13191.64471396668
 30
0.0
 40
75.0
 41
0.0
 71
     5
 72
     1
  1
\A1;300
 73
     1
 44
1.0
  0
POINT
  5
10D7
330
10CF
100
AcDbEntity
  8
DEFPOINTS
 62
     0
100
AcDbPoint
 10
5482.748788009438
 20
12960.98974547231
 30
0.0
  0
POINT
  5
10D8
330
10CF
100
AcDbEntity
  8
DEFPOINTS
 62
     0
100
AcDbPoint
 10
5782.748788009438
 20
12960.98974547231
 30
0.0
  0
POINT
  5
10D9
330
10CF
100
AcDbEntity
  8
DEFPOINTS
 62
     0
100
AcDbPoint
 10
5782.748788009438
 20
13111.64471277459
 30
0.0
  0
ENDBLK
  5
10DA
330
10CF
100
AcDbEntity
  8
0
100
AcDbBlockEnd
  0
BLOCK
  5
10ED
330
10E3
100
AcDbEntity
  8
0
100
AcDbBlockBegin
  2
*D46
 70
     1
 10
0.0
 20
0.0
 30
0.0
  3
*D46
  1

  0
LINE
  5
10EF
330
10E3
100
AcDbEntity
  8
寸法線
 62
     0
370
    -2
100
AcDbLine
 10
5691.747269941644
 20
5573.914859446697
 30
0.0
 11
5691.747269941644
 21
5749.569826748975
 31
0.0
  0
LINE
  5
10F0
330
10E3
100
AcDbEntity
  8
寸法線
 62
     0
370
    -2
100
AcDbLine
 10
5991.747269941644
 20
5573.914859446697
 30
0.0
 11
5991.747269941644
 21
5749.569826748975
 31
0.0
  0
LINE
  5
10F1
330
10E3
100
AcDbEntity
  8
寸法線
 62
     0
370
    -2
100
AcDbLine
 10
5766.747269941644
 20
5674.569826748975
 30
0.0
 11
5916.747269941645
 21
5674.569826748975
 31
0.0
  0
INSERT
  5
10F2
330
10E3
100
AcDbEntity
  8
寸法線
 62
     0
370
    -2
100
AcDbBlockReference
  2
_Open
 10
5691.747269941644
 20
5674.569826748975
 30
0.0
 41
75.0
 42
75.0
 43
75.0
 50
180.0
  0
INSERT
  5
10F3
330
10E3
100
AcDbEntity
  8
寸法線
 62
     0
370
    -2
100
AcDbBlockReference
  2
_Open
 10
5991.747269941644
 20
5674.569826748975
 30
0.0
 41
75.0
 42
75.0
 43
75.0
  0
MTEXT
  5
10F4
330
10E3
100
AcDbEntity
  8
寸法線
 62
     0
100
AcDbMText
 10
5841.747269941644
 20
5754.569827941068
 30
0.0
 40
75.0
 41
0.0
 71
     5
 72
     1
  1
\A1;300
 73
     1
 44
1.0
  0
POINT
  5
10F5
330
10E3
100
AcDbEntity
  8
DEFPOINTS
 62
     0
100
AcDbPoint
 10
5691.747269941644
 20
5523.914859446697
 30
0.0
  0
POINT
  5
10F6
330
10E3
100
AcDbEntity
  8
DEFPOINTS
 62
     0
100
AcDbPoint
 10
5991.747269941644
 20
5523.914859446697
 30
0.0
  0
POINT
  5
10F7
330
10E3
100
AcDbEntity
  8
DEFPOINTS
 62
     0
100
AcDbPoint
 10
5991.747269941644
 20
5674.569826748975
 30
0.0
  0
ENDBLK
  5
10EE
330
10E3
100
AcDbEntity
  8
0
100
AcDbBlockEnd
  0
BLOCK
  5
10FB
330
10FA
100
AcDbEntity
  8
0
100
AcDbBlockBegin
  2
*D47
 70
     1
 10
0.0
 20
0.0
 30
0.0
  3
*D47
  1

  0
LINE
  5
10FC
330
10FA
100
AcDbEntity
  8
寸法線
 62
     0
370
    -2
100
AcDbLine
 10
5436.790625301546
 20
12960.98974547231
 30
0.0
 11
5091.877073405458
 21
12960.98974547231
 31
0.0
  0
LINE
  5
10FD
330
10FA
100
AcDbEntity
  8
寸法線
 62
     0
370
    -2
100
AcDbLine
 10
5436.790625301546
 20
12820.98978361928
 30
0.0
 11
5091.877073405458
 21
12820.98978361928
 31
0.0
  0
LINE
  5
10FE
330
10FA
100
AcDbEntity
  8
寸法線
 62
     0
370
    -2
100
AcDbLine
 10
5166.877073405458
 20
12745.98978361928
 30
0.0
 11
5166.877073405458
 21
12670.98978361928
 31
0.0
  0
LINE
  5
10FF
330
10FA
100
AcDbEntity
  8
寸法線
 62
     0
370
    -2
100
AcDbLine
 10
5166.877073405458
 20
13035.98974547231
 30
0.0
 11
5166.877073405458
 21
13497.96832696321
 31
0.0
  0
LINE
  5
1100
330
10FA
100
AcDbEntity
  8
寸法線
 62
     0
370
    -2
100
AcDbLine
 10
5166.877073405458
 20
12820.98978361928
 30
0.0
 11
5166.877073405458
 21
12960.98974547231
 31
0.0
  0
INSERT
  5
1101
330
10FA
100
AcDbEntity
  8
寸法線
 62
     0
370
    -2
100
AcDbBlockReference
  2
_Open
 10
5166.877073405458
 20
12820.98978361928
 30
0.0
 41
75.0
 42
75.0
 43
75.0
 50
90.0
  0
INSERT
  5
1102
330
10FA
100
AcDbEntity
  8
寸法線
 62
     0
370
    -2
100
AcDbBlockReference
  2
_Open
 10
5166.877073405458
 20
12960.98974547231
 30
0.0
 41
75.0
 42
75.0
 43
75.0
 50
270.0
  0
MTEXT
  5
1103
330
10FA
100
AcDbEntity
  8
寸法線
 62
     0
100
AcDbMText
 10
5086.877072213363
 20
13374.21832577112
 30
0.0
 40
75.0
 41
0.0
 71
     5
 72
     1
  1
\A1;140
 11
0.0000000000000001
 21
1.0
 31
0.0
 73
     1
 44
1.0
  0
POINT
  5
1104
330
10FA
100
AcDbEntity
  8
DEFPOINTS
 62
     0
100
AcDbPoint
 10
5486.790625301546
 20
12960.98974547231
 30
0.0
  0
POINT
  5
1105
330
10FA
100
AcDbEntity
  8
DEFPOINTS
 62
     0
100
AcDbPoint
 10
5486.790625301546
 20
12820.98978361928
 30
0.0
  0
POINT
  5
1106
330
10FA
100
AcDbEntity
  8
DEFPOINTS
 62
     0
100
AcDbPoint
 10
5166.877073405458
 20
12820.98978361928
 30
0.0
  0
ENDBLK
  5
1107
330
10FA
100
AcDbEntity
  8
0
100
AcDbBlockEnd
  0
BLOCK
  5
111C
330
1110
100
AcDbEntity
  8
0
100
AcDbBlockBegin
  2
*D49
 70
     1
 10
0.0
 20
0.0
 30
0.0
  3
*D49
  1

  0
LINE
  5
1129
330
1110
100
AcDbEntity
  8
寸法線
 62
     0
370
    -2
100
AcDbLine
 10
5645.789107233753
 20
5523.914859446697
 30
0.0
 11
5554.800596288413
 21
5523.914859446697
 31
0.0
  0
LINE
  5
112A
330
1110
100
AcDbEntity
  8
寸法線
 62
     0
370
    -2
100
AcDbLine
 10
5645.789107233753
 20
5383.914897593669
 30
0.0
 11
5554.800596288413
 21
5383.914897593669
 31
0.0
  0
LINE
  5
112B
330
1110
100
AcDbEntity
  8
寸法線
 62
     0
370
    -2
100
AcDbLine
 10
5629.800596288413
 20
5598.914859446697
 30
0.0
 11
5629.800596288413
 21
5673.914859446696
 31
0.0
  0
LINE
  5
112C
330
1110
100
AcDbEntity
  8
寸法線
 62
     0
370
    -2
100
AcDbLine
 10
5629.800596288413
 20
5308.91489759367
 30
0.0
 11
5629.800596288413
 21
5233.91489759367
 31
0.0
  0
LINE
  5
112D
330
1110
100
AcDbEntity
  8
寸法線
 62
     0
370
    -2
100
AcDbLine
 10
5629.800596288413
 20
5523.914859446697
 30
0.0
 11
5629.800596288413
 21
5383.914897593669
 31
0.0
  0
INSERT
  5
112E
330
1110
100
AcDbEntity
  8
寸法線
 62
     0
370
    -2
100
AcDbBlockReference
  2
_Open
 10
5629.800596288413
 20
5523.914859446697
 30
0.0
 41
75.0
 42
75.0
 43
75.0
 50
270.0
  0
INSERT
  5
112F
330
1110
100
AcDbEntity
  8
寸法線
 62
     0
370
    -2
100
AcDbBlockReference
  2
_Open
 10
5629.800596288413
 20
5383.914897593669
 30
0.0
 41
75.0
 42
75.0
 43
75.0
 50
90.0
  0
MTEXT
  5
1130
330
1110
100
AcDbEntity
  8
寸法線
 62
     0
100
AcDbMText
 10
5549.80059509632
 20
5453.914878520184
 30
0.0
 40
75.0
 41
0.0
 71
     5
 72
     1
  1
\A1;140
 11
0.0000000000000001
 21
1.0
 31
0.0
 73
     1
 44
1.0
  0
POINT
  5
1131
330
1110
100
AcDbEntity
  8
DEFPOINTS
 62
     0
100
AcDbPoint
 10
5695.789107233752
 20
5523.914859446697
 30
0.0
  0
POINT
  5
1132
330
1110
100
AcDbEntity
  8
DEFPOINTS
 62
     0
100
AcDbPoint
 10
5695.789107233752
 20
5383.914897593669
 30
0.0
  0
POINT
  5
1133
330
1110
100
AcDbEntity
  8
DEFPOINTS
 62
     0
100
AcDbPoint
 10
5629.800596288413
 20
5383.914897593669
 30
0.0
  0
ENDBLK
  5
111D
330
1110
100
AcDbEntity
  8
0
100
AcDbBlockEnd
  0
ENDSEC
  0
SECTION
  2
ENTITIES
  0
LINE
  5
35A
330
D6
100
AcDbEntity
  8
0
  6
CENTER
100
AcDbLine
 10
6606.747015864124
 20
5980.789897593671
 30
0.0
 11
6606.747015864124
 21
3172.569015177898
 31
0.0
  0
LINE
  5
35B
330
D6
100
AcDbEntity
  8
0
  6
Continuous
100
AcDbLine
 10
5691.747015864123
 20
3333.91489759367
 30
0.0
 11
7521.747015864123
 21
3333.91489759367
 31
0.0
  0
LINE
  5
35C
330
D6
100
AcDbEntity
  8
0
  6
Continuous
100
AcDbLine
 10
5661.747015864124
 20
5383.914897593669
 30
0.0
 11
7551.747015864123
 21
5383.914897593669
 31
0.0
  0
LINE
  5
35D
330
D6
100
AcDbEntity
  8
0
  6
Continuous
100
AcDbLine
 10
5661.747015864124
 20
3363.91489759367
 30
0.0
 11
5661.747015864124
 21
5383.914897593669
 31
0.0
  0
LINE
  5
365
330
D6
100
AcDbEntity
  8
0
  6
Continuous
100
AcDbLine
 10
7551.747015864123
 20
3363.91489759367
 30
0.0
 11
7551.747015864123
 21
5383.914897593669
 31
0.0
  0
LINE
  5
382
102
{ACAD_REACTORS
330
B0C
102
}
330
D6
100
AcDbEntity
  8
0
  6
Continuous
100
AcDbLine
 10
7655.747017413844
 20
3367.914898100309
 30
0.0
 11
7655.747017413844
 21
3338.914897668175
 31
0.0
  0
LINE
  5
383
102
{ACAD_REACTORS
330
B0C
102
}
330
D6
100
AcDbEntity
  8
0
  6
Continuous
100
AcDbLine
 10
7576.747016236652
 20
3363.914898040704
 30
0.0
 11
7651.747017354239
 21
3363.914898040704
 31
0.0
  0
LINE
  5
385
102
{ACAD_REACTORS
330
B0C
102
}
330
D6
100
AcDbEntity
  8
0
  6
CENTER
100
AcDbLine
 10
7611.747016758193
 20
3383.628914490377
 30
0.0
 11
7611.747016758193
 21
3316.600304721543
 31
0.0
  0
LINE
  5
386
102
{ACAD_REACTORS
330
B0C
102
}
330
D6
100
AcDbEntity
  8
0
  6
Continuous
100
AcDbLine
 10
7651.747017354239
 20
3338.914897668175
 30
0.0
 11
7655.747017413844
 21
3338.914897668175
 31
0.0
  0
LINE
  5
387
102
{ACAD_REACTORS
330
B0C
102
}
330
D6
100
AcDbEntity
  8
0
  6
Continuous
100
AcDbLine
 10
7521.747018947761
 20
3333.91489759367
 30
0.0
 11
7648.74701736222
 21
3333.91489759367
 31
0.0
  0
LINE
  5
388
102
{ACAD_REACTORS
330
B0C
102
}
330
D6
100
AcDbEntity
  8
0
  6
Continuous
100
AcDbLine
 10
7571.747016162146
 20
3420.914898890071
 30
0.0
 11
7571.747016162146
 21
3368.91489811521
 31
0.0
  0
LINE
  5
389
102
{ACAD_REACTORS
330
B0C
102
}
330
D6
100
AcDbEntity
  8
0
  6
Continuous
100
AcDbLine
 10
7651.747017354239
 20
3363.914898040704
 30
0.0
 11
7651.747017354239
 21
3336.914897638374
 31
0.0
  0
LINE
  5
38A
102
{ACAD_REACTORS
330
B0C
102
}
330
D6
100
AcDbEntity
  8
0
  6
Continuous
100
AcDbLine
 10
7542.960219256719
 20
3342.701694201075
 30
0.0
 11
7551.747015864123
 21
3333.914897593669
 31
0.0
  0
LINE
  5
38B
102
{ACAD_REACTORS
330
B0C
102
}
330
D6
100
AcDbEntity
  8
0
  6
Continuous
100
AcDbLine
 10
7551.747015864123
 20
3423.914898934774
 30
0.0
 11
7568.747016117443
 21
3423.914898934774
 31
0.0
  0
LINE
  5
38C
102
{ACAD_REACTORS
330
B0C
102
}
330
D6
100
AcDbEntity
  8
0
  6
Continuous
100
AcDbLine
 10
7581.747016311158
 20
3367.914898100309
 30
0.0
 11
7655.747017413844
 21
3367.914898100309
 31
0.0
  0
LINE
  5
38D
102
{ACAD_REACTORS
330
B0C
102
}
330
D6
100
AcDbEntity
  8
0
  6
Continuous
100
AcDbLine
 10
7581.747016311158
 20
3367.914898100309
 30
0.0
 11
7581.747016311158
 21
3363.914898040704
 31
0.0
  0
ARC
  5
38E
330
D6
100
AcDbEntity
  8
0
  6
Continuous
100
AcDbCircle
 10
5691.747015864123
 20
3363.91489759367
 30
0.0
 40
30.0
100
AcDbArc
 50
179.9999776881997
 51
270.0000280040028
  0
ARC
  5
391
330
D6
100
AcDbEntity
  8
0
  6
Continuous
100
AcDbCircle
 10
7521.747015864123
 20
3363.91489759367
 30
0.0
 40
30.0
100
AcDbArc
 50
269.9999633445766
 51
0.0
  0
ARC
  5
3A1
102
{ACAD_REACTORS
330
B0C
102
}
330
D6
100
AcDbEntity
  8
0
  6
Continuous
100
AcDbCircle
 10
7648.747017309536
 20
3360.914897996001
 30
0.0
 40
3.000000044703484
100
AcDbArc
 50
0.0
 51
90.00000000000019
  0
ARC
  5
3A2
102
{ACAD_REACTORS
330
B0C
102
}
330
D6
100
AcDbEntity
  8
0
  6
Continuous
100
AcDbCircle
 10
7568.747016117443
 20
3420.914898890071
 30
0.0
 40
3.000000044703484
100
AcDbArc
 50
0.0
 51
90.00000000000019
  0
ARC
  5
3A3
102
{ACAD_REACTORS
330
B0C
102
}
330
D6
100
AcDbEntity
  8
0
  6
Continuous
100
AcDbCircle
 10
7576.747016236652
 20
3368.91489811521
 30
0.0
 40
5.000000074505805
100
AcDbArc
 50
180.0000000000004
 51
270.0000000000005
  0
ARC
  5
3A4
102
{ACAD_REACTORS
330
B0C
102
}
330
D6
100
AcDbEntity
  8
0
  6
Continuous
100
AcDbCircle
 10
7648.747017309536
 20
3336.914897638374
 30
0.0
 40
3.000000044703484
100
AcDbArc
 50
270.0000000000005
 51
0.0
  0
LINE
  5
402
330
D6
100
AcDbEntity
  8
0
  6
CENTER
100
AcDbLine
 10
10822.23240769491
 20
6361.694092073818
 30
0.0
 11
8822.232255107026
 21
6361.694092073818
 31
0.0
  0
LINE
  5
403
330
D6
100
AcDbEntity
  8
0
  6
CENTER
100
AcDbLine
 10
9822.232407694915
 20
5361.694092073818
 30
0.0
 11
9822.232407694915
 21
7361.694092073818
 31
0.0
  0
LINE
  5
404
330
D6
100
AcDbEntity
  8
0
  6
Continuous
100
AcDbLine
 10
9982.232362305468
 20
7293.050216197238
 30
0.0
 11
9972.232672197407
 21
7264.315333076969
 31
0.0
  0
LINE
  5
405
330
D6
100
AcDbEntity
  8
0
  6
Continuous
100
AcDbLine
 10
9662.232986439413
 20
7293.05032063181
 30
0.0
 11
9672.232967427069
 21
7264.314569357178
 31
0.0
  0
LINE
  5
406
330
D6
100
AcDbEntity
  8
0
  6
Continuous
100
AcDbLine
 10
8890.87582582008
 20
6521.693778898266
 30
0.0
 11
8919.611214932313
 21
6511.693917870738
 31
0.0
  0
LINE
  5
407
330
D6
100
AcDbEntity
  8
0
  6
Continuous
100
AcDbLine
 10
8890.875658674646
 20
6201.694030419554
 30
0.0
 11
8919.61111984242
 21
6211.693916522274
 31
0.0
  0
LINE
  5
408
330
D6
100
AcDbEntity
  8
0
  6
Continuous
100
AcDbLine
 10
9662.232463398723
 20
5430.337722626795
 30
0.0
 11
9672.232250009475
 21
5459.072895290947
 31
0.0
  0
LINE
  5
409
330
D6
100
AcDbEntity
  8
0
  6
Continuous
100
AcDbLine
 10
9982.23185729606
 20
5430.337879950021
 30
0.0
 11
9972.231997886144
 21
5459.07326962518
 31
0.0
  0
LINE
  5
40A
330
D6
100
AcDbEntity
  8
0
  6
Continuous
100
AcDbLine
 10
10753.58876672813
 20
6201.694276332234
 30
0.0
 11
10724.85359482279
 21
6211.69406512351
 31
0.0
  0
LINE
  5
40B
330
D6
100
AcDbEntity
  8
0
  6
Continuous
100
AcDbLine
 10
10753.58827787518
 20
6521.692967238617
 30
0.0
 11
10724.85252716348
 21
6511.692984633326
 31
0.0
  0
LINE
  5
40C
330
D6
100
AcDbEntity
  8
0
  6
Continuous
100
AcDbLine
 10
9672.232407694915
 20
7006.694181587416
 30
0.0
 11
9672.232407694915
 21
7264.315246858974
 31
0.0
  0
LINE
  5
40D
330
D6
100
AcDbEntity
  8
0
  6
Continuous
100
AcDbLine
 10
9662.232418965073
 20
7293.050631540015
 30
0.0
 11
9672.232407694915
 21
7006.694181587414
 31
0.0
  0
LINE
  5
40E
330
D6
100
AcDbEntity
  8
0
  6
Continuous
100
AcDbLine
 10
10753.58894716111
 20
6521.694080803659
 30
0.0
 11
10467.23249720851
 21
6511.694092073816
 31
0.0
  0
LINE
  5
40F
330
D6
100
AcDbEntity
  8
0
  6
Continuous
100
AcDbLine
 10
9972.232407694916
 20
7006.694181587416
 30
0.0
 11
9972.232407694916
 21
7264.315246858974
 31
0.0
  0
LINE
  5
410
330
D6
100
AcDbEntity
  8
0
  6
Continuous
100
AcDbLine
 10
9177.232318181319
 20
6511.694092073819
 30
0.0
 11
8919.61125290976
 21
6511.694092073819
 31
0.0
  0
LINE
  5
411
330
D6
100
AcDbEntity
  8
0
  6
Continuous
100
AcDbLine
 10
9177.232318181319
 20
6211.694092073818
 30
0.0
 11
8919.61125290976
 21
6211.694092073818
 31
0.0
  0
LINE
  5
412
330
D6
100
AcDbEntity
  8
0
  6
Continuous
100
AcDbLine
 10
9972.232407694916
 20
5716.69400256022
 30
0.0
 11
9972.232407694916
 21
5459.072937288663
 31
0.0
  0
LINE
  5
413
330
D6
100
AcDbEntity
  8
0
  6
Continuous
100
AcDbLine
 10
9672.232407694915
 20
5716.69400256022
 30
0.0
 11
9672.232407694915
 21
5459.072937288663
 31
0.0
  0
LINE
  5
414
330
D6
100
AcDbEntity
  8
0
  6
Continuous
100
AcDbLine
 10
9982.232396424759
 20
5430.337552607621
 30
0.0
 11
9972.232407694914
 21
5716.69400256022
 31
0.0
  0
LINE
  5
415
330
D6
100
AcDbEntity
  8
0
  6
Continuous
100
AcDbLine
 10
9662.232717765308
 20
5430.337501276056
 30
0.0
 11
9672.23240769492
 21
5716.694002560221
 31
0.0
  0
LINE
  5
416
330
D6
100
AcDbEntity
  8
0
  6
Continuous
100
AcDbLine
 10
10467.23249720851
 20
6211.694092073818
 30
0.0
 11
10724.85356248007
 21
6211.694092073818
 31
0.0
  0
LINE
  5
417
330
D6
100
AcDbEntity
  8
0
  6
Continuous
100
AcDbLine
 10
10467.23249720851
 20
6511.694092073819
 30
0.0
 11
10724.85356248007
 21
6511.694092073819
 31
0.0
  0
LINE
  5
418
330
D6
100
AcDbEntity
  8
0
  6
Continuous
100
AcDbLine
 10
10753.58899849268
 20
6201.694402144212
 30
0.0
 11
10467.23249720851
 21
6211.69409207382
 31
0.0
  0
LINE
  5
419
330
D6
100
AcDbEntity
  8
0
  6
Continuous
100
AcDbLine
 10
9982.232097624526
 20
7293.050682871579
 30
0.0
 11
9972.232407694916
 21
7006.694181587416
 31
0.0
  0
LINE
  5
41A
330
D6
100
AcDbEntity
  8
0
  6
Continuous
100
AcDbLine
 10
8890.875816897155
 20
6521.693782003429
 30
0.0
 11
9177.232318181319
 21
6511.694092073819
 31
0.0
  0
LINE
  5
41B
330
D6
100
AcDbEntity
  8
0
  6
Continuous
100
AcDbLine
 10
8890.875868228718
 20
6201.694103343974
 30
0.0
 11
9177.232318181319
 21
6211.694092073818
 31
0.0
  0
CIRCLE
  5
48A
330
D6
100
AcDbEntity
  8
0
  6
Continuous
100
AcDbCircle
 10
9822.232407694915
 20
6361.694092073818
 30
0.0
 40
945.0
  0
ARC
  5
48B
330
D6
100
AcDbEntity
  8
0
  6
Continuous
100
AcDbCircle
 10
9822.232407694915
 20
6361.694092073818
 30
0.0
 40
845.0
100
AcDbArc
 50
10.69433283445432
 51
79.30566796247655
  0
ARC
  5
48E
330
D6
100
AcDbEntity
  8
0
  6
Continuous
100
AcDbCircle
 10
9822.232407694915
 20
6361.694092073818
 30
0.0
 40
915.0
100
AcDbArc
 50
80.564676732185
 51
99.43528729563633
  0
ARC
  5
48F
330
D6
100
AcDbEntity
  8
0
  6
Continuous
100
AcDbCircle
 10
9822.232407694915
 20
6361.694092073818
 30
0.0
 40
845.0
100
AcDbArc
 50
190.6943090424785
 51
259.3056219723859
  0
ARC
  5
490
330
D6
100
AcDbEntity
  8
0
  6
Continuous
100
AcDbCircle
 10
9822.232407694915
 20
6361.694092073818
 30
0.0
 40
915.0
100
AcDbArc
 50
170.5646860668524
 51
189.4352966303043
  0
ARC
  5
491
330
D6
100
AcDbEntity
  8
0
  6
Continuous
100
AcDbCircle
 10
9822.232407694915
 20
6361.694092073818
 30
0.0
 40
915.0
100
AcDbArc
 50
260.5646853836077
 51
279.4352959470591
  0
ARC
  5
492
330
D6
100
AcDbEntity
  8
0
  6
Continuous
100
AcDbCircle
 10
9822.232407694915
 20
6361.694092073818
 30
0.0
 40
915.0
100
AcDbArc
 50
350.5646810578967
 51
9.435291621347323
  0
ARC
  5
493
330
D6
100
AcDbEntity
  8
0
  6
Continuous
100
AcDbCircle
 10
9822.232407694915
 20
6361.694092073818
 30
0.0
 40
845.0
100
AcDbArc
 50
100.6943780276148
 51
169.3056909575222
  0
ARC
  5
494
330
D6
100
AcDbEntity
  8
0
  6
Continuous
100
AcDbCircle
 10
9822.232407694915
 20
6361.694092073818
 30
0.0
 40
845.0
100
AcDbArc
 50
280.6943320375241
 51
349.3056364296951
  0
CIRCLE
  5
495
330
D6
100
AcDbEntity
  8
0
  6
CENTER
100
AcDbCircle
 10
9822.232407694915
 20
6361.694092073818
 30
0.0
 40
765.0
  0
LINE
  5
69A
330
D6
100
AcDbEntity
  8
0
100
AcDbLine
 10
4351.788471376523
 20
7937.166326973588
 30
0.0
 11
4491.788471376523
 21
7937.166326973588
 31
0.0
  0
LINE
  5
69B
330
D6
100
AcDbEntity
  8
0
100
AcDbLine
 10
4491.788471376523
 20
7937.166326973588
 30
0.0
 11
4594.188471376521
 21
7937.166326973588
 31
0.0
  0
LINE
  5
69C
330
D6
100
AcDbEntity
  8
0
100
AcDbLine
 10
4351.788471376523
 20
7937.166326973588
 30
0.0
 11
4351.788471376523
 21
7801.432993640254
 31
0.0
  0
LINE
  5
69D
330
D6
100
AcDbEntity
  8
0
100
AcDbLine
 10
4594.188471376521
 20
7937.166326973588
 30
0.0
 11
4734.188471376521
 21
7937.166326973588
 31
0.0
  0
LINE
  5
69E
330
D6
100
AcDbEntity
  8
0
100
AcDbLine
 10
4734.188471376521
 20
7937.166326973588
 30
0.0
 11
4874.188471376522
 21
7937.166326973588
 31
0.0
  0
LINE
  5
69F
330
D6
100
AcDbEntity
  8
0
100
AcDbLine
 10
4874.188471376522
 20
7937.166326973588
 30
0.0
 11
5014.188471376521
 21
7937.166326973588
 31
0.0
  0
LINE
  5
6A0
330
D6
100
AcDbEntity
  8
0
100
AcDbLine
 10
5014.188471376521
 20
7937.166326973588
 30
0.0
 11
5154.188471376521
 21
7937.166326973588
 31
0.0
  0
LINE
  5
6A1
330
D6
100
AcDbEntity
  8
0
100
AcDbLine
 10
5154.188471376521
 20
7937.166326973588
 30
0.0
 11
5294.188471376521
 21
7937.166326973588
 31
0.0
  0
LINE
  5
6A2
330
D6
100
AcDbEntity
  8
0
100
AcDbLine
 10
5294.188471376521
 20
7937.166326973588
 30
0.0
 11
5434.188471376521
 21
7937.166326973588
 31
0.0
  0
LINE
  5
6A3
330
D6
100
AcDbEntity
  8
0
100
AcDbLine
 10
5434.188471376521
 20
7937.166326973588
 30
0.0
 11
5574.188471376522
 21
7937.166326973588
 31
0.0
  0
LINE
  5
6A4
330
D6
100
AcDbEntity
  8
0
100
AcDbLine
 10
5574.188471376522
 20
7937.166326973588
 30
0.0
 11
5714.188471376521
 21
7937.166326973588
 31
0.0
  0
LINE
  5
6A5
330
D6
100
AcDbEntity
  8
0
100
AcDbLine
 10
4594.188471376521
 20
7937.166326973588
 30
0.0
 11
4594.188471376521
 21
7801.432993640254
 31
0.0
  0
LINE
  5
6A6
330
D6
100
AcDbEntity
  8
0
100
AcDbLine
 10
5714.188471376521
 20
7937.166326973588
 30
0.0
 11
5854.188471376521
 21
7937.166326973588
 31
0.0
  0
LINE
  5
6A7
330
D6
100
AcDbEntity
  8
0
100
AcDbLine
 10
5854.188471376521
 20
7937.166326973588
 30
0.0
 11
5994.188471376521
 21
7937.166326973588
 31
0.0
  0
LINE
  5
6A8
330
D6
100
AcDbEntity
  8
0
100
AcDbLine
 10
5994.188471376521
 20
7937.166326973588
 30
0.0
 11
6134.188471376521
 21
7937.166326973588
 31
0.0
  0
LINE
  5
6A9
330
D6
100
AcDbEntity
  8
0
100
AcDbLine
 10
5714.188471376521
 20
7937.166326973588
 30
0.0
 11
5714.188471376521
 21
7801.432993640254
 31
0.0
  0
LINE
  5
6AA
330
D6
100
AcDbEntity
  8
0
100
AcDbLine
 10
6134.188471376521
 20
7937.166326973588
 30
0.0
 11
6274.188471376522
 21
7937.166326973588
 31
0.0
  0
LINE
  5
6AB
330
D6
100
AcDbEntity
  8
0
100
AcDbLine
 10
6274.188471376522
 20
7937.166326973588
 30
0.0
 11
6414.188471376521
 21
7937.166326973588
 31
0.0
  0
LINE
  5
6AC
330
D6
100
AcDbEntity
  8
0
100
AcDbLine
 10
6134.188471376521
 20
7937.166326973588
 30
0.0
 11
6134.188471376521
 21
7801.432993640254
 31
0.0
  0
LINE
  5
6AD
330
D6
100
AcDbEntity
  8
0
100
AcDbLine
 10
6414.188471376521
 20
7937.166326973588
 30
0.0
 11
6414.188471376521
 21
7801.432993640254
 31
0.0
  0
LINE
  5
6AE
330
D6
100
AcDbEntity
  8
0
100
AcDbLine
 10
4351.788471376523
 20
7801.432993640254
 30
0.0
 11
4491.788471376523
 21
7801.432993640254
 31
0.0
  0
LINE
  5
6AF
330
D6
100
AcDbEntity
  8
0
100
AcDbLine
 10
4491.788471376523
 20
7801.432993640254
 30
0.0
 11
4594.188471376521
 21
7801.432993640254
 31
0.0
  0
LINE
  5
6B0
330
D6
100
AcDbEntity
  8
0
100
AcDbLine
 10
4594.188471376521
 20
7801.432993640254
 30
0.0
 11
4734.188471376521
 21
7801.432993640254
 31
0.0
  0
LINE
  5
6B1
330
D6
100
AcDbEntity
  8
0
100
AcDbLine
 10
4734.188471376521
 20
7801.432993640254
 30
0.0
 11
4874.188471376522
 21
7801.432993640254
 31
0.0
  0
LINE
  5
6B2
330
D6
100
AcDbEntity
  8
0
100
AcDbLine
 10
4874.188471376522
 20
7801.432993640254
 30
0.0
 11
5014.188471376521
 21
7801.432993640254
 31
0.0
  0
LINE
  5
6B3
330
D6
100
AcDbEntity
  8
0
100
AcDbLine
 10
5014.188471376521
 20
7801.432993640254
 30
0.0
 11
5154.188471376521
 21
7801.432993640254
 31
0.0
  0
LINE
  5
6B4
330
D6
100
AcDbEntity
  8
0
100
AcDbLine
 10
5154.188471376521
 20
7801.432993640254
 30
0.0
 11
5294.188471376521
 21
7801.432993640254
 31
0.0
  0
LINE
  5
6B5
330
D6
100
AcDbEntity
  8
0
100
AcDbLine
 10
5294.188471376521
 20
7801.432993640254
 30
0.0
 11
5434.188471376521
 21
7801.432993640254
 31
0.0
  0
LINE
  5
6B6
330
D6
100
AcDbEntity
  8
0
100
AcDbLine
 10
5434.188471376521
 20
7801.432993640254
 30
0.0
 11
5574.188471376522
 21
7801.432993640254
 31
0.0
  0
LINE
  5
6B7
330
D6
100
AcDbEntity
  8
0
100
AcDbLine
 10
5574.188471376522
 20
7801.432993640254
 30
0.0
 11
5714.188471376521
 21
7801.432993640254
 31
0.0
  0
LINE
  5
6B8
330
D6
100
AcDbEntity
  8
0
100
AcDbLine
 10
5714.188471376521
 20
7801.432993640254
 30
0.0
 11
5854.188471376521
 21
7801.432993640254
 31
0.0
  0
LINE
  5
6B9
330
D6
100
AcDbEntity
  8
0
100
AcDbLine
 10
5854.188471376521
 20
7801.432993640254
 30
0.0
 11
5994.188471376521
 21
7801.432993640254
 31
0.0
  0
LINE
  5
6BA
330
D6
100
AcDbEntity
  8
0
100
AcDbLine
 10
5994.188471376521
 20
7801.432993640254
 30
0.0
 11
6134.188471376521
 21
7801.432993640254
 31
0.0
  0
LINE
  5
6BB
330
D6
100
AcDbEntity
  8
0
100
AcDbLine
 10
6134.188471376521
 20
7801.432993640254
 30
0.0
 11
6274.188471376522
 21
7801.432993640254
 31
0.0
  0
LINE
  5
6BC
330
D6
100
AcDbEntity
  8
0
100
AcDbLine
 10
6274.188471376522
 20
7801.432993640254
 30
0.0
 11
6414.188471376521
 21
7801.432993640254
 31
0.0
  0
TEXT
  5
6BD
330
D6
100
AcDbEntity
  8
0
100
AcDbText
 10
4388.11947652671
 20
7840.092611602337
 30
0.0
 40
64.0
  1
記 号
100
AcDbText
  0
TEXT
  5
6BE
330
D6
100
AcDbEntity
  8
0
100
AcDbText
 10
4734.049683313134
 20
7838.250804260022
 30
0.0
 40
64.0
  1
来　　　　　　　　歴
100
AcDbText
  0
TEXT
  5
6BF
330
D6
100
AcDbEntity
  8
0
100
AcDbText
 10
5738.408360825953
 20
7835.57737368708
 30
0.0
 40
64.0
  1
年・月・日
100
AcDbText
  0
TEXT
  5
6C0
330
D6
100
AcDbEntity
  8
0
100
AcDbText
 10
6185.070950564124
 20
7841.067230891678
 30
0.0
 40
64.0
  1
記 入
100
AcDbText
  0
LWPOLYLINE
  5
6C1
330
D6
100
AcDbEntity
  8
0
100
AcDbPolyline
 90
        4
 70
     1
 43
0.0
 10
4351.788471376523
 20
7937.166326973588
 10
12411.78847137652
 20
7937.166326973588
 10
12411.78847137652
 20
2337.166326973587
 10
4351.788471376523
 20
2337.166326973587
  0
LWPOLYLINE
  5
6C2
330
D6
100
AcDbEntity
  8
0
100
AcDbPolyline
 90
        4
 70
     1
 43
0.0
 10
4151.788471376523
 20
8137.166326973588
 10
12611.78847137652
 20
8137.166326973588
 10
12611.78847137652
 20
2137.166326973587
 10
4151.788471376523
 20
2137.166326973587
  0
LINE
  5
6C3
330
D6
100
AcDbEntity
  8
0
100
AcDbLine
 10
9751.788471376524
 20
3287.299660306921
 30
0.0
 11
9751.788471376524
 21
3151.566326973587
 31
0.0
  0
LINE
  5
6C4
330
D6
100
AcDbEntity
  8
0
100
AcDbLine
 10
10031.78847137652
 20
3287.299660306921
 30
0.0
 11
10031.78847137652
 21
3151.566326973587
 31
0.0
  0
LINE
  5
6C5
330
D6
100
AcDbEntity
  8
0
100
AcDbLine
 10
10311.78847137652
 20
3287.299660306921
 30
0.0
 11
10311.78847137652
 21
3151.566326973587
 31
0.0
  0
LINE
  5
6C6
330
D6
100
AcDbEntity
  8
0
100
AcDbLine
 10
10591.78847137652
 20
3287.299660306921
 30
0.0
 11
10591.78847137652
 21
3151.566326973587
 31
0.0
  0
LINE
  5
6C7
330
D6
100
AcDbEntity
  8
0
100
AcDbLine
 10
10871.78847137652
 20
3287.299660306921
 30
0.0
 11
10871.78847137652
 21
3151.566326973587
 31
0.0
  0
LINE
  5
6C8
330
D6
100
AcDbEntity
  8
0
100
AcDbLine
 10
10871.78847137652
 20
3151.566326973587
 30
0.0
 11
10871.78847137652
 21
3015.832993640254
 31
0.0
  0
LINE
  5
6C9
330
D6
100
AcDbEntity
  8
0
100
AcDbLine
 10
10871.78847137652
 20
3015.832993640254
 30
0.0
 11
10871.78847137652
 21
2880.09966030692
 31
0.0
  0
LINE
  5
6CA
330
D6
100
AcDbEntity
  8
0
100
AcDbLine
 10
10871.78847137652
 20
2880.09966030692
 30
0.0
 11
10871.78847137652
 21
2744.366326973588
 31
0.0
  0
LINE
  5
6CB
330
D6
100
AcDbEntity
  8
0
100
AcDbLine
 10
10871.78847137652
 20
2744.366326973588
 30
0.0
 11
10871.78847137652
 21
2608.632993640254
 31
0.0
  0
LINE
  5
6CC
330
D6
100
AcDbEntity
  8
0
100
AcDbLine
 10
11011.78847137652
 20
3287.299660306921
 30
0.0
 11
11011.78847137652
 21
3151.566326973587
 31
0.0
  0
LINE
  5
6CD
330
D6
100
AcDbEntity
  8
0
100
AcDbLine
 10
12411.78847137652
 20
3287.299660306921
 30
0.0
 11
12411.78847137652
 21
3151.566326973587
 31
0.0
  0
LINE
  5
6CE
330
D6
100
AcDbEntity
  8
0
100
AcDbLine
 10
11011.78847137652
 20
3151.566326973587
 30
0.0
 11
11011.78847137652
 21
3015.832993640254
 31
0.0
  0
LINE
  5
6CF
330
D6
100
AcDbEntity
  8
0
100
AcDbLine
 10
12411.78847137652
 20
3151.566326973587
 30
0.0
 11
12411.78847137652
 21
3015.832993640254
 31
0.0
  0
LINE
  5
6D0
330
D6
100
AcDbEntity
  8
0
100
AcDbLine
 10
11011.78847137652
 20
3015.832993640254
 30
0.0
 11
11011.78847137652
 21
2880.09966030692
 31
0.0
  0
LINE
  5
6D1
330
D6
100
AcDbEntity
  8
0
100
AcDbLine
 10
12411.78847137652
 20
3015.832993640254
 30
0.0
 11
12411.78847137652
 21
2880.09966030692
 31
0.0
  0
LINE
  5
6D2
330
D6
100
AcDbEntity
  8
0
100
AcDbLine
 10
11011.78847137652
 20
2880.09966030692
 30
0.0
 11
11011.78847137652
 21
2744.366326973588
 31
0.0
  0
LINE
  5
6D3
330
D6
100
AcDbEntity
  8
0
100
AcDbLine
 10
12411.78847137652
 20
2880.09966030692
 30
0.0
 11
12411.78847137652
 21
2744.366326973588
 31
0.0
  0
LINE
  5
6D4
330
D6
100
AcDbEntity
  8
0
100
AcDbLine
 10
11011.78847137652
 20
2744.366326973588
 30
0.0
 11
11011.78847137652
 21
2608.632993640254
 31
0.0
  0
LINE
  5
6D5
330
D6
100
AcDbEntity
  8
0
100
AcDbLine
 10
12411.78847137652
 20
2744.366326973588
 30
0.0
 11
12411.78847137652
 21
2608.632993640254
 31
0.0
  0
LINE
  5
6D6
330
D6
100
AcDbEntity
  8
0
100
AcDbLine
 10
9751.788471376524
 20
3151.566326973587
 30
0.0
 11
9891.788471376523
 21
3151.566326973587
 31
0.0
  0
LINE
  5
6D7
330
D6
100
AcDbEntity
  8
0
100
AcDbLine
 10
9891.788471376523
 20
3151.566326973587
 30
0.0
 11
10031.78847137652
 21
3151.566326973587
 31
0.0
  0
LINE
  5
6D8
330
D6
100
AcDbEntity
  8
0
100
AcDbLine
 10
9751.788471376524
 20
3151.566326973587
 30
0.0
 11
9751.788471376524
 21
3015.832993640254
 31
0.0
  0
LINE
  5
6D9
330
D6
100
AcDbEntity
  8
0
100
AcDbLine
 10
9751.788471376524
 20
3015.832993640254
 30
0.0
 11
9751.788471376524
 21
2880.09966030692
 31
0.0
  0
LINE
  5
6DA
330
D6
100
AcDbEntity
  8
0
100
AcDbLine
 10
10031.78847137652
 20
3151.566326973587
 30
0.0
 11
10171.78847137652
 21
3151.566326973587
 31
0.0
  0
LINE
  5
6DB
330
D6
100
AcDbEntity
  8
0
100
AcDbLine
 10
10171.78847137652
 20
3151.566326973587
 30
0.0
 11
10311.78847137652
 21
3151.566326973587
 31
0.0
  0
LINE
  5
6DC
330
D6
100
AcDbEntity
  8
0
100
AcDbLine
 10
10031.78847137652
 20
3151.566326973587
 30
0.0
 11
10031.78847137652
 21
3015.832993640254
 31
0.0
  0
LINE
  5
6DD
330
D6
100
AcDbEntity
  8
0
100
AcDbLine
 10
10031.78847137652
 20
3015.832993640254
 30
0.0
 11
10031.78847137652
 21
2880.09966030692
 31
0.0
  0
LINE
  5
6DE
330
D6
100
AcDbEntity
  8
0
100
AcDbLine
 10
10311.78847137652
 20
3151.566326973587
 30
0.0
 11
10451.78847137652
 21
3151.566326973587
 31
0.0
  0
LINE
  5
6DF
330
D6
100
AcDbEntity
  8
0
100
AcDbLine
 10
10451.78847137652
 20
3151.566326973587
 30
0.0
 11
10591.78847137652
 21
3151.566326973587
 31
0.0
  0
LINE
  5
6E0
330
D6
100
AcDbEntity
  8
0
100
AcDbLine
 10
10311.78847137652
 20
3151.566326973587
 30
0.0
 11
10311.78847137652
 21
3015.832993640254
 31
0.0
  0
LINE
  5
6E1
330
D6
100
AcDbEntity
  8
0
100
AcDbLine
 10
10311.78847137652
 20
3015.832993640254
 30
0.0
 11
10311.78847137652
 21
2880.09966030692
 31
0.0
  0
LINE
  5
6E2
330
D6
100
AcDbEntity
  8
0
100
AcDbLine
 10
10591.78847137652
 20
3151.566326973587
 30
0.0
 11
10731.78847137652
 21
3151.566326973587
 31
0.0
  0
LINE
  5
6E3
330
D6
100
AcDbEntity
  8
0
100
AcDbLine
 10
10731.78847137652
 20
3151.566326973587
 30
0.0
 11
10871.78847137652
 21
3151.566326973587
 31
0.0
  0
LINE
  5
6E4
330
D6
100
AcDbEntity
  8
0
100
AcDbLine
 10
10591.78847137652
 20
3151.566326973587
 30
0.0
 11
10591.78847137652
 21
3015.832993640254
 31
0.0
  0
LINE
  5
6E5
330
D6
100
AcDbEntity
  8
0
100
AcDbLine
 10
10591.78847137652
 20
3015.832993640254
 30
0.0
 11
10591.78847137652
 21
2880.09966030692
 31
0.0
  0
LINE
  5
6E6
330
D6
100
AcDbEntity
  8
0
100
AcDbLine
 10
9751.788471376524
 20
2880.09966030692
 30
0.0
 11
9891.788471376523
 21
2880.09966030692
 31
0.0
  0
LINE
  5
6E7
330
D6
100
AcDbEntity
  8
0
100
AcDbLine
 10
9751.788471376524
 20
2880.09966030692
 30
0.0
 11
9751.788471376524
 21
2744.366326973588
 31
0.0
  0
LINE
  5
6E8
330
D6
100
AcDbEntity
  8
0
100
AcDbLine
 10
9751.788471376524
 20
2744.366326973588
 30
0.0
 11
9751.788471376524
 21
2608.632993640254
 31
0.0
  0
LINE
  5
6E9
330
D6
100
AcDbEntity
  8
0
100
AcDbLine
 10
9891.788471376523
 20
2880.09966030692
 30
0.0
 11
10031.78847137652
 21
2880.09966030692
 31
0.0
  0
LINE
  5
6EA
330
D6
100
AcDbEntity
  8
0
100
AcDbLine
 10
10031.78847137652
 20
2880.09966030692
 30
0.0
 11
10171.78847137652
 21
2880.09966030692
 31
0.0
  0
LINE
  5
6EB
330
D6
100
AcDbEntity
  8
0
100
AcDbLine
 10
10171.78847137652
 20
2880.09966030692
 30
0.0
 11
10311.78847137652
 21
2880.09966030692
 31
0.0
  0
LINE
  5
6EC
330
D6
100
AcDbEntity
  8
0
100
AcDbLine
 10
9891.788471376523
 20
2880.09966030692
 30
0.0
 11
9891.788471376523
 21
2744.366326973588
 31
0.0
  0
LINE
  5
6ED
330
D6
100
AcDbEntity
  8
0
100
AcDbLine
 10
9891.788471376523
 20
2744.366326973588
 30
0.0
 11
9891.788471376523
 21
2608.632993640254
 31
0.0
  0
LINE
  5
6EE
330
D6
100
AcDbEntity
  8
0
100
AcDbLine
 10
10311.78847137652
 20
2880.09966030692
 30
0.0
 11
10451.78847137652
 21
2880.09966030692
 31
0.0
  0
LINE
  5
6EF
330
D6
100
AcDbEntity
  8
0
100
AcDbLine
 10
10311.78847137652
 20
2880.09966030692
 30
0.0
 11
10311.78847137652
 21
2744.366326973588
 31
0.0
  0
LINE
  5
6F0
330
D6
100
AcDbEntity
  8
0
100
AcDbLine
 10
10311.78847137652
 20
2744.366326973588
 30
0.0
 11
10311.78847137652
 21
2608.632993640254
 31
0.0
  0
LINE
  5
6F1
330
D6
100
AcDbEntity
  8
0
100
AcDbLine
 10
10451.78847137652
 20
2880.09966030692
 30
0.0
 11
10591.78847137652
 21
2880.09966030692
 31
0.0
  0
LINE
  5
6F2
330
D6
100
AcDbEntity
  8
0
100
AcDbLine
 10
10591.78847137652
 20
2880.09966030692
 30
0.0
 11
10731.78847137652
 21
2880.09966030692
 31
0.0
  0
LINE
  5
6F3
330
D6
100
AcDbEntity
  8
0
100
AcDbLine
 10
10731.78847137652
 20
2880.09966030692
 30
0.0
 11
10871.78847137652
 21
2880.09966030692
 31
0.0
  0
LINE
  5
6F4
330
D6
100
AcDbEntity
  8
0
100
AcDbLine
 10
10451.78847137652
 20
2880.09966030692
 30
0.0
 11
10451.78847137652
 21
2744.366326973588
 31
0.0
  0
LINE
  5
6F5
330
D6
100
AcDbEntity
  8
0
100
AcDbLine
 10
10451.78847137652
 20
2744.366326973588
 30
0.0
 11
10451.78847137652
 21
2608.632993640254
 31
0.0
  0
LINE
  5
6F6
330
D6
100
AcDbEntity
  8
0
100
AcDbLine
 10
9751.788471376524
 20
2608.632993640254
 30
0.0
 11
9891.788471376523
 21
2608.632993640254
 31
0.0
  0
LINE
  5
6F7
330
D6
100
AcDbEntity
  8
0
100
AcDbLine
 10
9751.788471376524
 20
2337.166326973587
 30
0.0
 11
9891.788471376523
 21
2337.166326973587
 31
0.0
  0
LINE
  5
6F8
330
D6
100
AcDbEntity
  8
0
100
AcDbLine
 10
9891.788471376523
 20
2608.632993640254
 30
0.0
 11
10031.78847137652
 21
2608.632993640254
 31
0.0
  0
LINE
  5
6F9
330
D6
100
AcDbEntity
  8
0
100
AcDbLine
 10
9891.788471376523
 20
2337.166326973587
 30
0.0
 11
10031.78847137652
 21
2337.166326973587
 31
0.0
  0
LINE
  5
6FA
330
D6
100
AcDbEntity
  8
0
100
AcDbLine
 10
10031.78847137652
 20
2608.632993640254
 30
0.0
 11
10171.78847137652
 21
2608.632993640254
 31
0.0
  0
LINE
  5
6FB
330
D6
100
AcDbEntity
  8
0
100
AcDbLine
 10
10031.78847137652
 20
2337.166326973587
 30
0.0
 11
10171.78847137652
 21
2337.166326973587
 31
0.0
  0
LINE
  5
6FC
330
D6
100
AcDbEntity
  8
0
100
AcDbLine
 10
10171.78847137652
 20
2608.632993640254
 30
0.0
 11
10311.78847137652
 21
2608.632993640254
 31
0.0
  0
LINE
  5
6FD
330
D6
100
AcDbEntity
  8
0
100
AcDbLine
 10
10171.78847137652
 20
2337.166326973587
 30
0.0
 11
10311.78847137652
 21
2337.166326973587
 31
0.0
  0
LINE
  5
6FE
330
D6
100
AcDbEntity
  8
0
100
AcDbLine
 10
10311.78847137652
 20
2608.632993640254
 30
0.0
 11
10451.78847137652
 21
2608.632993640254
 31
0.0
  0
LINE
  5
6FF
330
D6
100
AcDbEntity
  8
0
100
AcDbLine
 10
10311.78847137652
 20
2337.166326973587
 30
0.0
 11
10451.78847137652
 21
2337.166326973587
 31
0.0
  0
LINE
  5
700
330
D6
100
AcDbEntity
  8
0
100
AcDbLine
 10
10451.78847137652
 20
2608.632993640254
 30
0.0
 11
10591.78847137652
 21
2608.632993640254
 31
0.0
  0
LINE
  5
701
330
D6
100
AcDbEntity
  8
0
100
AcDbLine
 10
10451.78847137652
 20
2337.166326973587
 30
0.0
 11
10591.78847137652
 21
2337.166326973587
 31
0.0
  0
LINE
  5
702
330
D6
100
AcDbEntity
  8
0
100
AcDbLine
 10
10591.78847137652
 20
2608.632993640254
 30
0.0
 11
10731.78847137652
 21
2608.632993640254
 31
0.0
  0
LINE
  5
703
330
D6
100
AcDbEntity
  8
0
100
AcDbLine
 10
10591.78847137652
 20
2337.166326973587
 30
0.0
 11
10731.78847137652
 21
2337.166326973587
 31
0.0
  0
LINE
  5
704
330
D6
100
AcDbEntity
  8
0
100
AcDbLine
 10
10731.78847137652
 20
2608.632993640254
 30
0.0
 11
10871.78847137652
 21
2608.632993640254
 31
0.0
  0
LINE
  5
705
330
D6
100
AcDbEntity
  8
0
100
AcDbLine
 10
10731.78847137652
 20
2337.166326973587
 30
0.0
 11
10871.78847137652
 21
2337.166326973587
 31
0.0
  0
LINE
  5
706
330
D6
100
AcDbEntity
  8
0
100
AcDbLine
 10
9751.788471376524
 20
2608.632993640254
 30
0.0
 11
9751.788471376524
 21
2472.89966030692
 31
0.0
  0
LINE
  5
707
330
D6
100
AcDbEntity
  8
0
100
AcDbLine
 10
9751.788471376524
 20
2472.89966030692
 30
0.0
 11
9751.788471376524
 21
2337.166326973587
 31
0.0
  0
LINE
  5
708
330
D6
100
AcDbEntity
  8
0
100
AcDbLine
 10
10871.78847137652
 20
2608.632993640254
 30
0.0
 11
11011.78847137652
 21
2608.632993640254
 31
0.0
  0
LINE
  5
709
330
D6
100
AcDbEntity
  8
0
100
AcDbLine
 10
10871.78847137652
 20
2337.166326973587
 30
0.0
 11
11011.78847137652
 21
2337.166326973587
 31
0.0
  0
LINE
  5
70A
330
D6
100
AcDbEntity
  8
0
100
AcDbLine
 10
10871.78847137652
 20
2608.632993640254
 30
0.0
 11
10871.78847137652
 21
2472.89966030692
 31
0.0
  0
LINE
  5
70B
330
D6
100
AcDbEntity
  8
0
100
AcDbLine
 10
10871.78847137652
 20
2472.89966030692
 30
0.0
 11
10871.78847137652
 21
2337.166326973587
 31
0.0
  0
LINE
  5
70C
330
D6
100
AcDbEntity
  8
0
100
AcDbLine
 10
11011.78847137652
 20
2608.632993640254
 30
0.0
 11
11151.78847137652
 21
2608.632993640254
 31
0.0
  0
LINE
  5
70D
330
D6
100
AcDbEntity
  8
0
100
AcDbLine
 10
11011.78847137652
 20
2337.166326973587
 30
0.0
 11
11151.78847137652
 21
2337.166326973587
 31
0.0
  0
LINE
  5
70E
330
D6
100
AcDbEntity
  8
0
100
AcDbLine
 10
11151.78847137652
 20
2608.632993640254
 30
0.0
 11
11291.78847137652
 21
2608.632993640254
 31
0.0
  0
LINE
  5
70F
330
D6
100
AcDbEntity
  8
0
100
AcDbLine
 10
11151.78847137652
 20
2337.166326973587
 30
0.0
 11
11291.78847137652
 21
2337.166326973587
 31
0.0
  0
LINE
  5
710
330
D6
100
AcDbEntity
  8
0
100
AcDbLine
 10
11291.78847137652
 20
2608.632993640254
 30
0.0
 11
11431.78847137652
 21
2608.632993640254
 31
0.0
  0
LINE
  5
711
330
D6
100
AcDbEntity
  8
0
100
AcDbLine
 10
11291.78847137652
 20
2337.166326973587
 30
0.0
 11
11431.78847137652
 21
2337.166326973587
 31
0.0
  0
LINE
  5
712
330
D6
100
AcDbEntity
  8
0
100
AcDbLine
 10
11431.78847137652
 20
2608.632993640254
 30
0.0
 11
11571.78847137652
 21
2608.632993640254
 31
0.0
  0
LINE
  5
713
330
D6
100
AcDbEntity
  8
0
100
AcDbLine
 10
11431.78847137652
 20
2337.166326973587
 30
0.0
 11
11571.78847137652
 21
2337.166326973587
 31
0.0
  0
LINE
  5
714
330
D6
100
AcDbEntity
  8
0
100
AcDbLine
 10
11571.78847137652
 20
2608.632993640254
 30
0.0
 11
11711.78847137652
 21
2608.632993640254
 31
0.0
  0
LINE
  5
715
330
D6
100
AcDbEntity
  8
0
100
AcDbLine
 10
11571.78847137652
 20
2337.166326973587
 30
0.0
 11
11711.78847137652
 21
2337.166326973587
 31
0.0
  0
LINE
  5
716
330
D6
100
AcDbEntity
  8
0
100
AcDbLine
 10
11711.78847137652
 20
2608.632993640254
 30
0.0
 11
11851.78847137652
 21
2608.632993640254
 31
0.0
  0
LINE
  5
717
330
D6
100
AcDbEntity
  8
0
100
AcDbLine
 10
11711.78847137652
 20
2337.166326973587
 30
0.0
 11
11851.78847137652
 21
2337.166326973587
 31
0.0
  0
LINE
  5
718
330
D6
100
AcDbEntity
  8
0
100
AcDbLine
 10
11851.78847137652
 20
2608.632993640254
 30
0.0
 11
11991.78847137652
 21
2608.632993640254
 31
0.0
  0
LINE
  5
719
330
D6
100
AcDbEntity
  8
0
100
AcDbLine
 10
11851.78847137652
 20
2337.166326973587
 30
0.0
 11
11991.78847137652
 21
2337.166326973587
 31
0.0
  0
LINE
  5
71A
330
D6
100
AcDbEntity
  8
0
100
AcDbLine
 10
11991.78847137652
 20
2608.632993640254
 30
0.0
 11
12131.78847137652
 21
2608.632993640254
 31
0.0
  0
LINE
  5
71B
330
D6
100
AcDbEntity
  8
0
100
AcDbLine
 10
11991.78847137652
 20
2337.166326973587
 30
0.0
 11
12131.78847137652
 21
2337.166326973587
 31
0.0
  0
LINE
  5
71C
330
D6
100
AcDbEntity
  8
0
100
AcDbLine
 10
12131.78847137652
 20
2608.632993640254
 30
0.0
 11
12271.78847137652
 21
2608.632993640254
 31
0.0
  0
LINE
  5
71D
330
D6
100
AcDbEntity
  8
0
100
AcDbLine
 10
12131.78847137652
 20
2337.166326973587
 30
0.0
 11
12271.78847137652
 21
2337.166326973587
 31
0.0
  0
LINE
  5
71E
330
D6
100
AcDbEntity
  8
0
100
AcDbLine
 10
12271.78847137652
 20
2608.632993640254
 30
0.0
 11
12411.78847137652
 21
2608.632993640254
 31
0.0
  0
LINE
  5
71F
330
D6
100
AcDbEntity
  8
0
100
AcDbLine
 10
12271.78847137652
 20
2337.166326973587
 30
0.0
 11
12411.78847137652
 21
2337.166326973587
 31
0.0
  0
LINE
  5
720
330
D6
100
AcDbEntity
  8
0
100
AcDbLine
 10
11011.78847137652
 20
2608.632993640254
 30
0.0
 11
11011.78847137652
 21
2472.89966030692
 31
0.0
  0
LINE
  5
721
330
D6
100
AcDbEntity
  8
0
100
AcDbLine
 10
12411.78847137652
 20
2608.632993640254
 30
0.0
 11
12411.78847137652
 21
2472.89966030692
 31
0.0
  0
LINE
  5
722
330
D6
100
AcDbEntity
  8
0
100
AcDbLine
 10
11011.78847137652
 20
2472.89966030692
 30
0.0
 11
11011.78847137652
 21
2337.166326973587
 31
0.0
  0
LINE
  5
723
330
D6
100
AcDbEntity
  8
0
100
AcDbLine
 10
12411.78847137652
 20
2472.89966030692
 30
0.0
 11
12411.78847137652
 21
2337.166326973587
 31
0.0
  0
MTEXT
  5
724
330
D6
100
AcDbEntity
  8
0
100
AcDbMText
 10
9774.058187506483
 20
2536.582261727431
 30
0.0
 40
30.0
 41
280.0
 71
     1
 72
     5
  1
HOKKAIDO
 73
     1
 44
1.0
  0
MTEXT
  5
725
330
D6
100
AcDbEntity
  8
0
100
AcDbMText
 10
9771.93695116551
 20
2468.661317903733
 30
0.0
 40
60.0
 41
280.0
 71
     1
 72
     5
  1
SUIKO
 73
     1
 44
1.0
  0
MTEXT
  5
726
330
D6
100
AcDbEntity
  8
0
100
AcDbMText
 10
10061.3351890697
 20
2490.306227746005
 30
0.0
 40
60.0
 41
893.3007031411397
 71
     1
 72
     5
  1
北海道スイコー株式会社
 73
     1
 44
1.0
  0
MTEXT
  5
727
330
D6
100
AcDbEntity
  8
0
100
AcDbMText
 10
10904.51677086977
 20
2569.391892237777
 30
0.0
 40
70.0
 41
140.0
 71
     1
 72
     5
  1
図
 73
     1
 44
1.0
  0
MTEXT
  5
728
330
D6
100
AcDbEntity
  8
0
100
AcDbMText
 10
10901.24413684741
 20
2443.468834255054
 30
0.0
 40
70.0
 41
140.0
 71
     1
 72
     5
  1
番
 73
     1
 44
1.0
  0
MTEXT
  5
729
330
D6
100
AcDbEntity
  8
0
100
AcDbMText
 10
10901.24413684741
 20
3151.566326973587
 30
0.0
 40
70.0
 41
140.0
 71
     1
 72
     5
  1
名
 73
     1
 44
1.0
  0
MTEXT
  5
72A
330
D6
100
AcDbEntity
  8
0
100
AcDbMText
 10
10900.80121788995
 20
2817.001507661668
 30
0.0
 40
70.0
 41
140.0
 71
     1
 72
     5
  1
称
 73
     1
 44
1.0
  0
MTEXT
  5
72B
330
D6
100
AcDbEntity
  8
0
100
AcDbMText
 10
9794.33565257171
 20
2873.559476739871
 30
0.0
 40
50.0
 41
140.0
 71
     1
 72
     5
  1
年
 73
     1
 44
1.0
  0
MTEXT
  5
72C
330
D6
100
AcDbEntity
  8
0
100
AcDbMText
 10
9817.245396907921
 20
2818.77317720734
 30
0.0
 40
50.0
 41
140.0
 71
     1
 72
     5
  1
・
 73
     1
 44
1.0
  0
MTEXT
  5
72D
330
D6
100
AcDbEntity
  8
0
100
AcDbMText
 10
9791.062692004373
 20
2773.797153025418
 30
0.0
 40
50.0
 41
140.0
 71
     1
 72
     5
  1
月
 73
     1
 44
1.0
  0
MTEXT
  5
72E
330
D6
100
AcDbEntity
  8
0
100
AcDbMText
 10
9813.972436340657
 20
2728.821128843458
 30
0.0
 40
50.0
 41
140.0
 71
     1
 72
     5
  1
・
 73
     1
 44
1.0
  0
MTEXT
  5
72F
330
D6
100
AcDbEntity
  8
0
100
AcDbMText
 10
9800.881247161335
 20
2683.039843874006
 30
0.0
 40
50.0
 41
140.0
 71
     1
 72
     5
  1
日
 73
     1
 44
1.0
  0
MTEXT
  5
730
330
D6
100
AcDbEntity
  8
0
100
AcDbMText
 10
10343.52362060438
 20
2843.952298424244
 30
0.0
 40
60.0
 41
140.0
 71
     1
 72
     5
  1
尺
 73
     1
 44
1.0
  0
MTEXT
  5
731
330
D6
100
AcDbEntity
  8
0
100
AcDbMText
 10
10343.40625621198
 20
2723.459805683512
 30
0.0
 40
60.0
 41
140.0
 71
     1
 72
     5
  1
度
 73
     1
 44
1.0
  0
MTEXT
  5
732
330
D6
100
AcDbEntity
  8
0
100
AcDbMText
 10
9781.244463392461
 20
3251.328650688041
 30
0.0
 40
60.0
 41
280.0
 71
     1
 72
     5
  1
設　計
 73
     1
 44
1.0
  0
MTEXT
  5
733
330
D6
100
AcDbEntity
  8
0
100
AcDbMText
 10
10057.97117628007
 20
3251.328650688005
 30
0.0
 40
60.0
 41
280.0
 71
     1
 72
     5
  1
製　図
 73
     1
 44
1.0
  0
MTEXT
  5
734
330
D6
100
AcDbEntity
  8
0
100
AcDbMText
 10
10337.97117628007
 20
3254.598742471566
 30
0.0
 40
60.0
 41
280.0
 71
     1
 72
     5
  1
検　図
 73
     1
 44
1.0
  0
MTEXT
  5
735
330
D6
100
AcDbEntity
  8
0
100
AcDbMText
 10
10624.5167708697
 20
3251.328650688041
 30
0.0
 40
60.0
 41
280.0
 71
     1
 72
     5
  1
承　認
 73
     1
 44
1.0
  0
LINE
  5
736
330
D6
100
AcDbEntity
  8
0
100
AcDbLine
 10
9751.788471376524
 20
3287.299660306921
 30
0.0
 11
9891.788471376523
 21
3287.299660306921
 31
0.0
  0
LINE
  5
737
330
D6
100
AcDbEntity
  8
0
100
AcDbLine
 10
9891.788471376523
 20
3287.299660306921
 30
0.0
 11
10031.78847137652
 21
3287.299660306921
 31
0.0
  0
LINE
  5
738
330
D6
100
AcDbEntity
  8
0
100
AcDbLine
 10
10031.78847137652
 20
3287.299660306921
 30
0.0
 11
10171.78847137652
 21
3287.299660306921
 31
0.0
  0
LINE
  5
739
330
D6
100
AcDbEntity
  8
0
100
AcDbLine
 10
10171.78847137652
 20
3287.299660306921
 30
0.0
 11
10311.78847137652
 21
3287.299660306921
 31
0.0
  0
LINE
  5
73A
330
D6
100
AcDbEntity
  8
0
100
AcDbLine
 10
10311.78847137652
 20
3287.299660306921
 30
0.0
 11
10451.78847137652
 21
3287.299660306921
 31
0.0
  0
LINE
  5
73B
330
D6
100
AcDbEntity
  8
0
100
AcDbLine
 10
10451.78847137652
 20
3287.299660306921
 30
0.0
 11
10591.78847137652
 21
3287.299660306921
 31
0.0
  0
LINE
  5
73C
330
D6
100
AcDbEntity
  8
0
100
AcDbLine
 10
10591.78847137652
 20
3287.299660306921
 30
0.0
 11
10731.78847137652
 21
3287.299660306921
 31
0.0
  0
LINE
  5
73D
330
D6
100
AcDbEntity
  8
0
100
AcDbLine
 10
10731.78847137652
 20
3287.299660306921
 30
0.0
 11
10871.78847137652
 21
3287.299660306921
 31
0.0
  0
LINE
  5
73E
330
D6
100
AcDbEntity
  8
0
100
AcDbLine
 10
10871.78847137652
 20
3287.299660306921
 30
0.0
 11
11011.78847137652
 21
3287.299660306921
 31
0.0
  0
LINE
  5
73F
330
D6
100
AcDbEntity
  8
0
100
AcDbLine
 10
11011.78847137652
 20
3287.299660306921
 30
0.0
 11
11151.78847137652
 21
3287.299660306921
 31
0.0
  0
LINE
  5
740
330
D6
100
AcDbEntity
  8
0
100
AcDbLine
 10
11151.78847137652
 20
3287.299660306921
 30
0.0
 11
11291.78847137652
 21
3287.299660306921
 31
0.0
  0
LINE
  5
741
330
D6
100
AcDbEntity
  8
0
100
AcDbLine
 10
11291.78847137652
 20
3287.299660306921
 30
0.0
 11
11431.78847137652
 21
3287.299660306921
 31
0.0
  0
LINE
  5
742
330
D6
100
AcDbEntity
  8
0
100
AcDbLine
 10
11431.78847137652
 20
3287.299660306921
 30
0.0
 11
11571.78847137652
 21
3287.299660306921
 31
0.0
  0
LINE
  5
743
330
D6
100
AcDbEntity
  8
0
100
AcDbLine
 10
11571.78847137652
 20
3287.299660306921
 30
0.0
 11
11711.78847137652
 21
3287.299660306921
 31
0.0
  0
LINE
  5
744
330
D6
100
AcDbEntity
  8
0
100
AcDbLine
 10
11711.78847137652
 20
3287.299660306921
 30
0.0
 11
11851.78847137652
 21
3287.299660306921
 31
0.0
  0
LINE
  5
745
330
D6
100
AcDbEntity
  8
0
100
AcDbLine
 10
11851.78847137652
 20
3287.299660306921
 30
0.0
 11
11991.78847137652
 21
3287.299660306921
 31
0.0
  0
LINE
  5
746
330
D6
100
AcDbEntity
  8
0
100
AcDbLine
 10
11991.78847137652
 20
3287.299660306921
 30
0.0
 11
12131.78847137652
 21
3287.299660306921
 31
0.0
  0
LINE
  5
747
330
D6
100
AcDbEntity
  8
0
100
AcDbLine
 10
12131.78847137652
 20
3287.299660306921
 30
0.0
 11
12271.78847137652
 21
3287.299660306921
 31
0.0
  0
LINE
  5
748
330
D6
100
AcDbEntity
  8
0
100
AcDbLine
 10
12271.78847137652
 20
3287.299660306921
 30
0.0
 11
12411.78847137652
 21
3287.299660306921
 31
0.0
  0
LINE
  5
749
330
D6
100
AcDbEntity
  8
0
100
AcDbLine
 10
9751.788471376524
 20
3567.299660306921
 30
0.0
 11
9891.788471376523
 21
3567.299660306921
 31
0.0
  0
LINE
  5
74A
330
D6
100
AcDbEntity
  8
0
100
AcDbLine
 10
9751.788471376524
 20
3287.299660306921
 30
0.0
 11
9891.788471376523
 21
3287.299660306921
 31
0.0
  0
LINE
  5
74B
330
D6
100
AcDbEntity
  8
0
100
AcDbLine
 10
9891.788471376523
 20
3567.299660306921
 30
0.0
 11
10031.78847137652
 21
3567.299660306921
 31
0.0
  0
LINE
  5
74C
330
D6
100
AcDbEntity
  8
0
100
AcDbLine
 10
9891.788471376523
 20
3287.299660306921
 30
0.0
 11
10031.78847137652
 21
3287.299660306921
 31
0.0
  0
LINE
  5
74D
330
D6
100
AcDbEntity
  8
0
100
AcDbLine
 10
10031.78847137652
 20
3567.299660306921
 30
0.0
 11
10171.78847137652
 21
3567.299660306921
 31
0.0
  0
LINE
  5
74E
330
D6
100
AcDbEntity
  8
0
100
AcDbLine
 10
10031.78847137652
 20
3287.299660306921
 30
0.0
 11
10171.78847137652
 21
3287.299660306921
 31
0.0
  0
LINE
  5
74F
330
D6
100
AcDbEntity
  8
0
100
AcDbLine
 10
10171.78847137652
 20
3567.299660306921
 30
0.0
 11
10311.78847137652
 21
3567.299660306921
 31
0.0
  0
LINE
  5
750
330
D6
100
AcDbEntity
  8
0
100
AcDbLine
 10
10171.78847137652
 20
3287.299660306921
 30
0.0
 11
10311.78847137652
 21
3287.299660306921
 31
0.0
  0
LINE
  5
751
330
D6
100
AcDbEntity
  8
0
100
AcDbLine
 10
9751.788471376524
 20
3567.299660306921
 30
0.0
 11
9751.788471376524
 21
3427.29966030692
 31
0.0
  0
LINE
  5
752
330
D6
100
AcDbEntity
  8
0
100
AcDbLine
 10
9751.788471376524
 20
3427.29966030692
 30
0.0
 11
9751.788471376524
 21
3287.299660306921
 31
0.0
  0
LINE
  5
753
330
D6
100
AcDbEntity
  8
0
100
AcDbLine
 10
10311.78847137652
 20
3567.299660306921
 30
0.0
 11
10451.78847137652
 21
3567.299660306921
 31
0.0
  0
LINE
  5
754
330
D6
100
AcDbEntity
  8
0
100
AcDbLine
 10
10311.78847137652
 20
3287.299660306921
 30
0.0
 11
10451.78847137652
 21
3287.299660306921
 31
0.0
  0
LINE
  5
755
330
D6
100
AcDbEntity
  8
0
100
AcDbLine
 10
10451.78847137652
 20
3567.299660306921
 30
0.0
 11
10591.78847137652
 21
3567.299660306921
 31
0.0
  0
LINE
  5
756
330
D6
100
AcDbEntity
  8
0
100
AcDbLine
 10
10451.78847137652
 20
3287.299660306921
 30
0.0
 11
10591.78847137652
 21
3287.299660306921
 31
0.0
  0
LINE
  5
757
330
D6
100
AcDbEntity
  8
0
100
AcDbLine
 10
10591.78847137652
 20
3567.299660306921
 30
0.0
 11
10731.78847137652
 21
3567.299660306921
 31
0.0
  0
LINE
  5
758
330
D6
100
AcDbEntity
  8
0
100
AcDbLine
 10
10591.78847137652
 20
3287.299660306921
 30
0.0
 11
10731.78847137652
 21
3287.299660306921
 31
0.0
  0
LINE
  5
759
330
D6
100
AcDbEntity
  8
0
100
AcDbLine
 10
10731.78847137652
 20
3567.299660306921
 30
0.0
 11
10871.78847137652
 21
3567.299660306921
 31
0.0
  0
LINE
  5
75A
330
D6
100
AcDbEntity
  8
0
100
AcDbLine
 10
10731.78847137652
 20
3287.299660306921
 30
0.0
 11
10871.78847137652
 21
3287.299660306921
 31
0.0
  0
LINE
  5
75B
330
D6
100
AcDbEntity
  8
0
100
AcDbLine
 10
10871.78847137652
 20
3567.299660306921
 30
0.0
 11
11011.78847137652
 21
3567.299660306921
 31
0.0
  0
LINE
  5
75C
330
D6
100
AcDbEntity
  8
0
100
AcDbLine
 10
10871.78847137652
 20
3287.299660306921
 30
0.0
 11
11011.78847137652
 21
3287.299660306921
 31
0.0
  0
LINE
  5
75D
330
D6
100
AcDbEntity
  8
0
100
AcDbLine
 10
11011.78847137652
 20
3567.299660306921
 30
0.0
 11
11151.78847137652
 21
3567.299660306921
 31
0.0
  0
LINE
  5
75E
330
D6
100
AcDbEntity
  8
0
100
AcDbLine
 10
11011.78847137652
 20
3287.299660306921
 30
0.0
 11
11151.78847137652
 21
3287.299660306921
 31
0.0
  0
LINE
  5
75F
330
D6
100
AcDbEntity
  8
0
100
AcDbLine
 10
11151.78847137652
 20
3567.299660306921
 30
0.0
 11
11291.78847137652
 21
3567.299660306921
 31
0.0
  0
LINE
  5
760
330
D6
100
AcDbEntity
  8
0
100
AcDbLine
 10
11151.78847137652
 20
3287.299660306921
 30
0.0
 11
11291.78847137652
 21
3287.299660306921
 31
0.0
  0
LINE
  5
761
330
D6
100
AcDbEntity
  8
0
100
AcDbLine
 10
11291.78847137652
 20
3567.299660306921
 30
0.0
 11
11431.78847137652
 21
3567.299660306921
 31
0.0
  0
LINE
  5
762
330
D6
100
AcDbEntity
  8
0
100
AcDbLine
 10
11291.78847137652
 20
3287.299660306921
 30
0.0
 11
11431.78847137652
 21
3287.299660306921
 31
0.0
  0
LINE
  5
763
330
D6
100
AcDbEntity
  8
0
100
AcDbLine
 10
11431.78847137652
 20
3567.299660306921
 30
0.0
 11
11571.78847137652
 21
3567.299660306921
 31
0.0
  0
LINE
  5
764
330
D6
100
AcDbEntity
  8
0
100
AcDbLine
 10
11431.78847137652
 20
3287.299660306921
 30
0.0
 11
11571.78847137652
 21
3287.299660306921
 31
0.0
  0
LINE
  5
765
330
D6
100
AcDbEntity
  8
0
100
AcDbLine
 10
11571.78847137652
 20
3567.299660306921
 30
0.0
 11
11711.78847137652
 21
3567.299660306921
 31
0.0
  0
LINE
  5
766
330
D6
100
AcDbEntity
  8
0
100
AcDbLine
 10
11571.78847137652
 20
3287.299660306921
 30
0.0
 11
11711.78847137652
 21
3287.299660306921
 31
0.0
  0
LINE
  5
767
330
D6
100
AcDbEntity
  8
0
100
AcDbLine
 10
11711.78847137652
 20
3567.299660306921
 30
0.0
 11
11851.78847137652
 21
3567.299660306921
 31
0.0
  0
LINE
  5
768
330
D6
100
AcDbEntity
  8
0
100
AcDbLine
 10
11711.78847137652
 20
3287.299660306921
 30
0.0
 11
11851.78847137652
 21
3287.299660306921
 31
0.0
  0
LINE
  5
769
330
D6
100
AcDbEntity
  8
0
100
AcDbLine
 10
11851.78847137652
 20
3567.299660306921
 30
0.0
 11
11991.78847137652
 21
3567.299660306921
 31
0.0
  0
LINE
  5
76A
330
D6
100
AcDbEntity
  8
0
100
AcDbLine
 10
11851.78847137652
 20
3287.299660306921
 30
0.0
 11
11991.78847137652
 21
3287.299660306921
 31
0.0
  0
LINE
  5
76B
330
D6
100
AcDbEntity
  8
0
100
AcDbLine
 10
11991.78847137652
 20
3567.299660306921
 30
0.0
 11
12131.78847137652
 21
3567.299660306921
 31
0.0
  0
LINE
  5
76C
330
D6
100
AcDbEntity
  8
0
100
AcDbLine
 10
11991.78847137652
 20
3287.299660306921
 30
0.0
 11
12131.78847137652
 21
3287.299660306921
 31
0.0
  0
LINE
  5
76D
330
D6
100
AcDbEntity
  8
0
100
AcDbLine
 10
12131.78847137652
 20
3567.299660306921
 30
0.0
 11
12271.78847137652
 21
3567.299660306921
 31
0.0
  0
LINE
  5
76E
330
D6
100
AcDbEntity
  8
0
100
AcDbLine
 10
12131.78847137652
 20
3287.299660306921
 30
0.0
 11
12271.78847137652
 21
3287.299660306921
 31
0.0
  0
LINE
  5
76F
330
D6
100
AcDbEntity
  8
0
100
AcDbLine
 10
12271.78847137652
 20
3567.299660306921
 30
0.0
 11
12411.78847137652
 21
3567.299660306921
 31
0.0
  0
LINE
  5
770
330
D6
100
AcDbEntity
  8
0
100
AcDbLine
 10
12271.78847137652
 20
3287.299660306921
 30
0.0
 11
12411.78847137652
 21
3287.299660306921
 31
0.0
  0
LINE
  5
771
330
D6
100
AcDbEntity
  8
0
100
AcDbLine
 10
10311.78847137652
 20
3567.299660306921
 30
0.0
 11
10311.78847137652
 21
3427.29966030692
 31
0.0
  0
LINE
  5
772
330
D6
100
AcDbEntity
  8
0
100
AcDbLine
 10
12411.78847137652
 20
3567.299660306921
 30
0.0
 11
12411.78847137652
 21
3427.29966030692
 31
0.0
  0
LINE
  5
773
330
D6
100
AcDbEntity
  8
0
100
AcDbLine
 10
10311.78847137652
 20
3427.29966030692
 30
0.0
 11
10311.78847137652
 21
3287.299660306921
 31
0.0
  0
LINE
  5
774
330
D6
100
AcDbEntity
  8
0
100
AcDbLine
 10
12411.78847137652
 20
3427.29966030692
 30
0.0
 11
12411.78847137652
 21
3287.299660306921
 31
0.0
  0
MTEXT
  5
775
330
D6
100
AcDbEntity
  8
0
100
AcDbMText
 10
9823.797657514173
 20
3461.25930300473
 30
0.0
 40
70.0
 41
560.0
 71
     1
 72
     5
  1
納　入　先
 73
     1
 44
1.0
  0
LINE
  5
83D
102
{ACAD_REACTORS
330
AF4
102
}
330
D6
100
AcDbEntity
  8
0
  6
Continuous
100
AcDbLine
 10
10603.41815587799
 20
7065.098093167332
 30
0.0
 11
10551.09225329047
 21
7012.772190579809
 31
0.0
  0
LINE
  5
83E
102
{ACAD_REACTORS
330
AF4
102
}
330
D6
100
AcDbEntity
  8
0
  6
Continuous
100
AcDbLine
 10
10522.80798162154
 20
7140.051413089999
 30
0.0
 11
10519.27244766293
 21
7143.586947048617
 31
0.0
  0
LINE
  5
83F
102
{ACAD_REACTORS
330
AF4
102
}
330
D6
100
AcDbEntity
  8
0
  6
Continuous
100
AcDbLine
 10
10519.27244766293
 20
7143.586947048617
 30
0.0
 11
10498.05924391123
 21
7143.586947048614
 31
0.0
  0
LINE
  5
840
102
{ACAD_REACTORS
330
AF4
102
}
330
D6
100
AcDbEntity
  8
0
  6
CENTER
100
AcDbLine
 10
10547.43091816781
 20
7058.859933205873
 30
0.0
 11
10516.77258023655
 21
7089.518271137134
 31
0.0
  0
LINE
  5
841
102
{ACAD_REACTORS
330
AF4
102
}
330
D6
100
AcDbEntity
  8
0
  6
Continuous
100
AcDbLine
 10
10604.12526266971
 20
7037.520928290124
 30
0.0
 11
10604.12526266971
 21
7058.734132041822
 31
0.0
  0
LINE
  5
842
102
{ACAD_REACTORS
330
AF4
102
}
330
D6
100
AcDbEntity
  8
0
  6
Continuous
100
AcDbLine
 10
10541.37351634648
 20
6974.769181966886
 30
0.0
 11
10604.12526266972
 21
7037.520928290129
 31
0.0
  0
LINE
  5
843
102
{ACAD_REACTORS
330
AF4
102
}
330
D6
100
AcDbEntity
  8
0
  6
Continuous
100
AcDbLine
 10
10435.30749758799
 20
7080.835200725373
 30
0.0
 11
10498.05924391123
 21
7143.586947048617
 31
0.0
  0
LINE
  5
844
102
{ACAD_REACTORS
330
AF4
102
}
330
D6
100
AcDbEntity
  8
0
  6
Continuous
100
AcDbLine
 10
10604.12526266971
 20
7058.734132041829
 30
0.0
 11
10600.5897287111
 21
7062.269666000439
 31
0.0
  0
LINE
  5
845
102
{ACAD_REACTORS
330
AF4
102
}
330
D6
100
AcDbEntity
  8
0
  6
CENTER
100
AcDbLine
 10
10632.01119569166
 20
7171.472880070549
 30
0.0
 11
10469.68770854717
 21
7009.149392926071
 31
0.0
  0
LINE
  5
846
102
{ACAD_REACTORS
330
AF4
102
}
330
D6
100
AcDbEntity
  8
0
100
AcDbLine
 10
10529.87904959146
 20
7083.482869594087
 30
0.0
 11
10522.80798177959
 21
7076.41180178222
 31
0.0
  0
LINE
  5
847
102
{ACAD_REACTORS
330
AF4
102
}
330
D6
100
AcDbEntity
  8
0
100
AcDbLine
 10
10544.02118521519
 20
7069.340733970356
 30
0.0
 11
10536.95011740333
 21
7062.269666158491
 31
0.0
  0
LINE
  5
848
102
{ACAD_REACTORS
330
AF4
102
}
330
D6
100
AcDbEntity
  8
0
  6
Continuous
100
AcDbLine
 10
10525.63640878844
 20
7142.879840256892
 30
0.0
 11
10603.41815587799
 21
7065.098093167332
 31
0.0
  0
LINE
  5
849
102
{ACAD_REACTORS
330
AF4
102
}
330
D6
100
AcDbEntity
  8
0
  6
Continuous
100
AcDbLine
 10
10473.31050620092
 20
7090.553937669373
 30
0.0
 11
10551.09225329047
 21
7012.772190579809
 31
0.0
  0
LINE
  5
84A
102
{ACAD_REACTORS
330
AF4
102
}
330
D6
100
AcDbEntity
  8
0
  6
Continuous
100
AcDbLine
 10
10525.63640878844
 20
7142.879840256895
 30
0.0
 11
10473.31050620092
 21
7090.553937669373
 31
0.0
  0
ARC
  5
84B
102
{ACAD_REACTORS
330
AF4
102
}
330
D6
100
AcDbEntity
  8
0
  6
Continuous
100
AcDbCircle
 10
9532.858473208976
 20
6072.320157587878
 30
0.0
 40
1375.000020489096
100
AcDbArc
 50
41.87322388644679
 51
48.12677611362675
  0
LINE
  5
8DD
330
D6
100
AcDbEntity
  8
3
  6
CENTER
100
AcDbLine
 10
11623.67182379415
 20
5295.393223772311
 30
0.0
 11
10792.84946059759
 21
5295.393223772311
 31
0.0
  0
LINE
  5
8DE
330
D6
100
AcDbEntity
  8
3
  6
Continuous
100
AcDbLine
 10
10947.56718850017
 20
4509.640091898618
 30
0.0
 11
11128.54944821335
 21
4509.640091898618
 31
0.0
  0
LINE
  5
8DF
330
D6
100
AcDbEntity
  8
3
  6
Continuous
100
AcDbLine
 10
11218.57194324368
 20
4862.082673444271
 30
0.0
 11
11218.57194324368
 21
4599.662587462817
 31
0.0
  0
ARC
  5
8E0
330
D6
100
AcDbEntity
  8
3
  6
Continuous
100
AcDbCircle
 10
7122.548150930471
 20
5295.393223772311
 30
0.0
 40
4096.023792313211
100
AcDbArc
 50
355.4804635681139
 51
5.089581616663068
  0
ARC
  5
8E1
330
D6
100
AcDbEntity
  8
3
  6
Continuous
100
AcDbCircle
 10
11128.54944231372
 20
4599.662587462822
 30
0.0
 40
90.02249556420151
100
AcDbArc
 50
269.9999962451469
 51
0.0
  0
SPLINE
  5
8E2
330
D6
100
AcDbEntity
  8
3
100
AcDbSpline
210
0.0
220
0.0
230
1.0
 70
     8
 71
     3
 72
    25
 73
    21
 74
    19
 42
0.0000000001
 43
0.0000000001
 44
0.0000000001
 12
-0.9088068481484354
 22
-0.4172171050646258
 32
0.0
 13
-0.3606669891202437
 23
-0.932694656872729
 33
0.0
 40
0.0
 40
0.0
 40
0.0
 40
0.0
 40
35.90325491024585
 40
71.80169009635623
 40
107.6930973229471
 40
143.5966288686032
 40
179.5037524729625
 40
215.4041665012707
 40
251.296376144173
 40
287.1705303301082
 40
322.9971792396746
 40
358.7275039592358
 40
394.4833527929759
 40
430.3061364586988
 40
466.149483723324
 40
502.0217744093654
 40
537.924759556425
 40
573.7075175893742
 40
609.5075790629444
 40
645.3742175797421
 40
645.3742175797421
 40
645.3742175797421
 40
645.3742175797421
 10
11255.17160662053
 20
4877.692289818684
 30
0.0
 10
11244.29523197611
 20
4872.699139126667
 30
0.0
 10
11222.33722085521
 20
4863.154704771506
 30
0.0
 10
11188.53406792345
 20
4850.936837148283
 30
0.0
 10
11153.61550247507
 20
4842.320249967423
 30
0.0
 10
11118.1278051765
 20
4836.791313863714
 30
0.0
 10
11082.57738776669
 20
4831.790937200389
 30
0.0
 10
11047.24874615633
 20
4825.272906200405
 30
0.0
 10
11012.57647191504
 20
4815.776612174679
 30
0.0
 10
10979.25775024645
 20
4802.191057326869
 30
0.0
 10
10948.79771517968
 20
4782.800379914059
 30
0.0
 10
10924.93216268778
 20
4755.110822071166
 30
0.0
 10
10913.14242644413
 20
4720.597410784704
 30
0.0
 10
10910.82236400525
 20
4684.605184554879
 30
0.0
 10
10916.0112178299
 20
4648.82980078089
 30
0.0
 10
10928.79374831354
 20
4615.136677165462
 30
0.0
 10
10943.83826481876
 20
4582.671448800813
 30
0.0
 10
10953.1081061685
 20
4547.451590348535
 30
0.0
 10
10949.10484768409
 20
4511.270414174801
 30
0.0
 10
10941.94980595724
 20
4488.423738757763
 30
0.0
 10
10937.637835116
 20
4477.272864722896
 30
0.0
 11
11255.17160662053
 21
4877.692289818684
 31
0.0
 11
11222.1908776938
 21
4863.503729898386
 31
0.0
 11
11188.34595281224
 21
4851.536327984313
 31
0.0
 11
11153.52508822003
 21
4842.835724456066
 31
0.0
 11
11118.11903056727
 21
4836.879663766385
 31
0.0
 11
11082.61152376749
 21
4831.537521274587
 31
0.0
 11
11047.35369369355
 21
4824.775484164288
 31
0.0
 11
11012.79251846433
 21
4815.091689462549
 31
0.0
 11
10979.71227599024
 21
4801.211758035805
 31
0.0
 11
10949.86707141015
 21
4781.392259160644
 31
0.0
 11
10926.94740138373
 21
4753.981589149772
 31
0.0
 11
10914.72638127855
 21
4720.379098268737
 31
0.0
 11
10912.07353861205
 21
4684.654677274857
 31
0.0
 11
10917.27323778071
 21
4649.19048869415
 31
0.0
 11
10929.1683447034
 21
4615.347798636156
 31
0.0
 11
10942.89071005703
 21
4582.170682553356
 31
0.0
 11
10950.89756981712
 21
4547.295247513392
 31
0.0
 11
10947.98817386977
 21
4511.613602137471
 31
0.0
 11
10937.637835116
 21
4477.272864722896
 31
0.0
  0
SPLINE
  5
8E3
330
D6
100
AcDbEntity
  8
3
100
AcDbSpline
210
0.0
220
0.0
230
1.0
 70
     8
 71
     3
 72
    29
 73
    25
 74
    23
 42
0.0000000001
 43
0.0000000001
 44
0.0000000001
 12
-0.9874086049190202
 22
-0.1581905399569598
 32
0.0
 13
0.9673712617183381
 23
0.2533630636092614
 33
0.0
 40
0.0
 40
0.0
 40
0.0
 40
0.0
 40
42.46962737898993
 40
84.93513300412317
 40
127.374897909476
 40
169.7116177545722
 40
211.7202847512204
 40
254.0622411091082
 40
296.5519006390149
 40
339.0025489545818
 40
381.3513043943445
 40
423.8081082713066
 40
466.2999366106238
 40
508.7460710711952
 40
550.9015428261134
 40
593.2036436536169
 40
635.6827114533577
 40
678.1671988914938
 40
720.6440114458689
 40
763.1080572708112
 40
805.4002048621953
 40
847.712018869015
 40
889.9820631652994
 40
932.316680369518
 40
932.316680369518
 40
932.316680369518
 40
932.316680369518
 10
11218.88026877441
 20
5661.798409258461
 30
0.0
 10
11204.90197693384
 20
5659.558978162843
 30
0.0
 10
11177.19966939579
 20
5653.413301235178
 30
0.0
 10
11136.88803018386
 20
5639.724420877117
 30
0.0
 10
11098.92689175528
 20
5620.548881335404
 30
0.0
 10
11065.09498308011
 20
5594.164234642734
 30
0.0
 10
11044.93851823293
 20
5554.747385448629
 30
0.0
 10
11047.22380878712
 20
5511.57750702115
 30
0.0
 10
11053.76894822756
 20
5469.926465347385
 30
0.0
 10
11058.40975919833
 20
5427.449328218902
 30
0.0
 10
11051.04778613346
 20
5385.062363003639
 30
0.0
 10
11034.07778116913
 20
5346.007337543875
 30
0.0
 10
11014.84701561814
 20
5308.175956047356
 30
0.0
 10
10997.46270617254
 20
5269.499242877884
 30
0.0
 10
10991.88105653993
 20
5225.971277496026
 30
0.0
 10
11008.81591151973
 20
5185.929181318968
 30
0.0
 10
11031.17216257678
 20
5150.127715915417
 30
0.0
 10
11054.06884433861
 20
5114.170870527624
 30
0.0
 10
11071.04238269702
 20
5075.18356070365
 30
0.0
 10
11087.58048961139
 20
5036.007075219292
 30
0.0
 10
11114.43586746784
 20
5002.217772557715
 30
0.0
 10
11151.16988637478
 20
4979.688108168141
 30
0.0
 10
11193.20310937678
 20
4970.003242945154
 30
0.0
 10
11221.71859601107
 20
4973.758118300325
 30
0.0
 10
11235.36969336414
 20
4977.333461070854
 30
0.0
 11
11218.88026877441
 21
5661.798409258461
 31
0.0
 11
11177.40384890359
 21
5652.667371836045
 31
0.0
 11
11137.26520747277
 21
5638.803439057546
 31
0.0
 11
11099.56525504214
 21
5619.313769179653
 31
0.0
 11
11067.29700193567
 21
5591.906513047391
 31
0.0
 11
11048.69715644855
 21
5554.239898510243
 31
0.0
 11
11047.92713636936
 21
5511.904944426284
 31
0.0
 11
11053.45291322954
 21
5469.776130568558
 31
0.0
 11
11056.40929962014
 21
5427.428553047271
 31
0.0
 11
11049.45828920349
 21
5385.654152495206
 31
0.0
 11
11033.70804649656
 21
5346.226877036208
 31
0.0
 11
11015.14134366762
 21
5308.006031654667
 31
0.0
 11
10999.39922284788
 21
5268.587001190414
 31
0.0
 11
10995.62010381661
 21
5226.601264824034
 31
0.0
 11
11009.68415607954
 21
5186.705523593098
 31
0.0
 11
11031.25615963381
 21
5150.111536876845
 31
0.0
 11
11053.08317562766
 21
5113.662763980001
 31
0.0
 11
11070.97566516426
 21
5075.138246812852
 31
0.0
 11
11089.33385214474
 21
5036.847619257109
 31
0.0
 11
11116.08463224476
 21
5004.090612190963
 31
0.0
 11
11152.06369821263
 21
4981.824125790367
 31
0.0
 11
11193.30539255597
 21
4972.557017692389
 31
0.0
 11
11235.36969336414
 21
4977.333461070854
 31
0.0
  0
LINE
  5
8E4
330
D6
100
AcDbEntity
  8
0
  6
Continuous
100
AcDbLine
 10
11523.6206133582
 20
5460.393223772306
 30
0.0
 11
11523.6206133582
 21
5475.39322645452
 31
0.0
  0
LINE
  5
8E5
330
D6
100
AcDbEntity
  8
0
  6
Continuous
100
AcDbLine
 10
11523.6206133582
 20
5475.39322645452
 30
0.0
 11
11478.62061268764
 21
5520.393227125078
 31
0.0
  0
LINE
  5
8E6
330
D6
100
AcDbEntity
  8
0
  6
CENTER
100
AcDbLine
 10
11403.62061157006
 20
5235.926952015327
 30
0.0
 11
11403.62061157006
 21
5365.999263921949
 31
0.0
  0
LINE
  5
8E7
330
D6
100
AcDbEntity
  8
0
  6
Continuous
100
AcDbLine
 10
11478.62061268763
 20
5070.393220419555
 30
0.0
 11
11523.62061335818
 21
5115.393221090108
 31
0.0
  0
LINE
  5
8E8
330
D6
100
AcDbEntity
  8
0
  6
Continuous
100
AcDbLine
 10
11212.38750054888
 20
5070.39322041955
 30
0.0
 11
11478.62061268764
 21
5070.393220419555
 31
0.0
  0
LINE
  5
8E9
330
D6
100
AcDbEntity
  8
0
  6
Continuous
100
AcDbLine
 10
11212.38750054887
 20
5520.393227125072
 30
0.0
 11
11478.62061268764
 21
5520.393227125072
 31
0.0
  0
LINE
  5
8EA
330
D6
100
AcDbEntity
  8
0
  6
Continuous
100
AcDbLine
 10
11523.6206133582
 20
5115.393221090108
 30
0.0
 11
11523.6206133582
 21
5130.393221313619
 31
0.0
  0
LINE
  5
8EB
330
D6
100
AcDbEntity
  8
0
  6
CENTER
100
AcDbLine
 10
11683.10321535453
 20
5295.393223772306
 30
0.0
 11
11139.4348217381
 21
5295.393223772311
 31
0.0
  0
LINE
  5
8EC
330
D6
100
AcDbEntity
  8
0
100
AcDbLine
 10
11535.620613537
 20
5130.393221313614
 30
0.0
 11
11313.62061022895
 21
5130.393223772311
 31
0.0
  0
LINE
  5
8ED
330
D6
100
AcDbEntity
  8
0
100
AcDbLine
 10
11535.62061353701
 20
5460.393223772306
 30
0.0
 11
11313.62061022895
 21
5460.393223772311
 31
0.0
  0
LINE
  5
8EE
330
D6
100
AcDbEntity
  8
0
100
AcDbLine
 10
11418.62061157006
 20
5325.393223772306
 30
0.0
 11
11388.62061157005
 21
5325.393223772309
 31
0.0
  0
LINE
  5
8EF
330
D6
100
AcDbEntity
  8
0
100
AcDbLine
 10
11418.62061157006
 20
5265.393223772306
 30
0.0
 11
11388.62061157006
 21
5265.393223772306
 31
0.0
  0
LINE
  5
8F0
330
D6
100
AcDbEntity
  8
0
  6
Continuous
100
AcDbLine
 10
11535.62061353701
 20
5460.393226230998
 30
0.0
 11
11535.620613537
 21
5130.393221313614
 31
0.0
  0
LINE
  5
8F1
330
D6
100
AcDbEntity
  8
0
  6
Continuous
100
AcDbLine
 10
11313.62061022895
 20
5460.393226230998
 30
0.0
 11
11313.62061022895
 21
5130.393221313619
 31
0.0
  0
ARC
  5
8F2
330
D6
100
AcDbEntity
  8
0
  6
Continuous
100
AcDbCircle
 10
7158.620548314624
 20
5295.393223772316
 30
0.0
 40
4125.000061467289
100
AcDbArc
 50
356.8732238864202
 51
3.126776113579734
  0
DIMENSION
  5
8F5
330
D6
100
AcDbEntity
  8
寸法線
 48
20.0
100
AcDbDimension
  2
*D1
 10
11813.36409973938
 20
5130.393221313614
 30
0.0
 11
11749.36409973938
 21
5295.393222542962
 31
0.0
 70
    32
  1
110
 71
     5
 42
330.0000024586916
  3
1-20
100
AcDbAlignedDimension
 13
11535.62061353701
 23
5460.393223772306
 33
0.0
 14
11535.620613537
 24
5130.393221313614
 34
0.0
 50
90.0
100
AcDbRotatedDimension
  0
DIMENSION
  5
8F6
330
D6
100
AcDbEntity
  8
寸法線
 48
20.0
100
AcDbDimension
  2
*D2
 10
11970.14931036465
 20
5520.393227125072
 30
0.0
 11
11906.14931036465
 21
5295.393223772316
 31
0.0
 70
    32
  1
150
 71
     5
 42
450.0000067055171
  3
1-20
100
AcDbAlignedDimension
 13
11478.62061268763
 23
5070.393220419555
 33
0.0
 14
11478.62061268763
 24
5520.393227125072
 34
0.0
 50
90.0
100
AcDbRotatedDimension
  0
LINE
  5
8F7
330
D6
100
AcDbEntity
  8
0
  6
Continuous
100
AcDbLine
 10
11293.57194436127
 20
4599.640093239723
 30
0.0
 11
11518.57194771403
 21
4599.640093239723
 31
0.0
  0
LINE
  5
8F8
330
D6
100
AcDbEntity
  8
0
  6
CENTER
100
AcDbLine
 10
11398.57194592589
 20
4658.782142588744
 30
0.0
 11
11398.57194592589
 21
4457.696313282245
 31
0.0
  0
LINE
  5
8F9
330
D6
100
AcDbEntity
  8
0
  6
DASHED
100
AcDbLine
 10
11443.57194592589
 20
4599.640093239723
 30
0.0
 11
11443.57194592589
 21
4509.640091898618
 31
0.0
  0
LINE
  5
8FA
330
D6
100
AcDbEntity
  8
0
  6
DASHED
100
AcDbLine
 10
11353.57194592589
 20
4599.640093239723
 30
0.0
 11
11353.57194592589
 21
4509.640091898618
 31
0.0
  0
LINE
  5
8FB
330
D6
100
AcDbEntity
  8
0
  6
Continuous
100
AcDbLine
 10
11308.57194458479
 20
4611.640093418537
 30
0.0
 11
11308.57194458479
 21
4599.640093239723
 31
0.0
  0
LINE
  5
8FC
330
D6
100
AcDbEntity
  8
0
  6
Continuous
100
AcDbLine
 10
11530.57194789285
 20
4611.640093418537
 30
0.0
 11
11530.57194789285
 21
4524.640092122136
 31
0.0
  0
LINE
  5
8FD
330
D6
100
AcDbEntity
  8
0
  6
Continuous
100
AcDbLine
 10
11308.57194458479
 20
4611.640093418537
 30
0.0
 11
11530.57194789285
 21
4611.640093418537
 31
0.0
  0
LINE
  5
8FE
330
D6
100
AcDbEntity
  8
0
  6
Continuous
100
AcDbLine
 10
11518.57194771403
 20
4524.640092122136
 30
0.0
 11
11530.57194789285
 21
4524.640092122136
 31
0.0
  0
LINE
  5
8FF
330
D6
100
AcDbEntity
  8
0
  6
Continuous
100
AcDbLine
 10
11218.57194324368
 20
4779.640095921932
 30
0.0
 11
11269.57194400364
 21
4779.640095921932
 31
0.0
  0
LINE
  5
900
330
D6
100
AcDbEntity
  8
0
  6
Continuous
100
AcDbLine
 10
11192.21155342147
 20
4536.000481720832
 30
0.0
 11
11218.57194324368
 21
4509.640091898618
 31
0.0
  0
LINE
  5
901
330
D6
100
AcDbEntity
  8
0
  6
Continuous
100
AcDbLine
 10
11518.57194771403
 20
4599.640093239723
 30
0.0
 11
11518.57194771403
 21
4518.640092032728
 31
0.0
  0
LINE
  5
902
330
D6
100
AcDbEntity
  8
0
  6
Continuous
100
AcDbLine
 10
11278.57194413775
 20
4770.640095787821
 30
0.0
 11
11278.57194413775
 21
4614.64009346324
 31
0.0
  0
LINE
  5
903
330
D6
100
AcDbEntity
  8
0
  6
Continuous
100
AcDbLine
 10
11218.57194324368
 20
4509.640091898618
 30
0.0
 11
11509.57194773797
 21
4509.640091898618
 31
0.0
  0
ARC
  5
904
330
D6
100
AcDbEntity
  8
0
  6
Continuous
100
AcDbCircle
 10
11269.57194400364
 20
4770.640095787821
 30
0.0
 40
9.000000134110452
100
AcDbArc
 50
0.0
 51
90.0
  0
ARC
  5
905
330
D6
100
AcDbEntity
  8
0
  6
Continuous
100
AcDbCircle
 10
11509.57194757992
 20
4518.640092032728
 30
0.0
 40
9.000000134110452
100
AcDbArc
 50
270.0
 51
0.0
  0
ARC
  5
906
330
D6
100
AcDbEntity
  8
0
  6
Continuous
100
AcDbCircle
 10
11293.57194436127
 20
4614.64009346324
 30
0.0
 40
15.00000022351741
100
AcDbArc
 50
180.0
 51
270.0
  0
ARC
  5
907
330
D6
100
AcDbEntity
  8
0
  6
Continuous
100
AcDbCircle
 10
11509.57194757992
 20
4590.640093105612
 30
0.0
 40
9.000000134110452
100
AcDbArc
 50
0.0
 51
90.0
  0
LWPOLYLINE
  5
908
330
D6
100
AcDbEntity
  8
0
  6
DASHED
 48
20.0
100
AcDbPolyline
 90
        2
 70
     0
 43
0.0
 10
11353.57194592589
 20
4599.640093239723
 10
11353.57194592589
 20
4611.640093418537
  0
LWPOLYLINE
  5
909
330
D6
100
AcDbEntity
  8
0
  6
DASHED
 48
20.0
100
AcDbPolyline
 90
        2
 70
     0
 43
0.0
 10
11443.57194592589
 20
4599.640093239723
 10
11443.57194592589
 20
4611.640093418537
  0
DIMENSION
  5
90A
330
D6
100
AcDbEntity
  8
寸法線
 48
20.0
100
AcDbDimension
  2
*D3
 10
11530.57194789285
 20
4732.205282217053
 30
0.0
 11
11419.57194623882
 21
4796.205282217053
 31
0.0
 70
    32
  1
74
 71
     5
 42
222.0000033080578
  3
1-20
100
AcDbAlignedDimension
 13
11308.57194458479
 23
4611.640093418537
 33
0.0
 14
11530.57194789285
 24
4611.640093418537
 34
0.0
100
AcDbRotatedDimension
  0
DIMENSION
  5
90B
330
D6
100
AcDbEntity
  8
寸法線
 48
20.0
100
AcDbDimension
  2
*D4
 10
11744.91783176203
 20
4611.640093418537
 30
0.0
 11
11680.91783176202
 21
4735.640093418538
 31
0.0
 70
    32
  1
29
 71
     5
 42
87.00000129640102
  3
1-20
100
AcDbAlignedDimension
 13
11530.57194789285
 23
4524.640092122136
 33
0.0
 14
11530.57194789285
 24
4611.640093418537
 34
0.0
 50
90.0
100
AcDbRotatedDimension
  0
DIMENSION
  5
90C
330
D6
100
AcDbEntity
  8
寸法線
 48
20.0
100
AcDbDimension
  2
*D5
 10
11879.49232567721
 20
4611.640093418537
 30
0.0
 11
11815.49232567721
 21
4735.640093418538
 31
0.0
 70
    32
  1
34
 71
     5
 42
102.0000015199184
  3
1-20
100
AcDbAlignedDimension
 13
11509.57194773797
 23
4509.640091898618
 33
0.0
 14
11530.57194789285
 24
4611.640093418537
 34
0.0
 50
90.0
100
AcDbRotatedDimension
  0
LEADER
  5
90D
330
D6
100
AcDbEntity
  8
0
 48
20.0
100
AcDbLeader
  3
1-20
 40
60.0
 41
128.0
 76
     3
 10
11218.57194324368
 20
4779.640095921932
 30
0.0
 10
11406.52945864716
 20
4918.433779107161
 30
0.0
 10
11660.8254556059
 20
4918.433779107161
 30
0.0
213
0.0
223
-30.0
233
0.0
1001
ACAD
1000
DSTYLE
1002
{
1070
   147
1040
1.7
1070
    77
1070
     0
1002
}
  0
TEXT
  5
90E
330
D6
100
AcDbEntity
  8
0
 48
20.0
100
AcDbText
 10
11495.03288410726
 20
4931.749230210272
 30
0.0
 40
50.0
  1
融着
100
AcDbText
  0
LEADER
  5
90F
330
D6
100
AcDbEntity
  8
0
 48
20.0
100
AcDbLeader
  3
1-20
 73
     0
 40
50.00000000000001
 41
576.6666666666667
 76
     3
 10
11280.8420360849
 20
4558.944924330602
 30
0.0
 10
11244.91955881228
 20
4371.345984934213
 30
0.0
 10
10596.194082597
 20
4371.345984934213
 30
0.0
340
910
213
-630.7642940170335
223
-12.23518956713815
233
0.0
1001
ACAD
1000
DSTYLE
1002
{
1070
    41
1040
3.0
1070
   341
1005
AC7
1070
   147
1040
1.7
1070
    77
1070
     0
1002
}
  0
MTEXT
  5
910
102
{ACAD_REACTORS
330
90F
102
}
330
D6
100
AcDbEntity
  8
0
 48
20.0
100
AcDbMText
 10
11192.95837661403
 20
4383.58117450135
 30
0.0
 40
50.0
 41
0.0
 71
     9
 72
     1
  1
融着アンカープレート
 73
     1
 44
1.0
  0
LEADER
  5
911
330
D6
100
AcDbEntity
  8
0
 48
20.0
100
AcDbLeader
  3
1-20
 73
     0
 40
50.00000000000002
 41
530.0
 76
     3
 10
11418.62061157006
 20
5325.393223772306
 30
0.0
 10
11619.68482953114
 20
5653.062168807412
 30
0.0
 10
12249.99869150779
 20
5653.062168807412
 30
0.0
340
912
213
610.6165326256159
223
-69.36156580858369
233
0.0
1001
ACAD
1000
DSTYLE
1002
{
1070
   147
1040
1.7
1070
    77
1070
     0
1002
}
  0
MTEXT
  5
912
102
{ACAD_REACTORS
330
911
102
}
330
D6
100
AcDbEntity
  8
0
 48
20.0
100
AcDbMText
 10
11673.38215888217
 20
5722.423734615995
 30
0.0
 40
50.0
 41
0.0
 71
     1
 72
     1
  1
20×30アンカー穴
 73
     1
 44
1.0
  0
TEXT
  5
913
330
D6
100
AcDbEntity
  8
0
 48
20.0
100
AcDbText
 10
11114.16965189643
 20
4244.147975157125
 30
0.0
 40
60.0
  1
融着アンカープレート詳細図
100
AcDbText
  0
LWPOLYLINE
  5
914
330
D6
100
AcDbEntity
  8
0
 48
20.0
100
AcDbPolyline
 90
        2
 70
     0
 43
0.0
 10
11070.68154176106
 20
4225.470283337557
 10
12068.56984665335
 20
4225.470283337557
  0
LWPOLYLINE
  5
915
330
D6
100
AcDbEntity
  8
0
 48
20.0
100
AcDbPolyline
 90
        2
 70
     0
 43
0.0
 10
11070.68154176106
 20
4218.615192396597
 10
12068.56984665335
 20
4218.615192396597
  0
LEADER
  5
916
330
D6
100
AcDbEntity
  8
0
 48
20.0
100
AcDbLeader
  3
1-20
 73
     0
 40
50.0
 41
495.4761904761905
 76
     3
 10
11530.57194789285
 20
4611.640093418537
 30
0.0
 10
11696.49107127414
 20
4918.444587479431
 30
0.0
 10
12258.50063469819
 20
4918.444587479431
 30
0.0
340
917
213
554.906434777411
223
-62.34703876862113
233
0.0
1001
ACAD
1000
DSTYLE
1002
{
1070
   147
1040
1.7
1070
    77
1070
     0
1002
}
  0
MTEXT
  5
917
102
{ACAD_REACTORS
330
916
102
}
330
D6
100
AcDbEntity
  8
0
 48
20.0
100
AcDbMText
 10
11737.59419992078
 20
4980.791626248052
 30
0.0
 40
50.0
 41
0.0
 71
     1
 72
     1
  1
押え金具（ＳＵＳ）
 73
     1
 44
1.0
  0
DIMENSION
  5
A13
330
D6
100
AcDbEntity
  8
寸法線
  6
Continuous
 48
20.0
100
AcDbDimension
  2
*D6
 10
9972.232164213608
 20
7418.165624326094
 30
0.0
 11
9822.232565820337
 21
7482.165624326094
 31
0.0
 70
    32
 71
     5
 42
299.999196786539
  3
1-20
100
AcDbAlignedDimension
 13
9672.232967427069
 23
7264.314569357178
 33
0.0
 14
9972.232164213608
 24
7264.315315535981
 34
0.0
100
AcDbRotatedDimension
  0
DIMENSION
  5
A20
330
D6
100
AcDbEntity
  8
寸法線
  6
Continuous
 48
20.0
100
AcDbDimension
  2
*D7
 10
5464.224572085543
 20
5383.914897593669
 30
0.0
 11
5400.224572085542
 21
4358.914897593672
 31
0.0
 70
    32
 71
     5
 42
2049.999999999996
  3
1-20
100
AcDbAlignedDimension
 13
5691.747030526985
 23
3333.914897593673
 33
0.0
 14
5661.747015864124
 24
5383.914897593669
 34
0.0
 50
90.0
100
AcDbRotatedDimension
  0
DIMENSION
  5
A2D
330
D6
100
AcDbEntity
  8
寸法線
  6
Continuous
 48
20.0
100
AcDbDimension
  2
*D8
 10
5464.224572085543
 20
5813.914935740643
 30
0.0
 11
5400.224572085542
 21
5598.915000709706
 31
0.0
 70
    32
 71
     5
 42
429.9998700618735
  3
1-20
100
AcDbAlignedDimension
 13
5661.74698323138
 23
5383.915065678769
 33
0.0
 14
6606.747015864124
 24
5813.914935740642
 34
0.0
 50
90.0
100
AcDbRotatedDimension
  0
DIMENSION
  5
A3A
330
D6
100
AcDbEntity
  8
寸法線
  6
Continuous
 48
20.0
100
AcDbDimension
  2
*D9
 10
5255.442185613095
 20
3333.91489759367
 30
0.0
 11
5191.442185613093
 21
4573.914916667158
 31
0.0
 70
    32
 71
     5
 42
2480.000038146974
  3
1-20
100
AcDbAlignedDimension
 13
6606.747015864124
 23
5813.914935740642
 33
0.0
 14
5691.747015864123
 24
3333.91489759367
 34
0.0
 50
90.0
100
AcDbRotatedDimension
  0
DIMENSION
  5
A47
330
D6
100
AcDbEntity
  8
寸法線
  6
Continuous
 48
20.0
100
AcDbDimension
  2
*D10
 10
7551.747015864123
 20
3005.521903618006
 30
0.0
 11
6606.747015864124
 21
3069.521903618006
 31
0.0
 70
    32
  1
O.Dφ<>
 71
     5
 42
1889.999999999996
  3
1-20
100
AcDbAlignedDimension
 13
5661.747015864126
 23
3363.914909276101
 33
0.0
 14
7551.747015864123
 24
3363.91489759367
 34
0.0
100
AcDbRotatedDimension
  0
TEXT
  5
A6A
330
D6
100
AcDbEntity
  8
0
  6
Continuous
 48
20.0
100
AcDbText
 10
9792.875074078839
 20
7578.908896607801
 30
0.0
 40
60.0
  1
０°
100
AcDbText
  0
TEXT
  5
A6B
330
D6
100
AcDbEntity
  8
0
  6
Continuous
 48
20.0
100
AcDbText
 10
10619.89061882462
 20
7194.710010650346
 30
0.0
 40
60.0
  1
４５°
100
AcDbText
  0
TEXT
  5
A6C
330
D6
100
AcDbEntity
  8
0
  6
Continuous
 48
20.0
100
AcDbText
 10
10888.08712375662
 20
6324.833779289246
 30
0.0
 40
60.0
  1
９０°
100
AcDbText
  0
TEXT
  5
A6D
330
D6
100
AcDbEntity
  8
0
  6
Continuous
 48
20.0
100
AcDbText
 10
10582.10296108228
 20
5462.081829737948
 30
0.0
 40
60.0
  1
１３５°
100
AcDbText
  0
TEXT
  5
A6E
330
D6
100
AcDbEntity
  8
0
  6
Continuous
 48
20.0
100
AcDbText
 10
9725.790047331123
 20
5258.88043374836
 30
0.0
 40
60.0
  1
１８０°
100
AcDbText
  0
TEXT
  5
A6F
330
D6
100
AcDbEntity
  8
0
  6
Continuous
 48
20.0
100
AcDbText
 10
8786.390965841281
 20
5460.338755328994
 30
0.0
 40
60.0
  1
２２５°
100
AcDbText
  0
TEXT
  5
A70
330
D6
100
AcDbEntity
  8
0
  6
Continuous
 48
20.0
100
AcDbText
 10
8530.046291004881
 20
6335.165808735783
 30
0.0
 40
60.0
  1
２７０°
100
AcDbText
  0
TEXT
  5
A71
330
D6
100
AcDbEntity
  8
0
  6
Continuous
 48
20.0
100
AcDbText
 10
8774.020395021443
 20
7182.056979449214
 30
0.0
 40
60.0
  1
３１５°
100
AcDbText
  0
TEXT
  5
A8B
330
D6
100
AcDbEntity
  8
0
  6
Continuous
 48
20.0
100
AcDbText
 10
9886.665995887765
 20
3818.785551367628
 30
0.0
 40
60.0
  1
注記　１）タンク寸法公差：±１．５％
100
AcDbText
  0
TEXT
  5
A8C
330
D6
100
AcDbEntity
  8
0
  6
Continuous
 48
20.0
100
AcDbText
 10
9886.665995887765
 20
3921.979771156154
 30
0.0
 40
60.0
  1
　　　２）アンカープレート融着公差：Ｐ．Ｃ．Ｄ\U+00b1１．５％
100
AcDbText
  0
LWPOLYLINE
  5
A8E
330
D6
100
AcDbEntity
  8
0
  6
Continuous
 48
20.0
100
AcDbPolyline
 90
        2
 70
     0
 43
0.0
 10
9751.788471376524
 20
3774.068049152748
 10
12411.78847137652
 20
3774.068049152748
  0
LEADER
  5
A8F
330
D6
100
AcDbEntity
  8
0
  6
Continuous
 48
20.0
100
AcDbLeader
  3
1-20
 73
     0
 40
60.00000000000003
 41
756.0000000000002
 76
     3
 10
7611.747016758193
 20
3367.914898100309
 30
0.0
 10
7706.392655092706
 20
3540.275225345629
 30
0.0
 10
8542.016227782697
 20
3540.275225345629
 30
0.0
340
A90
213
222.9718733450864
223
-30.0
233
0.0
1001
ACAD
1000
DSTYLE
1002
{
1070
   147
1040
1.7
1070
    77
1070
     0
1002
}
  0
MTEXT
  5
A90
102
{ACAD_REACTORS
330
A8F
102
}
330
D6
100
AcDbEntity
  8
0
  6
Continuous
 48
20.0
100
AcDbMText
 10
7750.81192173747
 20
3620.245612542831
 30
0.0
 40
60.0
 41
0.0
 71
     1
 72
     1
  1
4-20×30アンカー穴
 73
     1
 44
1.0
  0
TEXT
  5
AB9
330
D6
100
AcDbEntity
  8
0
  6
Continuous
 48
20.0
100
AcDbText
 10
11133.74784557568
 20
3006.072831339627
 30
0.0
 40
120.0
  1
ＬＡ－５０００
100
AcDbText
  0
TEXT
  5
ABA
330
D6
100
AcDbEntity
  8
0
  6
Continuous
 48
20.0
100
AcDbText
 10
11144.94624710269
 20
2764.107356749306
 30
0.0
 40
90.0
  1
製品図
100
AcDbText
  0
TEXT
  5
ABB
330
D6
100
AcDbEntity
  8
0
  6
Continuous
 48
20.0
100
AcDbText
 10
10521.83839453407
 20
2708.294680744732
 30
0.0
 40
60.0
  1
１／２０
100
AcDbText
  0
TEXT
  5
AD8
330
D6
100
AcDbEntity
  8
0
  6
Continuous
 48
20.0
100
AcDbText
 10
10590.48718508218
 20
4308.814728258021
 30
0.0
 40
50.0
  1
（ＰＥ製）
100
AcDbText
  0
DIMENSION
  5
AE0
330
D6
100
AcDbEntity
  8
寸法線
  6
Continuous
 48
20.0
100
AcDbDimension
  2
*D13
 10
9822.232407694919
 20
6361.69409207382
 30
0.0
 11
10287.78620452897
 21
6558.465706767201
 31
0.0
 70
   164
 71
     5
 42
764.9999999999945
  3
1-20
100
AcDbRadialDimension
 15
10526.87738229195
 25
6659.520316196441
 35
0.0
 40
0.0
1001
ACAD
1000
DSTYLE
1002
{
1070
   288
1070
     1
1002
}
  0
LINE
  5
B02
102
{ACAD_REACTORS
330
B0C
102
}
330
D6
100
AcDbEntity
  8
0
  6
DASHED
100
AcDbLine
 10
7596.747016758193
 20
3363.914898040704
 30
0.0
 11
7596.747016758193
 21
3333.91489759367
 31
0.0
  0
LINE
  5
B03
102
{ACAD_REACTORS
330
B0C
102
}
330
D6
100
AcDbEntity
  8
0
  6
DASHED
100
AcDbLine
 10
7626.747016758193
 20
3363.914898040704
 30
0.0
 11
7626.747016758193
 21
3333.91489759367
 31
0.0
  0
LWPOLYLINE
  5
B04
102
{ACAD_REACTORS
330
B0C
102
}
330
D6
100
AcDbEntity
  8
0
  6
DASHED
 48
20.0
100
AcDbPolyline
 90
        2
 70
     0
 43
0.0
 10
7596.747016758193
 20
3363.914898040704
 10
7596.747016758193
 20
3367.914898100309
  0
LWPOLYLINE
  5
B05
102
{ACAD_REACTORS
330
B0C
102
}
330
D6
100
AcDbEntity
  8
0
  6
DASHED
 48
20.0
100
AcDbPolyline
 90
        2
 70
     0
 43
0.0
 10
7626.747016758193
 20
3363.914898040704
 10
7626.747016758193
 20
3367.914898100309
  0
DIMENSION
  5
B14
330
D6
100
AcDbEntity
  8
寸法線
 48
20.0
100
AcDbDimension
  2
*D14
 10
5601.747014970052
 20
2840.13711366299
 30
0.0
 11
6606.747015864122
 21
2904.13711366299
 31
0.0
 70
    32
  1
P.C.Dφ<>
 71
     5
 42
2010.000001788141
  3
1-20
100
AcDbAlignedDimension
 13
7611.747016758193
 23
3316.600304721543
 33
0.0
 14
5601.747014970052
 24
3316.600304721544
 34
0.0
100
AcDbRotatedDimension
  0
ARC
  5
B3B
102
{ACAD_REACTORS
330
AF4
102
}
330
D6
100
AcDbEntity
  8
0
 48
20.0
100
AcDbCircle
 10
10529.87904959145
 20
7069.340733970354
 30
0.0
 40
9.999999999998181
100
AcDbArc
 50
134.9999999999791
 51
315.0000000000209
  0
ARC
  5
B3C
102
{ACAD_REACTORS
330
AF4
102
}
330
D6
100
AcDbEntity
  8
0
 48
20.0
100
AcDbCircle
 10
10536.95011740332
 20
7076.41180178222
 30
0.0
 40
10.0
100
AcDbArc
 50
315.0000000000105
 51
134.9999999999895
  0
LINE
  5
B3E
102
{ACAD_REACTORS
330
AF4
102
}
330
D6
100
AcDbEntity
  8
0
  6
Continuous
100
AcDbLine
 10
9118.828406601402
 20
7142.879840256902
 30
0.0
 11
9171.154309188921
 21
7090.55393766938
 31
0.0
  0
LINE
  5
B3F
102
{ACAD_REACTORS
330
AF4
102
}
330
D6
100
AcDbEntity
  8
0
  6
Continuous
100
AcDbLine
 10
9043.875086678735
 20
7062.269666000452
 30
0.0
 11
9040.339552720118
 21
7058.734132041836
 31
0.0
  0
LINE
  5
B40
102
{ACAD_REACTORS
330
AF4
102
}
330
D6
100
AcDbEntity
  8
0
  6
Continuous
100
AcDbLine
 10
9040.339552720118
 20
7058.734132041836
 30
0.0
 11
9040.339552720118
 21
7037.520928290139
 31
0.0
  0
LINE
  5
B41
102
{ACAD_REACTORS
330
AF4
102
}
330
D6
100
AcDbEntity
  8
0
  6
CENTER
100
AcDbLine
 10
9125.066566562859
 20
7086.892602546713
 30
0.0
 11
9094.4082286316
 21
7056.234264615454
 31
0.0
  0
LINE
  5
B42
102
{ACAD_REACTORS
330
AF4
102
}
330
D6
100
AcDbEntity
  8
0
  6
Continuous
100
AcDbLine
 10
9146.405571478608
 20
7143.586947048621
 30
0.0
 11
9125.192367726912
 21
7143.586947048618
 31
0.0
  0
LINE
  5
B43
102
{ACAD_REACTORS
330
AF4
102
}
330
D6
100
AcDbEntity
  8
0
  6
Continuous
100
AcDbLine
 10
9209.157317801848
 20
7080.835200725386
 30
0.0
 11
9146.405571478604
 21
7143.586947048624
 31
0.0
  0
LINE
  5
B44
102
{ACAD_REACTORS
330
AF4
102
}
330
D6
100
AcDbEntity
  8
0
  6
Continuous
100
AcDbLine
 10
9103.091299043361
 20
6974.769181966895
 30
0.0
 11
9040.339552720118
 21
7037.520928290139
 31
0.0
  0
LINE
  5
B45
102
{ACAD_REACTORS
330
AF4
102
}
330
D6
100
AcDbEntity
  8
0
  6
Continuous
100
AcDbLine
 10
9125.192367726905
 20
7143.586947048622
 30
0.0
 11
9121.656833768295
 21
7140.051413090008
 31
0.0
  0
LINE
  5
B46
102
{ACAD_REACTORS
330
AF4
102
}
330
D6
100
AcDbEntity
  8
0
  6
CENTER
100
AcDbLine
 10
9012.453619698183
 20
7171.472880070564
 30
0.0
 11
9174.777106842663
 21
7009.149392926079
 31
0.0
  0
LINE
  5
B47
102
{ACAD_REACTORS
330
AF4
102
}
330
D6
100
AcDbEntity
  8
0
100
AcDbLine
 10
9100.443630174646
 20
7069.340733970371
 30
0.0
 11
9107.514697986514
 21
7062.269666158501
 31
0.0
  0
LINE
  5
B48
102
{ACAD_REACTORS
330
AF4
102
}
330
D6
100
AcDbEntity
  8
0
100
AcDbLine
 10
9114.585765798377
 20
7083.482869594101
 30
0.0
 11
9121.656833610243
 21
7076.411801782234
 31
0.0
  0
LINE
  5
B49
102
{ACAD_REACTORS
330
AF4
102
}
330
D6
100
AcDbEntity
  8
0
  6
Continuous
100
AcDbLine
 10
9041.046659511842
 20
7065.098093167347
 30
0.0
 11
9118.828406601402
 21
7142.879840256902
 31
0.0
  0
LINE
  5
B4A
102
{ACAD_REACTORS
330
AF4
102
}
330
D6
100
AcDbEntity
  8
0
  6
Continuous
100
AcDbLine
 10
9093.372562099361
 20
7012.772190579825
 30
0.0
 11
9171.154309188921
 21
7090.55393766938
 31
0.0
  0
LINE
  5
B4B
102
{ACAD_REACTORS
330
AF4
102
}
330
D6
100
AcDbEntity
  8
0
  6
Continuous
100
AcDbLine
 10
9041.046659511838
 20
7065.098093167343
 30
0.0
 11
9093.372562099361
 21
7012.772190579825
 31
0.0
  0
ARC
  5
B4C
102
{ACAD_REACTORS
330
AF4
102
}
330
D6
100
AcDbEntity
  8
0
  6
Continuous
100
AcDbCircle
 10
10111.60634218085
 20
6072.320157587881
 30
0.0
 40
1375.000020489096
100
AcDbArc
 50
131.8732238864468
 51
138.1267761136267
  0
ARC
  5
B4D
102
{ACAD_REACTORS
330
AF4
102
}
330
D6
100
AcDbEntity
  8
0
 48
20.0
100
AcDbCircle
 10
9114.585765798379
 20
7069.340733970363
 30
0.0
 40
9.999999999998181
100
AcDbArc
 50
224.9999999999791
 51
45.00000000002086
  0
ARC
  5
B4E
102
{ACAD_REACTORS
330
AF4
102
}
330
D6
100
AcDbEntity
  8
0
 48
20.0
100
AcDbCircle
 10
9107.514697986514
 20
7076.411801782228
 30
0.0
 40
10.0
100
AcDbArc
 50
45.00000000001047
 51
224.9999999999896
  0
LINE
  5
B50
102
{ACAD_REACTORS
330
AF4
102
}
330
D6
100
AcDbEntity
  8
0
  6
Continuous
100
AcDbLine
 10
9041.046659511831
 20
5658.290090980307
 30
0.0
 11
9093.372562099354
 21
5710.615993567829
 31
0.0
  0
LINE
  5
B51
102
{ACAD_REACTORS
330
AF4
102
}
330
D6
100
AcDbEntity
  8
0
  6
Continuous
100
AcDbLine
 10
9121.65683376828
 20
5583.33677105764
 30
0.0
 11
9125.192367726898
 21
5579.801237099022
 31
0.0
  0
LINE
  5
B52
102
{ACAD_REACTORS
330
AF4
102
}
330
D6
100
AcDbEntity
  8
0
  6
Continuous
100
AcDbLine
 10
9125.192367726898
 20
5579.801237099022
 30
0.0
 11
9146.405571478593
 21
5579.801237099025
 31
0.0
  0
LINE
  5
B53
102
{ACAD_REACTORS
330
AF4
102
}
330
D6
100
AcDbEntity
  8
0
  6
CENTER
100
AcDbLine
 10
9097.03389722202
 20
5664.528250941765
 30
0.0
 11
9127.692235153277
 21
5633.869913010506
 31
0.0
  0
LINE
  5
B54
102
{ACAD_REACTORS
330
AF4
102
}
330
D6
100
AcDbEntity
  8
0
  6
Continuous
100
AcDbLine
 10
9040.339552720112
 20
5685.867255857516
 30
0.0
 11
9040.339552720114
 21
5664.654052105817
 31
0.0
  0
LINE
  5
B55
102
{ACAD_REACTORS
330
AF4
102
}
330
D6
100
AcDbEntity
  8
0
  6
Continuous
100
AcDbLine
 10
9103.091299043347
 20
5748.619002180753
 30
0.0
 11
9040.339552720109
 21
5685.86725585751
 31
0.0
  0
LINE
  5
B56
102
{ACAD_REACTORS
330
AF4
102
}
330
D6
100
AcDbEntity
  8
0
  6
Continuous
100
AcDbLine
 10
9209.157317801837
 20
5642.552983422266
 30
0.0
 11
9146.405571478593
 21
5579.801237099022
 31
0.0
  0
LINE
  5
B57
102
{ACAD_REACTORS
330
AF4
102
}
330
D6
100
AcDbEntity
  8
0
  6
Continuous
100
AcDbLine
 10
9040.33955272011
 20
5664.654052105809
 30
0.0
 11
9043.875086678724
 21
5661.1185181472
 31
0.0
  0
LINE
  5
B58
102
{ACAD_REACTORS
330
AF4
102
}
330
D6
100
AcDbEntity
  8
0
  6
CENTER
100
AcDbLine
 10
9012.453619698169
 20
5551.91530407709
 30
0.0
 11
9174.777106842654
 21
5714.238791221568
 31
0.0
  0
LINE
  5
B59
102
{ACAD_REACTORS
330
AF4
102
}
330
D6
100
AcDbEntity
  8
0
100
AcDbLine
 10
9114.585765798361
 20
5639.905314553551
 30
0.0
 11
9121.656833610233
 21
5646.976382365418
 31
0.0
  0
LINE
  5
B5A
102
{ACAD_REACTORS
330
AF4
102
}
330
D6
100
AcDbEntity
  8
0
100
AcDbLine
 10
9100.443630174632
 20
5654.047450177281
 30
0.0
 11
9107.514697986498
 21
5661.118517989148
 31
0.0
  0
LINE
  5
B5B
102
{ACAD_REACTORS
330
AF4
102
}
330
D6
100
AcDbEntity
  8
0
  6
Continuous
100
AcDbLine
 10
9118.828406601386
 20
5580.508343890747
 30
0.0
 11
9041.046659511831
 21
5658.290090980307
 31
0.0
  0
LINE
  5
B5C
102
{ACAD_REACTORS
330
AF4
102
}
330
D6
100
AcDbEntity
  8
0
  6
Continuous
100
AcDbLine
 10
9171.154309188906
 20
5632.834246478267
 30
0.0
 11
9093.372562099354
 21
5710.615993567829
 31
0.0
  0
LINE
  5
B5D
102
{ACAD_REACTORS
330
AF4
102
}
330
D6
100
AcDbEntity
  8
0
  6
Continuous
100
AcDbLine
 10
9118.828406601389
 20
5580.508343890743
 30
0.0
 11
9171.154309188906
 21
5632.834246478267
 31
0.0
  0
ARC
  5
B5E
102
{ACAD_REACTORS
330
AF4
102
}
330
D6
100
AcDbEntity
  8
0
  6
Continuous
100
AcDbCircle
 10
10111.60634218085
 20
6651.06802655976
 30
0.0
 40
1375.000020489096
100
AcDbArc
 50
221.8732238864468
 51
228.1267761136267
  0
ARC
  5
B5F
102
{ACAD_REACTORS
330
AF4
102
}
330
D6
100
AcDbEntity
  8
0
 48
20.0
100
AcDbCircle
 10
9114.585765798372
 20
5654.047450177284
 30
0.0
 40
9.999999999998181
100
AcDbArc
 50
314.9999999999791
 51
135.0000000000207
  0
ARC
  5
B60
102
{ACAD_REACTORS
330
AF4
102
}
330
D6
100
AcDbEntity
  8
0
 48
20.0
100
AcDbCircle
 10
9107.514697986504
 20
5646.976382365418
 30
0.0
 40
10.0
100
AcDbArc
 50
135.0000000000105
 51
314.9999999999895
  0
LINE
  5
B62
102
{ACAD_REACTORS
330
AF4
102
}
330
D6
100
AcDbEntity
  8
0
  6
Continuous
100
AcDbLine
 10
10525.63640878842
 20
5580.508343890735
 30
0.0
 11
10473.3105062009
 21
5632.834246478258
 31
0.0
  0
LINE
  5
B63
102
{ACAD_REACTORS
330
AF4
102
}
330
D6
100
AcDbEntity
  8
0
  6
Continuous
100
AcDbLine
 10
10600.58972871109
 20
5661.118518147184
 30
0.0
 11
10604.12526266971
 21
5664.654052105801
 31
0.0
  0
LINE
  5
B64
102
{ACAD_REACTORS
330
AF4
102
}
330
D6
100
AcDbEntity
  8
0
  6
Continuous
100
AcDbLine
 10
10604.12526266971
 20
5664.654052105801
 30
0.0
 11
10604.12526266971
 21
5685.867255857498
 31
0.0
  0
LINE
  5
B65
102
{ACAD_REACTORS
330
AF4
102
}
330
D6
100
AcDbEntity
  8
0
  6
CENTER
100
AcDbLine
 10
10519.39824882697
 20
5636.495581600924
 30
0.0
 11
10550.05658675822
 21
5667.153919532182
 31
0.0
  0
LINE
  5
B66
102
{ACAD_REACTORS
330
AF4
102
}
330
D6
100
AcDbEntity
  8
0
  6
Continuous
100
AcDbLine
 10
10498.05924391122
 20
5579.801237099016
 30
0.0
 11
10519.27244766291
 21
5579.801237099019
 31
0.0
  0
LINE
  5
B67
102
{ACAD_REACTORS
330
AF4
102
}
330
D6
100
AcDbEntity
  8
0
  6
Continuous
100
AcDbLine
 10
10435.30749758798
 20
5642.552983422251
 30
0.0
 11
10498.05924391122
 21
5579.801237099013
 31
0.0
  0
LINE
  5
B68
102
{ACAD_REACTORS
330
AF4
102
}
330
D6
100
AcDbEntity
  8
0
  6
Continuous
100
AcDbLine
 10
10541.37351634646
 20
5748.619002180742
 30
0.0
 11
10604.12526266971
 21
5685.867255857498
 31
0.0
  0
LINE
  5
B69
102
{ACAD_REACTORS
330
AF4
102
}
330
D6
100
AcDbEntity
  8
0
  6
Continuous
100
AcDbLine
 10
10519.27244766292
 20
5579.801237099014
 30
0.0
 11
10522.80798162153
 21
5583.33677105763
 31
0.0
  0
LINE
  5
B6A
102
{ACAD_REACTORS
330
AF4
102
}
330
D6
100
AcDbEntity
  8
0
  6
CENTER
100
AcDbLine
 10
10632.01119569164
 20
5551.915304077073
 30
0.0
 11
10469.68770854716
 21
5714.238791221558
 31
0.0
  0
LINE
  5
B6B
102
{ACAD_REACTORS
330
AF4
102
}
330
D6
100
AcDbEntity
  8
0
100
AcDbLine
 10
10544.02118521518
 20
5654.047450177266
 30
0.0
 11
10536.95011740331
 21
5661.118517989137
 31
0.0
  0
LINE
  5
B6C
102
{ACAD_REACTORS
330
AF4
102
}
330
D6
100
AcDbEntity
  8
0
100
AcDbLine
 10
10529.87904959145
 20
5639.905314553536
 30
0.0
 11
10522.80798177958
 21
5646.976382365403
 31
0.0
  0
LINE
  5
B6D
102
{ACAD_REACTORS
330
AF4
102
}
330
D6
100
AcDbEntity
  8
0
  6
Continuous
100
AcDbLine
 10
10603.41815587798
 20
5658.29009098029
 30
0.0
 11
10525.63640878842
 21
5580.508343890735
 31
0.0
  0
LINE
  5
B6E
102
{ACAD_REACTORS
330
AF4
102
}
330
D6
100
AcDbEntity
  8
0
  6
Continuous
100
AcDbLine
 10
10551.09225329046
 20
5710.615993567811
 30
0.0
 11
10473.3105062009
 21
5632.834246478258
 31
0.0
  0
LINE
  5
B6F
102
{ACAD_REACTORS
330
AF4
102
}
330
D6
100
AcDbEntity
  8
0
  6
Continuous
100
AcDbLine
 10
10603.41815587799
 20
5658.290090980294
 30
0.0
 11
10551.09225329046
 21
5710.615993567811
 31
0.0
  0
ARC
  5
B70
102
{ACAD_REACTORS
330
AF4
102
}
330
D6
100
AcDbEntity
  8
0
  6
Continuous
100
AcDbCircle
 10
9532.858473208973
 20
6651.068026559755
 30
0.0
 40
1375.000020489096
100
AcDbArc
 50
311.8732238864467
 51
318.1267761136267
  0
ARC
  5
B71
102
{ACAD_REACTORS
330
AF4
102
}
330
D6
100
AcDbEntity
  8
0
 48
20.0
100
AcDbCircle
 10
10529.87904959145
 20
5654.047450177275
 30
0.0
 40
9.999999999998181
100
AcDbArc
 50
44.99999999997907
 51
225.0000000000208
  0
ARC
  5
B72
102
{ACAD_REACTORS
330
AF4
102
}
330
D6
100
AcDbEntity
  8
0
 48
20.0
100
AcDbCircle
 10
10536.95011740331
 20
5646.976382365409
 30
0.0
 40
10.0
100
AcDbArc
 50
225.0000000000104
 51
44.99999999998951
  0
ARC
  5
B76
330
D6
100
AcDbEntity
  8
0
 48
20.0
100
AcDbCircle
 10
11388.62061157006
 20
5295.393223772308
 30
0.0
 40
30.00000000000182
100
AcDbArc
 50
90.00000000000698
 51
269.999999999993
  0
ARC
  5
B77
330
D6
100
AcDbEntity
  8
0
 48
20.0
100
AcDbCircle
 10
11418.62061157006
 20
5295.393223772307
 30
0.0
 40
30.00000000000091
100
AcDbArc
 50
270.0
 51
90.0
  0
CIRCLE
  5
EE1
330
D6
100
AcDbEntity
  8
0
 48
25.0
100
AcDbCircle
 10
9822.23233140097
 20
6361.694092073818
 30
0.0
 40
235.0
  0
CIRCLE
  5
EE2
330
D6
100
AcDbEntity
  8
0
 48
25.0
100
AcDbCircle
 10
9822.23233140097
 20
6361.694092073818
 30
0.0
 40
315.0
  0
DIMENSION
  5
EE3
330
D6
100
AcDbEntity
  8
寸法線
 48
25.0
100
AcDbDimension
  2
*D33
 10
10047.44550063708
 20
6294.582033525264
 30
0.0
 11
8590.790223768614
 21
6728.655824848584
 31
0.0
 70
   163
  1
I.D<>
 71
     5
 42
470.0000000000073
  3
1-25
100
AcDbDiametricDimension
 15
9597.019162164846
 25
6428.80615062238
 35
0.0
 40
0.0
1001
ACAD
1000
DSTYLE
1002
{
1070
   288
1070
     1
1002
}
  0
LINE
  5
F53
330
D6
100
AcDbEntity
  8
0
  6
CENTER
100
AcDbLine
 10
6606.747015864124
 20
5917.105244052647
 30
0.0
 11
6606.747015864124
 21
3172.569010409527
 31
0.0
  0
LINE
  5
F54
330
D6
100
AcDbEntity
  8
0
  6
CENTER
100
AcDbLine
 10
7371.747015864126
 20
5634.84144856732
 30
0.0
 11
7371.747015864127
 21
5454.375862150802
 31
0.0
  0
LINE
  5
F55
330
D6
100
AcDbEntity
  8
0
  6
CENTER
100
AcDbLine
 10
5841.747015864124
 20
5634.84144856732
 30
0.0
 11
5841.747015864124
 21
5454.375862150802
 31
0.0
  0
LINE
  5
F56
330
D6
100
AcDbEntity
  8
0
100
AcDbLine
 10
5661.74703493761
 20
5383.914897593669
 30
0.0
 11
7551.746996790638
 21
5383.914897593669
 31
0.0
  0
LINE
  5
F57
330
D6
100
AcDbEntity
  8
0
100
AcDbLine
 10
5691.747269941644
 20
5523.914859446697
 30
0.0
 11
5991.747269941644
 21
5523.914859446697
 31
0.0
  0
LINE
  5
F58
330
D6
100
AcDbEntity
  8
0
100
AcDbLine
 10
5686.858270407475
 20
5519.96263826267
 30
0.0
 11
5661.747001869874
 21
5383.914934541004
 31
0.0
  0
LINE
  5
F59
330
D6
100
AcDbEntity
  8
0
100
AcDbLine
 10
5761.747034937609
 20
5393.914935740642
 30
0.0
 11
6441.174336821308
 21
5393.914935740642
 31
0.0
  0
LINE
  5
F5A
330
D6
100
AcDbEntity
  8
0
100
AcDbLine
 10
6461.40261545824
 20
5523.914859446697
 30
0.0
 11
6752.091416270008
 21
5523.914859446697
 31
0.0
  0
LINE
  5
F5B
330
D6
100
AcDbEntity
  8
0
100
AcDbLine
 10
6456.415323291193
 20
5519.271277356944
 30
0.0
 11
6448.737308663659
 21
5411.777461890411
 31
0.0
  0
LINE
  5
F5C
330
D6
100
AcDbEntity
  8
0
100
AcDbLine
 10
6757.078708437052
 20
5519.271277356944
 30
0.0
 11
6764.756723064586
 21
5411.777461890411
 31
0.0
  0
LINE
  5
F5D
330
D6
100
AcDbEntity
  8
0
100
AcDbLine
 10
6772.31969490694
 20
5393.914935740642
 30
0.0
 11
7451.746996790638
 21
5393.914935740642
 31
0.0
  0
LINE
  5
F5E
330
D6
100
AcDbEntity
  8
0
100
AcDbLine
 10
7526.635784636713
 20
5519.962563714083
 30
0.0
 11
7551.746999989072
 21
5383.914948310023
 31
0.0
  0
LINE
  5
F5F
330
D6
100
AcDbEntity
  8
0
100
AcDbLine
 10
7521.746786982288
 20
5523.914859446697
 30
0.0
 11
7221.746786982288
 21
5523.914859446697
 31
0.0
  0
LINE
  5
F60
330
D6
100
AcDbEntity
  8
0
  6
Continuous
100
AcDbLine
 10
7451.746996790638
 20
5393.914935740642
 30
0.0
 11
7451.746996790638
 21
5383.914897593669
 31
0.0
  0
ARC
  5
F61
330
D6
100
AcDbEntity
  8
0
100
AcDbCircle
 10
5691.747269941644
 20
5518.914935740642
 30
0.0
 40
4.999999701976775
100
AcDbArc
 50
89.9999820139533
 51
167.9045732719702
  0
ARC
  5
F62
330
D6
100
AcDbEntity
  8
0
100
AcDbCircle
 10
6571.209104456174
 20
4230.297874068041
 30
0.0
 40
1417.474236545882
100
AcDbArc
 50
100.7153685837626
 51
124.8241441769365
  0
ARC
  5
F63
330
D6
100
AcDbEntity
  8
0
100
AcDbCircle
 10
6301.747031622102
 20
5652.467489477313
 30
0.0
 40
29.99999821186065
100
AcDbArc
 50
281.3632124629847
 51
0.0
  0
ARC
  5
F64
330
D6
100
AcDbEntity
  8
0
  6
Continuous
100
AcDbCircle
 10
6461.40261545824
 20
5518.914935740642
 30
0.0
 40
4.999999701976775
100
AcDbArc
 50
89.9999820139533
 51
175.9137350549078
  0
ARC
  5
F65
330
D6
100
AcDbEntity
  8
0
100
AcDbCircle
 10
6752.091416270008
 20
5518.914935740642
 30
0.0
 40
4.999999701976775
100
AcDbArc
 50
4.086278491704603
 51
89.9999820139533
  0
ARC
  5
F66
330
D6
100
AcDbEntity
  8
0
100
AcDbCircle
 10
6794.68047276186
 20
5413.914821299724
 30
0.0
 40
29.99999821186065
100
AcDbArc
 50
184.0855272846106
 51
270.0000179860467
  0
ARC
  5
F67
330
D6
100
AcDbEntity
  8
0
100
AcDbCircle
 10
6418.813558966388
 20
5413.914821299724
 30
0.0
 40
29.99999821186065
100
AcDbArc
 50
270.0000179860467
 51
355.9144527653669
  0
ARC
  5
F68
330
D6
100
AcDbEntity
  8
0
100
AcDbCircle
 10
6642.2851201954
 20
4230.298219519438
 30
0.0
 40
1417.47384295428
100
AcDbArc
 50
55.17581821447068
 51
79.28463710190007
  0
ARC
  5
F69
330
D6
100
AcDbEntity
  8
0
100
AcDbCircle
 10
6911.74700010614
 20
5652.467470642324
 30
0.0
 40
29.99999821186065
100
AcDbArc
 50
179.9999640278024
 51
258.6367515648447
  0
ARC
  5
F6A
330
D6
100
AcDbEntity
  8
0
  6
Continuous
100
AcDbCircle
 10
7521.746785412705
 20
5518.91485974472
 30
0.0
 40
4.999999701976775
100
AcDbArc
 50
12.09544368980143
 51
89.9999820139533
  0
DIMENSION
  5
F6E
330
D6
100
AcDbEntity
  8
寸法線
 48
25.0
100
AcDbDimension
  2
*D42
 10
6841.747010611088
 20
5999.466008101866
 30
0.0
 11
6606.747015864124
 21
5999.466008101866
 31
0.0
 70
   160
  1
I.Dφ<>
 71
     5
 42
469.9999894939282
  3
1-25
100
AcDbAlignedDimension
 13
6371.747021117159
 23
5753.914926204092
 33
0.0
 14
6841.747010611088
 24
5753.914926204092
 34
0.0
100
AcDbRotatedDimension
  0
LINE
  5
F6F
330
D6
100
AcDbEntity
  8
0
100
AcDbLine
 10
6291.747029610444
 20
5753.914926203885
 30
0.0
 11
6921.747002117803
 21
5753.914926203885
 31
0.0
  0
LINE
  5
F70
330
D6
100
AcDbEntity
  8
0
100
AcDbLine
 10
6291.747029610444
 20
5718.914888056912
 30
0.0
 11
6921.747002117803
 21
5718.914888056912
 31
0.0
  0
LINE
  5
F71
330
D6
100
AcDbEntity
  8
0
100
AcDbLine
 10
6331.747029833962
 20
5718.914888056912
 30
0.0
 11
6331.747029833962
 21
5652.467489477313
 31
0.0
  0
LINE
  5
F72
330
D6
100
AcDbEntity
  8
0
100
AcDbLine
 10
6881.747001894286
 20
5718.914888056912
 30
0.0
 11
6881.747001894286
 21
5652.467489477313
 31
0.0
  0
LINE
  5
F73
330
D6
100
AcDbEntity
  8
0
100
AcDbLine
 10
6291.747029610444
 20
5718.914888056912
 30
0.0
 11
6291.747029610444
 21
5753.914926203885
 31
0.0
  0
LINE
  5
F74
330
D6
100
AcDbEntity
  8
0
100
AcDbLine
 10
6921.747002117803
 20
5718.914888056912
 30
0.0
 11
6921.747002117803
 21
5753.914926203885
 31
0.0
  0
ARC
  5
F75
330
D6
100
AcDbEntity
  8
0
100
AcDbCircle
 10
6606.747015864124
 20
5323.706145943972
 30
0.0
 40
490.2087230394549
100
AcDbArc
 50
61.35458562418585
 51
118.6454143758141
  0
DIMENSION
  5
10E2
330
D6
100
AcDbEntity
  8
寸法線
 48
25.0
100
AcDbDimension
  2
*D46
 10
5991.747269941644
 20
5674.569826748975
 30
0.0
 11
5841.747269941644
 21
5754.569827941068
 31
0.0
 70
    32
 71
     5
 42
300.0
  3
1-25
100
AcDbAlignedDimension
 13
5691.747269941644
 23
5523.914859446697
 33
0.0
 14
5991.747269941644
 24
5523.914859446697
 34
0.0
100
AcDbRotatedDimension
1001
ACAD
1000
DSTYLE
1002
{
1070
   340
1005
23
1002
}
  0
DIMENSION
  5
110F
330
D6
100
AcDbEntity
  8
寸法線
 48
25.0
100
AcDbDimension
  2
*D49
 10
5629.800596288413
 20
5383.914897593669
 30
0.0
 11
5629.800596288412
 21
5453.914878520184
 31
0.0
 70
   160
 71
     5
 42
139.9999618530273
  3
1-25
100
AcDbAlignedDimension
 13
5695.789107233752
 23
5523.914859446697
 33
0.0
 14
5695.789107233752
 24
5383.914897593669
 34
0.0
 50
90.0
100
AcDbRotatedDimension
1001
ACAD
1000
DSTYLE
1002
{
1070
   340
1005
23
1002
}
  0
ENDSEC
  0
SECTION
  2
OBJECTS
  0
DICTIONARY
  5
4F3
330
0
100
AcDbDictionary
281
     1
  3
ACAD_COLOR
350
4FC
  3
ACAD_GROUP
350
4F4
  3
ACAD_LAYOUT
350
4FF
  3
ACAD_MATERIAL
350
4FB
  3
ACAD_MLINESTYLE
350
4F5
  3
ACAD_PLOTSETTINGS
350
500
  3
ACAD_PLOTSTYLENAME
350
4F9
  3
ACAD_TABLESTYLE
350
4FD
  3
AcDbVariableDictionary
350
84F
  0
DICTIONARY
  5
5B5
330
C8
100
AcDbDictionary
280
     1
281
     1
  3
ACAD_LAYERSTATES
360
5B6
  0
DICTIONARY
  5
A68
330
D6
100
AcDbDictionary
280
     1
281
     1
  3
ACAD_SORTENTS
360
A69
  0
DICTIONARY
  5
4FC
102
{ACAD_REACTORS
330
4F3
102
}
330
4F3
100
AcDbDictionary
281
     1
  0
DICTIONARY
  5
4F4
102
{ACAD_REACTORS
330
4F3
102
}
330
4F3
100
AcDbDictionary
281
     1
  3
A-P
350
AF4
  3
A-P2
350
B0C
  0
DICTIONARY
  5
4FF
102
{ACAD_REACTORS
330
4F3
102
}
330
4F3
100
AcDbDictionary
281
     1
  3
Model
350
501
  3
レイアウト1
350
502
  0
DICTIONARY
  5
4FB
102
{ACAD_REACTORS
330
4F3
102
}
330
4F3
100
AcDbDictionary
281
     1
  0
DICTIONARY
  5
4F5
102
{ACAD_REACTORS
330
4F3
102
}
330
4F3
100
AcDbDictionary
281
     1
  3
STANDARD
350
4F6
  0
DICTIONARY
  5
500
102
{ACAD_REACTORS
330
4F3
102
}
330
4F3
100
AcDbDictionary
281
     1
  0
ACDBDICTIONARYWDFLT
  5
4F9
102
{ACAD_REACTORS
330
4F3
102
}
330
4F3
100
AcDbDictionary
281
     1
  3
Normal
350
4FA
100
AcDbDictionaryWithDefault
340
4FA
  0
DICTIONARY
  5
4FD
102
{ACAD_REACTORS
330
4F3
102
}
330
4F3
100
AcDbDictionary
281
     1
  3
Standard
350
4FE
  0
DICTIONARY
  5
84F
102
{ACAD_REACTORS
330
4F3
102
}
330
4F3
100
AcDbDictionary
281
     1
  3
CTABLESTYLE
350
850
  0
DICTIONARY
  5
5B6
102
{ACAD_REACTORS
330
5B5
102
}
330
5B5
100
AcDbDictionary
281
     1
  0
SORTENTSTABLE
  5
A69
102
{ACAD_REACTORS
330
A68
102
}
330
A68
100
AcDbSortentsTable
330
D6
331
385
  5
386
331
38D
  5
390
331
414
  5
417
331
6CA
  5
6CD
331
709
  5
70C
331
740
  5
743
331
83F
  5
842
331
8EE
  5
8F5
331
69B
  5
69E
331
6D2
  5
6D5
331
711
  5
714
331
748
  5
74B
331
847
  5
84C
331
8F6
  5
8FD
331
6A3
  5
6A6
331
6DA
  5
6DD
331
719
  5
71C
331
750
  5
753
331
8FE
  5
905
331
B57
  5
B59
331
494
  5
69B
331
6E2
  5
6E5
331
758
  5
75B
331
B5F
  5
B62
331
906
  5
90D
331
6AB
  5
6AE
331
6EA
  5
6ED
331
721
  5
724
331
760
  5
763
331
90E
  5
915
331
6B3
  5
6B6
331
6F2
  5
6F5
331
729
  5
72C
331
768
  5
76B
331
916
  5
A62
331
B67
  5
B69
331
6BB
  5
6BE
331
405
  5
408
331
6FA
  5
6FD
331
731
  5
734
331
770
  5
773
331
8DF
  5
8E4
331
B6F
  5
B71
331
40D
  5
410
331
6C3
  5
6C6
331
702
  5
705
331
739
  5
73C
331
ABA
  5
B04
331
B40
  5
B42
331
8E7
  5
8EE
331
A6B
  5
A8B
331
386
  5
389
331
38E
  5
391
331
415
  5
418
331
6CB
  5
6CE
331
70A
  5
70D
331
741
  5
744
331
840
  5
843
331
8EF
  5
8F6
331
B48
  5
B4A
331
69C
  5
69F
331
6D3
  5
6D6
331
712
  5
715
331
749
  5
74C
331
B50
  5
B52
331
848
  5
84D
331
8F7
  5
8FE
331
6A4
  5
6A7
331
6DB
  5
6DE
331
71A
  5
71D
331
751
  5
754
331
B58
  5
B5A
331
8FF
  5
906
331
A8B
  5
ABA
331
495
  5
69C
331
6E3
  5
6E6
331
759
  5
75C
331
907
  5
90E
331
6AC
  5
6AF
331
6EB
  5
6EE
331
722
  5
725
331
761
  5
764
331
90F
  5
916
331
B60
  5
B63
331
6B4
  5
6B7
331
6F3
  5
6F6
331
72A
  5
72D
331
769
  5
76C
331
917
  5
A64
331
B68
  5
B6A
331
6BC
  5
6BF
331
406
  5
409
331
6FB
  5
6FE
331
732
  5
735
331
771
  5
774
331
8E0
  5
8E5
331
B70
  5
B72
331
40E
  5
411
331
6C4
  5
6C7
331
703
  5
706
331
73A
  5
73D
331
B41
  5
B43
331
ABB
  5
B05
331
B02
  5
388
331
A6C
  5
A8C
331
387
  5
38A
331
8E8
  5
8EF
331
416
  5
419
331
6CC
  5
6CF
331
70B
  5
70E
331
742
  5
745
331
841
  5
846
331
8F0
  5
8F7
331
A2D
  5
A6E
331
B49
  5
B4B
331
69D
  5
6A0
331
6D4
  5
6D7
331
713
  5
716
331
74A
  5
74D
331
849
  5
8DD
331
8F8
  5
8FF
331
B51
  5
B53
331
48E
  5
491
331
6A5
  5
6A8
331
6DC
  5
6DF
331
71B
  5
71E
331
752
  5
755
331
B59
  5
B5B
331
900
  5
907
331
A8C
  5
ABB
331
6E4
  5
6E7
331
75A
  5
75D
331
908
  5
90F
331
6AD
  5
6B0
331
6EC
  5
6EF
331
723
  5
726
331
762
  5
765
331
910
  5
917
331
6B5
  5
6B8
331
6F4
  5
6F7
331
72B
  5
72E
331
76A
  5
76D
331
B69
  5
B6B
331
6BD
  5
6C0
331
407
  5
40A
331
6FC
  5
6FF
331
733
  5
736
331
772
  5
775
331
8E1
  5
8E6
331
B71
  5
B74
331
40F
  5
412
331
6C5
  5
6C8
331
704
  5
707
331
73B
  5
73E
331
B42
  5
B44
331
B03
  5
387
331
A6D
  5
A8E
331
388
  5
38B
331
8E9
  5
8F0
331
6CD
  5
6D0
331
417
  5
41A
331
70C
  5
70F
331
743
  5
746
331
842
  5
847
331
8F1
  5
8F8
331
B4A
  5
B4C
331
69E
  5
6A1
331
6D5
  5
6D8
331
714
  5
717
331
74B
  5
74E
331
84A
  5
8DE
331
8F9
  5
900
331
B52
  5
B54
331
6A6
  5
6A9
331
48F
  5
492
331
6DD
  5
6E0
331
71C
  5
71F
331
753
  5
756
331
901
  5
908
331
B5A
  5
B5C
331
6E5
  5
6E8
331
75B
  5
75E
331
909
  5
910
331
6AE
  5
6B1
331
6ED
  5
6F0
331
724
  5
727
331
763
  5
766
331
911
  5
A13
331
B62
  5
B64
331
6B6
  5
6B9
331
6F5
  5
6F8
331
72C
  5
72F
331
76B
  5
76E
331
B6A
  5
B6C
331
6BE
  5
6C1
331
408
  5
40B
331
6FD
  5
700
331
734
  5
737
331
773
  5
80A
331
8E2
  5
8E7
331
B3B
  5
B3E
331
B72
  5
B75
331
6C6
  5
6C9
331
705
  5
708
331
73C
  5
73F
331
B43
  5
B45
331
A6E
  5
A8F
331
B04
  5
B3A
331
410
  5
413
331
389
  5
38C
331
8EA
  5
8F1
331
418
  5
41B
331
6CE
  5
6D1
331
70D
  5
710
331
744
  5
747
331
391
  5
394
331
843
  5
848
331
8F2
  5
8F9
331
B4B
  5
B4D
331
69F
  5
6A2
331
6D6
  5
6D9
331
715
  5
718
331
74C
  5
74F
331
B53
  5
B55
331
84B
  5
8DF
331
8FA
  5
901
331
B14
  5
B3C
331
490
  5
493
331
6A7
  5
6AA
331
6DE
  5
6E1
331
71D
  5
720
331
754
  5
757
331
B5B
  5
B5D
331
902
  5
909
331
A8E
  5
AD8
331
6E6
  5
6E9
331
75C
  5
75F
331
35A
  5
35A
331
90A
  5
911
331
6AF
  5
6B2
331
3A1
  5
3A4
331
6EE
  5
6F1
331
725
  5
728
331
764
  5
767
331
912
  5
A20
331
A47
  5
A70
331
B63
  5
B65
331
6B7
  5
6BA
331
6F6
  5
6F9
331
72D
  5
730
331
76C
  5
76F
331
B6B
  5
B6D
331
409
  5
40C
331
6BF
  5
6C2
331
6FE
  5
701
331
735
  5
738
331
774
  5
80B
331
8E3
  5
8E8
331
A20
  5
A6D
331
B3C
  5
B3F
331
6C7
  5
6CA
331
706
  5
709
331
73D
  5
740
331
B44
  5
B46
331
A6F
  5
A90
331
B05
  5
B3B
331
382
  5
382
331
411
  5
414
331
38A
  5
38D
331
8EB
  5
8F2
331
6CF
  5
6D2
331
419
  5
48A
331
70E
  5
711
331
745
  5
748
331
844
  5
849
331
B4C
  5
B4E
331
716
  5
719
331
6A0
  5
6A3
331
6D7
  5
6DA
331
74D
  5
750
331
8FB
  5
902
331
B54
  5
B56
331
491
  5
494
331
6DF
  5
6E2
331
71E
  5
721
331
755
  5
758
331
B5C
  5
B5E
331
903
  5
90A
331
A8F
  5
AE0
331
6E7
  5
6EA
331
75D
  5
760
331
35B
  5
35B
331
6A8
  5
6AB
331
90B
  5
912
331
3A2
  5
402
331
6B0
  5
6B3
331
6EF
  5
6F2
331
726
  5
729
331
765
  5
768
331
B64
  5
B66
331
6F7
  5
6FA
331
402
  5
405
331
6B8
  5
6BB
331
72E
  5
731
331
76D
  5
770
331
913
  5
A2D
331
B6C
  5
B6E
331
6C0
  5
6C3
331
40A
  5
40D
331
6FF
  5
702
331
736
  5
739
331
775
  5
80C
331
707
  5
70A
331
73E
  5
741
331
8E4
  5
8E9
331
B45
  5
B47
331
383
  5
383
331
412
  5
415
331
6C8
  5
6CB
331
38B
  5
38E
331
6D0
  5
6D3
331
41A
  5
48B
331
70F
  5
712
331
746
  5
749
331
83D
  5
840
331
8EC
  5
8F3
331
A70
  5
A92
331
6D8
  5
6DB
331
6A1
  5
6A4
331
48A
  5
48D
331
717
  5
71A
331
74E
  5
751
331
845
  5
84A
331
B4D
  5
B50
331
492
  5
495
331
6E0
  5
6E3
331
71F
  5
722
331
756
  5
759
331
8FC
  5
903
331
B55
  5
B57
331
B5D
  5
B5F
331
904
  5
90B
331
A90
  5
B01
331
75E
  5
761
331
35C
  5
35C
331
6A9
  5
6AC
331
6E8
  5
6EB
331
90C
  5
913
331
6B1
  5
6B4
331
3A3
  5
403
331
6F0
  5
6F3
331
727
  5
72A
331
766
  5
769
331
914
  5
A3A
331
B65
  5
B67
331
6B9
  5
6BC
331
403
  5
406
331
6F8
  5
6FB
331
72F
  5
732
331
76E
  5
771
331
8DD
  5
8E2
331
B6D
  5
B6F
331
40B
  5
40E
331
6C1
  5
6C4
331
700
  5
703
331
737
  5
73A
331
8E5
  5
8EA
331
B3E
  5
B40
331
73F
  5
742
331
B46
  5
B48
331
6C9
  5
6CC
331
38C
  5
38F
331
413
  5
416
331
708
  5
70B
331
83E
  5
841
331
8ED
  5
8F4
331
A71
  5
AB9
331
6D1
  5
6D4
331
41B
  5
48C
331
69A
  5
69D
331
710
  5
713
331
747
  5
74A
331
846
  5
84B
331
8F5
  5
8FC
331
B4E
  5
B51
331
6D9
  5
6DC
331
6A2
  5
6A5
331
48B
  5
48E
331
718
  5
71B
331
74F
  5
752
331
8FD
  5
904
331
A3A
  5
A6F
331
AD8
  5
B14
331
B56
  5
B58
331
493
  5
69A
331
6E1
  5
6E4
331
757
  5
75A
331
905
  5
90C
331
B5E
  5
B60
331
75F
  5
762
331
35D
  5
35D
331
365
  5
365
331
6AA
  5
6AD
331
6E9
  5
6EC
331
720
  5
723
331
90D
  5
914
331
AE0
  5
B39
331
6B2
  5
6B5
331
3A4
  5
404
331
6F1
  5
6F4
331
728
  5
72B
331
767
  5
76A
331
915
  5
A47
331
A13
  5
A65
331
B66
  5
B68
331
6BA
  5
6BD
331
404
  5
407
331
6F9
  5
6FC
331
730
  5
733
331
76F
  5
772
331
8DE
  5
8E3
331
B6E
  5
B70
331
40C
  5
40F
331
6C2
  5
6C5
331
701
  5
704
331
738
  5
73B
331
AB9
  5
B03
331
B3F
  5
B41
331
8E6
  5
8EB
331
A6A
  5
A71
331
B47
  5
B49
  0
GROUP
  5
AF4
102
{ACAD_REACTORS
330
4F4
102
}
330
4F4
100
AcDbGroup
300

 70
     0
 71
     1
340
84B
340
84A
340
849
340
847
340
846
340
845
340
844
340
842
340
841
340
840
340
83D
340
848
340
843
340
83F
340
83E
340
B3C
340
B3B
340
B4E
340
B4D
340
B4C
340
B4B
340
B4A
340
B49
340
B48
340
B47
340
B46
340
B44
340
B41
340
B40
340
B3F
340
B45
340
B43
340
B42
340
B3E
340
B60
340
B5F
340
B5E
340
B5D
340
B5C
340
B5B
340
B5A
340
B59
340
B58
340
B57
340
B55
340
B54
340
B53
340
B50
340
B56
340
B52
340
B51
340
B72
340
B71
340
B70
340
B6F
340
B6E
340
B6D
340
B6C
340
B6B
340
B6A
340
B68
340
B67
340
B65
340
B64
340
B63
340
B69
340
B66
340
B62
  0
GROUP
  5
B0C
102
{ACAD_REACTORS
330
4F4
102
}
330
4F4
100
AcDbGroup
300

 70
     0
 71
     1
340
B04
340
3A3
340
3A2
340
38D
340
38C
340
38B
340
388
340
387
340
B02
340
383
340
38A
340
B05
340
3A4
340
3A1
340
389
340
386
340
B03
340
382
340
385
  0
LAYOUT
  5
501
102
{ACAD_REACTORS
330
4FF
102
}
330
4FF
100
AcDbPlotSettings
  1

  2
DocuCentre-II C2200.pc3
  4
A3
  6

 40
4.900083065032958
 41
4.900057315826416
 42
4.85772705078125
 43
4.90008544921875
 44
419.9889831542968
 45
297.0106506347656
 46
0.0
 47
0.0
 48
4351.788471376523
 49
2337.166326973587
140
12411.78847137652
141
7937.166326973588
142
1.0
143
19.64745862753807
 70
 11952
 72
     1
 73
     0
 74
     4
  7
monochrome.ctb
 75
     0
147
0.0508971678707795
 76
     0
 77
     2
 78
   300
148
-4351.788471376523
149
-2337.166326973587
100
AcDbLayout
  1
Model
 70
     1
 71
     0
 10
0.0
 20
0.0
 11
12.0
 21
9.0
 12
0.0
 22
0.0
 32
0.0
 14
0.0
 24
0.0
 34
0.0
 15
0.0
 25
0.0
 35
0.0
146
0.0
 13
0.0
 23
0.0
 33
0.0
 16
1.0
 26
0.0
 36
0.0
 17
0.0
 27
1.0
 37
0.0
 76
     0
330
D6
1001
ACAD_PSEXT
1000
DocuCentre-II C2200.pc3
1000
FX DocuCentre-II C2200
1000
192.168.8.52
1000

1070
     0
  0
LAYOUT
  5
502
102
{ACAD_REACTORS
330
4FF
102
}
330
4FF
100
AcDbPlotSettings
  1

  2
DocuCentre-II C2200
  4

  6

 40
0.0
 41
0.0
 42
0.0
 43
0.0
 44
0.0
 45
0.0
 46
0.0
 47
0.0
 48
0.0
 49
0.0
140
0.0
141
0.0
142
1.0
143
1.0
 70
   688
 72
     0
 73
     0
 74
     5
  7
monochrome.ctb
 75
    16
147
1.0
 76
     0
 77
     2
 78
   300
148
0.0
149
0.0
100
AcDbLayout
  1
レイアウト1
 70
     1
 71
     1
 10
-144.1413879999999
 20
-67.98339799999999
 11
277.858612
 21
231.016602
 12
0.0
 22
0.0
 32
0.0
 14
-144.1413879999999
 24
-67.98339799999999
 34
0.0
 15
277.858612
 25
231.016602
 35
0.0
146
0.0
 13
0.0
 23
0.0
 33
0.0
 16
1.0
 26
0.0
 36
0.0
 17
0.0
 27
1.0
 37
0.0
 76
     0
330
D7
  0
MLINESTYLE
  5
4F6
102
{ACAD_REACTORS
330
4F5
102
}
330
4F5
100
AcDbMlineStyle
  2
STANDARD
 70
     0
  3

 62
     0
 51
90.0
 52
90.0
 71
     2
 49
0.5
 62
   256
  6
BYLAYER
 49
-0.5
 62
   256
  6
BYLAYER
  0
ACDBPLACEHOLDER
  5
4FA
102
{ACAD_REACTORS
330
4F9
102
}
330
4F9
  0
TABLESTYLE
  5
4FE
102
{ACAD_REACTORS
330
4FD
102
}
330
4FD
100
AcDbTableStyle
  3
Standard
 70
     0
 71
     0
 40
1.5
 41
1.5
280
     0
281
     0
  7
STANDARD
140
4.5
170
     2
 62
     0
 63
     7
283
     0
274
    -2
284
     1
 64
     0
275
    -2
285
     1
 65
     0
276
    -2
286
     1
 66
     0
277
    -2
287
     1
 67
     0
278
    -2
288
     1
 68
     0
279
    -2
289
     1
 69
     0
  7
STANDARD
140
6.0
170
     5
 62
     0
 63
     7
283
     0
274
    -2
284
     1
 64
     0
275
    -2
285
     1
 65
     0
276
    -2
286
     1
 66
     0
277
    -2
287
     1
 67
     0
278
    -2
288
     1
 68
     0
279
    -2
289
     1
 69
     0
  7
STANDARD
140
4.5
170
     5
 62
     0
 63
     7
283
     0
274
    -2
284
     1
 64
     0
275
    -2
285
     1
 65
     0
276
    -2
286
     1
 66
     0
277
    -2
287
     1
 67
     0
278
    -2
288
     1
 68
     0
279
    -2
289
     1
 69
     0
  0
DICTIONARYVAR
  5
850
102
{ACAD_REACTORS
330
84F
102
}
330
84F
100
DictionaryVariables
280
     0
  1
STANDARD
  0
ENDSEC
  0
EOF
