  0
SECTION
  2
HEADER
  9
$ACADVER
  1
AC1018
  9
$ACADMAINTVER
 70
    39
  9
$DWGCODEPAGE
  3
ANSI_932
  9
$INSBASE
 10
0.0
 20
0.0
 30
0.0
  9
$EXTMIN
 10
9919.342143431597
 20
-5840.300262225381
 30
0.0
  9
$EXTMAX
 10
18379.3421434316
 20
159.6997377746192
 30
0.0
  9
$LIMMIN
 10
10119.34214343159
 20
-5640.30026222538
  9
$LIMMAX
 10
18179.3421434316
 20
-40.30026222538071
  9
$ORTHOMODE
 70
     0
  9
$REGENMODE
 70
     1
  9
$FILLMODE
 70
     1
  9
$QTEXTMODE
 70
     0
  9
$MIRRTEXT
 70
     0
  9
$LTSCALE
 40
20.0
  9
$ATTMODE
 70
     1
  9
$TEXTSIZE
 40
60.0
  9
$TRACEWID
 40
0.05
  9
$TEXTSTYLE
  7
STANDARD
  9
$CLAYER
  8
0
  9
$CELTYPE
  6
ByLayer
  9
$CECOLOR
 62
   256
  9
$CELTSCALE
 40
1.0
  9
$DISPSILH
 70
     0
  9
$DIMSCALE
 40
20.0
  9
$DIMASZ
 40
3.0
  9
$DIMEXO
 40
2.0
  9
$DIMDLI
 40
0.38
  9
$DIMRND
 40
0.0
  9
$DIMDLE
 40
0.0
  9
$DIMEXE
 40
3.0
  9
$DIMTP
 40
0.0
  9
$DIMTM
 40
0.0
  9
$DIMTXT
 40
3.0
  9
$DIMCEN
 40
0.09
  9
$DIMTSZ
 40
0.0
  9
$DIMTOL
 70
     0
  9
$DIMLIM
 70
     0
  9
$DIMTIH
 70
     0
  9
$DIMTOH
 70
     0
  9
$DIMSE1
 70
     0
  9
$DIMSE2
 70
     0
  9
$DIMTAD
 70
     1
  9
$DIMZIN
 70
     8
  9
$DIMBLK
  1
Open30
  9
$DIMASO
 70
     1
  9
$DIMSHO
 70
     0
  9
$DIMPOST
  1

  9
$DIMAPOST
  1

  9
$DIMALT
 70
     0
  9
$DIMALTD
 70
     2
  9
$DIMALTF
 40
25.4
  9
$DIMLFAC
 40
1.0
  9
$DIMTOFL
 70
     1
  9
$DIMTVP
 40
1.0
  9
$DIMTIX
 70
     0
  9
$DIMSOXD
 70
     0
  9
$DIMSAH
 70
     0
  9
$DIMBLK1
  1

  9
$DIMBLK2
  1

  9
$DIMSTYLE
  2
1-20
  9
$DIMCLRD
 70
     0
  9
$DIMCLRE
 70
     0
  9
$DIMCLRT
 70
     0
  9
$DIMTFAC
 40
1.0
  9
$DIMGAP
 40
1.700000047683715
  9
$DIMJUST
 70
     0
  9
$DIMSD1
 70
     0
  9
$DIMSD2
 70
     0
  9
$DIMTOLJ
 70
     1
  9
$DIMTZIN
 70
     0
  9
$DIMALTZ
 70
     0
  9
$DIMALTTZ
 70
     0
  9
$DIMUPT
 70
     0
  9
$DIMDEC
 70
     1
  9
$DIMTDEC
 70
     1
  9
$DIMALTU
 70
     2
  9
$DIMALTTD
 70
     2
  9
$DIMTXSTY
  7
STANDARD
  9
$DIMAUNIT
 70
     0
  9
$DIMADEC
 70
     0
  9
$DIMALTRND
 40
0.0
  9
$DIMAZIN
 70
     2
  9
$DIMDSEP
 70
    46
  9
$DIMATFIT
 70
     3
  9
$DIMFRAC
 70
     0
  9
$DIMLDRBLK
  1
Open30
  9
$DIMLUNIT
 70
     2
  9
$DIMLWD
 70
    -2
  9
$DIMLWE
 70
    -2
  9
$DIMTMOVE
 70
     0
  9
$LUNITS
 70
     2
  9
$LUPREC
 70
     4
  9
$SKETCHINC
 40
0.1
  9
$FILLETRAD
 40
0.0
  9
$AUNITS
 70
     0
  9
$AUPREC
 70
     0
  9
$MENU
  1
.
  9
$ELEVATION
 40
0.0
  9
$PELEVATION
 40
0.0
  9
$THICKNESS
 40
0.0
  9
$LIMCHECK
 70
     0
  9
$CHAMFERA
 40
0.0
  9
$CHAMFERB
 40
0.0
  9
$CHAMFERC
 40
0.0
  9
$CHAMFERD
 40
0.0
  9
$SKPOLY
 70
     0
  9
$TDCREATE
 40
2454616.724401829
  9
$TDUCREATE
 40
2454616.349401829
  9
$TDUPDATE
 40
2457892.718627118
  9
$TDUUPDATE
 40
2457892.343627118
  9
$TDINDWG
 40
0.0705447685
  9
$TDUSRTIMER
 40
0.0705447685
  9
$USRTIMER
 70
     1
  9
$ANGBASE
 50
0.0
  9
$ANGDIR
 70
     0
  9
$PDMODE
 70
     0
  9
$PDSIZE
 40
0.0
  9
$PLINEWID
 40
0.0
  9
$SPLFRAME
 70
     0
  9
$SPLINETYPE
 70
     6
  9
$SPLINESEGS
 70
     8
  9
$HANDSEED
  5
1042
  9
$SURFTAB1
 70
     6
  9
$SURFTAB2
 70
     6
  9
$SURFTYPE
 70
     6
  9
$SURFU
 70
     6
  9
$SURFV
 70
     6
  9
$UCSBASE
  2

  9
$UCSNAME
  2

  9
$UCSORG
 10
0.0
 20
0.0
 30
0.0
  9
$UCSXDIR
 10
1.0
 20
0.0
 30
0.0
  9
$UCSYDIR
 10
0.0
 20
1.0
 30
0.0
  9
$UCSORTHOREF
  2

  9
$UCSORTHOVIEW
 70
     0
  9
$UCSORGTOP
 10
0.0
 20
0.0
 30
0.0
  9
$UCSORGBOTTOM
 10
0.0
 20
0.0
 30
0.0
  9
$UCSORGLEFT
 10
0.0
 20
0.0
 30
0.0
  9
$UCSORGRIGHT
 10
0.0
 20
0.0
 30
0.0
  9
$UCSORGFRONT
 10
0.0
 20
0.0
 30
0.0
  9
$UCSORGBACK
 10
0.0
 20
0.0
 30
0.0
  9
$PUCSBASE
  2

  9
$PUCSNAME
  2

  9
$PUCSORG
 10
0.0
 20
0.0
 30
0.0
  9
$PUCSXDIR
 10
1.0
 20
0.0
 30
0.0
  9
$PUCSYDIR
 10
0.0
 20
1.0
 30
0.0
  9
$PUCSORTHOREF
  2

  9
$PUCSORTHOVIEW
 70
     0
  9
$PUCSORGTOP
 10
0.0
 20
0.0
 30
0.0
  9
$PUCSORGBOTTOM
 10
0.0
 20
0.0
 30
0.0
  9
$PUCSORGLEFT
 10
0.0
 20
0.0
 30
0.0
  9
$PUCSORGRIGHT
 10
0.0
 20
0.0
 30
0.0
  9
$PUCSORGFRONT
 10
0.0
 20
0.0
 30
0.0
  9
$PUCSORGBACK
 10
0.0
 20
0.0
 30
0.0
  9
$USERI1
 70
     0
  9
$USERI2
 70
     0
  9
$USERI3
 70
     0
  9
$USERI4
 70
     0
  9
$USERI5
 70
     0
  9
$USERR1
 40
0.0
  9
$USERR2
 40
0.0
  9
$USERR3
 40
0.0
  9
$USERR4
 40
0.0
  9
$USERR5
 40
0.0
  9
$WORLDVIEW
 70
     1
  9
$SHADEDGE
 70
     3
  9
$SHADEDIF
 70
    70
  9
$TILEMODE
 70
     1
  9
$MAXACTVP
 70
    64
  9
$PINSBASE
 10
0.0
 20
0.0
 30
0.0
  9
$PLIMCHECK
 70
     0
  9
$PEXTMIN
 10
-144.1413879394531
 20
-67.9833984375
 30
0.0
  9
$PEXTMAX
 10
277.8586120605469
 20
231.0166015625
 30
0.0
  9
$PLIMMIN
 10
-144.1413879394531
 20
-67.9833984375
  9
$PLIMMAX
 10
277.8586120605469
 20
231.0166015625
  9
$UNITMODE
 70
     0
  9
$VISRETAIN
 70
     1
  9
$PLINEGEN
 70
     0
  9
$PSLTSCALE
 70
     1
  9
$TREEDEPTH
 70
  3020
  9
$CMLSTYLE
  2
Standard
  9
$CMLJUST
 70
     0
  9
$CMLSCALE
 40
1.0
  9
$PROXYGRAPHICS
 70
     1
  9
$MEASUREMENT
 70
     0
  9
$CELWEIGHT
370
    -1
  9
$ENDCAPS
280
     0
  9
$JOINSTYLE
280
     0
  9
$LWDISPLAY
290
     0
  9
$INSUNITS
 70
     0
  9
$HYPERLINKBASE
  1

  9
$STYLESHEET
  1
monochrome.ctb
  9
$XEDIT
290
     1
  9
$CEPSNTYPE
380
     0
  9
$PSTYLEMODE
290
     1
  9
$FINGERPRINTGUID
  2
{F24176FC-B90A-4024-BD6A-796017A392E3}
  9
$VERSIONGUID
  2
{0B8F9D5B-C70A-47B7-9EB7-2E03833682D8}
  9
$EXTNAMES
290
     1
  9
$PSVPSCALE
 40
0.0
  9
$OLESTARTUP
290
     0
  9
$SORTENTS
280
   127
  9
$INDEXCTL
280
     0
  9
$HIDETEXT
280
     0
  9
$XCLIPFRAME
290
     0
  9
$HALOGAP
280
     0
  9
$OBSCOLOR
 70
   257
  9
$OBSLTYPE
280
     0
  9
$INTERSECTIONDISPLAY
280
     0
  9
$INTERSECTIONCOLOR
 70
   257
  9
$DIMASSOC
280
     1
  9
$PROJECTNAME
  1

  0
ENDSEC
  0
SECTION
  2
CLASSES
  0
CLASS
  1
ACDBDICTIONARYWDFLT
  2
AcDbDictionaryWithDefault
  3
ObjectDBX Classes
 90
        0
 91
        1
280
     0
281
     0
  0
CLASS
  1
TABLESTYLE
  2
AcDbTableStyle
  3
ObjectDBX Classes
 90
     2047
 91
        1
280
     0
281
     0
  0
CLASS
  1
SORTENTSTABLE
  2
AcDbSortentsTable
  3
ObjectDBX Classes
 90
        0
 91
        1
280
     0
281
     0
  0
CLASS
  1
DICTIONARYVAR
  2
AcDbDictionaryVar
  3
ObjectDBX Classes
 90
        0
 91
        1
280
     0
281
     0
  0
ENDSEC
  0
SECTION
  2
TABLES
  0
TABLE
  2
VPORT
  5
8
330
0
100
AcDbSymbolTable
 70
     2
  0
VPORT
  5
1041
330
8
100
AcDbSymbolTableRecord
100
AcDbViewportTableRecord
  2
*Active
 70
     0
 10
0.0
 20
0.0
 11
1.0
 21
1.0
 12
15930.2246637027
 22
-2076.909394747337
 13
0.0
 23
0.0
 14
1.0
 24
1.0
 15
0.0
 25
0.0
 16
0.0
 26
0.0
 36
1.0
 17
0.0
 27
0.0
 37
0.0
 40
8463.203106484311
 41
1.822085889570552
 42
50.0
 43
0.0
 44
0.0
 50
0.0
 51
0.0
 71
     0
 72
  1000
 73
     1
 74
     1
 75
     0
 76
     0
 77
     0
 78
     0
281
     0
 65
     1
110
0.0
120
0.0
130
0.0
111
1.0
121
0.0
131
0.0
112
0.0
122
1.0
132
0.0
 79
     0
146
0.0
  0
ENDTAB
  0
TABLE
  2
LTYPE
  5
5
330
0
100
AcDbSymbolTable
 70
     3
  0
LTYPE
  5
13
330
5
100
AcDbSymbolTableRecord
100
AcDbLinetypeTableRecord
  2
ByBlock
 70
     0
  3

 72
    65
 73
     0
 40
0.0
  0
LTYPE
  5
14
330
5
100
AcDbSymbolTableRecord
100
AcDbLinetypeTableRecord
  2
ByLayer
 70
     0
  3

 72
    65
 73
     0
 40
0.0
  0
LTYPE
  5
15
330
5
100
AcDbSymbolTableRecord
100
AcDbLinetypeTableRecord
  2
CONTINUOUS
 70
     0
  3
Solid line
 72
    65
 73
     0
 40
0.0
  0
LTYPE
  5
37
330
5
100
AcDbSymbolTableRecord
100
AcDbLinetypeTableRecord
  2
CENTER
 70
     0
  3
Center ____ _ ____ _ ____ _ ____ _ ____ _ ____
 72
    65
 73
     4
 40
12.0
 49
7.5
 74
     0
 49
-1.5
 74
     0
 49
1.5
 74
     0
 49
-1.5
 74
     0
  0
LTYPE
  5
DC0
330
5
100
AcDbSymbolTableRecord
100
AcDbLinetypeTableRecord
  2
DASHED
 70
     0
  3
Dashed __ __ __ __ __ __ __ __ __ __ __ __ __ _
 72
    65
 73
     2
 40
4.5
 49
3.0
 74
     0
 49
-1.5
 74
     0
  0
ENDTAB
  0
TABLE
  2
LAYER
  5
2
102
{ACAD_XDICTIONARY
360
811
102
}
330
0
100
AcDbSymbolTable
 70
     5
  0
LAYER
  5
10
330
2
100
AcDbSymbolTableRecord
100
AcDbLayerTableRecord
  2
0
 70
     0
 62
     7
  6
CONTINUOUS
370
    -3
390
F
  0
LAYER
  5
4D
330
2
100
AcDbSymbolTableRecord
100
AcDbLayerTableRecord
  2
2
 70
     0
 62
     7
  6
CONTINUOUS
370
    -3
390
F
  0
LAYER
  5
4E
330
2
100
AcDbSymbolTableRecord
100
AcDbLayerTableRecord
  2
DEFPOINTS
 70
     0
 62
     7
  6
CONTINUOUS
290
     0
370
    -3
390
F
  0
LAYER
  5
9F1
330
2
100
AcDbSymbolTableRecord
100
AcDbLayerTableRecord
  2
寸法線
 70
     0
 62
     8
  6
CONTINUOUS
370
    -3
390
F
1001
AcAecLayerStandard
1000

1000

  0
LAYER
  5
DC1
330
2
100
AcDbSymbolTableRecord
100
AcDbLayerTableRecord
  2
3
 70
     0
 62
     7
  6
CONTINUOUS
370
    -3
390
F
  0
ENDTAB
  0
TABLE
  2
STYLE
  5
3
330
0
100
AcDbSymbolTable
 70
     1
  0
STYLE
  5
11
330
3
100
AcDbSymbolTableRecord
100
AcDbTextStyleTableRecord
  2
STANDARD
 70
     0
 40
0.0
 41
1.0
 50
0.0
 71
     0
 42
60.0
  3
txt.shx
  4
extfont.shx
  0
ENDTAB
  0
TABLE
  2
VIEW
  5
6
330
0
100
AcDbSymbolTable
 70
     0
  0
ENDTAB
  0
TABLE
  2
UCS
  5
7
330
0
100
AcDbSymbolTable
 70
     0
  0
ENDTAB
  0
TABLE
  2
APPID
  5
9
330
0
100
AcDbSymbolTable
 70
     4
  0
APPID
  5
12
330
9
100
AcDbSymbolTableRecord
100
AcDbRegAppTableRecord
  2
ACAD
 70
     0
  0
APPID
  5
765
330
9
100
AcDbSymbolTableRecord
100
AcDbRegAppTableRecord
  2
ACAD_DSTYLE_DIMTEXT_FILL
 70
     0
  0
APPID
  5
810
330
9
100
AcDbSymbolTableRecord
100
AcDbRegAppTableRecord
  2
AcAecLayerStandard
 70
     0
  0
APPID
  5
817
330
9
100
AcDbSymbolTableRecord
100
AcDbRegAppTableRecord
  2
ACAD_PSEXT
 70
     0
  0
ENDTAB
  0
TABLE
  2
DIMSTYLE
  5
A
330
0
100
AcDbSymbolTable
 70
     1
100
AcDbDimStyleTable
 71
     1
340
7F6
  0
DIMSTYLE
105
7F6
102
{ACAD_REACTORS
330
9FF
330
A0C
330
A19
330
A8B
330
AA3
330
B9C
330
D48
330
E71
330
E72
330
E86
330
E87
330
E88
102
}
330
A
100
AcDbSymbolTableRecord
100
AcDbDimStyleTableRecord
  2
1-20
 70
     0
 40
20.0
 41
3.0
 42
2.0
 44
3.0
 73
     0
 74
     0
 77
     1
 78
     8
 79
     2
140
3.0
145
1.0
147
1.700000047683715
172
     1
271
     1
272
     1
340
11
341
C52
342
C52
  0
ENDTAB
  0
TABLE
  2
BLOCK_RECORD
  5
1
330
0
100
AcDbSymbolTable
 70
    21
  0
BLOCK_RECORD
  5
22
102
{ACAD_XDICTIONARY
360
9DB
102
}
330
1
100
AcDbSymbolTableRecord
100
AcDbBlockTableRecord
  2
*Model_Space
340
25
  0
BLOCK_RECORD
  5
1E
330
1
100
AcDbSymbolTableRecord
100
AcDbBlockTableRecord
  2
*Paper_Space
340
21
  0
BLOCK_RECORD
  5
A00
330
1
100
AcDbSymbolTableRecord
100
AcDbBlockTableRecord
  2
*D0
340
0
  0
BLOCK_RECORD
  5
A0D
330
1
100
AcDbSymbolTableRecord
100
AcDbBlockTableRecord
  2
*D1
340
0
  0
BLOCK_RECORD
  5
A1A
330
1
100
AcDbSymbolTableRecord
100
AcDbBlockTableRecord
  2
*D2
340
0
  0
BLOCK_RECORD
  5
A8C
330
1
100
AcDbSymbolTableRecord
100
AcDbBlockTableRecord
  2
*D3
340
0
  0
BLOCK_RECORD
  5
AA4
330
1
100
AcDbSymbolTableRecord
100
AcDbBlockTableRecord
  2
*D4
340
0
  0
BLOCK_RECORD
  5
B9D
330
1
100
AcDbSymbolTableRecord
100
AcDbBlockTableRecord
  2
*D10
340
0
  0
BLOCK_RECORD
  5
C52
330
1
100
AcDbSymbolTableRecord
100
AcDbBlockTableRecord
  2
_Open30
340
0
102
{BLKREFS
331
CE8
331
CE9
331
D03
331
D04
331
D0C
331
D0D
331
D15
331
D16
331
D1E
331
D1F
331
D29
331
D2A
331
D32
331
D33
331
D3B
331
D3C
331
D58
331
D59
331
F43
331
F44
331
F4C
331
F4D
331
F55
331
F56
331
F60
331
F61
331
F6B
331
F6C
331
FAF
331
FB0
331
FB8
331
FB9
331
FC2
331
FC3
102
}
  0
BLOCK_RECORD
  5
D49
330
1
100
AcDbSymbolTableRecord
100
AcDbBlockTableRecord
  2
*D12
340
0
  0
BLOCK_RECORD
  5
DBC
330
1
100
AcDbSymbolTableRecord
100
AcDbBlockTableRecord
  2
_DotSmall
340
0
  0
BLOCK_RECORD
  5
ECF
330
1
100
AcDbSymbolTableRecord
100
AcDbBlockTableRecord
  2
*D14
340
0
  0
BLOCK_RECORD
  5
EDB
330
1
100
AcDbSymbolTableRecord
100
AcDbBlockTableRecord
  2
*D15
340
0
  0
BLOCK_RECORD
  5
EE7
330
1
100
AcDbSymbolTableRecord
100
AcDbBlockTableRecord
  2
*D16
340
0
  0
BLOCK_RECORD
  5
EF3
330
1
100
AcDbSymbolTableRecord
100
AcDbBlockTableRecord
  2
*D17
340
0
  0
BLOCK_RECORD
  5
F01
330
1
100
AcDbSymbolTableRecord
100
AcDbBlockTableRecord
  2
*D18
340
0
  0
BLOCK_RECORD
  5
F88
330
1
100
AcDbSymbolTableRecord
100
AcDbBlockTableRecord
  2
ＬＡアンカープレート
340
0
310
2800000020000000200000000100080000000000000400000000000000000000000000000000000000000000000080000080000000808000800000008000800080800000C0C0C000C0DCC000F0CAA6000020400000206000002080000020A0000020C0000020E00000400000004020000040400000406000004080000040A0
310
000040C0000040E00000600000006020000060400000606000006080000060A0000060C0000060E00000800000008020000080400000806000008080000080A0000080C0000080E00000A0000000A0200000A0400000A0600000A0800000A0A00000A0C00000A0E00000C0000000C0200000C0400000C0600000C0800000C0
310
A00000C0C00000C0E00000E0000000E0200000E0400000E0600000E0800000E0A00000E0C00000E0E00040000000400020004000400040006000400080004000A0004000C0004000E00040200000402020004020400040206000402080004020A0004020C0004020E000404000004040200040404000404060004040800040
310
40A0004040C0004040E00040600000406020004060400040606000406080004060A0004060C0004060E00040800000408020004080400040806000408080004080A0004080C0004080E00040A0000040A0200040A0400040A0600040A0800040A0A00040A0C00040A0E00040C0000040C0200040C0400040C0600040C08000
310
40C0A00040C0C00040C0E00040E0000040E0200040E0400040E0600040E0800040E0A00040E0C00040E0E00080000000800020008000400080006000800080008000A0008000C0008000E00080200000802020008020400080206000802080008020A0008020C0008020E00080400000804020008040400080406000804080
310
008040A0008040C0008040E00080600000806020008060400080606000806080008060A0008060C0008060E00080800000808020008080400080806000808080008080A0008080C0008080E00080A0000080A0200080A0400080A0600080A0800080A0A00080A0C00080A0E00080C0000080C0200080C0400080C0600080C0
310
800080C0A00080C0C00080C0E00080E0000080E0200080E0400080E0600080E0800080E0A00080E0C00080E0E000C0000000C0002000C0004000C0006000C0008000C000A000C000C000C000E000C0200000C0202000C0204000C0206000C0208000C020A000C020C000C020E000C0400000C0402000C0404000C0406000C0
310
408000C040A000C040C000C040E000C0600000C0602000C0604000C0606000C0608000C060A000C060C000C060E000C0800000C0802000C0804000C0806000C0808000C080A000C080C000C080E000C0A00000C0A02000C0A04000C0A06000C0A08000C0A0A000C0A0C000C0A0E000C0C00000C0C02000C0C04000C0C06000
310
C0C08000C0C0A000F0FBFF00A4A0A000808080000000FF0000FF000000FFFF00FF000000FF00FF00FFFF0000FFFFFF00000000000000000000000000000000000000000000000000000000000000000000000000000000000000000000000000FF000000000000000000000000000000000000000000000000000000000000
310
00FF00000000000000000000000000000000000000000000000000000000000000FF00000000000000000000000000000000000000000000000000000000000000FF000000000000000000000000000000000000000000FF000000000000000000FF0000000000000000FF000000000000000000000000FF00000000000000
310
0000FF0000000000000000FF000000000000000000000000FFFFFFFFFFFFFFFFFFFFFFFFFFFFFFFFFFFFFFFF000000000000000000000000FF000000000000000000FF0000000000000000FF000000000000000000000000FF0000FFFFFFFFFFFFFFFFFFFFFFFFFFFF0000FF000000000000000000000000FF0000FF000000
310
000000FF0000000000FF0000FF000000000000000000000000FF0000FF0000000000FFFF0000000000FF0000FF000000000000000000000000FF0000FF000000FFFFFFFFFFFF000000FF0000FF000000000000000000000000FF0000FF00000000FF00FFFF00000000FF0000FF000000000000000000000000FF0000FF0000
310
000000FFFF0000000000FF0000FF000000000000000000000000FF0000FF000000000000FF0000000000FF0000FF000000000000000000000000FF0000FF000000000000FF0000000000FF0000FF00000000000000000000000000FFFFFF000000000000FF0000000000FFFFFF00000000000000000000000000000000FFFF
310
FFFFFFFFFFFFFFFFFFFFFFFF00000000000000000000000000000000000000000000000000FF00000000000000000000000000000000000000000000000000000000000000FF00000000000000000000000000000000000000000000000000000000000000FF00000000000000000000000000000000000000000000000000
310
000000000000FF00000000000000000000000000000000000000000000000000000000000000FF00000000000000000000000000000000000000000000000000000000000000FF00000000000000000000000000000000000000000000000000000000000000FF000000000000000000000000000000000000000000000000
310
00000000000000FF00000000000000000000000000000000000000000000000000000000000000FF00000000000000000000000000000000000000000000000000000000000000FF00000000000000000000000000000000000000000000000000000000000000FF0000000000000000000000000000000000000000000000
310
0000000000000000FF0000000000000000000000000000000000000000000000000000000000000000000000000000000000000000000000
102
{BLKREFS
331
F9C
331
FA0
331
FA1
331
FA2
102
}
1001
ACAD
1000
DesignCenter Data
1002
{
1070
     1
1070
     4
1002
}
  0
BLOCK_RECORD
  5
FF3
330
1
100
AcDbSymbolTableRecord
100
AcDbBlockTableRecord
  2
ＬＡアンカープレート　正面図
340
0
310
2800000020000000200000000100080000000000000400000000000000000000000000000000000000000000000080000080000000808000800000008000800080800000C0C0C000C0DCC000F0CAA6000020400000206000002080000020A0000020C0000020E00000400000004020000040400000406000004080000040A0
310
000040C0000040E00000600000006020000060400000606000006080000060A0000060C0000060E00000800000008020000080400000806000008080000080A0000080C0000080E00000A0000000A0200000A0400000A0600000A0800000A0A00000A0C00000A0E00000C0000000C0200000C0400000C0600000C0800000C0
310
A00000C0C00000C0E00000E0000000E0200000E0400000E0600000E0800000E0A00000E0C00000E0E00040000000400020004000400040006000400080004000A0004000C0004000E00040200000402020004020400040206000402080004020A0004020C0004020E000404000004040200040404000404060004040800040
310
40A0004040C0004040E00040600000406020004060400040606000406080004060A0004060C0004060E00040800000408020004080400040806000408080004080A0004080C0004080E00040A0000040A0200040A0400040A0600040A0800040A0A00040A0C00040A0E00040C0000040C0200040C0400040C0600040C08000
310
40C0A00040C0C00040C0E00040E0000040E0200040E0400040E0600040E0800040E0A00040E0C00040E0E00080000000800020008000400080006000800080008000A0008000C0008000E00080200000802020008020400080206000802080008020A0008020C0008020E00080400000804020008040400080406000804080
310
008040A0008040C0008040E00080600000806020008060400080606000806080008060A0008060C0008060E00080800000808020008080400080806000808080008080A0008080C0008080E00080A0000080A0200080A0400080A0600080A0800080A0A00080A0C00080A0E00080C0000080C0200080C0400080C0600080C0
310
800080C0A00080C0C00080C0E00080E0000080E0200080E0400080E0600080E0800080E0A00080E0C00080E0E000C0000000C0002000C0004000C0006000C0008000C000A000C000C000C000E000C0200000C0202000C0204000C0206000C0208000C020A000C020C000C020E000C0400000C0402000C0404000C0406000C0
310
408000C040A000C040C000C040E000C0600000C0602000C0604000C0606000C0608000C060A000C060C000C060E000C0800000C0802000C0804000C0806000C0808000C080A000C080C000C080E000C0A00000C0A02000C0A04000C0A06000C0A08000C0A0A000C0A0C000C0A0E000C0C00000C0C02000C0C04000C0C06000
310
C0C08000C0C0A000F0FBFF00A4A0A000808080000000FF0000FF000000FFFF00FF000000FF00FF00FFFF0000FFFFFF0000000000000000000000000000000000000000000000000000000000000000000000000000000000000000000000000000000000000000000000000000000000000000000000000000000000000000
310
000000000000000000000000000000000000000000000000000000000000000000000000000000000000000000000000000000000000000000000000000000000000000000FF00000000000000000000000000000000000000000000000000000000000000FF00000000000000000000000000000000000000000000000000
310
000000000000FF00000000000000000000000000000000000000000000000000000000000000FF000000000000000000000000FFFFFFFFFFFFFFFFFFFFFFFFFFFFFFFFFFFFFFFFFFFFFFFFFFFFFFFFFF000000000000000000FF000000000000000000FF0000FF0000FF0000000000FFFF00000000000000FF000000000000
310
00000000FF0000FF0000FF0000000000FFFF000000000000000000000000000000000000FF0000FF0000FF0000000000FFFF000000000000000000000000000000000000FF0000FF0000FF0000000000FFFF000000000000000000000000000000000000FF0000FF0000FF0000000000FFFF00000000000000000000000000
310
00FFFFFFFFFFFFFFFFFFFFFFFFFFFFFFFFFFFF00000000000000000000000000FF00FFFFFFFFFFFFFFFFFFFFFFFFFFFFFFFFFF00000000000000000000000000FF00000000000000FF0000000000000000000000000000000000000000000000FF00000000000000FF00000000000000000000000000000000000000000000
310
00FF00000000000000FF0000000000000000000000000000000000000000000000FF00000000000000000000000000000000000000000000000000000000000000FF00000000000000000000000000000000000000000000000000000000000000FF0000000000000000000000000000000000000000000000000000000000
310
0000FF00000000000000000000000000000000000000000000000000000000000000FF00000000000000000000000000000000000000000000000000000000000000FF00000000000000000000000000000000000000000000000000000000000000FF00000000000000000000000000000000000000000000000000000000
310
000000FF000000000000000000000000000000000000000000000000000000FFFFFFFF0000000000000000000000000000000000000000000000000000000000000000000000000000000000000000000000000000000000000000000000000000000000000000000000000000000000000000000000000000000000000000
310
0000000000000000000000000000000000000000000000000000000000000000000000000000000000000000000000000000000000000000
102
{BLKREFS
331
1009
102
}
1001
ACAD
1000
DesignCenter Data
1002
{
1070
     1
1070
     4
1002
}
  0
ENDTAB
  0
ENDSEC
  0
SECTION
  2
BLOCKS
  0
BLOCK
  5
23
330
22
100
AcDbEntity
  8
0
100
AcDbBlockBegin
  2
*Model_Space
 70
     0
 10
0.0
 20
0.0
 30
0.0
  3
*Model_Space
  1

  0
ENDBLK
  5
24
330
22
100
AcDbEntity
  8
0
100
AcDbBlockEnd
  0
BLOCK
  5
1F
330
1E
100
AcDbEntity
 67
     1
  8
0
100
AcDbBlockBegin
  2
*Paper_Space
 70
     0
 10
0.0
 20
0.0
 30
0.0
  3
*Paper_Space
  1

  0
ENDBLK
  5
20
330
1E
100
AcDbEntity
 67
     1
  8
0
100
AcDbBlockEnd
  0
BLOCK
  5
A0A
330
A00
100
AcDbEntity
  8
0
 48
20.0
100
AcDbBlockBegin
  2
*D0
 70
     1
 10
0.0
 20
0.0
 30
0.0
  3
*D0
  1

  0
LINE
  5
D38
330
A00
100
AcDbEntity
  8
寸法線
  6
Continuous
 62
     0
 48
20.0
370
    -2
100
AcDbLine
 10
11101.43104676392
 20
-4923.270259487004
 30
0.0
 11
10835.07343619833
 21
-4923.270259487004
 31
0.0
  0
LINE
  5
D39
330
A00
100
AcDbEntity
  8
寸法線
  6
Continuous
 62
     0
 48
20.0
370
    -2
100
AcDbLine
 10
11071.43099453794
 20
-2983.270072934628
 30
0.0
 11
10835.07343619833
 21
-2983.270072934628
 31
0.0
  0
LINE
  5
D3A
330
A00
100
AcDbEntity
  8
寸法線
  6
Continuous
 62
     0
 48
20.0
370
    -2
100
AcDbLine
 10
10895.07343619833
 20
-4863.270259487005
 30
0.0
 11
10895.07343619833
 21
-3043.270072934628
 31
0.0
  0
INSERT
  5
D3B
330
A00
100
AcDbEntity
  8
寸法線
  6
Continuous
 62
     0
 48
20.0
370
    -2
100
AcDbBlockReference
  2
_Open30
 10
10895.07343619833
 20
-4923.270259487004
 30
0.0
 41
60.0
 42
60.0
 43
60.0
 50
270.0
  0
INSERT
  5
D3C
330
A00
100
AcDbEntity
  8
寸法線
  6
Continuous
 62
     0
 48
20.0
370
    -2
100
AcDbBlockReference
  2
_Open30
 10
10895.07343619833
 20
-2983.270072934628
 30
0.0
 41
60.0
 42
60.0
 43
60.0
 50
90.0
  0
MTEXT
  5
D3D
330
A00
100
AcDbEntity
  8
寸法線
  6
Continuous
 62
     0
 48
20.0
100
AcDbMText
 10
10831.07343524466
 20
-3953.270166210815
 30
0.0
 40
60.0
 41
0.0
 71
     5
 72
     1
  1
\A1;1940
 11
0.0000000000000001
 21
1.0
 31
0.0
 73
     1
 44
1.0
  0
POINT
  5
D3E
330
A00
100
AcDbEntity
  8
DEFPOINTS
  6
Continuous
 62
     0
 48
20.0
100
AcDbPoint
 10
11141.43104676392
 20
-4923.270259487004
 30
0.0
  0
POINT
  5
D3F
330
A00
100
AcDbEntity
  8
DEFPOINTS
  6
Continuous
 62
     0
 48
20.0
100
AcDbPoint
 10
11111.43099453794
 20
-2983.270072934628
 30
0.0
  0
POINT
  5
D40
330
A00
100
AcDbEntity
  8
DEFPOINTS
  6
Continuous
 62
     0
 48
20.0
100
AcDbPoint
 10
10895.07343619833
 20
-2983.270072934628
 30
0.0
  0
ENDBLK
  5
A0B
330
A00
100
AcDbEntity
  8
0
 48
20.0
100
AcDbBlockEnd
  0
BLOCK
  5
A17
330
A0D
100
AcDbEntity
  8
0
 48
20.0
100
AcDbBlockBegin
  2
*D1
 70
     1
 10
0.0
 20
0.0
 30
0.0
  3
*D1
  1

  0
LINE
  5
D2F
330
A0D
100
AcDbEntity
  8
寸法線
  6
Continuous
 62
     0
 48
20.0
370
    -2
100
AcDbLine
 10
11145.58066660156
 20
-2783.270259487007
 30
0.0
 11
11145.58066660156
 21
-2629.326480033404
 31
0.0
  0
LINE
  5
D30
330
A0D
100
AcDbEntity
  8
寸法線
  6
Continuous
 62
     0
 48
20.0
370
    -2
100
AcDbLine
 10
11445.58054233971
 20
-2783.270259487006
 30
0.0
 11
11445.58054233971
 21
-2629.326480033404
 31
0.0
  0
LINE
  5
D31
330
A0D
100
AcDbEntity
  8
寸法線
  6
Continuous
 62
     0
 48
20.0
370
    -2
100
AcDbLine
 10
11205.58066660156
 20
-2689.326480033404
 30
0.0
 11
11385.58054233971
 21
-2689.326480033404
 31
0.0
  0
INSERT
  5
D32
330
A0D
100
AcDbEntity
  8
寸法線
  6
Continuous
 62
     0
 48
20.0
370
    -2
100
AcDbBlockReference
  2
_Open30
 10
11145.58066660156
 20
-2689.326480033404
 30
0.0
 41
60.0
 42
60.0
 43
60.0
 50
180.0
  0
INSERT
  5
D33
330
A0D
100
AcDbEntity
  8
寸法線
  6
Continuous
 62
     0
 48
20.0
370
    -2
100
AcDbBlockReference
  2
_Open30
 10
11445.58054233971
 20
-2689.326480033404
 30
0.0
 41
60.0
 42
60.0
 43
60.0
  0
MTEXT
  5
D34
330
A0D
100
AcDbEntity
  8
寸法線
  6
Continuous
 62
     0
 48
20.0
100
AcDbMText
 10
11295.58060447063
 20
-2625.326479079729
 30
0.0
 40
60.0
 41
0.0
 71
     5
 72
     1
  1
\A1;300
 73
     1
 44
1.0
  0
POINT
  5
D35
330
A0D
100
AcDbEntity
  8
DEFPOINTS
  6
Continuous
 62
     0
 48
20.0
100
AcDbPoint
 10
11145.58066660156
 20
-2823.270259487007
 30
0.0
  0
POINT
  5
D36
330
A0D
100
AcDbEntity
  8
DEFPOINTS
  6
Continuous
 62
     0
 48
20.0
100
AcDbPoint
 10
11445.58054233971
 20
-2823.270259487006
 30
0.0
  0
POINT
  5
D37
330
A0D
100
AcDbEntity
  8
DEFPOINTS
  6
Continuous
 62
     0
 48
20.0
100
AcDbPoint
 10
11445.58054233971
 20
-2689.326480033404
 30
0.0
  0
ENDBLK
  5
A18
330
A0D
100
AcDbEntity
  8
0
 48
20.0
100
AcDbBlockEnd
  0
BLOCK
  5
A26
330
A1A
100
AcDbEntity
  8
0
 48
20.0
100
AcDbBlockBegin
  2
*D2
 70
     1
 10
0.0
 20
0.0
 30
0.0
  3
*D2
  1

  0
LINE
  5
D24
330
A1A
100
AcDbEntity
  8
寸法線
  6
Continuous
 62
     0
 48
20.0
370
    -2
100
AcDbLine
 10
11105.58066660156
 20
-2823.270259487007
 30
0.0
 11
10835.07343619833
 21
-2823.270259487007
 31
0.0
  0
LINE
  5
D25
330
A1A
100
AcDbEntity
  8
寸法線
  6
Continuous
 62
     0
 48
20.0
370
    -2
100
AcDbLine
 10
11071.43099453794
 20
-2983.270072934628
 30
0.0
 11
10835.07343619833
 21
-2983.270072934628
 31
0.0
  0
LINE
  5
D26
330
A1A
100
AcDbEntity
  8
寸法線
  6
Continuous
 62
     0
 48
20.0
370
    -2
100
AcDbLine
 10
10895.07343619833
 20
-2763.270259487007
 30
0.0
 11
10895.07343619833
 21
-2703.270259487007
 31
0.0
  0
LINE
  5
D27
330
A1A
100
AcDbEntity
  8
寸法線
  6
Continuous
 62
     0
 48
20.0
370
    -2
100
AcDbLine
 10
10895.07343619833
 20
-3043.270072934628
 30
0.0
 11
10895.07343619833
 21
-3103.270072934628
 31
0.0
  0
LINE
  5
D28
330
A1A
100
AcDbEntity
  8
寸法線
  6
Continuous
 62
     0
 48
20.0
370
    -2
100
AcDbLine
 10
10895.07343619833
 20
-2823.270259487007
 30
0.0
 11
10895.07343619833
 21
-2983.270072934628
 31
0.0
  0
INSERT
  5
D29
330
A1A
100
AcDbEntity
  8
寸法線
  6
Continuous
 62
     0
 48
20.0
370
    -2
100
AcDbBlockReference
  2
_Open30
 10
10895.07343619833
 20
-2823.270259487007
 30
0.0
 41
60.0
 42
60.0
 43
60.0
 50
270.0
  0
INSERT
  5
D2A
330
A1A
100
AcDbEntity
  8
寸法線
  6
Continuous
 62
     0
 48
20.0
370
    -2
100
AcDbBlockReference
  2
_Open30
 10
10895.07343619833
 20
-2983.270072934628
 30
0.0
 41
60.0
 42
60.0
 43
60.0
 50
90.0
  0
MTEXT
  5
D2B
330
A1A
100
AcDbEntity
  8
寸法線
  6
Continuous
 62
     0
 48
20.0
100
AcDbMText
 10
10831.07343524466
 20
-2903.270166210815
 30
0.0
 40
60.0
 41
0.0
 71
     5
 72
     1
  1
\A1;160
 11
0.0000000000000001
 21
1.0
 31
0.0
 73
     1
 44
1.0
  0
POINT
  5
D2C
330
A1A
100
AcDbEntity
  8
DEFPOINTS
  6
Continuous
 62
     0
 48
20.0
100
AcDbPoint
 10
11145.58066660156
 20
-2823.270259487007
 30
0.0
  0
POINT
  5
D2D
330
A1A
100
AcDbEntity
  8
DEFPOINTS
  6
Continuous
 62
     0
 48
20.0
100
AcDbPoint
 10
11111.43099453794
 20
-2983.270072934628
 30
0.0
  0
POINT
  5
D2E
330
A1A
100
AcDbEntity
  8
DEFPOINTS
  6
Continuous
 62
     0
 48
20.0
100
AcDbPoint
 10
10895.07343619833
 20
-2983.270072934628
 30
0.0
  0
ENDBLK
  5
A27
330
A1A
100
AcDbEntity
  8
0
 48
20.0
100
AcDbBlockEnd
  0
BLOCK
  5
A96
330
A8C
100
AcDbEntity
  8
0
 48
20.0
100
AcDbBlockBegin
  2
*D3
 70
     1
 10
0.0
 20
0.0
 30
0.0
  3
*D3
  1

  0
LINE
  5
D1B
330
A8C
100
AcDbEntity
  8
寸法線
  6
Continuous
 62
     0
 48
20.0
370
    -2
100
AcDbLine
 10
11101.43104676392
 20
-4923.270259487004
 30
0.0
 11
10504.02375902473
 21
-4923.270259487004
 31
0.0
  0
LINE
  5
D1C
330
A8C
100
AcDbEntity
  8
寸法線
  6
Continuous
 62
     0
 48
20.0
370
    -2
100
AcDbLine
 10
11941.43103734643
 20
-2553.270259487006
 30
0.0
 11
10504.02375902473
 21
-2553.270259487006
 31
0.0
  0
LINE
  5
D1D
330
A8C
100
AcDbEntity
  8
寸法線
  6
Continuous
 62
     0
 48
20.0
370
    -2
100
AcDbLine
 10
10564.02375902473
 20
-4863.270259487005
 30
0.0
 11
10564.02375902473
 21
-2613.270259487006
 31
0.0
  0
INSERT
  5
D1E
330
A8C
100
AcDbEntity
  8
寸法線
  6
Continuous
 62
     0
 48
20.0
370
    -2
100
AcDbBlockReference
  2
_Open30
 10
10564.02375902473
 20
-4923.270259487004
 30
0.0
 41
60.0
 42
60.0
 43
60.0
 50
270.0
  0
INSERT
  5
D1F
330
A8C
100
AcDbEntity
  8
寸法線
  6
Continuous
 62
     0
 48
20.0
370
    -2
100
AcDbBlockReference
  2
_Open30
 10
10564.02375902473
 20
-2553.270259487006
 30
0.0
 41
60.0
 42
60.0
 43
60.0
 50
90.0
  0
MTEXT
  5
D20
330
A8C
100
AcDbEntity
  8
寸法線
  6
Continuous
 62
     0
 48
20.0
100
AcDbMText
 10
10500.02375807106
 20
-3738.270259487003
 30
0.0
 40
60.0
 41
0.0
 71
     5
 72
     1
  1
\A1;2370
 11
0.0000000000000001
 21
1.0
 31
0.0
 73
     1
 44
1.0
  0
POINT
  5
D21
330
A8C
100
AcDbEntity
  8
DEFPOINTS
  6
Continuous
 62
     0
 48
20.0
100
AcDbPoint
 10
11141.43104676392
 20
-4923.270259487004
 30
0.0
  0
POINT
  5
D22
330
A8C
100
AcDbEntity
  8
DEFPOINTS
  6
Continuous
 62
     0
 48
20.0
100
AcDbPoint
 10
11981.43103734643
 20
-2553.270259487006
 30
0.0
  0
POINT
  5
D23
330
A8C
100
AcDbEntity
  8
DEFPOINTS
  6
Continuous
 62
     0
 48
20.0
100
AcDbPoint
 10
10564.02375902473
 20
-2553.270259487006
 30
0.0
  0
ENDBLK
  5
A97
330
A8C
100
AcDbEntity
  8
0
 48
20.0
100
AcDbBlockEnd
  0
BLOCK
  5
AAE
330
AA4
100
AcDbEntity
  8
0
 48
20.0
100
AcDbBlockBegin
  2
*D4
 70
     1
 10
0.0
 20
0.0
 30
0.0
  3
*D4
  1

  0
LINE
  5
D12
330
AA4
100
AcDbEntity
  8
寸法線
  6
Continuous
 62
     0
 48
20.0
370
    -2
100
AcDbLine
 10
11111.43103734643
 20
-4933.270249711765
 30
0.0
 11
11111.43103734643
 21
-5390.333169759775
 31
0.0
  0
LINE
  5
D13
330
AA4
100
AcDbEntity
  8
寸法線
  6
Continuous
 62
     0
 48
20.0
370
    -2
100
AcDbLine
 10
12851.43103734643
 20
-4933.270259487006
 30
0.0
 11
12851.43103734643
 21
-5390.333169759775
 31
0.0
  0
LINE
  5
D14
330
AA4
100
AcDbEntity
  8
寸法線
  6
Continuous
 62
     0
 48
20.0
370
    -2
100
AcDbLine
 10
11171.43103734643
 20
-5330.333169759775
 30
0.0
 11
12791.43103734643
 21
-5330.333169759775
 31
0.0
  0
INSERT
  5
D15
330
AA4
100
AcDbEntity
  8
寸法線
  6
Continuous
 62
     0
 48
20.0
370
    -2
100
AcDbBlockReference
  2
_Open30
 10
11111.43103734643
 20
-5330.333169759775
 30
0.0
 41
60.0
 42
60.0
 43
60.0
 50
180.0
  0
INSERT
  5
D16
330
AA4
100
AcDbEntity
  8
寸法線
  6
Continuous
 62
     0
 48
20.0
370
    -2
100
AcDbBlockReference
  2
_Open30
 10
12851.43103734643
 20
-5330.333169759775
 30
0.0
 41
60.0
 42
60.0
 43
60.0
  0
MTEXT
  5
D17
330
AA4
100
AcDbEntity
  8
寸法線
  6
Continuous
 62
     0
 48
20.0
100
AcDbMText
 10
11981.43103734643
 20
-5266.333168806101
 30
0.0
 40
60.0
 41
0.0
 71
     5
 72
     1
  1
\A1;O.Dφ1740
 73
     1
 44
1.0
  0
POINT
  5
D18
330
AA4
100
AcDbEntity
  8
DEFPOINTS
  6
Continuous
 62
     0
 48
20.0
100
AcDbPoint
 10
11111.43103734643
 20
-4893.270249711765
 30
0.0
  0
POINT
  5
D19
330
AA4
100
AcDbEntity
  8
DEFPOINTS
  6
Continuous
 62
     0
 48
20.0
100
AcDbPoint
 10
12851.43103734643
 20
-4893.270259487007
 30
0.0
  0
POINT
  5
D1A
330
AA4
100
AcDbEntity
  8
DEFPOINTS
  6
Continuous
 62
     0
 48
20.0
100
AcDbPoint
 10
12851.43103734643
 20
-5330.333169759775
 30
0.0
  0
ENDBLK
  5
AAF
330
AA4
100
AcDbEntity
  8
0
 48
20.0
100
AcDbBlockEnd
  0
BLOCK
  5
BA6
330
B9D
100
AcDbEntity
  8
0
 48
20.0
100
AcDbBlockBegin
  2
*D10
 70
     1
 10
0.0
 20
0.0
 30
0.0
  3
*D10
  1

  0
LINE
  5
FBE
330
B9D
100
AcDbEntity
  8
寸法線
  6
Continuous
 62
     0
 48
20.0
370
    -2
100
AcDbLine
 10
14596.61891802771
 20
-995.0996120731733
 30
0.0
 11
15507.03075919319
 21
-1408.759200003982
 31
0.0
  0
LINE
  5
FBF
330
B9D
100
AcDbEntity
  8
寸法線
  6
Continuous
 62
     0
 48
20.0
370
    -2
100
AcDbLine
 10
16044.18342734704
 20
-1652.822755987618
 30
0.0
 11
16098.80912176511
 21
-1677.642778335397
 31
0.0
  0
MTEXT
  5
FC0
330
B9D
100
AcDbEntity
  8
寸法線
  6
Continuous
 62
     0
 48
20.0
100
AcDbMText
 10
14804.26882961467
 20
-1019.151945006958
 30
0.0
 40
60.0
 41
0.0
 71
     5
 72
     1
  1
\A1;I.D\U+2205470
 11
0.9104282403010673
 21
-0.4136670391296634
 31
0.0
 73
     1
 44
1.0
  0
LINE
  5
FC1
330
B9D
100
AcDbEntity
  8
寸法線
  6
Continuous
 62
     0
 48
20.0
370
    -2
100
AcDbLine
 10
15989.55773292898
 20
-1628.002733639838
 30
0.0
 11
15561.65645361126
 21
-1433.579222351762
 31
0.0
  0
INSERT
  5
FC2
330
B9D
100
AcDbEntity
  8
寸法線
  6
Continuous
 62
     0
 48
20.0
370
    -2
100
AcDbBlockReference
  2
_Open30
 10
15989.55773292898
 20
-1628.002733639838
 30
0.0
 41
60.0
 42
60.0
 43
60.0
 50
155.5645983998533
  0
INSERT
  5
FC3
330
B9D
100
AcDbEntity
  8
寸法線
  6
Continuous
 62
     0
 48
20.0
370
    -2
100
AcDbBlockReference
  2
_Open30
 10
15561.65645361126
 20
-1433.579222351762
 30
0.0
 41
60.0
 42
60.0
 43
60.0
 50
335.5645983998533
  0
POINT
  5
FC4
330
B9D
100
AcDbEntity
  8
DEFPOINTS
  6
Continuous
 62
     0
 48
20.0
100
AcDbPoint
 10
15561.65645361126
 20
-1433.579222351762
 30
0.0
  0
POINT
  5
FC5
330
B9D
100
AcDbEntity
  8
DEFPOINTS
  6
Continuous
 62
     0
 48
20.0
100
AcDbPoint
 10
15989.55773292898
 20
-1628.002733639838
 30
0.0
  0
ENDBLK
  5
BA7
330
B9D
100
AcDbEntity
  8
0
 48
20.0
100
AcDbBlockEnd
  0
BLOCK
  5
C56
330
C52
100
AcDbEntity
  8
0
 48
20.0
100
AcDbBlockBegin
  2
_Open30
 70
     0
 10
0.0
 20
0.0
 30
0.0
  3
_Open30
  1

  0
LINE
  5
C53
330
C52
100
AcDbEntity
  8
0
  6
ByBlock
 62
     0
370
    -2
100
AcDbLine
 10
-1.0
 20
0.26794919
 30
0.0
 11
0.0
 21
0.0
 31
0.0
  0
LINE
  5
C54
330
C52
100
AcDbEntity
  8
0
  6
ByBlock
 62
     0
370
    -2
100
AcDbLine
 10
0.0
 20
0.0
 30
0.0
 11
-1.0
 21
-0.26794919
 31
0.0
  0
LINE
  5
C55
330
C52
100
AcDbEntity
  8
0
  6
ByBlock
 62
     0
370
    -2
100
AcDbLine
 10
0.0
 20
0.0
 30
0.0
 11
-1.0
 21
0.0
 31
0.0
  0
ENDBLK
  5
C57
330
C52
100
AcDbEntity
  8
0
 48
20.0
100
AcDbBlockEnd
  0
BLOCK
  5
D53
330
D49
100
AcDbEntity
  8
0
 48
20.0
100
AcDbBlockBegin
  2
*D12
 70
     1
 10
0.0
 20
0.0
 30
0.0
  3
*D12
  1

  0
LINE
  5
D55
330
D49
100
AcDbEntity
  8
寸法線
 62
     0
 48
20.0
370
    -2
100
AcDbLine
 10
11746.43103384466
 20
-2573.270259487006
 30
0.0
 11
11746.43103384466
 21
-2290.362607444237
 31
0.0
  0
LINE
  5
D56
330
D49
100
AcDbEntity
  8
寸法線
 62
     0
 48
20.0
370
    -2
100
AcDbLine
 10
12216.4310408482
 20
-2573.270259487006
 30
0.0
 11
12216.4310408482
 21
-2290.362607444237
 31
0.0
  0
LINE
  5
D57
330
D49
100
AcDbEntity
  8
寸法線
 62
     0
 48
20.0
370
    -2
100
AcDbLine
 10
11806.43103384466
 20
-2350.362607444236
 30
0.0
 11
12156.4310408482
 21
-2350.362607444236
 31
0.0
  0
INSERT
  5
D58
330
D49
100
AcDbEntity
  8
寸法線
 62
     0
 48
20.0
370
    -2
100
AcDbBlockReference
  2
_Open30
 10
11746.43103384466
 20
-2350.362607444236
 30
0.0
 41
60.0
 42
60.0
 43
60.0
 50
180.0
  0
INSERT
  5
D59
330
D49
100
AcDbEntity
  8
寸法線
 62
     0
 48
20.0
370
    -2
100
AcDbBlockReference
  2
_Open30
 10
12216.4310408482
 20
-2350.362607444236
 30
0.0
 41
60.0
 42
60.0
 43
60.0
  0
MTEXT
  5
D5A
330
D49
100
AcDbEntity
  8
寸法線
 62
     0
 48
20.0
100
AcDbMText
 10
11981.43103734643
 20
-2286.362606490562
 30
0.0
 40
60.0
 41
0.0
 71
     5
 72
     1
  1
\A1;I.Dφ470
 73
     1
 44
1.0
  0
POINT
  5
D5B
330
D49
100
AcDbEntity
  8
DEFPOINTS
 62
     0
 48
20.0
100
AcDbPoint
 10
11746.43103384466
 20
-2613.270259487006
 30
0.0
  0
POINT
  5
D5C
330
D49
100
AcDbEntity
  8
DEFPOINTS
 62
     0
 48
20.0
100
AcDbPoint
 10
12216.4310408482
 20
-2613.270259487006
 30
0.0
  0
POINT
  5
D5D
330
D49
100
AcDbEntity
  8
DEFPOINTS
 62
     0
 48
20.0
100
AcDbPoint
 10
12216.4310408482
 20
-2350.362607444236
 30
0.0
  0
ENDBLK
  5
D54
330
D49
100
AcDbEntity
  8
0
 48
20.0
100
AcDbBlockEnd
  0
BLOCK
  5
DBD
330
DBC
100
AcDbEntity
  8
0
 48
20.0
100
AcDbBlockBegin
  2
_DotSmall
 70
     0
 10
0.0
 20
0.0
 30
0.0
  3
_DotSmall
  1

  0
LWPOLYLINE
  5
DBE
330
DBC
100
AcDbEntity
  8
0
  6
ByBlock
 62
     0
100
AcDbPolyline
 90
        2
 70
     1
 43
0.5
 10
-0.0625
 20
0.0
 42
1.0
 10
0.0625
 20
0.0
 42
1.0
  0
ENDBLK
  5
DBF
330
DBC
100
AcDbEntity
  8
0
 48
20.0
100
AcDbBlockEnd
  0
BLOCK
  5
ED9
330
ECF
100
AcDbEntity
  8
0
 48
20.0
100
AcDbBlockBegin
  2
*D14
 70
     1
 10
0.0
 20
0.0
 30
0.0
  3
*D14
  1

  0
LINE
  5
F40
330
ECF
100
AcDbEntity
  8
寸法線
 62
     0
 48
20.0
370
    -2
100
AcDbLine
 10
17343.17428559208
 20
-2556.348331902089
 30
0.0
 11
17640.91777179445
 21
-2556.34833190209
 31
0.0
  0
LINE
  5
F41
330
ECF
100
AcDbEntity
  8
寸法線
 62
     0
 48
20.0
370
    -2
100
AcDbLine
 10
17343.17428559207
 20
-2886.348334360781
 30
0.0
 11
17640.91777179445
 21
-2886.348334360781
 31
0.0
  0
LINE
  5
F42
330
ECF
100
AcDbEntity
  8
寸法線
 62
     0
 48
20.0
370
    -2
100
AcDbLine
 10
17580.91777179445
 20
-2616.34833190209
 30
0.0
 11
17580.91777179445
 21
-2826.348334360781
 31
0.0
  0
INSERT
  5
F43
330
ECF
100
AcDbEntity
  8
寸法線
 62
     0
 48
20.0
370
    -2
100
AcDbBlockReference
  2
_Open30
 10
17580.91777179445
 20
-2556.34833190209
 30
0.0
 41
60.0
 42
60.0
 43
60.0
 50
90.0
  0
INSERT
  5
F44
330
ECF
100
AcDbEntity
  8
寸法線
 62
     0
 48
20.0
370
    -2
100
AcDbBlockReference
  2
_Open30
 10
17580.91777179445
 20
-2886.348334360781
 30
0.0
 41
60.0
 42
60.0
 43
60.0
 50
270.0
  0
MTEXT
  5
F45
330
ECF
100
AcDbEntity
  8
寸法線
 62
     0
 48
20.0
100
AcDbMText
 10
17516.91777084078
 20
-2721.348333131432
 30
0.0
 40
60.0
 41
0.0
 71
     5
 72
     1
  1
\A1;110
 11
0.0000000000000001
 21
1.0
 31
0.0
 73
     1
 44
1.0
  0
POINT
  5
F46
330
ECF
100
AcDbEntity
  8
DEFPOINTS
 62
     0
 48
20.0
100
AcDbPoint
 10
17303.17428559208
 20
-2556.348331902089
 30
0.0
  0
POINT
  5
F47
330
ECF
100
AcDbEntity
  8
DEFPOINTS
 62
     0
 48
20.0
100
AcDbPoint
 10
17303.17428559207
 20
-2886.348334360781
 30
0.0
  0
POINT
  5
F48
330
ECF
100
AcDbEntity
  8
DEFPOINTS
 62
     0
 48
20.0
100
AcDbPoint
 10
17580.91777179445
 20
-2886.348334360781
 30
0.0
  0
ENDBLK
  5
EDA
330
ECF
100
AcDbEntity
  8
0
 48
20.0
100
AcDbBlockEnd
  0
BLOCK
  5
EE5
330
EDB
100
AcDbEntity
  8
0
 48
20.0
100
AcDbBlockBegin
  2
*D15
 70
     1
 10
0.0
 20
0.0
 30
0.0
  3
*D15
  1

  0
LINE
  5
F49
330
EDB
100
AcDbEntity
  8
寸法線
 62
     0
 48
20.0
370
    -2
100
AcDbLine
 10
17286.1742847427
 20
-2946.348335254839
 30
0.0
 11
17797.70298241972
 21
-2946.34833525484
 31
0.0
  0
LINE
  5
F4A
330
EDB
100
AcDbEntity
  8
寸法線
 62
     0
 48
20.0
370
    -2
100
AcDbLine
 10
17286.1742847427
 20
-2496.348328549322
 30
0.0
 11
17797.70298241972
 21
-2496.348328549323
 31
0.0
  0
LINE
  5
F4B
330
EDB
100
AcDbEntity
  8
寸法線
 62
     0
 48
20.0
370
    -2
100
AcDbLine
 10
17737.70298241972
 20
-2886.34833525484
 30
0.0
 11
17737.70298241972
 21
-2556.348328549323
 31
0.0
  0
INSERT
  5
F4C
330
EDB
100
AcDbEntity
  8
寸法線
 62
     0
 48
20.0
370
    -2
100
AcDbBlockReference
  2
_Open30
 10
17737.70298241972
 20
-2946.34833525484
 30
0.0
 41
60.0
 42
60.0
 43
60.0
 50
270.0
  0
INSERT
  5
F4D
330
EDB
100
AcDbEntity
  8
寸法線
 62
     0
 48
20.0
370
    -2
100
AcDbBlockReference
  2
_Open30
 10
17737.70298241972
 20
-2496.348328549323
 30
0.0
 41
60.0
 42
60.0
 43
60.0
 50
90.0
  0
MTEXT
  5
F4E
330
EDB
100
AcDbEntity
  8
寸法線
 62
     0
 48
20.0
100
AcDbMText
 10
17673.70298146604
 20
-2721.348331902078
 30
0.0
 40
60.0
 41
0.0
 71
     5
 72
     1
  1
\A1;150
 11
0.0000000000000001
 21
1.0
 31
0.0
 73
     1
 44
1.0
  0
POINT
  5
F4F
330
EDB
100
AcDbEntity
  8
DEFPOINTS
 62
     0
 48
20.0
100
AcDbPoint
 10
17246.1742847427
 20
-2946.348335254839
 30
0.0
  0
POINT
  5
F50
330
EDB
100
AcDbEntity
  8
DEFPOINTS
 62
     0
 48
20.0
100
AcDbPoint
 10
17246.1742847427
 20
-2496.348328549322
 30
0.0
  0
POINT
  5
F51
330
EDB
100
AcDbEntity
  8
DEFPOINTS
 62
     0
 48
20.0
100
AcDbPoint
 10
17737.70298241972
 20
-2496.348328549323
 30
0.0
  0
ENDBLK
  5
EE6
330
EDB
100
AcDbEntity
  8
0
 48
20.0
100
AcDbBlockEnd
  0
BLOCK
  5
EF1
330
EE7
100
AcDbEntity
  8
0
 48
20.0
100
AcDbBlockBegin
  2
*D16
 70
     1
 10
0.0
 20
0.0
 30
0.0
  3
*D16
  1

  0
LINE
  5
F52
330
EE7
100
AcDbEntity
  8
寸法線
 62
     0
 48
20.0
370
    -2
100
AcDbLine
 10
17076.12561663985
 20
-3365.101462255858
 30
0.0
 11
17076.12561663985
 21
-3224.536273457341
 31
0.0
  0
LINE
  5
F53
330
EE7
100
AcDbEntity
  8
寸法線
 62
     0
 48
20.0
370
    -2
100
AcDbLine
 10
17298.12561994791
 20
-3365.101462255858
 30
0.0
 11
17298.12561994791
 21
-3224.536273457341
 31
0.0
  0
LINE
  5
F54
330
EE7
100
AcDbEntity
  8
寸法線
 62
     0
 48
20.0
370
    -2
100
AcDbLine
 10
17136.12561663985
 20
-3284.536273457341
 30
0.0
 11
17238.12561994791
 21
-3284.536273457341
 31
0.0
  0
INSERT
  5
F55
330
EE7
100
AcDbEntity
  8
寸法線
 62
     0
 48
20.0
370
    -2
100
AcDbBlockReference
  2
_Open30
 10
17076.12561663985
 20
-3284.536273457341
 30
0.0
 41
60.0
 42
60.0
 43
60.0
 50
180.0
  0
INSERT
  5
F56
330
EE7
100
AcDbEntity
  8
寸法線
 62
     0
 48
20.0
370
    -2
100
AcDbBlockReference
  2
_Open30
 10
17298.12561994791
 20
-3284.536273457341
 30
0.0
 41
60.0
 42
60.0
 43
60.0
  0
MTEXT
  5
F57
330
EE7
100
AcDbEntity
  8
寸法線
 62
     0
 48
20.0
100
AcDbMText
 10
17187.12561829388
 20
-3220.536272503667
 30
0.0
 40
60.0
 41
0.0
 71
     5
 72
     1
  1
\A1;74
 73
     1
 44
1.0
  0
POINT
  5
F58
330
EE7
100
AcDbEntity
  8
DEFPOINTS
 62
     0
 48
20.0
100
AcDbPoint
 10
17076.12561663985
 20
-3405.101462255858
 30
0.0
  0
POINT
  5
F59
330
EE7
100
AcDbEntity
  8
DEFPOINTS
 62
     0
 48
20.0
100
AcDbPoint
 10
17298.12561994791
 20
-3405.101462255858
 30
0.0
  0
POINT
  5
F5A
330
EE7
100
AcDbEntity
  8
DEFPOINTS
 62
     0
 48
20.0
100
AcDbPoint
 10
17298.12561994791
 20
-3284.536273457341
 30
0.0
  0
ENDBLK
  5
EF2
330
EE7
100
AcDbEntity
  8
0
 48
20.0
100
AcDbBlockEnd
  0
BLOCK
  5
EFF
330
EF3
100
AcDbEntity
  8
0
 48
20.0
100
AcDbBlockBegin
  2
*D17
 70
     1
 10
0.0
 20
0.0
 30
0.0
  3
*D17
  1

  0
LINE
  5
F5B
330
EF3
100
AcDbEntity
  8
寸法線
 62
     0
 48
20.0
370
    -2
100
AcDbLine
 10
17338.12561994791
 20
-3492.101463552259
 30
0.0
 11
17572.47150381709
 21
-3492.10146355226
 31
0.0
  0
LINE
  5
F5C
330
EF3
100
AcDbEntity
  8
寸法線
 62
     0
 48
20.0
370
    -2
100
AcDbLine
 10
17338.12561994791
 20
-3405.101462255858
 30
0.0
 11
17572.47150381709
 21
-3405.101462255859
 31
0.0
  0
LINE
  5
F5D
330
EF3
100
AcDbEntity
  8
寸法線
 62
     0
 48
20.0
370
    -2
100
AcDbLine
 10
17512.47150381709
 20
-3552.101463552259
 30
0.0
 11
17512.47150381709
 21
-3612.101463552259
 31
0.0
  0
LINE
  5
F5E
330
EF3
100
AcDbEntity
  8
寸法線
 62
     0
 48
20.0
370
    -2
100
AcDbLine
 10
17512.47150381709
 20
-3345.101462255858
 30
0.0
 11
17512.47150381709
 21
-3117.10146034851
 31
0.0
  0
LINE
  5
F5F
330
EF3
100
AcDbEntity
  8
寸法線
 62
     0
 48
20.0
370
    -2
100
AcDbLine
 10
17512.47150381709
 20
-3492.10146355226
 30
0.0
 11
17512.47150381709
 21
-3405.101462255859
 31
0.0
  0
INSERT
  5
F60
330
EF3
100
AcDbEntity
  8
寸法線
 62
     0
 48
20.0
370
    -2
100
AcDbBlockReference
  2
_Open30
 10
17512.47150381709
 20
-3492.10146355226
 30
0.0
 41
60.0
 42
60.0
 43
60.0
 50
90.0
  0
INSERT
  5
F61
330
EF3
100
AcDbEntity
  8
寸法線
 62
     0
 48
20.0
370
    -2
100
AcDbBlockReference
  2
_Open30
 10
17512.47150381709
 20
-3405.101462255859
 30
0.0
 41
60.0
 42
60.0
 43
60.0
 50
270.0
  0
MTEXT
  5
F62
330
EF3
100
AcDbEntity
  8
寸法線
 62
     0
 48
20.0
100
AcDbMText
 10
17448.47150286342
 20
-3201.101461302181
 30
0.0
 40
60.0
 41
0.0
 71
     5
 72
     1
  1
\A1;29
 11
0.0000000000000001
 21
1.0
 31
0.0
 73
     1
 44
1.0
  0
POINT
  5
F63
330
EF3
100
AcDbEntity
  8
DEFPOINTS
 62
     0
 48
20.0
100
AcDbPoint
 10
17298.12561994791
 20
-3492.101463552259
 30
0.0
  0
POINT
  5
F64
330
EF3
100
AcDbEntity
  8
DEFPOINTS
 62
     0
 48
20.0
100
AcDbPoint
 10
17298.12561994791
 20
-3405.101462255858
 30
0.0
  0
POINT
  5
F65
330
EF3
100
AcDbEntity
  8
DEFPOINTS
 62
     0
 48
20.0
100
AcDbPoint
 10
17512.47150381709
 20
-3405.101462255859
 30
0.0
  0
ENDBLK
  5
F00
330
EF3
100
AcDbEntity
  8
0
 48
20.0
100
AcDbBlockEnd
  0
BLOCK
  5
F0D
330
F01
100
AcDbEntity
  8
0
 48
20.0
100
AcDbBlockBegin
  2
*D18
 70
     1
 10
0.0
 20
0.0
 30
0.0
  3
*D18
  1

  0
LINE
  5
F66
330
F01
100
AcDbEntity
  8
寸法線
 62
     0
 48
20.0
370
    -2
100
AcDbLine
 10
17317.12561979304
 20
-3507.101463775776
 30
0.0
 11
17707.04599773228
 21
-3507.101463775777
 31
0.0
  0
LINE
  5
F67
330
F01
100
AcDbEntity
  8
寸法線
 62
     0
 48
20.0
370
    -2
100
AcDbLine
 10
17338.12561994791
 20
-3405.101462255858
 30
0.0
 11
17707.04599773228
 21
-3405.101462255859
 31
0.0
  0
LINE
  5
F68
330
F01
100
AcDbEntity
  8
寸法線
 62
     0
 48
20.0
370
    -2
100
AcDbLine
 10
17647.04599773228
 20
-3567.101463775776
 30
0.0
 11
17647.04599773228
 21
-3627.101463775777
 31
0.0
  0
LINE
  5
F69
330
F01
100
AcDbEntity
  8
寸法線
 62
     0
 48
20.0
370
    -2
100
AcDbLine
 10
17647.04599773228
 20
-3345.101462255858
 30
0.0
 11
17647.04599773228
 21
-3117.10146034851
 31
0.0
  0
LINE
  5
F6A
330
F01
100
AcDbEntity
  8
寸法線
 62
     0
 48
20.0
370
    -2
100
AcDbLine
 10
17647.04599773228
 20
-3507.101463775777
 30
0.0
 11
17647.04599773228
 21
-3405.101462255859
 31
0.0
  0
INSERT
  5
F6B
330
F01
100
AcDbEntity
  8
寸法線
 62
     0
 48
20.0
370
    -2
100
AcDbBlockReference
  2
_Open30
 10
17647.04599773228
 20
-3507.101463775777
 30
0.0
 41
60.0
 42
60.0
 43
60.0
 50
90.0
  0
INSERT
  5
F6C
330
F01
100
AcDbEntity
  8
寸法線
 62
     0
 48
20.0
370
    -2
100
AcDbBlockReference
  2
_Open30
 10
17647.04599773228
 20
-3405.101462255859
 30
0.0
 41
60.0
 42
60.0
 43
60.0
 50
270.0
  0
MTEXT
  5
F6D
330
F01
100
AcDbEntity
  8
寸法線
 62
     0
 48
20.0
100
AcDbMText
 10
17583.04599677861
 20
-3201.101461302181
 30
0.0
 40
60.0
 41
0.0
 71
     5
 72
     1
  1
\A1;34
 11
0.0000000000000001
 21
1.0
 31
0.0
 73
     1
 44
1.0
  0
POINT
  5
F6E
330
F01
100
AcDbEntity
  8
DEFPOINTS
 62
     0
 48
20.0
100
AcDbPoint
 10
17277.12561979304
 20
-3507.101463775776
 30
0.0
  0
POINT
  5
F6F
330
F01
100
AcDbEntity
  8
DEFPOINTS
 62
     0
 48
20.0
100
AcDbPoint
 10
17298.12561994791
 20
-3405.101462255858
 30
0.0
  0
POINT
  5
F70
330
F01
100
AcDbEntity
  8
DEFPOINTS
 62
     0
 48
20.0
100
AcDbPoint
 10
17647.04599773228
 20
-3405.101462255859
 30
0.0
  0
ENDBLK
  5
F0E
330
F01
100
AcDbEntity
  8
0
 48
20.0
100
AcDbBlockEnd
  0
BLOCK
  5
F89
330
F88
100
AcDbEntity
  8
0
 48
20.0
100
AcDbBlockBegin
  2
ＬＡアンカープレート
 70
     0
 10
0.0
 20
0.0
 30
0.0
  3
ＬＡアンカープレート
  1

  0
LINE
  5
F8B
330
F88
100
AcDbEntity
  8
0
  6
Continuous
100
AcDbLine
 10
55.0000008195675
 20
107.7443709960444
 30
0.0
 11
55.00000081956386
 21
33.74436989335845
 31
0.0
  0
LINE
  5
F8C
330
F88
100
AcDbEntity
  8
0
  6
Continuous
100
AcDbLine
 10
-55.00000081956023
 20
103.7443709364433
 30
0.0
 11
-60.00000089406603
 21
103.7443709364433
 31
0.0
  0
LINE
  5
F8D
330
F88
100
AcDbEntity
  8
0
  6
Continuous
100
AcDbLine
 10
-60.00000089406603
 20
103.7443709364433
 30
0.0
 11
-75.00000111758345
 21
88.74437071292595
 31
0.0
  0
LINE
  5
F8E
330
F88
100
AcDbEntity
  8
0
  6
CENTER
100
AcDbLine
 10
19.82209058566514
 20
63.74437034039329
 30
0.0
 11
-23.53534671654052
 21
63.74437034039329
 31
0.0
  0
LINE
  5
F8F
330
F88
100
AcDbEntity
  8
0
  6
Continuous
100
AcDbLine
 10
75.00000111758708
 20
88.74437071291868
 30
0.0
 11
60.00000089406967
 21
103.7443709364361
 31
0.0
  0
LINE
  5
F90
330
F88
100
AcDbEntity
  8
0
  6
Continuous
100
AcDbLine
 10
75.00000111759073
 20
0.000000000001819
 30
0.0
 11
75.00000111758708
 21
88.74437071292595
 31
0.0
  0
LINE
  5
F91
330
F88
100
AcDbEntity
  8
0
  6
Continuous
100
AcDbLine
 10
-75.00000111758345
 20
0.0
 30
0.0
 11
-75.00000111758345
 21
88.74437071292595
 31
0.0
  0
LINE
  5
F92
330
F88
100
AcDbEntity
  8
0
  6
Continuous
100
AcDbLine
 10
60.00000089406603
 20
103.7443709364433
 30
0.0
 11
55.0000008195675
 21
103.7443709364397
 31
0.0
  0
LINE
  5
F93
330
F88
100
AcDbEntity
  8
0
  6
CENTER
100
AcDbLine
 10
0.000000000007276
 20
203.1810365095607
 30
0.0
 11
0.0
 21
-26.37904050185898
 31
0.0
  0
LINE
  5
F94
330
F88
100
AcDbEntity
  8
0
100
AcDbLine
 10
-9.999999999992724
 20
68.74437034039693
 30
0.0
 11
-9.999999999996362
 21
58.74437034039329
 31
0.0
  0
LINE
  5
F95
330
F88
100
AcDbEntity
  8
0
100
AcDbLine
 10
10.00000000000727
 20
68.74437034039693
 30
0.0
 11
10.00000000000364
 21
58.74437034039693
 31
0.0
  0
LINE
  5
F96
330
F88
100
AcDbEntity
  8
0
  6
Continuous
100
AcDbLine
 10
-55.00000081955659
 20
107.744370996048
 30
0.0
 11
55.0000008195675
 21
107.7443709960444
 31
0.0
  0
LINE
  5
F97
330
F88
100
AcDbEntity
  8
0
  6
Continuous
100
AcDbLine
 10
-55.00000081956023
 20
33.74436989336209
 30
0.0
 11
55.00000081956386
 21
33.74436989335845
 31
0.0
  0
LINE
  5
F98
330
F88
100
AcDbEntity
  8
0
  6
Continuous
100
AcDbLine
 10
-55.00000081956386
 20
107.744370996048
 30
0.0
 11
-55.00000081956023
 21
33.74436989336209
 31
0.0
  0
ARC
  5
F99
330
F88
100
AcDbEntity
  8
0
  6
Continuous
100
AcDbCircle
 10
-0.000000000007276
 20
-1351.255650744751
 30
0.0
 40
1375.000020489096
100
AcDbArc
 50
86.87322388637108
 51
93.12677611362891
  0
ARC
  5
F9A
330
F88
100
AcDbEntity
  8
0
 48
20.0
100
AcDbCircle
 10
0.0
 20
58.74437034038965
 30
0.0
 40
9.999999999998181
100
AcDbArc
 50
179.9999999999088
 51
0.0000000000781653
  0
ARC
  5
F9B
330
F88
100
AcDbEntity
  8
0
 48
20.0
100
AcDbCircle
 10
0.0
 20
68.74437034038965
 30
0.0
 40
10.0
100
AcDbArc
 50
0.0000000000781653
 51
179.9999999999088
  0
ENDBLK
  5
F8A
330
F88
100
AcDbEntity
  8
0
 48
20.0
100
AcDbBlockEnd
  0
BLOCK
  5
FF4
330
FF3
100
AcDbEntity
  8
0
 48
20.0
100
AcDbBlockBegin
  2
ＬＡアンカープレート　正面図
 70
     0
 10
0.0
 20
0.0
 30
0.0
  3
ＬＡアンカープレート　正面図
  1

  0
LINE
  5
FF6
330
FF3
100
AcDbEntity
  8
0
  6
Continuous
100
AcDbLine
 10
112.7867981571235
 20
34.0000005066413
 30
0.0
 11
112.7867981571235
 21
5.000000074507624
 31
0.0
  0
LINE
  5
FF7
330
FF3
100
AcDbEntity
  8
0
  6
Continuous
100
AcDbLine
 10
33.78679697993175
 20
30.00000044703666
 30
0.0
 11
108.7867980975188
 21
30.00000044703666
 31
0.0
  0
LINE
  5
FF8
330
FF3
100
AcDbEntity
  8
0
  6
CENTER
100
AcDbLine
 10
68.78679750147239
 20
49.71401689670983
 30
0.0
 11
68.78679750147239
 21
-17.31459287212419
 31
0.0
  0
LINE
  5
FF9
330
FF3
100
AcDbEntity
  8
0
  6
DASHED
100
AcDbLine
 10
83.7867975014724
 20
30.00000044703666
 30
0.0
 11
83.7867975014724
 21
0.000000000001819
 31
0.0
  0
LINE
  5
FFA
330
FF3
100
AcDbEntity
  8
0
  6
DASHED
100
AcDbLine
 10
53.78679750147239
 20
30.00000044703666
 30
0.0
 11
53.78679750147239
 21
0.000000000001819
 31
0.0
  0
LINE
  5
FFB
330
FF3
100
AcDbEntity
  8
0
  6
Continuous
100
AcDbLine
 10
108.7867980975188
 20
5.000000074507624
 30
0.0
 11
112.7867981571235
 21
5.000000074507624
 31
0.0
  0
LINE
  5
FFC
330
FF3
100
AcDbEntity
  8
0
  6
Continuous
100
AcDbLine
 10
-21.21320030895913
 20
0.000000000001819
 30
0.0
 11
105.7867981055005
 21
0.000000000001819
 31
0.0
  0
LINE
  5
FFD
330
FF3
100
AcDbEntity
  8
0
  6
Continuous
100
AcDbLine
 10
28.78679690542595
 20
87.00000129640285
 30
0.0
 11
28.78679690542595
 21
35.00000052154246
 31
0.0
  0
LINE
  5
FFE
330
FF3
100
AcDbEntity
  8
0
  6
Continuous
100
AcDbLine
 10
108.7867980975188
 20
30.00000044703666
 30
0.0
 11
108.7867980975188
 21
3.000000044705302
 31
0.0
  0
LINE
  5
FFF
330
FF3
100
AcDbEntity
  8
0
  6
Continuous
100
AcDbLine
 10
-0.000000000001819
 20
8.786796607406358
 30
0.0
 11
8.78679660740272
 21
0.0000000000009095
 31
0.0
  0
LINE
  5
1000
330
FF3
100
AcDbEntity
  8
0
  6
Continuous
100
AcDbLine
 10
8.78679660740272
 20
90.00000134110633
 30
0.0
 11
25.78679686072246
 21
90.00000134110633
 31
0.0
  0
LINE
  5
1001
330
FF3
100
AcDbEntity
  8
0
  6
Continuous
100
AcDbLine
 10
38.78679705443756
 20
34.0000005066413
 30
0.0
 11
112.7867981571235
 21
34.0000005066413
 31
0.0
  0
LINE
  5
1002
330
FF3
100
AcDbEntity
  8
0
  6
Continuous
100
AcDbLine
 10
38.78679705443756
 20
34.0000005066413
 30
0.0
 11
38.78679705443756
 21
30.00000044703666
 31
0.0
  0
ARC
  5
1003
330
FF3
100
AcDbEntity
  8
0
  6
Continuous
100
AcDbCircle
 10
105.7867980528153
 20
27.00000040233317
 30
0.0
 40
3.000000044703484
100
AcDbArc
 50
0.0
 51
90.0
  0
ARC
  5
1004
330
FF3
100
AcDbEntity
  8
0
  6
Continuous
100
AcDbCircle
 10
25.78679686072246
 20
87.00000129640285
 30
0.0
 40
3.000000044703484
100
AcDbArc
 50
0.0
 51
90.0
  0
ARC
  5
1005
330
FF3
100
AcDbEntity
  8
0
  6
Continuous
100
AcDbCircle
 10
33.78679697993175
 20
35.00000052154246
 30
0.0
 40
5.000000074505805
100
AcDbArc
 50
180.0
 51
270.0
  0
ARC
  5
1006
330
FF3
100
AcDbEntity
  8
0
  6
Continuous
100
AcDbCircle
 10
105.7867980528153
 20
3.000000044705302
 30
0.0
 40
3.000000044703484
100
AcDbArc
 50
270.0
 51
0.0
  0
LWPOLYLINE
  5
1007
330
FF3
100
AcDbEntity
  8
0
  6
DASHED
 48
20.0
100
AcDbPolyline
 90
        2
 70
     0
 43
0.0
 10
53.78679750147239
 20
30.00000044703666
 10
53.78679750147239
 20
34.0000005066413
  0
LWPOLYLINE
  5
1008
330
FF3
100
AcDbEntity
  8
0
  6
DASHED
 48
20.0
100
AcDbPolyline
 90
        2
 70
     0
 43
0.0
 10
83.7867975014724
 20
30.00000044703666
 10
83.7867975014724
 20
34.0000005066413
  0
ENDBLK
  5
FF5
330
FF3
100
AcDbEntity
  8
0
 48
20.0
100
AcDbBlockEnd
  0
ENDSEC
  0
SECTION
  2
ENTITIES
  0
POINT
  5
3A7
330
22
100
AcDbEntity
  8
0
  6
Continuous
 62
     7
100
AcDbPoint
 10
12231.43110918988
 20
-2613.270259487006
 30
0.0
  0
POINT
  5
3A8
330
22
100
AcDbEntity
  8
0
  6
Continuous
 62
     7
100
AcDbPoint
 10
11731.43096550298
 20
-2613.270259487006
 30
0.0
  0
POINT
  5
3AB
330
22
100
AcDbEntity
  8
0
100
AcDbPoint
 10
11706.43103324861
 20
-2731.538775030089
 30
0.0
  0
POINT
  5
3AC
330
22
100
AcDbEntity
  8
0
100
AcDbPoint
 10
12256.43104144425
 20
-2731.538775030089
 30
0.0
  0
POINT
  5
3AD
330
22
100
AcDbEntity
  8
0
  6
Continuous
 62
     7
100
AcDbPoint
 10
12216.4310408482
 20
-2613.270259487006
 30
0.0
  0
POINT
  5
3AE
330
22
100
AcDbEntity
  8
0
  6
Continuous
 62
     7
100
AcDbPoint
 10
11746.43103384466
 20
-2613.270259487006
 30
0.0
  0
POINT
  5
3AF
330
22
100
AcDbEntity
  8
0
  6
Continuous
 62
     7
100
AcDbPoint
 10
11981.43103734643
 20
-2553.270259487006
 30
0.0
  0
POINT
  5
3B4
330
22
100
AcDbEntity
  8
0
  6
Continuous
 62
     7
100
AcDbPoint
 10
11981.43103734643
 20
-4923.270259487006
 30
0.0
  0
POINT
  5
3B5
330
22
100
AcDbEntity
  8
0
  6
Continuous
 62
     7
100
AcDbPoint
 10
12851.43103734643
 20
-4823.27025799689
 30
0.0
  0
POINT
  5
3B6
330
22
100
AcDbEntity
  8
0
  6
Continuous
 62
     7
100
AcDbPoint
 10
11981.43103734643
 20
-4823.27025799689
 30
0.0
  0
POINT
  5
3B9
330
22
100
AcDbEntity
  8
0
  6
Continuous
 62
     7
100
AcDbPoint
 10
11981.43103734643
 20
-2823.270259487006
 30
0.0
  0
POINT
  5
3BA
330
22
100
AcDbEntity
  8
0
  6
Continuous
 62
     7
100
AcDbPoint
 10
12671.43103734643
 20
-2823.270259487006
 30
0.0
  0
POINT
  5
3BB
330
22
100
AcDbEntity
  8
0
  6
Continuous
 62
     7
100
AcDbPoint
 10
12851.43116987272
 20
-2983.270259487006
 30
0.0
  0
POINT
  5
3C2
330
22
100
AcDbEntity
  8
0
  6
Continuous
 62
     3
100
AcDbPoint
 10
11981.43103734643
 20
-2823.270259487006
 30
0.0
  0
POINT
  5
3C3
330
22
100
AcDbEntity
  8
0
  6
Continuous
 62
   206
100
AcDbPoint
 10
11981.43103734643
 20
-2783.27025889096
 30
0.0
  0
POINT
  5
3C6
330
22
100
AcDbEntity
  8
0
  6
Continuous
 62
     7
100
AcDbPoint
 10
12671.43103734643
 20
-2823.270259487006
 30
0.0
  0
POINT
  5
3C9
330
22
100
AcDbEntity
  8
0
  6
Continuous
 62
     7
100
AcDbPoint
 10
12851.43103734643
 20
-4823.27025799689
 30
0.0
  0
POINT
  5
3CA
330
22
100
AcDbEntity
  8
0
  6
Continuous
 62
     7
100
AcDbPoint
 10
12851.43103734643
 20
-4823.27025799689
 30
0.0
  0
POINT
  5
3CB
330
22
100
AcDbEntity
  8
0
  6
Continuous
 62
     7
100
AcDbPoint
 10
11981.43103734643
 20
-4823.27025799689
 30
0.0
  0
LINE
  5
3D0
330
22
100
AcDbEntity
  8
0
  6
CENTER
 62
     0
100
AcDbLine
 10
11981.43103734643
 20
-2446.521865509855
 30
0.0
 11
11981.43103734643
 21
-5084.616160976263
 31
0.0
  0
LINE
  5
3D1
330
22
100
AcDbEntity
  8
0
100
AcDbLine
 10
11141.43103734643
 20
-4923.270259487006
 30
0.0
 11
12821.43103734643
 21
-4923.270259487006
 31
0.0
  0
LINE
  5
3D2
330
22
100
AcDbEntity
  8
0
100
AcDbLine
 10
11111.43103734643
 20
-2983.270259487006
 30
0.0
 11
12851.43103734643
 21
-2983.270259487006
 31
0.0
  0
LINE
  5
3D3
330
22
100
AcDbEntity
  8
0
100
AcDbLine
 10
11111.43103734643
 20
-4893.270259487007
 30
0.0
 11
11111.43103734643
 21
-2983.270259487006
 31
0.0
  0
LINE
  5
3D4
330
22
100
AcDbEntity
  8
0
100
AcDbLine
 10
11145.58066503198
 20
-2823.270259487006
 30
0.0
 11
11445.58054233971
 21
-2823.270259487006
 31
0.0
  0
LINE
  5
3D5
330
22
100
AcDbEntity
  8
0
100
AcDbLine
 10
11666.43103265256
 20
-2613.270259487006
 30
0.0
 11
12296.4310420403
 21
-2613.270259487006
 31
0.0
  0
LINE
  5
3D6
330
22
100
AcDbEntity
  8
0
100
AcDbLine
 10
11666.43103265256
 20
-2648.270259487006
 30
0.0
 11
12296.4310420403
 21
-2648.270259487006
 31
0.0
  0
LINE
  5
3D7
330
22
100
AcDbEntity
  8
0
100
AcDbLine
 10
11140.66627173201
 20
-2827.348594566247
 30
0.0
 11
11111.43099453794
 21
-2983.270072934628
 31
0.0
  0
LINE
  5
3D8
330
22
100
AcDbEntity
  8
0
100
AcDbLine
 10
11211.43096105248
 20
-2973.270259487006
 30
0.0
 11
11815.60818807275
 21
-2973.270259487006
 31
0.0
  0
LINE
  5
3D9
330
22
100
AcDbEntity
  8
0
100
AcDbLine
 10
11836.12830297143
 20
-2823.270259487006
 30
0.0
 11
12131.43102780969
 21
-2823.270259487006
 31
0.0
  0
LINE
  5
3DA
330
22
100
AcDbEntity
  8
0
100
AcDbLine
 10
11823.18908221569
 20
-2955.141572546589
 30
0.0
 11
11831.13803052347
 21
-2827.958399621977
 31
0.0
  0
LINE
  5
3DB
330
22
100
AcDbEntity
  8
0
100
AcDbLine
 10
12131.43103679008
 20
-2823.270281553126
 30
0.0
 11
12139.67299247717
 21
-2955.141572546589
 31
0.0
  0
LINE
  5
3DC
330
22
100
AcDbEntity
  8
0
100
AcDbLine
 10
12147.25388662011
 20
-2973.270259487006
 30
0.0
 11
12751.43111364038
 21
-2973.270259487006
 31
0.0
  0
LINE
  5
3DD
330
22
100
AcDbEntity
  8
0
100
AcDbLine
 10
12817.28140966088
 20
-2823.270259487006
 30
0.0
 11
12521.43088475854
 21
-2823.270259487006
 31
0.0
  0
LINE
  5
3DE
330
22
100
AcDbEntity
  8
0
100
AcDbLine
 10
12822.19588261187
 20
-2827.348475279348
 30
0.0
 11
12851.43111413362
 21
-2983.269962211283
 31
0.0
  0
LINE
  5
3DF
330
22
100
AcDbEntity
  8
0
100
AcDbLine
 10
12851.43103734643
 20
-4893.270259487007
 30
0.0
 11
12851.43103734643
 21
-2983.270259487006
 31
0.0
  0
LINE
  5
3E0
330
22
100
AcDbEntity
  8
0
100
AcDbLine
 10
11211.43103734643
 20
-2973.270259487006
 30
0.0
 11
11211.43103734643
 21
-2983.270259487006
 31
0.0
  0
LINE
  5
3E1
330
22
100
AcDbEntity
  8
0
  6
Continuous
 62
     3
100
AcDbLine
 10
12751.43103734643
 20
-2973.270259487006
 30
0.0
 11
12751.43103734643
 21
-2983.270259487006
 31
0.0
  0
LINE
  5
3E2
330
22
100
AcDbEntity
  8
0
  6
CENTER
 62
     0
100
AcDbLine
 10
11291.43103734643
 20
-2884.807735072944
 30
0.0
 11
11291.43103734643
 21
-2751.721644985053
 31
0.0
  0
LINE
  5
3E3
330
22
100
AcDbEntity
  8
0
  6
CENTER
 62
     0
100
AcDbLine
 10
12671.43103734643
 20
-2884.807735072944
 30
0.0
 11
12671.43103734643
 21
-2751.721644985053
 31
0.0
  0
LINE
  5
3E4
330
22
100
AcDbEntity
  8
0
100
AcDbLine
 10
12256.43104144425
 20
-2648.270259487006
 30
0.0
 11
12256.43104144425
 21
-2715.668865248297
 31
0.0
  0
LINE
  5
3E5
330
22
100
AcDbEntity
  8
0
100
AcDbLine
 10
11706.43103324861
 20
-2648.270259487006
 30
0.0
 11
11706.43103324861
 21
-2715.668865248297
 31
0.0
  0
LINE
  5
3E6
330
22
100
AcDbEntity
  8
0
100
AcDbLine
 10
11666.43103265256
 20
-2613.270259487006
 30
0.0
 11
11666.43103265256
 21
-2648.270259487006
 31
0.0
  0
LINE
  5
3E7
330
22
100
AcDbEntity
  8
0
100
AcDbLine
 10
12296.4310420403
 20
-2613.270259487006
 30
0.0
 11
12296.4310420403
 21
-2648.270259487006
 31
0.0
  0
LINE
  5
444
330
22
100
AcDbEntity
  8
0
  6
CENTER
100
AcDbLine
 10
11981.43103734643
 20
-2763.270258592937
 30
0.0
 11
11981.43103734643
 21
-2843.270259785029
 31
0.0
  0
ARC
  5
4DC
330
22
100
AcDbEntity
  8
0
100
AcDbCircle
 10
11141.43103734643
 20
-4893.270259487007
 30
0.0
 40
30.0
100
AcDbArc
 50
179.9999813306653
 51
270.00001798609
  0
ARC
  5
4DD
330
22
100
AcDbEntity
  8
0
100
AcDbCircle
 10
11145.58066503198
 20
-2828.270259487006
 30
0.0
 40
5.0
100
AcDbArc
 50
89.99998201391097
 51
169.3798804722873
  0
ARC
  5
4DE
330
22
100
AcDbEntity
  8
0
100
AcDbCircle
 10
11836.12830297143
 20
-2828.270259487006
 30
0.0
 40
5.0
100
AcDbArc
 50
89.99998201391054
 51
176.4237042991579
  0
ARC
  5
4DF
330
22
100
AcDbEntity
  8
0
100
AcDbCircle
 10
12169.61457387597
 20
-2953.270259487006
 30
0.0
 40
30.0
100
AcDbArc
 50
183.5762957008412
 51
270.00001798609
  0
ARC
  5
4E0
330
22
100
AcDbEntity
  8
0
100
AcDbCircle
 10
11793.24750081689
 20
-2953.270259487006
 30
0.0
 40
30.0
100
AcDbArc
 50
270.0000179860901
 51
356.4236871239292
  0
ARC
  5
4E1
330
22
100
AcDbEntity
  8
0
100
AcDbCircle
 10
12821.43103734643
 20
-4893.270259487007
 30
0.0
 40
30.0
100
AcDbArc
 50
269.9999633445766
 51
0.0
  0
ARC
  5
4E2
330
22
100
AcDbEntity
  8
0
100
AcDbCircle
 10
12817.28140966088
 20
-2828.270259487006
 30
0.0
 40
5.0
100
AcDbArc
 50
10.62008355553537
 51
89.99998201391097
  0
ARC
  5
4E3
330
22
100
AcDbEntity
  8
0
100
AcDbCircle
 10
11971.45209209115
 20
-3901.907878505561
 30
0.0
 40
1200.0
100
AcDbArc
 50
103.5105154906316
 51
129.2978032526592
  0
ARC
  5
4E4
330
22
100
AcDbEntity
  8
0
100
AcDbCircle
 10
11991.40998260171
 20
-3901.907878505561
 30
0.0
 40
1200.0
100
AcDbArc
 50
50.70216077516214
 51
76.48948450936837
  0
ARC
  5
4E5
330
22
100
AcDbEntity
  8
0
100
AcDbCircle
 10
12276.43104174227
 20
-2715.668865248297
 30
0.0
 40
20.00000029802322
100
AcDbArc
 50
180.0000000000004
 51
256.4894845093692
  0
ARC
  5
4E6
330
22
100
AcDbEntity
  8
0
100
AcDbCircle
 10
11686.43103295059
 20
-2715.668865248297
 30
0.0
 40
20.00000029802322
100
AcDbArc
 50
283.5105154906321
 51
0.0
  0
ARC
  5
4E7
330
22
100
AcDbEntity
  8
0
100
AcDbCircle
 10
11981.43103734643
 20
-3043.478606535617
 30
0.0
 40
490.2083470486105
100
AcDbArc
 50
61.35456045288176
 51
118.6454395471183
  0
POINT
  5
659
330
22
100
AcDbEntity
  8
2
100
AcDbPoint
 10
14949.10839904693
 20
-1680.790672820019
 30
0.0
  0
POINT
  5
65A
330
22
100
AcDbEntity
  8
2
100
AcDbPoint
 10
14920.44622084109
 20
-1690.790610077911
 30
0.0
  0
POINT
  5
65B
330
22
100
AcDbEntity
  8
2
100
AcDbPoint
 10
14920.44628898304
 20
-1370.790981711183
 30
0.0
  0
POINT
  5
65C
330
22
100
AcDbEntity
  8
2
100
AcDbPoint
 10
14949.10850981872
 20
-1380.790672820018
 30
0.0
  0
POINT
  5
65D
330
22
100
AcDbEntity
  8
2
  6
Continuous
 62
     7
100
AcDbPoint
 10
15775.60709327012
 20
-1530.790977995799
 30
0.0
  0
POINT
  5
661
330
22
100
AcDbEntity
  8
2
  6
Continuous
 62
     7
100
AcDbPoint
 10
15775.60709327012
 20
-840.7909779957984
 30
0.0
  0
POINT
  5
662
330
22
100
AcDbEntity
  8
2
  6
Continuous
 62
     7
100
AcDbPoint
 10
16465.60709327012
 20
-1530.790977995799
 30
0.0
  0
POINT
  5
663
330
22
100
AcDbEntity
  8
2
  6
Continuous
 62
     7
100
AcDbPoint
 10
15775.60709327012
 20
-2220.790977995799
 30
0.0
  0
POINT
  5
66E
330
22
100
AcDbEntity
  8
2
  6
Continuous
 62
     7
100
AcDbPoint
 10
15775.60709327012
 20
-840.7909779957984
 30
0.0
  0
POINT
  5
66F
330
22
100
AcDbEntity
  8
2
  6
Continuous
 62
     7
100
AcDbPoint
 10
15775.60709327012
 20
-2220.790977995799
 30
0.0
  0
POINT
  5
670
330
22
100
AcDbEntity
  8
2
  6
Continuous
 62
     7
100
AcDbPoint
 10
16465.60709327012
 20
-1530.790977995799
 30
0.0
  0
LINE
  5
672
330
22
100
AcDbEntity
  8
2
  6
CENTER
100
AcDbLine
 10
16696.24749599152
 20
-1530.790977995799
 30
0.0
 11
14846.12858190033
 21
-1530.790977995799
 31
0.0
  0
LINE
  5
673
330
22
100
AcDbEntity
  8
2
  6
CENTER
100
AcDbLine
 10
15775.60709327012
 20
-2459.971397684243
 30
0.0
 11
15775.60709327012
 21
-530.790977995799
 31
0.0
  0
LINE
  5
674
330
22
100
AcDbEntity
  8
2
100
AcDbLine
 10
15625.6073984459
 20
-990.7909779957984
 30
0.0
 11
15625.6073984459
 21
-704.2922597340808
 31
0.0
  0
LINE
  5
675
330
22
100
AcDbEntity
  8
2
100
AcDbLine
 10
15925.60739844591
 20
-990.7909779957984
 30
0.0
 11
15925.60739844591
 21
-704.2922597340808
 31
0.0
  0
LINE
  5
676
330
22
100
AcDbEntity
  8
2
100
AcDbLine
 10
15935.60701472402
 20
-675.6303881892414
 30
0.0
 11
15925.60702485114
 21
-704.2924532675485
 31
0.0
  0
LINE
  5
677
330
22
100
AcDbEntity
  8
2
100
AcDbLine
 10
15615.6068388543
 20
-675.6302085684345
 30
0.0
 11
15625.60681904895
 21
-704.2922770234028
 31
0.0
  0
LINE
  5
678
330
22
100
AcDbEntity
  8
2
100
AcDbLine
 10
15935.60692479256
 20
-675.6301593108124
 30
0.0
 11
15925.60686208572
 21
-990.7907618290849
 31
0.0
  0
LINE
  5
679
330
22
100
AcDbEntity
  8
2
100
AcDbLine
 10
15625.60739166082
 20
-990.7909830536265
 30
0.0
 11
15615.60746009265
 21
-675.630071044981
 31
0.0
  0
LINE
  5
67A
330
22
100
AcDbEntity
  8
2
100
AcDbLine
 10
15235.60709327012
 20
-1380.790977995799
 30
0.0
 11
14949.10837500841
 21
-1380.790977995799
 31
0.0
  0
LINE
  5
67B
330
22
100
AcDbEntity
  8
2
100
AcDbLine
 10
14920.4463013519
 20
-1370.790900981073
 30
0.0
 11
14949.10836811854
 21
-1380.790886014839
 31
0.0
  0
LINE
  5
67C
330
22
100
AcDbEntity
  8
2
100
AcDbLine
 10
14920.4462491084
 20
-1690.791012821953
 30
0.0
 11
14949.10831587503
 21
-1680.791027788184
 31
0.0
  0
LINE
  5
67D
330
22
100
AcDbEntity
  8
2
100
AcDbLine
 10
15235.60709327012
 20
-1680.790977995798
 30
0.0
 11
14949.10837500841
 21
-1680.790977995798
 31
0.0
  0
LINE
  5
67E
330
22
100
AcDbEntity
  8
2
100
AcDbLine
 10
15235.60711451785
 20
-1680.791003861203
 30
0.0
 11
14920.44635725439
 21
-1690.79100099874
 31
0.0
  0
LINE
  5
67F
330
22
100
AcDbEntity
  8
2
100
AcDbLine
 10
14920.44620898512
 20
-1370.791039216389
 30
0.0
 11
15235.60711875973
 21
-1380.791041193079
 31
0.0
  0
LINE
  5
680
330
22
100
AcDbEntity
  8
2
100
AcDbLine
 10
15625.60678809434
 20
-2070.790977995799
 30
0.0
 11
15625.60678809434
 21
-2357.289696257518
 31
0.0
  0
LINE
  5
681
330
22
100
AcDbEntity
  8
2
100
AcDbLine
 10
15615.6070437577
 20
-2385.951576401514
 30
0.0
 11
15625.6070304045
 21
-2357.289510197652
 31
0.0
  0
LINE
  5
682
330
22
100
AcDbEntity
  8
2
100
AcDbLine
 10
15935.60719549633
 20
-2385.951787048745
 30
0.0
 11
15925.6072120756
 21
-2357.28971971933
 31
0.0
  0
LINE
  5
683
330
22
100
AcDbEntity
  8
2
100
AcDbLine
 10
15925.60678809434
 20
-2070.790977995799
 30
0.0
 11
15925.60678809434
 21
-2357.289696257518
 31
0.0
  0
LINE
  5
684
330
22
100
AcDbEntity
  8
2
100
AcDbLine
 10
15925.60685422384
 20
-2070.791095707883
 30
0.0
 11
15935.60682789188
 21
-2385.95185371603
 31
0.0
  0
LINE
  5
685
330
22
100
AcDbEntity
  8
2
100
AcDbLine
 10
15615.60711988406
 20
-2385.952028208604
 30
0.0
 11
15625.60714533026
 21
-2070.791119178685
 31
0.0
  0
LINE
  5
686
330
22
100
AcDbEntity
  8
2
100
AcDbLine
 10
16315.60709327012
 20
-1680.791588347363
 30
0.0
 11
16602.10581153184
 21
-1680.791588347363
 31
0.0
  0
LINE
  5
687
330
22
100
AcDbEntity
  8
2
100
AcDbLine
 10
16630.76754237101
 20
-1690.790894278064
 30
0.0
 11
16602.10547672993
 21
-1680.790906018225
 31
0.0
  0
LINE
  5
688
330
22
100
AcDbEntity
  8
2
100
AcDbLine
 10
16630.76782933256
 20
-1370.791105765829
 30
0.0
 11
16602.10576144037
 21
-1380.791087573522
 31
0.0
  0
LINE
  5
689
330
22
100
AcDbEntity
  8
2
100
AcDbLine
 10
16315.60709327012
 20
-1380.791588347362
 30
0.0
 11
16602.10581153184
 21
-1380.791588347362
 31
0.0
  0
LINE
  5
68A
330
22
100
AcDbEntity
  8
2
100
AcDbLine
 10
16315.60712639351
 20
-1380.791193314353
 30
0.0
 11
16630.76803765748
 21
-1370.791238276675
 31
0.0
  0
LINE
  5
68B
330
22
100
AcDbEntity
  8
2
100
AcDbLine
 10
16630.76771825229
 20
-1690.790991498416
 30
0.0
 11
16315.60711498933
 21
-1680.790952261065
 31
0.0
  0
ARC
  5
6FF
330
22
100
AcDbEntity
  8
2
100
AcDbCircle
 10
15775.60709327012
 20
-1530.790977995799
 30
0.0
 40
840.0
100
AcDbArc
 50
79.71347123706134
 51
100.2865474322733
  0
ARC
  5
700
330
22
100
AcDbEntity
  8
2
100
AcDbCircle
 10
15775.60709327012
 20
-1530.790977995799
 30
0.0
 40
840.0
100
AcDbArc
 50
169.713453250972
 51
190.2865294461847
  0
ARC
  5
701
330
22
100
AcDbEntity
  8
2
100
AcDbCircle
 10
15775.60709327012
 20
-1530.790977995799
 30
0.0
 40
840.0
100
AcDbArc
 50
259.7134798884841
 51
280.286556083696
  0
ARC
  5
702
330
22
100
AcDbEntity
  8
2
100
AcDbCircle
 10
15775.60709327012
 20
-1530.790977995799
 30
0.0
 40
840.0
100
AcDbArc
 50
349.7134755627731
 51
10.28655175798436
  0
ARC
  5
704
330
22
100
AcDbEntity
  8
2
100
AcDbCircle
 10
15775.60709327012
 20
-1530.790977995795
 30
0.0
 40
770.0000000000041
100
AcDbArc
 50
281.7486127170509
 51
348.2513773830768
  0
ARC
  5
705
330
22
100
AcDbEntity
  8
2
100
AcDbCircle
 10
15775.60709327012
 20
-1530.790977995799
 30
0.0
 40
770.0
100
AcDbArc
 50
191.7486170427617
 51
258.2513686136161
  0
ARC
  5
706
330
22
100
AcDbEntity
  8
2
  6
CENTER
100
AcDbCircle
 10
15775.60709327012
 20
-1530.790977995799
 30
0.0
 40
690.0
100
AcDbArc
 50
18.33523498866534
 51
341.6748452421612
  0
ARC
  5
707
330
22
100
AcDbEntity
  8
2
100
AcDbCircle
 10
15775.60709327012
 20
-1530.790977995799
 30
0.0
 40
539.9999955296514
100
AcDbArc
 50
169.713453250972
 51
190.2865294461847
  0
ARC
  5
708
330
22
100
AcDbEntity
  8
2
100
AcDbCircle
 10
15775.60709327012
 20
-1530.790977995799
 30
0.0
 40
539.9999955296514
100
AcDbArc
 50
259.7134798884841
 51
280.286556083696
  0
ARC
  5
709
330
22
100
AcDbEntity
  8
2
100
AcDbCircle
 10
15775.60709327012
 20
-1530.790977995799
 30
0.0
 40
539.9999955296514
100
AcDbArc
 50
349.7134755627731
 51
10.28655175798435
  0
ARC
  5
70A
330
22
100
AcDbEntity
  8
2
100
AcDbCircle
 10
15775.60709327012
 20
-1530.790977995799
 30
0.0
 40
539.9999955296514
100
AcDbArc
 50
79.71347123706133
 51
100.2865474322734
  0
CIRCLE
  5
70B
330
22
100
AcDbEntity
  8
2
100
AcDbCircle
 10
15775.60709327012
 20
-1530.790977995799
 30
0.0
 40
315.0000046938658
  0
CIRCLE
  5
70C
330
22
100
AcDbEntity
  8
2
100
AcDbCircle
 10
15775.60709327012
 20
-1530.790977995799
 30
0.0
 40
235.0000035017728
  0
ARC
  5
72F
330
22
100
AcDbEntity
  8
2
100
AcDbCircle
 10
15775.60709327013
 20
-1530.7909779958
 30
0.0
 40
770.0000000000009
100
AcDbArc
 50
101.7486177260063
 51
168.2514375987523
  0
LINE
  5
8FB
330
22
100
AcDbEntity
  8
0
  6
Continuous
100
AcDbLine
 10
10119.34214343159
 20
-40.30026222538071
 30
0.0
 11
10259.34214343159
 21
-40.30026222538071
 31
0.0
  0
LINE
  5
8FC
330
22
100
AcDbEntity
  8
0
  6
Continuous
100
AcDbLine
 10
10259.34214343159
 20
-40.30026222538071
 30
0.0
 11
10361.74214343157
 21
-40.30026222538071
 31
0.0
  0
LINE
  5
8FD
330
22
100
AcDbEntity
  8
0
  6
Continuous
100
AcDbLine
 10
10119.34214343159
 20
-40.30026222538071
 30
0.0
 11
10119.34214343159
 21
-176.0335955587134
 31
0.0
  0
LINE
  5
8FE
330
22
100
AcDbEntity
  8
0
  6
Continuous
100
AcDbLine
 10
10361.74214343157
 20
-40.30026222538071
 30
0.0
 11
10501.74214343157
 21
-40.30026222538071
 31
0.0
  0
LINE
  5
8FF
330
22
100
AcDbEntity
  8
0
  6
Continuous
100
AcDbLine
 10
10501.74214343157
 20
-40.30026222538071
 30
0.0
 11
10641.74214343157
 21
-40.30026222538071
 31
0.0
  0
LINE
  5
900
330
22
100
AcDbEntity
  8
0
  6
Continuous
100
AcDbLine
 10
10641.74214343157
 20
-40.30026222538071
 30
0.0
 11
10781.74214343157
 21
-40.30026222538071
 31
0.0
  0
LINE
  5
901
330
22
100
AcDbEntity
  8
0
  6
Continuous
100
AcDbLine
 10
10781.74214343157
 20
-40.30026222538071
 30
0.0
 11
10921.74214343157
 21
-40.30026222538071
 31
0.0
  0
LINE
  5
902
330
22
100
AcDbEntity
  8
0
  6
Continuous
100
AcDbLine
 10
10921.74214343157
 20
-40.30026222538071
 30
0.0
 11
11061.74214343157
 21
-40.30026222538071
 31
0.0
  0
LINE
  5
903
330
22
100
AcDbEntity
  8
0
  6
Continuous
100
AcDbLine
 10
11061.74214343157
 20
-40.30026222538071
 30
0.0
 11
11201.74214343157
 21
-40.30026222538071
 31
0.0
  0
LINE
  5
904
330
22
100
AcDbEntity
  8
0
  6
Continuous
100
AcDbLine
 10
11201.74214343157
 20
-40.30026222538071
 30
0.0
 11
11341.74214343157
 21
-40.30026222538071
 31
0.0
  0
LINE
  5
905
330
22
100
AcDbEntity
  8
0
  6
Continuous
100
AcDbLine
 10
11341.74214343157
 20
-40.30026222538071
 30
0.0
 11
11481.74214343157
 21
-40.30026222538071
 31
0.0
  0
LINE
  5
906
330
22
100
AcDbEntity
  8
0
  6
Continuous
100
AcDbLine
 10
10361.74214343157
 20
-40.30026222538071
 30
0.0
 11
10361.74214343157
 21
-176.0335955587134
 31
0.0
  0
LINE
  5
907
330
22
100
AcDbEntity
  8
0
  6
Continuous
100
AcDbLine
 10
11481.74214343157
 20
-40.30026222538071
 30
0.0
 11
11621.74214343157
 21
-40.30026222538071
 31
0.0
  0
LINE
  5
908
330
22
100
AcDbEntity
  8
0
  6
Continuous
100
AcDbLine
 10
11621.74214343157
 20
-40.30026222538071
 30
0.0
 11
11761.74214343157
 21
-40.30026222538071
 31
0.0
  0
LINE
  5
909
330
22
100
AcDbEntity
  8
0
  6
Continuous
100
AcDbLine
 10
11761.74214343157
 20
-40.30026222538071
 30
0.0
 11
11901.74214343157
 21
-40.30026222538071
 31
0.0
  0
LINE
  5
90A
330
22
100
AcDbEntity
  8
0
  6
Continuous
100
AcDbLine
 10
11481.74214343157
 20
-40.30026222538071
 30
0.0
 11
11481.74214343157
 21
-176.0335955587134
 31
0.0
  0
LINE
  5
90B
330
22
100
AcDbEntity
  8
0
  6
Continuous
100
AcDbLine
 10
11901.74214343157
 20
-40.30026222538071
 30
0.0
 11
12041.74214343157
 21
-40.30026222538071
 31
0.0
  0
LINE
  5
90C
330
22
100
AcDbEntity
  8
0
  6
Continuous
100
AcDbLine
 10
12041.74214343157
 20
-40.30026222538071
 30
0.0
 11
12181.74214343157
 21
-40.30026222538071
 31
0.0
  0
LINE
  5
90D
330
22
100
AcDbEntity
  8
0
  6
Continuous
100
AcDbLine
 10
11901.74214343157
 20
-40.30026222538071
 30
0.0
 11
11901.74214343157
 21
-176.0335955587134
 31
0.0
  0
LINE
  5
90E
330
22
100
AcDbEntity
  8
0
  6
Continuous
100
AcDbLine
 10
12181.74214343157
 20
-40.30026222538071
 30
0.0
 11
12181.74214343157
 21
-176.0335955587134
 31
0.0
  0
LINE
  5
90F
330
22
100
AcDbEntity
  8
0
  6
Continuous
100
AcDbLine
 10
10119.34214343159
 20
-176.0335955587134
 30
0.0
 11
10259.34214343159
 21
-176.0335955587134
 31
0.0
  0
LINE
  5
910
330
22
100
AcDbEntity
  8
0
  6
Continuous
100
AcDbLine
 10
10259.34214343159
 20
-176.0335955587134
 30
0.0
 11
10361.74214343157
 21
-176.0335955587134
 31
0.0
  0
LINE
  5
911
330
22
100
AcDbEntity
  8
0
  6
Continuous
100
AcDbLine
 10
10361.74214343157
 20
-176.0335955587134
 30
0.0
 11
10501.74214343157
 21
-176.0335955587134
 31
0.0
  0
LINE
  5
912
330
22
100
AcDbEntity
  8
0
  6
Continuous
100
AcDbLine
 10
10501.74214343157
 20
-176.0335955587134
 30
0.0
 11
10641.74214343157
 21
-176.0335955587134
 31
0.0
  0
LINE
  5
913
330
22
100
AcDbEntity
  8
0
  6
Continuous
100
AcDbLine
 10
10641.74214343157
 20
-176.0335955587134
 30
0.0
 11
10781.74214343157
 21
-176.0335955587134
 31
0.0
  0
LINE
  5
914
330
22
100
AcDbEntity
  8
0
  6
Continuous
100
AcDbLine
 10
10781.74214343157
 20
-176.0335955587134
 30
0.0
 11
10921.74214343157
 21
-176.0335955587134
 31
0.0
  0
LINE
  5
915
330
22
100
AcDbEntity
  8
0
  6
Continuous
100
AcDbLine
 10
10921.74214343157
 20
-176.0335955587134
 30
0.0
 11
11061.74214343157
 21
-176.0335955587134
 31
0.0
  0
LINE
  5
916
330
22
100
AcDbEntity
  8
0
  6
Continuous
100
AcDbLine
 10
11061.74214343157
 20
-176.0335955587134
 30
0.0
 11
11201.74214343157
 21
-176.0335955587134
 31
0.0
  0
LINE
  5
917
330
22
100
AcDbEntity
  8
0
  6
Continuous
100
AcDbLine
 10
11201.74214343157
 20
-176.0335955587134
 30
0.0
 11
11341.74214343157
 21
-176.0335955587134
 31
0.0
  0
LINE
  5
918
330
22
100
AcDbEntity
  8
0
  6
Continuous
100
AcDbLine
 10
11341.74214343157
 20
-176.0335955587134
 30
0.0
 11
11481.74214343157
 21
-176.0335955587134
 31
0.0
  0
LINE
  5
919
330
22
100
AcDbEntity
  8
0
  6
Continuous
100
AcDbLine
 10
11481.74214343157
 20
-176.0335955587134
 30
0.0
 11
11621.74214343157
 21
-176.0335955587134
 31
0.0
  0
LINE
  5
91A
330
22
100
AcDbEntity
  8
0
  6
Continuous
100
AcDbLine
 10
11621.74214343157
 20
-176.0335955587134
 30
0.0
 11
11761.74214343157
 21
-176.0335955587134
 31
0.0
  0
LINE
  5
91B
330
22
100
AcDbEntity
  8
0
  6
Continuous
100
AcDbLine
 10
11761.74214343157
 20
-176.0335955587134
 30
0.0
 11
11901.74214343157
 21
-176.0335955587134
 31
0.0
  0
LINE
  5
91C
330
22
100
AcDbEntity
  8
0
  6
Continuous
100
AcDbLine
 10
11901.74214343157
 20
-176.0335955587134
 30
0.0
 11
12041.74214343157
 21
-176.0335955587134
 31
0.0
  0
LINE
  5
91D
330
22
100
AcDbEntity
  8
0
  6
Continuous
100
AcDbLine
 10
12041.74214343157
 20
-176.0335955587134
 30
0.0
 11
12181.74214343157
 21
-176.0335955587134
 31
0.0
  0
TEXT
  5
91E
330
22
100
AcDbEntity
  8
0
  6
Continuous
100
AcDbText
 10
10155.67314858179
 20
-137.373977596631
 30
0.0
 40
64.0
  1
記 号
100
AcDbText
  0
TEXT
  5
91F
330
22
100
AcDbEntity
  8
0
  6
Continuous
100
AcDbText
 10
10538.93105337805
 20
-139.2157849389461
 30
0.0
 40
64.0
  1
来　　　　　　　　歴
100
AcDbText
  0
TEXT
  5
920
330
22
100
AcDbEntity
  8
0
  6
Continuous
100
AcDbText
 10
11506.51759410702
 20
-139.1423591984799
 30
0.0
 40
64.0
  1
年・月・日
100
AcDbText
  0
TEXT
  5
921
330
22
100
AcDbEntity
  8
0
  6
Continuous
100
AcDbText
 10
11952.62462261921
 20
-136.3993583072913
 30
0.0
 40
64.0
  1
記 入
100
AcDbText
  0
LWPOLYLINE
  5
922
330
22
100
AcDbEntity
  8
0
  6
Continuous
100
AcDbPolyline
 90
        4
 70
     1
 43
0.0
 10
10119.34214343159
 20
-40.30026222538071
 10
18179.3421434316
 20
-40.30026222538071
 10
18179.3421434316
 20
-5640.30026222538
 10
10119.34214343159
 20
-5640.30026222538
  0
LWPOLYLINE
  5
923
330
22
100
AcDbEntity
  8
0
  6
Continuous
100
AcDbPolyline
 90
        4
 70
     1
 43
0.0
 10
9919.342143431597
 20
159.6997377746192
 10
18379.3421434316
 20
159.6997377746192
 10
18379.3421434316
 20
-5840.300262225381
 10
9919.342143431597
 20
-5840.300262225381
  0
LINE
  5
924
330
22
100
AcDbEntity
  8
0
  6
Continuous
100
AcDbLine
 10
15519.34214343159
 20
-4690.166928892047
 30
0.0
 11
15519.34214343159
 21
-4825.900262225381
 31
0.0
  0
LINE
  5
925
330
22
100
AcDbEntity
  8
0
  6
Continuous
100
AcDbLine
 10
15799.34214343159
 20
-4690.166928892047
 30
0.0
 11
15799.34214343159
 21
-4825.900262225381
 31
0.0
  0
LINE
  5
926
330
22
100
AcDbEntity
  8
0
  6
Continuous
100
AcDbLine
 10
16079.34214343159
 20
-4690.166928892047
 30
0.0
 11
16079.34214343159
 21
-4825.900262225381
 31
0.0
  0
LINE
  5
927
330
22
100
AcDbEntity
  8
0
  6
Continuous
100
AcDbLine
 10
16359.34214343159
 20
-4690.166928892047
 30
0.0
 11
16359.34214343159
 21
-4825.900262225381
 31
0.0
  0
LINE
  5
928
330
22
100
AcDbEntity
  8
0
  6
Continuous
100
AcDbLine
 10
16639.34214343159
 20
-4690.166928892047
 30
0.0
 11
16639.34214343159
 21
-4825.900262225381
 31
0.0
  0
LINE
  5
929
330
22
100
AcDbEntity
  8
0
  6
Continuous
100
AcDbLine
 10
16639.34214343159
 20
-4825.900262225381
 30
0.0
 11
16639.34214343159
 21
-4961.633595558715
 31
0.0
  0
LINE
  5
92A
330
22
100
AcDbEntity
  8
0
  6
Continuous
100
AcDbLine
 10
16639.34214343159
 20
-4961.633595558715
 30
0.0
 11
16639.34214343159
 21
-5097.366928892048
 31
0.0
  0
LINE
  5
92B
330
22
100
AcDbEntity
  8
0
  6
Continuous
100
AcDbLine
 10
16639.34214343159
 20
-5097.366928892048
 30
0.0
 11
16639.34214343159
 21
-5233.10026222538
 31
0.0
  0
LINE
  5
92C
330
22
100
AcDbEntity
  8
0
  6
Continuous
100
AcDbLine
 10
16639.34214343159
 20
-5233.10026222538
 30
0.0
 11
16639.34214343159
 21
-5368.833595558715
 31
0.0
  0
LINE
  5
92D
330
22
100
AcDbEntity
  8
0
  6
Continuous
100
AcDbLine
 10
16779.34214343159
 20
-4690.166928892047
 30
0.0
 11
16779.34214343159
 21
-4825.900262225381
 31
0.0
  0
LINE
  5
92E
330
22
100
AcDbEntity
  8
0
  6
Continuous
100
AcDbLine
 10
18179.34214343159
 20
-4690.166928892047
 30
0.0
 11
18179.34214343159
 21
-4825.900262225381
 31
0.0
  0
LINE
  5
92F
330
22
100
AcDbEntity
  8
0
  6
Continuous
100
AcDbLine
 10
16779.34214343159
 20
-4825.900262225381
 30
0.0
 11
16779.34214343159
 21
-4961.633595558715
 31
0.0
  0
LINE
  5
930
330
22
100
AcDbEntity
  8
0
  6
Continuous
100
AcDbLine
 10
18179.34214343159
 20
-4825.900262225381
 30
0.0
 11
18179.34214343159
 21
-4961.633595558715
 31
0.0
  0
LINE
  5
931
330
22
100
AcDbEntity
  8
0
  6
Continuous
100
AcDbLine
 10
16779.34214343159
 20
-4961.633595558715
 30
0.0
 11
16779.34214343159
 21
-5097.366928892048
 31
0.0
  0
LINE
  5
932
330
22
100
AcDbEntity
  8
0
  6
Continuous
100
AcDbLine
 10
18179.34214343159
 20
-4961.633595558715
 30
0.0
 11
18179.34214343159
 21
-5097.366928892048
 31
0.0
  0
LINE
  5
933
330
22
100
AcDbEntity
  8
0
  6
Continuous
100
AcDbLine
 10
16779.34214343159
 20
-5097.366928892048
 30
0.0
 11
16779.34214343159
 21
-5233.10026222538
 31
0.0
  0
LINE
  5
934
330
22
100
AcDbEntity
  8
0
  6
Continuous
100
AcDbLine
 10
18179.34214343159
 20
-5097.366928892048
 30
0.0
 11
18179.34214343159
 21
-5233.10026222538
 31
0.0
  0
LINE
  5
935
330
22
100
AcDbEntity
  8
0
  6
Continuous
100
AcDbLine
 10
16779.34214343159
 20
-5233.10026222538
 30
0.0
 11
16779.34214343159
 21
-5368.833595558715
 31
0.0
  0
LINE
  5
936
330
22
100
AcDbEntity
  8
0
  6
Continuous
100
AcDbLine
 10
18179.34214343159
 20
-5233.10026222538
 30
0.0
 11
18179.34214343159
 21
-5368.833595558715
 31
0.0
  0
LINE
  5
937
330
22
100
AcDbEntity
  8
0
  6
Continuous
100
AcDbLine
 10
15519.34214343159
 20
-4825.900262225381
 30
0.0
 11
15659.34214343159
 21
-4825.900262225381
 31
0.0
  0
LINE
  5
938
330
22
100
AcDbEntity
  8
0
  6
Continuous
100
AcDbLine
 10
15659.34214343159
 20
-4825.900262225381
 30
0.0
 11
15799.34214343159
 21
-4825.900262225381
 31
0.0
  0
LINE
  5
939
330
22
100
AcDbEntity
  8
0
  6
Continuous
100
AcDbLine
 10
15519.34214343159
 20
-4825.900262225381
 30
0.0
 11
15519.34214343159
 21
-4961.633595558715
 31
0.0
  0
LINE
  5
93A
330
22
100
AcDbEntity
  8
0
  6
Continuous
100
AcDbLine
 10
15519.34214343159
 20
-4961.633595558715
 30
0.0
 11
15519.34214343159
 21
-5097.366928892048
 31
0.0
  0
LINE
  5
93B
330
22
100
AcDbEntity
  8
0
  6
Continuous
100
AcDbLine
 10
15799.34214343159
 20
-4825.900262225381
 30
0.0
 11
15939.34214343159
 21
-4825.900262225381
 31
0.0
  0
LINE
  5
93C
330
22
100
AcDbEntity
  8
0
  6
Continuous
100
AcDbLine
 10
15939.34214343159
 20
-4825.900262225381
 30
0.0
 11
16079.34214343159
 21
-4825.900262225381
 31
0.0
  0
LINE
  5
93D
330
22
100
AcDbEntity
  8
0
  6
Continuous
100
AcDbLine
 10
15799.34214343159
 20
-4825.900262225381
 30
0.0
 11
15799.34214343159
 21
-4961.633595558715
 31
0.0
  0
LINE
  5
93E
330
22
100
AcDbEntity
  8
0
  6
Continuous
100
AcDbLine
 10
15799.34214343159
 20
-4961.633595558715
 30
0.0
 11
15799.34214343159
 21
-5097.366928892048
 31
0.0
  0
LINE
  5
93F
330
22
100
AcDbEntity
  8
0
  6
Continuous
100
AcDbLine
 10
16079.34214343159
 20
-4825.900262225381
 30
0.0
 11
16219.34214343159
 21
-4825.900262225381
 31
0.0
  0
LINE
  5
940
330
22
100
AcDbEntity
  8
0
  6
Continuous
100
AcDbLine
 10
16219.34214343159
 20
-4825.900262225381
 30
0.0
 11
16359.34214343159
 21
-4825.900262225381
 31
0.0
  0
LINE
  5
941
330
22
100
AcDbEntity
  8
0
  6
Continuous
100
AcDbLine
 10
16079.34214343159
 20
-4825.900262225381
 30
0.0
 11
16079.34214343159
 21
-4961.633595558715
 31
0.0
  0
LINE
  5
942
330
22
100
AcDbEntity
  8
0
  6
Continuous
100
AcDbLine
 10
16079.34214343159
 20
-4961.633595558715
 30
0.0
 11
16079.34214343159
 21
-5097.366928892048
 31
0.0
  0
LINE
  5
943
330
22
100
AcDbEntity
  8
0
  6
Continuous
100
AcDbLine
 10
16359.34214343159
 20
-4825.900262225381
 30
0.0
 11
16499.34214343159
 21
-4825.900262225381
 31
0.0
  0
LINE
  5
944
330
22
100
AcDbEntity
  8
0
  6
Continuous
100
AcDbLine
 10
16499.34214343159
 20
-4825.900262225381
 30
0.0
 11
16639.34214343159
 21
-4825.900262225381
 31
0.0
  0
LINE
  5
945
330
22
100
AcDbEntity
  8
0
  6
Continuous
100
AcDbLine
 10
16359.34214343159
 20
-4825.900262225381
 30
0.0
 11
16359.34214343159
 21
-4961.633595558715
 31
0.0
  0
LINE
  5
946
330
22
100
AcDbEntity
  8
0
  6
Continuous
100
AcDbLine
 10
16359.34214343159
 20
-4961.633595558715
 30
0.0
 11
16359.34214343159
 21
-5097.366928892048
 31
0.0
  0
LINE
  5
947
330
22
100
AcDbEntity
  8
0
  6
Continuous
100
AcDbLine
 10
15519.34214343159
 20
-5097.366928892048
 30
0.0
 11
15659.34214343159
 21
-5097.366928892048
 31
0.0
  0
LINE
  5
948
330
22
100
AcDbEntity
  8
0
  6
Continuous
100
AcDbLine
 10
15519.34214343159
 20
-5097.366928892048
 30
0.0
 11
15519.34214343159
 21
-5233.10026222538
 31
0.0
  0
LINE
  5
949
330
22
100
AcDbEntity
  8
0
  6
Continuous
100
AcDbLine
 10
15519.34214343159
 20
-5233.10026222538
 30
0.0
 11
15519.34214343159
 21
-5368.833595558715
 31
0.0
  0
LINE
  5
94A
330
22
100
AcDbEntity
  8
0
  6
Continuous
100
AcDbLine
 10
15659.34214343159
 20
-5097.366928892048
 30
0.0
 11
15799.34214343159
 21
-5097.366928892048
 31
0.0
  0
LINE
  5
94B
330
22
100
AcDbEntity
  8
0
  6
Continuous
100
AcDbLine
 10
15799.34214343159
 20
-5097.366928892048
 30
0.0
 11
15939.34214343159
 21
-5097.366928892048
 31
0.0
  0
LINE
  5
94C
330
22
100
AcDbEntity
  8
0
  6
Continuous
100
AcDbLine
 10
15939.34214343159
 20
-5097.366928892048
 30
0.0
 11
16079.34214343159
 21
-5097.366928892048
 31
0.0
  0
LINE
  5
94D
330
22
100
AcDbEntity
  8
0
  6
Continuous
100
AcDbLine
 10
15659.34214343159
 20
-5097.366928892048
 30
0.0
 11
15659.34214343159
 21
-5233.10026222538
 31
0.0
  0
LINE
  5
94E
330
22
100
AcDbEntity
  8
0
  6
Continuous
100
AcDbLine
 10
15659.34214343159
 20
-5233.10026222538
 30
0.0
 11
15659.34214343159
 21
-5368.833595558715
 31
0.0
  0
LINE
  5
94F
330
22
100
AcDbEntity
  8
0
  6
Continuous
100
AcDbLine
 10
16079.34214343159
 20
-5097.366928892048
 30
0.0
 11
16219.34214343159
 21
-5097.366928892048
 31
0.0
  0
LINE
  5
950
330
22
100
AcDbEntity
  8
0
  6
Continuous
100
AcDbLine
 10
16079.34214343159
 20
-5097.366928892048
 30
0.0
 11
16079.34214343159
 21
-5233.10026222538
 31
0.0
  0
LINE
  5
951
330
22
100
AcDbEntity
  8
0
  6
Continuous
100
AcDbLine
 10
16079.34214343159
 20
-5233.10026222538
 30
0.0
 11
16079.34214343159
 21
-5368.833595558715
 31
0.0
  0
LINE
  5
952
330
22
100
AcDbEntity
  8
0
  6
Continuous
100
AcDbLine
 10
16219.34214343159
 20
-5097.366928892048
 30
0.0
 11
16359.34214343159
 21
-5097.366928892048
 31
0.0
  0
LINE
  5
953
330
22
100
AcDbEntity
  8
0
  6
Continuous
100
AcDbLine
 10
16359.34214343159
 20
-5097.366928892048
 30
0.0
 11
16499.34214343159
 21
-5097.366928892048
 31
0.0
  0
LINE
  5
954
330
22
100
AcDbEntity
  8
0
  6
Continuous
100
AcDbLine
 10
16499.34214343159
 20
-5097.366928892048
 30
0.0
 11
16639.34214343159
 21
-5097.366928892048
 31
0.0
  0
LINE
  5
955
330
22
100
AcDbEntity
  8
0
  6
Continuous
100
AcDbLine
 10
16219.34214343159
 20
-5097.366928892048
 30
0.0
 11
16219.34214343159
 21
-5233.10026222538
 31
0.0
  0
LINE
  5
956
330
22
100
AcDbEntity
  8
0
  6
Continuous
100
AcDbLine
 10
16219.34214343159
 20
-5233.10026222538
 30
0.0
 11
16219.34214343159
 21
-5368.833595558715
 31
0.0
  0
LINE
  5
957
330
22
100
AcDbEntity
  8
0
  6
Continuous
100
AcDbLine
 10
15519.34214343159
 20
-5368.833595558715
 30
0.0
 11
15659.34214343159
 21
-5368.833595558715
 31
0.0
  0
LINE
  5
958
330
22
100
AcDbEntity
  8
0
  6
Continuous
100
AcDbLine
 10
15519.34214343159
 20
-5640.30026222538
 30
0.0
 11
15659.34214343159
 21
-5640.30026222538
 31
0.0
  0
LINE
  5
959
330
22
100
AcDbEntity
  8
0
  6
Continuous
100
AcDbLine
 10
15659.34214343159
 20
-5368.833595558715
 30
0.0
 11
15799.34214343159
 21
-5368.833595558715
 31
0.0
  0
LINE
  5
95A
330
22
100
AcDbEntity
  8
0
  6
Continuous
100
AcDbLine
 10
15659.34214343159
 20
-5640.30026222538
 30
0.0
 11
15799.34214343159
 21
-5640.30026222538
 31
0.0
  0
LINE
  5
95B
330
22
100
AcDbEntity
  8
0
  6
Continuous
100
AcDbLine
 10
15799.34214343159
 20
-5368.833595558715
 30
0.0
 11
15939.34214343159
 21
-5368.833595558715
 31
0.0
  0
LINE
  5
95C
330
22
100
AcDbEntity
  8
0
  6
Continuous
100
AcDbLine
 10
15799.34214343159
 20
-5640.30026222538
 30
0.0
 11
15939.34214343159
 21
-5640.30026222538
 31
0.0
  0
LINE
  5
95D
330
22
100
AcDbEntity
  8
0
  6
Continuous
100
AcDbLine
 10
15939.34214343159
 20
-5368.833595558715
 30
0.0
 11
16079.34214343159
 21
-5368.833595558715
 31
0.0
  0
LINE
  5
95E
330
22
100
AcDbEntity
  8
0
  6
Continuous
100
AcDbLine
 10
15939.34214343159
 20
-5640.30026222538
 30
0.0
 11
16079.34214343159
 21
-5640.30026222538
 31
0.0
  0
LINE
  5
95F
330
22
100
AcDbEntity
  8
0
  6
Continuous
100
AcDbLine
 10
16079.34214343159
 20
-5368.833595558715
 30
0.0
 11
16219.34214343159
 21
-5368.833595558715
 31
0.0
  0
LINE
  5
960
330
22
100
AcDbEntity
  8
0
  6
Continuous
100
AcDbLine
 10
16079.34214343159
 20
-5640.30026222538
 30
0.0
 11
16219.34214343159
 21
-5640.30026222538
 31
0.0
  0
LINE
  5
961
330
22
100
AcDbEntity
  8
0
  6
Continuous
100
AcDbLine
 10
16219.34214343159
 20
-5368.833595558715
 30
0.0
 11
16359.34214343159
 21
-5368.833595558715
 31
0.0
  0
LINE
  5
962
330
22
100
AcDbEntity
  8
0
  6
Continuous
100
AcDbLine
 10
16219.34214343159
 20
-5640.30026222538
 30
0.0
 11
16359.34214343159
 21
-5640.30026222538
 31
0.0
  0
LINE
  5
963
330
22
100
AcDbEntity
  8
0
  6
Continuous
100
AcDbLine
 10
16359.34214343159
 20
-5368.833595558715
 30
0.0
 11
16499.34214343159
 21
-5368.833595558715
 31
0.0
  0
LINE
  5
964
330
22
100
AcDbEntity
  8
0
  6
Continuous
100
AcDbLine
 10
16359.34214343159
 20
-5640.30026222538
 30
0.0
 11
16499.34214343159
 21
-5640.30026222538
 31
0.0
  0
LINE
  5
965
330
22
100
AcDbEntity
  8
0
  6
Continuous
100
AcDbLine
 10
16499.34214343159
 20
-5368.833595558715
 30
0.0
 11
16639.34214343159
 21
-5368.833595558715
 31
0.0
  0
LINE
  5
966
330
22
100
AcDbEntity
  8
0
  6
Continuous
100
AcDbLine
 10
16499.34214343159
 20
-5640.30026222538
 30
0.0
 11
16639.34214343159
 21
-5640.30026222538
 31
0.0
  0
LINE
  5
967
330
22
100
AcDbEntity
  8
0
  6
Continuous
100
AcDbLine
 10
15519.34214343159
 20
-5368.833595558715
 30
0.0
 11
15519.34214343159
 21
-5504.566928892048
 31
0.0
  0
LINE
  5
968
330
22
100
AcDbEntity
  8
0
  6
Continuous
100
AcDbLine
 10
15519.34214343159
 20
-5504.566928892048
 30
0.0
 11
15519.34214343159
 21
-5640.30026222538
 31
0.0
  0
LINE
  5
969
330
22
100
AcDbEntity
  8
0
  6
Continuous
100
AcDbLine
 10
16639.34214343159
 20
-5368.833595558715
 30
0.0
 11
16779.34214343159
 21
-5368.833595558715
 31
0.0
  0
LINE
  5
96A
330
22
100
AcDbEntity
  8
0
  6
Continuous
100
AcDbLine
 10
16639.34214343159
 20
-5640.30026222538
 30
0.0
 11
16779.34214343159
 21
-5640.30026222538
 31
0.0
  0
LINE
  5
96B
330
22
100
AcDbEntity
  8
0
  6
Continuous
100
AcDbLine
 10
16639.34214343159
 20
-5368.833595558715
 30
0.0
 11
16639.34214343159
 21
-5504.566928892048
 31
0.0
  0
LINE
  5
96C
330
22
100
AcDbEntity
  8
0
  6
Continuous
100
AcDbLine
 10
16639.34214343159
 20
-5504.566928892048
 30
0.0
 11
16639.34214343159
 21
-5640.30026222538
 31
0.0
  0
LINE
  5
96D
330
22
100
AcDbEntity
  8
0
  6
Continuous
100
AcDbLine
 10
16779.34214343159
 20
-5368.833595558715
 30
0.0
 11
16919.34214343159
 21
-5368.833595558715
 31
0.0
  0
LINE
  5
96E
330
22
100
AcDbEntity
  8
0
  6
Continuous
100
AcDbLine
 10
16779.34214343159
 20
-5640.30026222538
 30
0.0
 11
16919.34214343159
 21
-5640.30026222538
 31
0.0
  0
LINE
  5
96F
330
22
100
AcDbEntity
  8
0
  6
Continuous
100
AcDbLine
 10
16919.34214343159
 20
-5368.833595558715
 30
0.0
 11
17059.34214343159
 21
-5368.833595558715
 31
0.0
  0
LINE
  5
970
330
22
100
AcDbEntity
  8
0
  6
Continuous
100
AcDbLine
 10
16919.34214343159
 20
-5640.30026222538
 30
0.0
 11
17059.34214343159
 21
-5640.30026222538
 31
0.0
  0
LINE
  5
971
330
22
100
AcDbEntity
  8
0
  6
Continuous
100
AcDbLine
 10
17059.34214343159
 20
-5368.833595558715
 30
0.0
 11
17199.34214343159
 21
-5368.833595558715
 31
0.0
  0
LINE
  5
972
330
22
100
AcDbEntity
  8
0
  6
Continuous
100
AcDbLine
 10
17059.34214343159
 20
-5640.30026222538
 30
0.0
 11
17199.34214343159
 21
-5640.30026222538
 31
0.0
  0
LINE
  5
973
330
22
100
AcDbEntity
  8
0
  6
Continuous
100
AcDbLine
 10
17199.34214343159
 20
-5368.833595558715
 30
0.0
 11
17339.34214343159
 21
-5368.833595558715
 31
0.0
  0
LINE
  5
974
330
22
100
AcDbEntity
  8
0
  6
Continuous
100
AcDbLine
 10
17199.34214343159
 20
-5640.30026222538
 30
0.0
 11
17339.34214343159
 21
-5640.30026222538
 31
0.0
  0
LINE
  5
975
330
22
100
AcDbEntity
  8
0
  6
Continuous
100
AcDbLine
 10
17339.34214343159
 20
-5368.833595558715
 30
0.0
 11
17479.34214343159
 21
-5368.833595558715
 31
0.0
  0
LINE
  5
976
330
22
100
AcDbEntity
  8
0
  6
Continuous
100
AcDbLine
 10
17339.34214343159
 20
-5640.30026222538
 30
0.0
 11
17479.34214343159
 21
-5640.30026222538
 31
0.0
  0
LINE
  5
977
330
22
100
AcDbEntity
  8
0
  6
Continuous
100
AcDbLine
 10
17479.34214343159
 20
-5368.833595558715
 30
0.0
 11
17619.34214343159
 21
-5368.833595558715
 31
0.0
  0
LINE
  5
978
330
22
100
AcDbEntity
  8
0
  6
Continuous
100
AcDbLine
 10
17479.34214343159
 20
-5640.30026222538
 30
0.0
 11
17619.34214343159
 21
-5640.30026222538
 31
0.0
  0
LINE
  5
979
330
22
100
AcDbEntity
  8
0
  6
Continuous
100
AcDbLine
 10
17619.34214343159
 20
-5368.833595558715
 30
0.0
 11
17759.34214343159
 21
-5368.833595558715
 31
0.0
  0
LINE
  5
97A
330
22
100
AcDbEntity
  8
0
  6
Continuous
100
AcDbLine
 10
17619.34214343159
 20
-5640.30026222538
 30
0.0
 11
17759.34214343159
 21
-5640.30026222538
 31
0.0
  0
LINE
  5
97B
330
22
100
AcDbEntity
  8
0
  6
Continuous
100
AcDbLine
 10
17759.34214343159
 20
-5368.833595558715
 30
0.0
 11
17899.34214343159
 21
-5368.833595558715
 31
0.0
  0
LINE
  5
97C
330
22
100
AcDbEntity
  8
0
  6
Continuous
100
AcDbLine
 10
17759.34214343159
 20
-5640.30026222538
 30
0.0
 11
17899.34214343159
 21
-5640.30026222538
 31
0.0
  0
LINE
  5
97D
330
22
100
AcDbEntity
  8
0
  6
Continuous
100
AcDbLine
 10
17899.34214343159
 20
-5368.833595558715
 30
0.0
 11
18039.34214343159
 21
-5368.833595558715
 31
0.0
  0
LINE
  5
97E
330
22
100
AcDbEntity
  8
0
  6
Continuous
100
AcDbLine
 10
17899.34214343159
 20
-5640.30026222538
 30
0.0
 11
18039.34214343159
 21
-5640.30026222538
 31
0.0
  0
LINE
  5
97F
330
22
100
AcDbEntity
  8
0
  6
Continuous
100
AcDbLine
 10
18039.34214343159
 20
-5368.833595558715
 30
0.0
 11
18179.34214343159
 21
-5368.833595558715
 31
0.0
  0
LINE
  5
980
330
22
100
AcDbEntity
  8
0
  6
Continuous
100
AcDbLine
 10
18039.34214343159
 20
-5640.30026222538
 30
0.0
 11
18179.34214343159
 21
-5640.30026222538
 31
0.0
  0
LINE
  5
981
330
22
100
AcDbEntity
  8
0
  6
Continuous
100
AcDbLine
 10
16779.34214343159
 20
-5368.833595558715
 30
0.0
 11
16779.34214343159
 21
-5504.566928892048
 31
0.0
  0
LINE
  5
982
330
22
100
AcDbEntity
  8
0
  6
Continuous
100
AcDbLine
 10
18179.34214343159
 20
-5368.833595558715
 30
0.0
 11
18179.34214343159
 21
-5504.566928892048
 31
0.0
  0
LINE
  5
983
330
22
100
AcDbEntity
  8
0
  6
Continuous
100
AcDbLine
 10
16779.34214343159
 20
-5504.566928892048
 30
0.0
 11
16779.34214343159
 21
-5640.30026222538
 31
0.0
  0
LINE
  5
984
330
22
100
AcDbEntity
  8
0
  6
Continuous
100
AcDbLine
 10
18179.34214343159
 20
-5504.566928892048
 30
0.0
 11
18179.34214343159
 21
-5640.30026222538
 31
0.0
  0
MTEXT
  5
985
330
22
100
AcDbEntity
  8
0
  6
Continuous
100
AcDbMText
 10
15541.61185956155
 20
-5440.884327471537
 30
0.0
 40
30.0
 41
280.0
 71
     1
 72
     5
  1
HOKKAIDO
 73
     1
 44
1.0
  0
MTEXT
  5
986
330
22
100
AcDbEntity
  8
0
  6
Continuous
100
AcDbMText
 10
15539.49062322059
 20
-5508.805271295234
 30
0.0
 40
60.0
 41
280.0
 71
     1
 72
     5
  1
SUIKO
 73
     1
 44
1.0
  0
MTEXT
  5
987
330
22
100
AcDbEntity
  8
0
  6
Continuous
100
AcDbMText
 10
15834.54429608365
 20
-5479.742806721999
 30
0.0
 40
60.0
 41
893.3007031411397
 71
     1
 72
     5
  1
北海道スイコー株式会社
 73
     1
 44
1.0
  0
MTEXT
  5
988
330
22
100
AcDbEntity
  8
0
  6
Continuous
100
AcDbMText
 10
16672.07044292483
 20
-5408.074696961191
 30
0.0
 40
70.0
 41
140.0
 71
     1
 72
     5
  1
図
 73
     1
 44
1.0
  0
MTEXT
  5
989
330
22
100
AcDbEntity
  8
0
  6
Continuous
100
AcDbMText
 10
16668.79780890248
 20
-5533.997754943914
 30
0.0
 40
70.0
 41
140.0
 71
     1
 72
     5
  1
番
 73
     1
 44
1.0
  0
MTEXT
  5
98A
330
22
100
AcDbEntity
  8
0
  6
Continuous
100
AcDbMText
 10
16668.79780890248
 20
-4825.900262225381
 30
0.0
 40
70.0
 41
140.0
 71
     1
 72
     5
  1
名
 73
     1
 44
1.0
  0
MTEXT
  5
98B
330
22
100
AcDbEntity
  8
0
  6
Continuous
100
AcDbMText
 10
16668.35488994504
 20
-5160.4650815373
 30
0.0
 40
70.0
 41
140.0
 71
     1
 72
     5
  1
称
 73
     1
 44
1.0
  0
MTEXT
  5
98C
330
22
100
AcDbEntity
  8
0
  6
Continuous
100
AcDbMText
 10
15561.8893246268
 20
-5103.907112459097
 30
0.0
 40
50.0
 41
140.0
 71
     1
 72
     5
  1
年
 73
     1
 44
1.0
  0
MTEXT
  5
98D
330
22
100
AcDbEntity
  8
0
  6
Continuous
100
AcDbMText
 10
15584.79906896301
 20
-5158.693411991628
 30
0.0
 40
50.0
 41
140.0
 71
     1
 72
     5
  1
・
 73
     1
 44
1.0
  0
MTEXT
  5
98E
330
22
100
AcDbEntity
  8
0
  6
Continuous
100
AcDbMText
 10
15558.61636405944
 20
-5203.66943617355
 30
0.0
 40
50.0
 41
140.0
 71
     1
 72
     5
  1
月
 73
     1
 44
1.0
  0
MTEXT
  5
98F
330
22
100
AcDbEntity
  8
0
  6
Continuous
100
AcDbMText
 10
15581.52610839574
 20
-5248.645460355509
 30
0.0
 40
50.0
 41
140.0
 71
     1
 72
     5
  1
・
 73
     1
 44
1.0
  0
MTEXT
  5
990
330
22
100
AcDbEntity
  8
0
  6
Continuous
100
AcDbMText
 10
15568.43491921641
 20
-5294.426745324962
 30
0.0
 40
50.0
 41
140.0
 71
     1
 72
     5
  1
日
 73
     1
 44
1.0
  0
MTEXT
  5
991
330
22
100
AcDbEntity
  8
0
  6
Continuous
100
AcDbMText
 10
16111.07729265946
 20
-5133.514290774725
 30
0.0
 40
60.0
 41
140.0
 71
     1
 72
     5
  1
尺
 73
     1
 44
1.0
  0
MTEXT
  5
992
330
22
100
AcDbEntity
  8
0
  6
Continuous
100
AcDbMText
 10
16110.95992826708
 20
-5254.006783515457
 30
0.0
 40
60.0
 41
140.0
 71
     1
 72
     5
  1
度
 73
     1
 44
1.0
  0
MTEXT
  5
993
330
22
100
AcDbEntity
  8
0
  6
Continuous
100
AcDbMText
 10
15548.79813544752
 20
-4726.137938510926
 30
0.0
 40
60.0
 41
280.0
 71
     1
 72
     5
  1
設　計
 73
     1
 44
1.0
  0
MTEXT
  5
994
330
22
100
AcDbEntity
  8
0
  6
Continuous
100
AcDbMText
 10
15825.52484833516
 20
-4726.137938510963
 30
0.0
 40
60.0
 41
280.0
 71
     1
 72
     5
  1
製　図
 73
     1
 44
1.0
  0
MTEXT
  5
995
330
22
100
AcDbEntity
  8
0
  6
Continuous
100
AcDbMText
 10
16105.52484833516
 20
-4722.867846727402
 30
0.0
 40
60.0
 41
280.0
 71
     1
 72
     5
  1
検　図
 73
     1
 44
1.0
  0
MTEXT
  5
996
330
22
100
AcDbEntity
  8
0
  6
Continuous
100
AcDbMText
 10
16392.07044292477
 20
-4726.137938510926
 30
0.0
 40
60.0
 41
280.0
 71
     1
 72
     5
  1
承　認
 73
     1
 44
1.0
  0
LINE
  5
997
330
22
100
AcDbEntity
  8
0
100
AcDbLine
 10
15519.34214343159
 20
-4690.166928892047
 30
0.0
 11
15659.34214343159
 21
-4690.166928892047
 31
0.0
  0
LINE
  5
998
330
22
100
AcDbEntity
  8
0
100
AcDbLine
 10
15659.34214343159
 20
-4690.166928892047
 30
0.0
 11
15799.34214343159
 21
-4690.166928892047
 31
0.0
  0
LINE
  5
999
330
22
100
AcDbEntity
  8
0
100
AcDbLine
 10
15799.34214343159
 20
-4690.166928892047
 30
0.0
 11
15939.34214343159
 21
-4690.166928892047
 31
0.0
  0
LINE
  5
99A
330
22
100
AcDbEntity
  8
0
100
AcDbLine
 10
15939.34214343159
 20
-4690.166928892047
 30
0.0
 11
16079.34214343159
 21
-4690.166928892047
 31
0.0
  0
LINE
  5
99B
330
22
100
AcDbEntity
  8
0
100
AcDbLine
 10
16079.34214343159
 20
-4690.166928892047
 30
0.0
 11
16219.34214343159
 21
-4690.166928892047
 31
0.0
  0
LINE
  5
99C
330
22
100
AcDbEntity
  8
0
100
AcDbLine
 10
16219.34214343159
 20
-4690.166928892047
 30
0.0
 11
16359.34214343159
 21
-4690.166928892047
 31
0.0
  0
LINE
  5
99D
330
22
100
AcDbEntity
  8
0
100
AcDbLine
 10
16359.34214343159
 20
-4690.166928892047
 30
0.0
 11
16499.34214343159
 21
-4690.166928892047
 31
0.0
  0
LINE
  5
99E
330
22
100
AcDbEntity
  8
0
100
AcDbLine
 10
16499.34214343159
 20
-4690.166928892047
 30
0.0
 11
16639.34214343159
 21
-4690.166928892047
 31
0.0
  0
LINE
  5
99F
330
22
100
AcDbEntity
  8
0
100
AcDbLine
 10
16639.34214343159
 20
-4690.166928892047
 30
0.0
 11
16779.34214343159
 21
-4690.166928892047
 31
0.0
  0
LINE
  5
9A0
330
22
100
AcDbEntity
  8
0
100
AcDbLine
 10
16779.34214343159
 20
-4690.166928892047
 30
0.0
 11
16919.34214343159
 21
-4690.166928892047
 31
0.0
  0
LINE
  5
9A1
330
22
100
AcDbEntity
  8
0
100
AcDbLine
 10
16919.34214343159
 20
-4690.166928892047
 30
0.0
 11
17059.34214343159
 21
-4690.166928892047
 31
0.0
  0
LINE
  5
9A2
330
22
100
AcDbEntity
  8
0
100
AcDbLine
 10
17059.34214343159
 20
-4690.166928892047
 30
0.0
 11
17199.34214343159
 21
-4690.166928892047
 31
0.0
  0
LINE
  5
9A3
330
22
100
AcDbEntity
  8
0
100
AcDbLine
 10
17199.34214343159
 20
-4690.166928892047
 30
0.0
 11
17339.34214343159
 21
-4690.166928892047
 31
0.0
  0
LINE
  5
9A4
330
22
100
AcDbEntity
  8
0
100
AcDbLine
 10
17339.34214343159
 20
-4690.166928892047
 30
0.0
 11
17479.34214343159
 21
-4690.166928892047
 31
0.0
  0
LINE
  5
9A5
330
22
100
AcDbEntity
  8
0
100
AcDbLine
 10
17479.34214343159
 20
-4690.166928892047
 30
0.0
 11
17619.34214343159
 21
-4690.166928892047
 31
0.0
  0
LINE
  5
9A6
330
22
100
AcDbEntity
  8
0
100
AcDbLine
 10
17619.34214343159
 20
-4690.166928892047
 30
0.0
 11
17759.34214343159
 21
-4690.166928892047
 31
0.0
  0
LINE
  5
9A7
330
22
100
AcDbEntity
  8
0
100
AcDbLine
 10
17759.34214343159
 20
-4690.166928892047
 30
0.0
 11
17899.34214343159
 21
-4690.166928892047
 31
0.0
  0
LINE
  5
9A8
330
22
100
AcDbEntity
  8
0
100
AcDbLine
 10
17899.34214343159
 20
-4690.166928892047
 30
0.0
 11
18039.34214343159
 21
-4690.166928892047
 31
0.0
  0
LINE
  5
9A9
330
22
100
AcDbEntity
  8
0
100
AcDbLine
 10
18039.34214343159
 20
-4690.166928892047
 30
0.0
 11
18179.34214343159
 21
-4690.166928892047
 31
0.0
  0
LINE
  5
9AA
330
22
100
AcDbEntity
  8
0
100
AcDbLine
 10
15519.34214343159
 20
-4410.166928892047
 30
0.0
 11
15659.34214343159
 21
-4410.166928892047
 31
0.0
  0
LINE
  5
9AB
330
22
100
AcDbEntity
  8
0
100
AcDbLine
 10
15519.34214343159
 20
-4690.166928892047
 30
0.0
 11
15659.34214343159
 21
-4690.166928892047
 31
0.0
  0
LINE
  5
9AC
330
22
100
AcDbEntity
  8
0
100
AcDbLine
 10
15659.34214343159
 20
-4410.166928892047
 30
0.0
 11
15799.34214343159
 21
-4410.166928892047
 31
0.0
  0
LINE
  5
9AD
330
22
100
AcDbEntity
  8
0
100
AcDbLine
 10
15659.34214343159
 20
-4690.166928892047
 30
0.0
 11
15799.34214343159
 21
-4690.166928892047
 31
0.0
  0
LINE
  5
9AE
330
22
100
AcDbEntity
  8
0
100
AcDbLine
 10
15799.34214343159
 20
-4410.166928892047
 30
0.0
 11
15939.34214343159
 21
-4410.166928892047
 31
0.0
  0
LINE
  5
9AF
330
22
100
AcDbEntity
  8
0
100
AcDbLine
 10
15799.34214343159
 20
-4690.166928892047
 30
0.0
 11
15939.34214343159
 21
-4690.166928892047
 31
0.0
  0
LINE
  5
9B0
330
22
100
AcDbEntity
  8
0
100
AcDbLine
 10
15939.34214343159
 20
-4410.166928892047
 30
0.0
 11
16079.34214343159
 21
-4410.166928892047
 31
0.0
  0
LINE
  5
9B1
330
22
100
AcDbEntity
  8
0
100
AcDbLine
 10
15939.34214343159
 20
-4690.166928892047
 30
0.0
 11
16079.34214343159
 21
-4690.166928892047
 31
0.0
  0
LINE
  5
9B2
330
22
100
AcDbEntity
  8
0
100
AcDbLine
 10
15519.34214343159
 20
-4410.166928892047
 30
0.0
 11
15519.34214343159
 21
-4550.166928892047
 31
0.0
  0
LINE
  5
9B3
330
22
100
AcDbEntity
  8
0
100
AcDbLine
 10
15519.34214343159
 20
-4550.166928892047
 30
0.0
 11
15519.34214343159
 21
-4690.166928892047
 31
0.0
  0
LINE
  5
9B4
330
22
100
AcDbEntity
  8
0
100
AcDbLine
 10
16079.34214343159
 20
-4410.166928892047
 30
0.0
 11
16219.34214343159
 21
-4410.166928892047
 31
0.0
  0
LINE
  5
9B5
330
22
100
AcDbEntity
  8
0
100
AcDbLine
 10
16079.34214343159
 20
-4690.166928892047
 30
0.0
 11
16219.34214343159
 21
-4690.166928892047
 31
0.0
  0
LINE
  5
9B6
330
22
100
AcDbEntity
  8
0
100
AcDbLine
 10
16219.34214343159
 20
-4410.166928892047
 30
0.0
 11
16359.34214343159
 21
-4410.166928892047
 31
0.0
  0
LINE
  5
9B7
330
22
100
AcDbEntity
  8
0
100
AcDbLine
 10
16219.34214343159
 20
-4690.166928892047
 30
0.0
 11
16359.34214343159
 21
-4690.166928892047
 31
0.0
  0
LINE
  5
9B8
330
22
100
AcDbEntity
  8
0
100
AcDbLine
 10
16359.34214343159
 20
-4410.166928892047
 30
0.0
 11
16499.34214343159
 21
-4410.166928892047
 31
0.0
  0
LINE
  5
9B9
330
22
100
AcDbEntity
  8
0
100
AcDbLine
 10
16359.34214343159
 20
-4690.166928892047
 30
0.0
 11
16499.34214343159
 21
-4690.166928892047
 31
0.0
  0
LINE
  5
9BA
330
22
100
AcDbEntity
  8
0
100
AcDbLine
 10
16499.34214343159
 20
-4410.166928892047
 30
0.0
 11
16639.34214343159
 21
-4410.166928892047
 31
0.0
  0
LINE
  5
9BB
330
22
100
AcDbEntity
  8
0
100
AcDbLine
 10
16499.34214343159
 20
-4690.166928892047
 30
0.0
 11
16639.34214343159
 21
-4690.166928892047
 31
0.0
  0
LINE
  5
9BC
330
22
100
AcDbEntity
  8
0
100
AcDbLine
 10
16639.34214343159
 20
-4410.166928892047
 30
0.0
 11
16779.34214343159
 21
-4410.166928892047
 31
0.0
  0
LINE
  5
9BD
330
22
100
AcDbEntity
  8
0
100
AcDbLine
 10
16639.34214343159
 20
-4690.166928892047
 30
0.0
 11
16779.34214343159
 21
-4690.166928892047
 31
0.0
  0
LINE
  5
9BE
330
22
100
AcDbEntity
  8
0
100
AcDbLine
 10
16779.34214343159
 20
-4410.166928892047
 30
0.0
 11
16919.34214343159
 21
-4410.166928892047
 31
0.0
  0
LINE
  5
9BF
330
22
100
AcDbEntity
  8
0
100
AcDbLine
 10
16779.34214343159
 20
-4690.166928892047
 30
0.0
 11
16919.34214343159
 21
-4690.166928892047
 31
0.0
  0
LINE
  5
9C0
330
22
100
AcDbEntity
  8
0
100
AcDbLine
 10
16919.34214343159
 20
-4410.166928892047
 30
0.0
 11
17059.34214343159
 21
-4410.166928892047
 31
0.0
  0
LINE
  5
9C1
330
22
100
AcDbEntity
  8
0
100
AcDbLine
 10
16919.34214343159
 20
-4690.166928892047
 30
0.0
 11
17059.34214343159
 21
-4690.166928892047
 31
0.0
  0
LINE
  5
9C2
330
22
100
AcDbEntity
  8
0
100
AcDbLine
 10
17059.34214343159
 20
-4410.166928892047
 30
0.0
 11
17199.34214343159
 21
-4410.166928892047
 31
0.0
  0
LINE
  5
9C3
330
22
100
AcDbEntity
  8
0
100
AcDbLine
 10
17059.34214343159
 20
-4690.166928892047
 30
0.0
 11
17199.34214343159
 21
-4690.166928892047
 31
0.0
  0
LINE
  5
9C4
330
22
100
AcDbEntity
  8
0
100
AcDbLine
 10
17199.34214343159
 20
-4410.166928892047
 30
0.0
 11
17339.34214343159
 21
-4410.166928892047
 31
0.0
  0
LINE
  5
9C5
330
22
100
AcDbEntity
  8
0
100
AcDbLine
 10
17199.34214343159
 20
-4690.166928892047
 30
0.0
 11
17339.34214343159
 21
-4690.166928892047
 31
0.0
  0
LINE
  5
9C6
330
22
100
AcDbEntity
  8
0
100
AcDbLine
 10
17339.34214343159
 20
-4410.166928892047
 30
0.0
 11
17479.34214343159
 21
-4410.166928892047
 31
0.0
  0
LINE
  5
9C7
330
22
100
AcDbEntity
  8
0
100
AcDbLine
 10
17339.34214343159
 20
-4690.166928892047
 30
0.0
 11
17479.34214343159
 21
-4690.166928892047
 31
0.0
  0
LINE
  5
9C8
330
22
100
AcDbEntity
  8
0
100
AcDbLine
 10
17479.34214343159
 20
-4410.166928892047
 30
0.0
 11
17619.34214343159
 21
-4410.166928892047
 31
0.0
  0
LINE
  5
9C9
330
22
100
AcDbEntity
  8
0
100
AcDbLine
 10
17479.34214343159
 20
-4690.166928892047
 30
0.0
 11
17619.34214343159
 21
-4690.166928892047
 31
0.0
  0
LINE
  5
9CA
330
22
100
AcDbEntity
  8
0
100
AcDbLine
 10
17619.34214343159
 20
-4410.166928892047
 30
0.0
 11
17759.34214343159
 21
-4410.166928892047
 31
0.0
  0
LINE
  5
9CB
330
22
100
AcDbEntity
  8
0
100
AcDbLine
 10
17619.34214343159
 20
-4690.166928892047
 30
0.0
 11
17759.34214343159
 21
-4690.166928892047
 31
0.0
  0
LINE
  5
9CC
330
22
100
AcDbEntity
  8
0
100
AcDbLine
 10
17759.34214343159
 20
-4410.166928892047
 30
0.0
 11
17899.34214343159
 21
-4410.166928892047
 31
0.0
  0
LINE
  5
9CD
330
22
100
AcDbEntity
  8
0
100
AcDbLine
 10
17759.34214343159
 20
-4690.166928892047
 30
0.0
 11
17899.34214343159
 21
-4690.166928892047
 31
0.0
  0
LINE
  5
9CE
330
22
100
AcDbEntity
  8
0
100
AcDbLine
 10
17899.34214343159
 20
-4410.166928892047
 30
0.0
 11
18039.34214343159
 21
-4410.166928892047
 31
0.0
  0
LINE
  5
9CF
330
22
100
AcDbEntity
  8
0
100
AcDbLine
 10
17899.34214343159
 20
-4690.166928892047
 30
0.0
 11
18039.34214343159
 21
-4690.166928892047
 31
0.0
  0
LINE
  5
9D0
330
22
100
AcDbEntity
  8
0
100
AcDbLine
 10
18039.34214343159
 20
-4410.166928892047
 30
0.0
 11
18179.34214343159
 21
-4410.166928892047
 31
0.0
  0
LINE
  5
9D1
330
22
100
AcDbEntity
  8
0
100
AcDbLine
 10
18039.34214343159
 20
-4690.166928892047
 30
0.0
 11
18179.34214343159
 21
-4690.166928892047
 31
0.0
  0
LINE
  5
9D2
330
22
100
AcDbEntity
  8
0
100
AcDbLine
 10
16079.34214343159
 20
-4410.166928892047
 30
0.0
 11
16079.34214343159
 21
-4550.166928892047
 31
0.0
  0
LINE
  5
9D3
330
22
100
AcDbEntity
  8
0
100
AcDbLine
 10
18179.34214343159
 20
-4410.166928892047
 30
0.0
 11
18179.34214343159
 21
-4550.166928892047
 31
0.0
  0
LINE
  5
9D4
330
22
100
AcDbEntity
  8
0
100
AcDbLine
 10
16079.34214343159
 20
-4550.166928892047
 30
0.0
 11
16079.34214343159
 21
-4690.166928892047
 31
0.0
  0
LINE
  5
9D5
330
22
100
AcDbEntity
  8
0
100
AcDbLine
 10
18179.34214343159
 20
-4550.166928892047
 30
0.0
 11
18179.34214343159
 21
-4690.166928892047
 31
0.0
  0
MTEXT
  5
9D6
330
22
100
AcDbEntity
  8
0
100
AcDbMText
 10
15591.27662202066
 20
-4517.739635387462
 30
0.0
 40
70.0
 41
560.0
 71
     1
 72
     5
  1
納　入　先
 73
     1
 44
1.0
  0
ARC
  5
9DA
330
22
100
AcDbEntity
  8
2
100
AcDbCircle
 10
15775.60709327013
 20
-1530.790977995797
 30
0.0
 40
769.9999999999951
100
AcDbArc
 50
11.74860346036167
 51
78.25138728295026
  0
ARC
  5
9E0
330
22
100
AcDbEntity
  8
2
  6
CENTER
100
AcDbCircle
 10
15775.60709327012
 20
-1530.790977995799
 30
0.0
 40
690.0
100
AcDbArc
 50
344.6250911634217
 51
15.38483299273277
  0
TEXT
  5
9E2
330
22
100
AcDbEntity
  8
0
  6
Continuous
 48
20.0
100
AcDbText
 10
16283.34367738662
 20
-5261.635519699688
 30
0.0
 40
60.0
  1
１／２０
100
AcDbText
  0
TEXT
  5
9E3
330
22
100
AcDbEntity
  8
0
  6
Continuous
 48
20.0
100
AcDbText
 10
16870.06585879167
 20
-4980.568238993203
 30
0.0
 40
110.0
  1
ＬＡ－４０００
100
AcDbText
  0
TEXT
  5
9E4
330
22
100
AcDbEntity
  8
0
  6
Continuous
 48
20.0
100
AcDbText
 10
16884.44863553763
 20
-5200.053084363019
 30
0.0
 40
80.0
  1
製品図
100
AcDbText
  0
DIMENSION
  5
9FF
330
22
100
AcDbEntity
  8
寸法線
  6
Continuous
 48
20.0
100
AcDbDimension
  2
*D0
 10
10895.07343619833
 20
-2983.270072934628
 30
0.0
 11
10831.07343524466
 21
-3953.270166210815
 31
0.0
 70
    32
 71
     5
 42
1940.000186552376
  3
1-20
100
AcDbAlignedDimension
 13
11141.43104676392
 23
-4923.270259487004
 33
0.0
 14
11111.43099453794
 24
-2983.270072934628
 34
0.0
 50
90.0
100
AcDbRotatedDimension
1001
ACAD
1000
DSTYLE
1002
{
1070
   340
1005
11
1002
}
  0
DIMENSION
  5
A0C
330
22
100
AcDbEntity
  8
寸法線
  6
Continuous
 48
20.0
100
AcDbDimension
  2
*D1
 10
11445.58054233971
 20
-2689.326480033404
 30
0.0
 11
11295.58060447063
 21
-2625.326479079729
 31
0.0
 70
    32
 71
     5
 42
299.999875738149
  3
1-20
100
AcDbAlignedDimension
 13
11145.58066660156
 23
-2823.270259487007
 33
0.0
 14
11445.58054233971
 24
-2823.270259487006
 34
0.0
100
AcDbRotatedDimension
1001
ACAD
1000
DSTYLE
1002
{
1070
   340
1005
11
1002
}
  0
DIMENSION
  5
A19
330
22
100
AcDbEntity
  8
寸法線
  6
Continuous
 48
20.0
100
AcDbDimension
  2
*D2
 10
10895.07343619833
 20
-2983.270072934628
 30
0.0
 11
10895.07343619833
 21
-2903.270166210815
 31
0.0
 70
   160
 71
     5
 42
159.9998134476213
  3
1-20
100
AcDbAlignedDimension
 13
11145.58066660156
 23
-2823.270259487007
 33
0.0
 14
11111.43099453794
 24
-2983.270072934628
 34
0.0
 50
90.0
100
AcDbRotatedDimension
1001
ACAD
1000
DSTYLE
1002
{
1070
   340
1005
11
1002
}
  0
DIMENSION
  5
A8B
330
22
100
AcDbEntity
  8
寸法線
  6
Continuous
 48
20.0
100
AcDbDimension
  2
*D3
 10
10564.02375902473
 20
-2553.270259487006
 30
0.0
 11
10500.02375807106
 21
-3738.270259487003
 31
0.0
 70
    32
 71
     5
 42
2369.999999999998
  3
1-20
100
AcDbAlignedDimension
 13
11141.43104676392
 23
-4923.270259487004
 33
0.0
 14
11981.43103734643
 24
-2553.270259487006
 34
0.0
 50
90.0
100
AcDbRotatedDimension
1001
ACAD
1000
DSTYLE
1002
{
1070
   340
1005
11
1002
}
  0
DIMENSION
  5
AA3
330
22
100
AcDbEntity
  8
寸法線
  6
Continuous
 48
20.0
100
AcDbDimension
  2
*D4
 10
12851.43103734643
 20
-5330.333169759775
 30
0.0
 11
11981.43103734643
 21
-5266.333168806101
 31
0.0
 70
    32
  1
O.Dφ<>
 71
     5
 42
1739.999999999998
  3
1-20
100
AcDbAlignedDimension
 13
11111.43103734643
 23
-4893.270249711765
 33
0.0
 14
12851.43103734643
 24
-4893.270259487007
 34
0.0
100
AcDbRotatedDimension
1001
ACAD
1000
DSTYLE
1002
{
1070
   340
1005
11
1002
}
  0
DIMENSION
  5
B9C
330
22
100
AcDbEntity
  8
寸法線
  6
Continuous
 48
20.0
100
AcDbDimension
  2
*D10
 10
15989.55773292898
 20
-1628.002733639838
 30
0.0
 11
14777.79413871587
 21
-1077.419353254478
 31
0.0
 70
   163
  1
I.D<>
 71
     5
 42
470.0000070035439
  3
1-20
100
AcDbDiametricDimension
 15
15561.65645361126
 25
-1433.579222351762
 35
0.0
 40
0.0
1001
ACAD
1000
DSTYLE
1002
{
1070
   340
1005
11
1070
   288
1070
     1
1002
}
  0
CIRCLE
  5
BC7
330
22
100
AcDbEntity
  8
0
  6
Continuous
 48
20.0
100
AcDbCircle
 10
15775.60709327013
 20
-1530.7909779958
 30
0.0
 40
870.0
  0
DIMENSION
  5
D48
330
22
100
AcDbEntity
  8
寸法線
 48
20.0
100
AcDbDimension
  2
*D12
 10
12216.4310408482
 20
-2350.362607444236
 30
0.0
 11
11981.43103734643
 21
-2286.362606490562
 31
0.0
 70
    32
  1
I.Dφ<>
 71
     5
 42
470.0000070035457
  3
1-20
100
AcDbAlignedDimension
 13
11746.43103384466
 23
-2613.270259487006
 33
0.0
 14
12216.4310408482
 24
-2613.270259487006
 34
0.0
100
AcDbRotatedDimension
  0
LINE
  5
E5B
330
22
100
AcDbEntity
  8
3
  6
CENTER
100
AcDbLine
 10
17391.22549584922
 20
-2721.348331902083
 30
0.0
 11
16560.40313265266
 21
-2721.348331902083
 31
0.0
  0
LINE
  5
E5C
330
22
100
AcDbEntity
  8
3
  6
Continuous
100
AcDbLine
 10
16715.12086055524
 20
-3507.101463775776
 30
0.0
 11
16896.10312026841
 21
-3507.101463775776
 31
0.0
  0
LINE
  5
E5D
330
22
100
AcDbEntity
  8
3
  6
Continuous
100
AcDbLine
 10
16986.12561529875
 20
-3154.658882230124
 30
0.0
 11
16986.12561529875
 21
-3417.078968211578
 31
0.0
  0
ARC
  5
E5E
330
22
100
AcDbEntity
  8
3
  6
Continuous
100
AcDbCircle
 10
12890.10182298554
 20
-2721.348331902083
 30
0.0
 40
4096.023792313211
100
AcDbArc
 50
355.480463568122
 51
5.089581616663068
  0
ARC
  5
E5F
330
22
100
AcDbEntity
  8
3
  6
Continuous
100
AcDbCircle
 10
16896.10311436879
 20
-3417.078968211572
 30
0.0
 40
90.02249556420151
100
AcDbArc
 50
269.9999962451469
 51
0.0
  0
SPLINE
  5
E60
330
22
100
AcDbEntity
  8
3
100
AcDbSpline
210
0.0
220
0.0
230
1.0
 70
     8
 71
     3
 72
    25
 73
    21
 74
    19
 42
0.0000000001
 43
0.0000000001
 44
0.0000000001
 12
-0.9088068481484354
 22
-0.4172171050646258
 32
0.0
 13
-0.3606669891202437
 23
-0.932694656872729
 33
0.0
 40
0.0
 40
0.0
 40
0.0
 40
0.0
 40
35.90325491024585
 40
71.80169009635623
 40
107.6930973229471
 40
143.5966288686032
 40
179.5037524729625
 40
215.4041665012707
 40
251.296376144173
 40
287.1705303301082
 40
322.9971792396746
 40
358.7275039592358
 40
394.4833527929759
 40
430.3061364586988
 40
466.149483723324
 40
502.0217744093654
 40
537.924759556425
 40
573.7075175893742
 40
609.5075790629444
 40
645.3742175797421
 40
645.3742175797421
 40
645.3742175797421
 40
645.3742175797421
 10
17022.72527867559
 20
-3139.049265855711
 30
0.0
 10
17011.84890403118
 20
-3144.042416547727
 30
0.0
 10
16989.89089291027
 20
-3153.586850902888
 30
0.0
 10
16956.08773997852
 20
-3165.804718526112
 30
0.0
 10
16921.16917453013
 20
-3174.421305706971
 30
0.0
 10
16885.68147723157
 20
-3179.950241810681
 30
0.0
 10
16850.13105982176
 20
-3184.950618474005
 30
0.0
 10
16814.8024182114
 20
-3191.468649473991
 30
0.0
 10
16780.13014397011
 20
-3200.964943499716
 30
0.0
 10
16746.81142230151
 20
-3214.550498347526
 30
0.0
 10
16716.35138723474
 20
-3233.941175760337
 30
0.0
 10
16692.48583474284
 20
-3261.630733603227
 30
0.0
 10
16680.6960984992
 20
-3296.144144889691
 30
0.0
 10
16678.37603606031
 20
-3332.136371119516
 30
0.0
 10
16683.56488988497
 20
-3367.911754893503
 30
0.0
 10
16696.3474203686
 20
-3401.604878508933
 30
0.0
 10
16711.39193687383
 20
-3434.070106873581
 30
0.0
 10
16720.66177822356
 20
-3469.289965325857
 30
0.0
 10
16716.65851973916
 20
-3505.471141499594
 30
0.0
 10
16709.5034780123
 20
-3528.317816916632
 30
0.0
 10
16705.19150717106
 20
-3539.468690951499
 30
0.0
 11
17022.72527867559
 21
-3139.049265855711
 31
0.0
 11
16989.74454974887
 21
-3153.237825776008
 31
0.0
 11
16955.89962486731
 21
-3165.205227690082
 31
0.0
 11
16921.07876027509
 21
-3173.905831218328
 31
0.0
 11
16885.67270262233
 21
-3179.861891908009
 31
0.0
 11
16850.16519582256
 21
-3185.204034399807
 31
0.0
 11
16814.90736574862
 21
-3191.966071510107
 31
0.0
 11
16780.3461905194
 21
-3201.649866211845
 31
0.0
 11
16747.2659480453
 21
-3215.52979763859
 31
0.0
 11
16717.42074346522
 21
-3235.349296513751
 31
0.0
 11
16694.50107343879
 21
-3262.759966524622
 31
0.0
 11
16682.28005333361
 21
-3296.362457405658
 31
0.0
 11
16679.62721066711
 21
-3332.086878399537
 31
0.0
 11
16684.82690983577
 21
-3367.551066980244
 31
0.0
 11
16696.72201675847
 21
-3401.393757038239
 31
0.0
 11
16710.4443821121
 21
-3434.570873121038
 31
0.0
 11
16718.45124187219
 21
-3469.446308161003
 31
0.0
 11
16715.54184592483
 21
-3505.127953536923
 31
0.0
 11
16705.19150717106
 21
-3539.468690951499
 31
0.0
  0
SPLINE
  5
E61
330
22
100
AcDbEntity
  8
3
100
AcDbSpline
210
0.0
220
0.0
230
1.0
 70
     8
 71
     3
 72
    29
 73
    25
 74
    23
 42
0.0000000001
 43
0.0000000001
 44
0.0000000001
 12
-0.9874086049190202
 22
-0.1581905399569598
 32
0.0
 13
0.9673712617183381
 23
0.2533630636092614
 33
0.0
 40
0.0
 40
0.0
 40
0.0
 40
0.0
 40
42.46962737898993
 40
84.93513300412317
 40
127.374897909476
 40
169.7116177545722
 40
211.7202847512204
 40
254.0622411091082
 40
296.5519006390149
 40
339.0025489545818
 40
381.3513043943445
 40
423.8081082713066
 40
466.2999366106238
 40
508.7460710711952
 40
550.9015428261134
 40
593.2036436536169
 40
635.6827114533577
 40
678.1671988914938
 40
720.6440114458689
 40
763.1080572708112
 40
805.4002048621953
 40
847.712018869015
 40
889.9820631652994
 40
932.316680369518
 40
932.316680369518
 40
932.316680369518
 40
932.316680369518
 10
16986.43394082948
 20
-2354.943146415934
 30
0.0
 10
16972.45564898891
 20
-2357.182577511551
 30
0.0
 10
16944.75334145085
 20
-2363.328254439217
 30
0.0
 10
16904.44170223892
 20
-2377.017134797277
 30
0.0
 10
16866.48056381035
 20
-2396.19267433899
 30
0.0
 10
16832.64865513518
 20
-2422.577321031661
 30
0.0
 10
16812.49219028799
 20
-2461.994170225765
 30
0.0
 10
16814.77748084219
 20
-2505.164048653247
 30
0.0
 10
16821.32262028262
 20
-2546.815090327007
 30
0.0
 10
16825.9634312534
 20
-2589.292227455495
 30
0.0
 10
16818.60145818853
 20
-2631.679192670754
 30
0.0
 10
16801.63145322419
 20
-2670.73421813052
 30
0.0
 10
16782.40068767321
 20
-2708.56559962704
 30
0.0
 10
16765.01637822761
 20
-2747.242312796512
 30
0.0
 10
16759.43472859499
 20
-2790.770278178367
 30
0.0
 10
16776.3695835748
 20
-2830.812374355426
 30
0.0
 10
16798.72583463185
 20
-2866.61383975898
 30
0.0
 10
16821.62251639368
 20
-2902.570685146771
 30
0.0
 10
16838.59605475209
 20
-2941.557994970745
 30
0.0
 10
16855.13416166646
 20
-2980.734480455101
 30
0.0
 10
16881.9895395229
 20
-3014.52378311668
 30
0.0
 10
16918.72355842985
 20
-3037.053447506255
 30
0.0
 10
16960.75678143185
 20
-3046.738312729238
 30
0.0
 10
16989.27226806614
 20
-3042.98343737407
 30
0.0
 10
17002.92336541921
 20
-3039.408094603541
 30
0.0
 11
16986.43394082948
 21
-2354.943146415934
 31
0.0
 11
16944.95752095866
 21
-2364.074183838349
 31
0.0
 11
16904.81887952784
 21
-2377.938116616848
 31
0.0
 11
16867.1189270972
 21
-2397.427786494742
 31
0.0
 11
16834.85067399074
 21
-2424.835042627003
 31
0.0
 11
16816.25082850361
 21
-2462.501657164152
 31
0.0
 11
16815.48080842442
 21
-2504.836611248111
 31
0.0
 11
16821.0065852846
 21
-2546.965425105837
 31
0.0
 11
16823.96297167521
 21
-2589.313002627123
 31
0.0
 11
16817.01196125856
 21
-2631.087403179189
 31
0.0
 11
16801.26171855163
 21
-2670.514678638187
 31
0.0
 11
16782.69501572268
 21
-2708.735524019727
 31
0.0
 11
16766.95289490295
 21
-2748.154554483981
 31
0.0
 11
16763.17377587167
 21
-2790.140290850361
 31
0.0
 11
16777.23782813461
 21
-2830.036032081296
 31
0.0
 11
16798.80983168888
 21
-2866.630018797549
 31
0.0
 11
16820.63684768272
 21
-2903.078791694394
 31
0.0
 11
16838.52933721933
 21
-2941.603308861542
 31
0.0
 11
16856.88752419981
 21
-2979.893936417285
 31
0.0
 11
16883.63830429983
 21
-3012.650943483432
 31
0.0
 11
16919.61737026769
 21
-3034.917429884028
 31
0.0
 11
16960.85906461104
 21
-3044.184537982006
 31
0.0
 11
17002.92336541921
 21
-3039.408094603541
 31
0.0
  0
LINE
  5
E62
330
22
100
AcDbEntity
  8
0
  6
Continuous
100
AcDbLine
 10
17291.17428541326
 20
-2556.348331902089
 30
0.0
 11
17291.17428541326
 21
-2541.348329219875
 31
0.0
  0
LINE
  5
E63
330
22
100
AcDbEntity
  8
0
  6
Continuous
100
AcDbLine
 10
17291.17428541326
 20
-2541.348329219875
 30
0.0
 11
17246.17428474271
 21
-2496.348328549317
 31
0.0
  0
LINE
  5
E64
330
22
100
AcDbEntity
  8
0
  6
CENTER
100
AcDbLine
 10
17171.17428362512
 20
-2780.814603659068
 30
0.0
 11
17171.17428362512
 21
-2650.742291752445
 31
0.0
  0
LINE
  5
E65
330
22
100
AcDbEntity
  8
0
  6
Continuous
100
AcDbLine
 10
17246.1742847427
 20
-2946.348335254839
 30
0.0
 11
17291.17428541325
 21
-2901.348334584287
 31
0.0
  0
LINE
  5
E66
330
22
100
AcDbEntity
  8
0
  6
Continuous
100
AcDbLine
 10
16979.94117260395
 20
-2946.348335254845
 30
0.0
 11
17246.17428474271
 21
-2946.348335254839
 31
0.0
  0
LINE
  5
E67
330
22
100
AcDbEntity
  8
0
  6
Continuous
100
AcDbLine
 10
16979.94117260394
 20
-2496.348328549322
 30
0.0
 11
17246.17428474271
 21
-2496.348328549322
 31
0.0
  0
LINE
  5
E68
330
22
100
AcDbEntity
  8
0
  6
Continuous
100
AcDbLine
 10
17291.17428541326
 20
-2901.348334584287
 30
0.0
 11
17291.17428541326
 21
-2886.348334360775
 31
0.0
  0
LINE
  5
E69
330
22
100
AcDbEntity
  8
0
  6
CENTER
100
AcDbLine
 10
17450.65688740959
 20
-2721.348331902089
 30
0.0
 11
16906.98849379317
 21
-2721.348331902083
 31
0.0
  0
LINE
  5
E6A
330
22
100
AcDbEntity
  8
0
100
AcDbLine
 10
17303.17428559207
 20
-2886.348334360781
 30
0.0
 11
17081.17428228402
 21
-2886.348331902084
 31
0.0
  0
LINE
  5
E6B
330
22
100
AcDbEntity
  8
0
100
AcDbLine
 10
17303.17428559208
 20
-2556.348331902089
 30
0.0
 11
17081.17428228402
 21
-2556.348331902083
 31
0.0
  0
LINE
  5
E6C
330
22
100
AcDbEntity
  8
0
100
AcDbLine
 10
17186.17428362512
 20
-2691.348331902088
 30
0.0
 11
17156.17428362512
 21
-2691.348331902085
 31
0.0
  0
LINE
  5
E6D
330
22
100
AcDbEntity
  8
0
100
AcDbLine
 10
17186.17428362512
 20
-2751.348331902089
 30
0.0
 11
17156.17428362512
 21
-2751.348331902089
 31
0.0
  0
LINE
  5
E6E
330
22
100
AcDbEntity
  8
0
  6
Continuous
100
AcDbLine
 10
17303.17428559208
 20
-2556.348329443397
 30
0.0
 11
17303.17428559207
 21
-2886.348334360781
 31
0.0
  0
LINE
  5
E6F
330
22
100
AcDbEntity
  8
0
  6
Continuous
100
AcDbLine
 10
17081.17428228402
 20
-2556.348329443397
 30
0.0
 11
17081.17428228402
 21
-2886.348334360775
 31
0.0
  0
ARC
  5
E70
330
22
100
AcDbEntity
  8
0
  6
Continuous
100
AcDbCircle
 10
12926.17422036969
 20
-2721.348331902078
 30
0.0
 40
4125.000061467289
100
AcDbArc
 50
356.8732238864202
 51
3.126776113579734
  0
DIMENSION
  5
E71
330
22
100
AcDbEntity
  8
寸法線
 48
20.0
100
AcDbDimension
  2
*D14
 10
17580.91777179445
 20
-2886.348334360781
 30
0.0
 11
17516.91777084078
 21
-2721.348333131432
 31
0.0
 70
    32
  1
110
 71
     5
 42
330.0000024586916
  3
1-20
100
AcDbAlignedDimension
 13
17303.17428559208
 23
-2556.348331902089
 33
0.0
 14
17303.17428559207
 24
-2886.348334360781
 34
0.0
 50
90.0
100
AcDbRotatedDimension
  0
DIMENSION
  5
E72
330
22
100
AcDbEntity
  8
寸法線
 48
20.0
100
AcDbDimension
  2
*D15
 10
17737.70298241972
 20
-2496.348328549323
 30
0.0
 11
17673.70298146604
 21
-2721.348331902078
 31
0.0
 70
    32
  1
150
 71
     5
 42
450.0000067055171
  3
1-20
100
AcDbAlignedDimension
 13
17246.1742847427
 23
-2946.348335254839
 33
0.0
 14
17246.1742847427
 24
-2496.348328549322
 34
0.0
 50
90.0
100
AcDbRotatedDimension
  0
LINE
  5
E73
330
22
100
AcDbEntity
  8
0
  6
Continuous
100
AcDbLine
 10
17061.12561641634
 20
-3417.101462434672
 30
0.0
 11
17286.1256197691
 21
-3417.101462434672
 31
0.0
  0
LINE
  5
E74
330
22
100
AcDbEntity
  8
0
  6
CENTER
100
AcDbLine
 10
17166.12561798096
 20
-3357.959413085649
 30
0.0
 11
17166.12561798096
 21
-3559.045242392149
 31
0.0
  0
LINE
  5
E75
330
22
100
AcDbEntity
  8
0
  6
DASHED
100
AcDbLine
 10
17211.12561798096
 20
-3417.101462434672
 30
0.0
 11
17211.12561798096
 21
-3507.101463775776
 31
0.0
  0
LINE
  5
E76
330
22
100
AcDbEntity
  8
0
  6
DASHED
100
AcDbLine
 10
17121.12561798096
 20
-3417.101462434672
 30
0.0
 11
17121.12561798096
 21
-3507.101463775776
 31
0.0
  0
LINE
  5
E77
330
22
100
AcDbEntity
  8
0
  6
Continuous
100
AcDbLine
 10
17076.12561663985
 20
-3405.101462255858
 30
0.0
 11
17076.12561663985
 21
-3417.101462434672
 31
0.0
  0
LINE
  5
E78
330
22
100
AcDbEntity
  8
0
  6
Continuous
100
AcDbLine
 10
17298.12561994791
 20
-3405.101462255858
 30
0.0
 11
17298.12561994791
 21
-3492.101463552259
 31
0.0
  0
LINE
  5
E79
330
22
100
AcDbEntity
  8
0
  6
Continuous
100
AcDbLine
 10
17076.12561663985
 20
-3405.101462255858
 30
0.0
 11
17298.12561994791
 21
-3405.101462255858
 31
0.0
  0
LINE
  5
E7A
330
22
100
AcDbEntity
  8
0
  6
Continuous
100
AcDbLine
 10
17286.1256197691
 20
-3492.101463552259
 30
0.0
 11
17298.12561994791
 21
-3492.101463552259
 31
0.0
  0
LINE
  5
E7B
330
22
100
AcDbEntity
  8
0
  6
Continuous
100
AcDbLine
 10
16986.12561529875
 20
-3237.101459752463
 30
0.0
 11
17037.12561605871
 21
-3237.101459752463
 31
0.0
  0
LINE
  5
E7C
330
22
100
AcDbEntity
  8
0
  6
Continuous
100
AcDbLine
 10
16959.76522547653
 20
-3480.741073953563
 30
0.0
 11
16986.12561529875
 21
-3507.101463775776
 31
0.0
  0
LINE
  5
E7D
330
22
100
AcDbEntity
  8
0
  6
Continuous
100
AcDbLine
 10
17286.1256197691
 20
-3417.101462434672
 30
0.0
 11
17286.1256197691
 21
-3498.101463641666
 31
0.0
  0
LINE
  5
E7E
330
22
100
AcDbEntity
  8
0
  6
Continuous
100
AcDbLine
 10
17046.12561619282
 20
-3246.101459886573
 30
0.0
 11
17046.12561619282
 21
-3402.101462211155
 31
0.0
  0
LINE
  5
E7F
330
22
100
AcDbEntity
  8
0
  6
Continuous
100
AcDbLine
 10
16986.12561529875
 20
-3507.101463775776
 30
0.0
 11
17277.12561979304
 21
-3507.101463775776
 31
0.0
  0
ARC
  5
E80
330
22
100
AcDbEntity
  8
0
  6
Continuous
100
AcDbCircle
 10
17037.12561605871
 20
-3246.101459886573
 30
0.0
 40
9.000000134110452
100
AcDbArc
 50
0.0
 51
90.0
  0
ARC
  5
E81
330
22
100
AcDbEntity
  8
0
  6
Continuous
100
AcDbCircle
 10
17277.12561963499
 20
-3498.101463641666
 30
0.0
 40
9.000000134110452
100
AcDbArc
 50
270.0
 51
0.0
  0
ARC
  5
E82
330
22
100
AcDbEntity
  8
0
  6
Continuous
100
AcDbCircle
 10
17061.12561641634
 20
-3402.101462211155
 30
0.0
 40
15.00000022351741
100
AcDbArc
 50
180.0
 51
270.0
  0
ARC
  5
E83
330
22
100
AcDbEntity
  8
0
  6
Continuous
100
AcDbCircle
 10
17277.12561963499
 20
-3426.101462568782
 30
0.0
 40
9.000000134110452
100
AcDbArc
 50
0.0
 51
90.0
  0
LWPOLYLINE
  5
E84
330
22
100
AcDbEntity
  8
0
  6
DASHED
 48
20.0
100
AcDbPolyline
 90
        2
 70
     0
 43
0.0
 10
17121.12561798096
 20
-3417.101462434672
 10
17121.12561798096
 20
-3405.101462255858
  0
LWPOLYLINE
  5
E85
330
22
100
AcDbEntity
  8
0
  6
DASHED
 48
20.0
100
AcDbPolyline
 90
        2
 70
     0
 43
0.0
 10
17211.12561798096
 20
-3417.101462434672
 10
17211.12561798096
 20
-3405.101462255858
  0
DIMENSION
  5
E86
330
22
100
AcDbEntity
  8
寸法線
 48
20.0
100
AcDbDimension
  2
*D16
 10
17298.12561994791
 20
-3284.536273457341
 30
0.0
 11
17187.12561829388
 21
-3220.536272503667
 31
0.0
 70
    32
  1
74
 71
     5
 42
222.0000033080578
  3
1-20
100
AcDbAlignedDimension
 13
17076.12561663985
 23
-3405.101462255858
 33
0.0
 14
17298.12561994791
 24
-3405.101462255858
 34
0.0
100
AcDbRotatedDimension
  0
DIMENSION
  5
E87
330
22
100
AcDbEntity
  8
寸法線
 48
20.0
100
AcDbDimension
  2
*D17
 10
17512.47150381709
 20
-3405.101462255859
 30
0.0
 11
17448.47150286342
 21
-3201.101461302181
 31
0.0
 70
    32
  1
29
 71
     5
 42
87.00000129640102
  3
1-20
100
AcDbAlignedDimension
 13
17298.12561994791
 23
-3492.101463552259
 33
0.0
 14
17298.12561994791
 24
-3405.101462255858
 34
0.0
 50
90.0
100
AcDbRotatedDimension
  0
DIMENSION
  5
E88
330
22
100
AcDbEntity
  8
寸法線
 48
20.0
100
AcDbDimension
  2
*D18
 10
17647.04599773228
 20
-3405.101462255859
 30
0.0
 11
17583.04599677861
 21
-3201.101461302181
 31
0.0
 70
    32
  1
34
 71
     5
 42
102.0000015199184
  3
1-20
100
AcDbAlignedDimension
 13
17277.12561979304
 23
-3507.101463775776
 33
0.0
 14
17298.12561994791
 24
-3405.101462255858
 34
0.0
 50
90.0
100
AcDbRotatedDimension
  0
LEADER
  5
E89
330
22
100
AcDbEntity
  8
0
 48
20.0
100
AcDbLeader
  3
1-20
 40
60.0
 41
128.0
 76
     3
 10
16986.12561529875
 20
-3237.101459752463
 30
0.0
 10
17174.08313070223
 20
-3098.307776567234
 30
0.0
 10
17428.37912766096
 20
-3098.307776567234
 30
0.0
213
0.0
223
-30.0
233
0.0
1001
ACAD
1000
DSTYLE
1002
{
1070
   147
1040
1.7
1070
    77
1070
     0
1002
}
  0
TEXT
  5
E8A
330
22
100
AcDbEntity
  8
0
 48
20.0
100
AcDbText
 10
17262.58655616233
 20
-3084.992325464124
 30
0.0
 40
50.0
  1
融着
100
AcDbText
  0
LEADER
  5
E8B
330
22
100
AcDbEntity
  8
0
 48
20.0
100
AcDbLeader
  3
1-20
 73
     0
 40
50.00000000000001
 41
576.6666666666667
 76
     3
 10
17048.39570813997
 20
-3457.796631343792
 30
0.0
 10
17012.47323086735
 20
-3645.395570740182
 30
0.0
 10
16363.74775465206
 20
-3645.395570740182
 30
0.0
213
-630.7642940170335
223
-12.23518956713815
233
0.0
1001
ACAD
1000
DSTYLE
1002
{
1070
    41
1040
3.0
1070
   341
1005
DBC
1070
   147
1040
1.7
1070
    77
1070
     0
1002
}
  0
MTEXT
  5
E8C
102
{ACAD_REACTORS
330
E8B
102
}
330
22
100
AcDbEntity
  8
0
 48
20.0
100
AcDbMText
 10
16960.5120486691
 20
-3633.160381173044
 30
0.0
 40
50.0
 41
0.0
 71
     9
 72
     1
  1
融着アンカープレート
 73
     1
 44
1.0
  0
LEADER
  5
E8D
330
22
100
AcDbEntity
  8
0
 48
20.0
100
AcDbLeader
  3
1-20
 73
     0
 40
50.00000000000002
 41
530.0
 76
     3
 10
17186.17428362513
 20
-2691.348331902088
 30
0.0
 10
17387.2385015862
 20
-2363.679386866983
 30
0.0
 10
18017.55236356286
 20
-2363.679386866983
 30
0.0
213
610.6165326256159
223
-69.36156580858369
233
0.0
1001
ACAD
1000
DSTYLE
1002
{
1070
   147
1040
1.7
1070
    77
1070
     0
1002
}
  0
MTEXT
  5
E8E
102
{ACAD_REACTORS
330
E8D
102
}
330
22
100
AcDbEntity
  8
0
 48
20.0
100
AcDbMText
 10
17440.93583093724
 20
-2294.317821058399
 30
0.0
 40
50.0
 41
0.0
 71
     1
 72
     1
  1
20×30アンカー穴
 73
     1
 44
1.0
  0
TEXT
  5
E8F
330
22
100
AcDbEntity
  8
0
 48
20.0
100
AcDbText
 10
16881.7233239515
 20
-3772.593580517269
 30
0.0
 40
60.0
  1
融着アンカープレート詳細図
100
AcDbText
  0
LWPOLYLINE
  5
E90
330
22
100
AcDbEntity
  8
0
 48
20.0
100
AcDbPolyline
 90
        2
 70
     0
 43
0.0
 10
16838.23521381613
 20
-3791.271272336837
 10
17836.12351870842
 20
-3791.271272336837
  0
LWPOLYLINE
  5
E91
330
22
100
AcDbEntity
  8
0
 48
20.0
100
AcDbPolyline
 90
        2
 70
     0
 43
0.0
 10
16838.23521381613
 20
-3798.126363277797
 10
17836.12351870842
 20
-3798.126363277797
  0
LEADER
  5
E92
330
22
100
AcDbEntity
  8
0
 48
20.0
100
AcDbLeader
  3
1-20
 73
     0
 40
50.0
 41
495.4761904761905
 76
     3
 10
17298.12561994791
 20
-3405.101462255858
 30
0.0
 10
17464.04474332921
 20
-3098.296968194964
 30
0.0
 10
18026.05430675326
 20
-3098.296968194964
 30
0.0
213
554.906434777411
223
-62.34703876862113
233
0.0
1001
ACAD
1000
DSTYLE
1002
{
1070
   147
1040
1.7
1070
    77
1070
     0
1002
}
  0
MTEXT
  5
E93
102
{ACAD_REACTORS
330
E92
102
}
330
22
100
AcDbEntity
  8
0
 48
20.0
100
AcDbMText
 10
17505.14787197585
 20
-3035.949929426343
 30
0.0
 40
50.0
 41
0.0
 71
     1
 72
     1
  1
押え金具（ＳＵＳ）
 73
     1
 44
1.0
  0
TEXT
  5
E94
330
22
100
AcDbEntity
  8
0
  6
Continuous
 48
20.0
100
AcDbText
 10
15654.21966794283
 20
-4197.956004306766
 30
0.0
 40
60.0
  1
注記　１）タンク寸法公差：±１．５％
100
AcDbText
  0
TEXT
  5
E95
330
22
100
AcDbEntity
  8
0
  6
Continuous
 48
20.0
100
AcDbText
 10
15654.21966794283
 20
-4094.761784518241
 30
0.0
 40
60.0
  1
　　　２）アンカープレート融着公差：Ｐ．Ｃ．Ｄ\U+00b1１．５％
100
AcDbText
  0
LWPOLYLINE
  5
E96
330
22
100
AcDbEntity
  8
0
  6
Continuous
 48
20.0
100
AcDbPolyline
 90
        2
 70
     0
 43
0.0
 10
15519.34214343159
 20
-4242.673506521646
 10
18179.34214343159
 20
-4242.673506521646
  0
TEXT
  5
E97
330
22
100
AcDbEntity
  8
0
  6
Continuous
 48
20.0
100
AcDbText
 10
16358.04085713725
 20
-3707.926827416373
 30
0.0
 40
50.0
  1
（ＰＥ製）
100
AcDbText
  0
ARC
  5
ECD
330
22
100
AcDbEntity
  8
0
 48
20.0
100
AcDbCircle
 10
17156.17428362513
 20
-2721.348331902087
 30
0.0
 40
30.00000000000182
100
AcDbArc
 50
90.0
 51
270.0
  0
ARC
  5
ECE
330
22
100
AcDbEntity
  8
0
 48
20.0
100
AcDbCircle
 10
17186.17428362512
 20
-2721.348331902088
 30
0.0
 40
30.00000000000091
100
AcDbArc
 50
270.0
 51
90.0
  0
INSERT
  5
F9C
102
{ACAD_REACTORS
330
FC6
102
}
330
22
100
AcDbEntity
  8
0
100
AcDbBlockReference
  2
ＬＡアンカープレート
 10
16390.78999290242
 20
-915.608078363504
 30
0.0
 50
315.0
  0
INSERT
  5
FA0
102
{ACAD_REACTORS
330
FC6
102
}
330
22
100
AcDbEntity
  8
0
100
AcDbBlockReference
  2
ＬＡアンカープレート
 10
15160.42419363783
 20
-915.6080783635019
 30
0.0
 50
45.0
  0
INSERT
  5
FA1
102
{ACAD_REACTORS
330
FC6
102
}
330
22
100
AcDbEntity
  8
0
100
AcDbBlockReference
  2
ＬＡアンカープレート
 10
15160.42419363782
 20
-2145.973877628095
 30
0.0
 50
134.9999999999999
  0
INSERT
  5
FA2
102
{ACAD_REACTORS
330
FC6
102
}
330
22
100
AcDbEntity
  8
0
100
AcDbBlockReference
  2
ＬＡアンカープレート
 10
16390.78999290241
 20
-2145.973877628099
 30
0.0
 50
225.0
  0
TEXT
  5
FA3
330
22
100
AcDbEntity
  8
0
 48
20.0
100
AcDbText
 10
15752.97939820497
 20
-445.2668994840356
 30
0.0
 40
60.0
  1
０°
100
AcDbText
  0
TEXT
  5
FA4
330
22
100
AcDbEntity
  8
0
 48
20.0
100
AcDbText
 10
16570.97977121535
 20
-746.4354187725554
 30
0.0
 40
60.0
  1
４５°
100
AcDbText
  0
TEXT
  5
FA5
330
22
100
AcDbEntity
  8
0
 48
20.0
100
AcDbText
 10
17400.30657797763
 20
-1558.108443393474
 30
0.0
 40
60.0
  1
９０°
100
AcDbText
  0
TEXT
  5
FA6
330
22
100
AcDbEntity
  8
0
 48
20.0
100
AcDbText
 10
16431.89192655103
 20
-2377.220718190409
 30
0.0
 40
60.0
  1
１３５°
100
AcDbText
  0
TEXT
  5
FA7
330
22
100
AcDbEntity
  8
0
 48
20.0
100
AcDbText
 10
15672.06782093571
 20
-2588.761675685165
 30
0.0
 40
60.0
  1
１８０°
100
AcDbText
  0
TEXT
  5
FA8
330
22
100
AcDbEntity
  8
0
 48
20.0
100
AcDbText
 10
14824.43359008815
 20
-2459.798142417146
 30
0.0
 40
60.0
  1
２２５°
100
AcDbText
  0
TEXT
  5
FA9
330
22
100
AcDbEntity
  8
0
 48
20.0
100
AcDbText
 10
14460.54470765238
 20
-1571.038698165401
 30
0.0
 40
60.0
  1
２８０°
100
AcDbText
  0
TEXT
  5
FAA
330
22
100
AcDbEntity
  8
0
 48
20.0
100
AcDbText
 10
14832.37819084819
 20
-696.093875297142
 30
0.0
 40
60.0
  1
３１５°
100
AcDbText
  0
INSERT
  5
1009
330
22
100
AcDbEntity
  8
0
100
AcDbBlockReference
  2
ＬＡアンカープレート　正面図
 10
12842.64424073903
 20
-4923.270259487002
 30
0.0
  0
LEADER
  5
1013
330
22
100
AcDbEntity
  8
0
  6
Continuous
 48
20.0
100
AcDbLeader
  3
1-20
 73
     0
 40
60.00000000000003
 41
756.0000000000002
 76
     3
 10
12911.4310382405
 20
-4923.270259487
 30
0.0
 10
12958.62953206476
 20
-5373.401313868921
 30
0.0
 10
13797.57055926567
 20
-5373.401313868921
 30
0.0
340
1014
213
828.5217605561483
223
-79.97038719720149
233
0.0
1001
ACAD
1000
DSTYLE
1002
{
1070
   147
1040
1.7
1070
    77
1070
     0
1002
}
  0
MTEXT
  5
1014
102
{ACAD_REACTORS
330
1013
102
}
330
22
100
AcDbEntity
  8
0
  6
Continuous
 48
20.0
100
AcDbMText
 10
13003.04879870952
 20
-5293.430926671719
 30
0.0
 40
60.0
 41
0.0
 71
     1
 72
     1
  1
4-20×30アンカー穴
 73
     1
 44
1.0
  0
ENDSEC
  0
SECTION
  2
OBJECTS
  0
DICTIONARY
  5
C
330
0
100
AcDbDictionary
281
     1
  3
ACAD_COLOR
350
1B
  3
ACAD_GROUP
350
D
  3
ACAD_LAYOUT
350
19
  3
ACAD_MATERIAL
350
1A
  3
ACAD_MLINESTYLE
350
16
  3
ACAD_PLOTSETTINGS
350
18
  3
ACAD_PLOTSTYLENAME
350
E
  3
ACAD_TABLESTYLE
350
1C
  3
AcDbVariableDictionary
350
9D8
  0
DICTIONARY
  5
811
330
2
100
AcDbDictionary
280
     1
281
     1
  3
ACAD_LAYERFILTERS
360
9F5
  3
ACAD_LAYERSTATES
360
DC2
  3
ACLYDICTIONARY
360
9F4
  0
DICTIONARY
  5
9DB
330
22
100
AcDbDictionary
280
     1
281
     1
  3
ACAD_SORTENTS
360
9DC
  0
DICTIONARY
  5
1B
102
{ACAD_REACTORS
330
C
102
}
330
C
100
AcDbDictionary
281
     1
  0
DICTIONARY
  5
D
102
{ACAD_REACTORS
330
C
102
}
330
C
100
AcDbDictionary
281
     1
  3
ＬＡ
350
FC6
  3
梯子
350
BE1
  3
梯子２
350
BE2
  3
梯子３
350
BF5
  0
DICTIONARY
  5
19
102
{ACAD_REACTORS
330
C
102
}
330
C
100
AcDbDictionary
281
     1
  3
Model
350
25
  3
レイアウト1
350
21
  0
DICTIONARY
  5
1A
102
{ACAD_REACTORS
330
C
102
}
330
C
100
AcDbDictionary
281
     1
  0
DICTIONARY
  5
16
102
{ACAD_REACTORS
330
C
102
}
330
C
100
AcDbDictionary
281
     1
  3
Standard
350
17
  0
DICTIONARY
  5
18
102
{ACAD_REACTORS
330
C
102
}
330
C
100
AcDbDictionary
281
     1
  0
ACDBDICTIONARYWDFLT
  5
E
102
{ACAD_REACTORS
330
C
102
}
330
C
100
AcDbDictionary
281
     1
  3
Normal
350
F
100
AcDbDictionaryWithDefault
340
F
  0
DICTIONARY
  5
1C
102
{ACAD_REACTORS
330
C
102
}
330
C
100
AcDbDictionary
281
     1
  3
Standard
350
1D
  0
DICTIONARY
  5
9D8
102
{ACAD_REACTORS
330
C
102
}
330
C
100
AcDbDictionary
281
     1
  3
CTABLESTYLE
350
9D9
  0
DICTIONARY
  5
9F5
102
{ACAD_REACTORS
330
811
102
}
330
811
100
AcDbDictionary
281
     1
  0
DICTIONARY
  5
DC2
102
{ACAD_REACTORS
330
811
102
}
330
811
100
AcDbDictionary
281
     1
  0
DICTIONARY
  5
9F4
102
{ACAD_REACTORS
330
811
102
}
330
811
100
AcDbDictionary
281
     1
1001
ACAD
1000
<All
  0
SORTENTSTABLE
  5
9DC
102
{ACAD_REACTORS
330
9DB
102
}
330
9DB
100
AcDbSortentsTable
330
22
331
902
  5
909
331
941
  5
948
331
978
  5
97F
331
3D5
  5
3D7
331
65C
  5
661
331
E78
  5
E79
331
90A
  5
911
331
949
  5
950
331
980
  5
987
331
9BF
  5
9C6
331
3DD
  5
3DF
331
70B
  5
712
331
E80
  5
E81
331
988
  5
98F
331
912
  5
919
331
951
  5
958
331
9C7
  5
9CE
331
E88
  5
E89
331
91A
  5
921
331
990
  5
997
331
9CF
  5
9D6
331
674
  5
676
331
E90
  5
E91
331
3AE
  5
3AE
331
998
  5
99F
331
922
  5
929
331
959
  5
960
331
67C
  5
67E
331
3E5
  5
3E7
331
3B6
  5
3B6
331
B9C
  5
BC7
331
9A0
  5
9A7
331
92A
  5
931
331
961
  5
968
331
684
  5
686
331
E61
  5
E62
331
9A8
  5
9AF
331
932
  5
939
331
969
  5
970
331
4DD
  5
4DF
331
3C6
  5
3C6
331
E69
  5
E6A
331
8FB
  5
902
331
93A
  5
941
331
971
  5
978
331
9B0
  5
9B7
331
4E5
  5
4E7
331
E71
  5
E72
331
FA6
  5
FA7
331
903
  5
90A
331
942
  5
949
331
979
  5
980
331
9B8
  5
9BF
331
704
  5
709
331
65D
  5
662
331
3D6
  5
3D8
331
E79
  5
E7A
331
9FF
  5
A8B
331
90B
  5
912
331
94A
  5
951
331
981
  5
988
331
9C0
  5
9C7
331
70C
  5
72F
331
3DE
  5
3E0
331
E81
  5
E82
331
989
  5
990
331
913
  5
91A
331
952
  5
959
331
9C8
  5
9CF
331
3A7
  5
3A7
331
E89
  5
E8A
331
91B
  5
922
331
991
  5
998
331
675
  5
677
331
E91
  5
E92
331
3AF
  5
3AF
331
999
  5
9A0
331
9D0
  5
9DA
331
923
  5
92A
331
95A
  5
961
331
67D
  5
67F
331
3E6
  5
3E8
331
9A1
  5
9A8
331
92B
  5
932
331
962
  5
969
331
685
  5
687
331
E62
  5
E63
331
9A9
  5
9B0
331
933
  5
93A
331
96A
  5
971
331
9E0
  5
70D
331
4DE
  5
4E0
331
E6A
  5
E6B
331
8FC
  5
903
331
93B
  5
942
331
972
  5
979
331
9B1
  5
9B8
331
4E6
  5
4E8
331
E72
  5
E73
331
FA7
  5
FA8
331
904
  5
90B
331
943
  5
94A
331
97A
  5
981
331
9B9
  5
9C0
331
705
  5
70B
331
3D7
  5
3D9
331
E7A
  5
E7B
331
90C
  5
913
331
94B
  5
952
331
982
  5
989
331
9C1
  5
9C8
331
3DF
  5
3E1
331
E82
  5
E83
331
98A
  5
991
331
914
  5
91B
331
953
  5
95A
331
9C9
  5
9D0
331
66E
  5
670
331
E8A
  5
E8B
331
91C
  5
923
331
992
  5
999
331
676
  5
678
331
E92
  5
E93
331
3A8
  5
3A8
331
99A
  5
9A1
331
9D1
  5
9DD
331
924
  5
92B
331
95B
  5
962
331
67E
  5
680
331
3E7
  5
3E9
331
E5B
  5
E5C
331
9A2
  5
9A9
331
92C
  5
933
331
963
  5
96A
331
686
  5
688
331
9AA
  5
9B1
331
934
  5
93B
331
96B
  5
972
331
4DF
  5
4E1
331
E63
  5
E64
331
FA0
  5
FA1
331
E6B
  5
E6C
331
4E7
  5
4E9
331
8FD
  5
904
331
93C
  5
943
331
973
  5
97A
331
9B2
  5
9B9
331
FA8
  5
FA9
331
E73
  5
E74
331
3D0
  5
3D0
331
905
  5
90C
331
944
  5
94B
331
97B
  5
982
331
9BA
  5
9C1
331
3D8
  5
3DA
331
706
  5
70C
331
E7B
  5
E7C
331
90D
  5
914
331
94C
  5
953
331
983
  5
98A
331
9C2
  5
9C9
331
E83
  5
E84
331
98B
  5
992
331
915
  5
91C
331
954
  5
95B
331
9CA
  5
9D1
331
66F
  5
672
331
E8B
  5
E8C
331
91D
  5
924
331
993
  5
99A
331
677
  5
679
331
E93
  5
E94
331
3E0
  5
3E2
331
A19
  5
AB0
331
99B
  5
9A2
331
9D2
  5
9DE
331
925
  5
92C
331
95C
  5
963
331
3B9
  5
3B9
331
67F
  5
681
331
E5C
  5
E5D
331
9A3
  5
9AA
331
92D
  5
934
331
964
  5
96B
331
9DA
  5
704
331
687
  5
689
331
E64
  5
E65
331
9AB
  5
9B2
331
935
  5
93C
331
96C
  5
973
331
9E2
  5
9E4
331
4E0
  5
4E2
331
FA1
  5
FA2
331
BC7
  5
BF6
331
E6C
  5
E6D
331
8FE
  5
905
331
93D
  5
944
331
974
  5
97B
331
9B3
  5
9BA
331
6FF
  5
705
331
FA9
  5
FAA
331
E74
  5
E75
331
3C9
  5
3C9
331
3D1
  5
3D3
331
906
  5
90D
331
945
  5
94C
331
97C
  5
983
331
9BB
  5
9C2
331
3D9
  5
3DB
331
707
  5
70E
331
E7C
  5
E7D
331
90E
  5
915
331
94D
  5
954
331
984
  5
98B
331
9C3
  5
9CA
331
E84
  5
E85
331
9CB
  5
9D2
331
98C
  5
993
331
72F
  5
900
331
916
  5
91D
331
955
  5
95C
331
670
  5
673
331
E8C
  5
E8D
331
91E
  5
925
331
994
  5
99B
331
E94
  5
E95
331
678
  5
67A
331
3E1
  5
3E3
331
99C
  5
9A3
331
9D3
  5
9DF
331
926
  5
92D
331
95D
  5
964
331
3BA
  5
3BA
331
680
  5
682
331
E5D
  5
E5E
331
9A4
  5
9AB
331
92E
  5
935
331
965
  5
96C
331
3C2
  5
3C2
331
688
  5
68A
331
E65
  5
E66
331
9AC
  5
9B3
331
936
  5
93D
331
96D
  5
974
331
9E3
  5
9FF
331
4E1
  5
4E3
331
FA2
  5
FA3
331
E6D
  5
E6E
331
8FF
  5
906
331
93E
  5
945
331
975
  5
97C
331
9B4
  5
9BB
331
FAA
  5
1009
331
1009
  5
A0C
331
E75
  5
E76
331
3CA
  5
3CA
331
700
  5
706
331
3D2
  5
3D4
331
659
  5
65B
331
907
  5
90E
331
946
  5
94D
331
97D
  5
984
331
9BC
  5
9C3
331
708
  5
70F
331
3DA
  5
3DC
331
661
  5
663
331
E7D
  5
E7E
331
90F
  5
916
331
94E
  5
955
331
985
  5
98C
331
9C4
  5
9CB
331
E85
  5
E86
331
9CC
  5
9D3
331
98D
  5
994
331
917
  5
91E
331
956
  5
95D
331
E8D
  5
E8E
331
91F
  5
926
331
995
  5
99C
331
E95
  5
E96
331
3AB
  5
3AB
331
679
  5
67B
331
3E2
  5
3E4
331
99D
  5
9A4
331
9D4
  5
9E0
331
927
  5
92E
331
95E
  5
965
331
3BB
  5
3BB
331
681
  5
683
331
ECD
  5
ECE
331
E5E
  5
E5F
331
9A5
  5
9AC
331
92F
  5
936
331
966
  5
96D
331
3C3
  5
3C3
331
689
  5
68B
331
E66
  5
E67
331
A8B
  5
ABD
331
9AD
  5
9B4
331
9E4
  5
A19
331
937
  5
93E
331
96E
  5
975
331
4E2
  5
4E4
331
FA3
  5
FA4
331
E6E
  5
E6F
331
93F
  5
946
331
976
  5
97D
331
9B5
  5
9BC
331
E76
  5
E77
331
3CB
  5
3CB
331
900
  5
907
331
701
  5
707
331
3D3
  5
3D5
331
65A
  5
65C
331
AA3
  5
AE4
331
908
  5
90F
331
947
  5
94E
331
97E
  5
985
331
9BD
  5
9C4
331
709
  5
710
331
3DB
  5
3DD
331
662
  5
664
331
E7E
  5
E7F
331
910
  5
917
331
94F
  5
956
331
986
  5
98D
331
9C5
  5
9CC
331
E86
  5
E87
331
A0C
  5
AA3
331
98E
  5
995
331
918
  5
91F
331
957
  5
95E
331
9CD
  5
9D4
331
672
  5
674
331
E8E
  5
E8F
331
996
  5
99D
331
E96
  5
E97
331
3AC
  5
3AC
331
920
  5
927
331
67A
  5
67C
331
3B4
  5
3B4
331
3E3
  5
3E5
331
99E
  5
9A5
331
9D5
  5
9E1
331
928
  5
92F
331
95F
  5
966
331
682
  5
684
331
ECE
  5
F9C
331
E5F
  5
E60
331
9A6
  5
9AD
331
930
  5
937
331
967
  5
96E
331
68A
  5
68C
331
D48
  5
E5B
331
E67
  5
E68
331
9AE
  5
9B5
331
938
  5
93F
331
96F
  5
976
331
4E3
  5
4E5
331
F9C
  5
FA0
331
E6F
  5
E70
331
977
  5
97E
331
9B6
  5
9BD
331
FA4
  5
FA5
331
E77
  5
E78
331
901
  5
908
331
940
  5
947
331
702
  5
708
331
3D4
  5
3D6
331
65B
  5
65D
331
909
  5
910
331
948
  5
94F
331
97F
  5
986
331
9BE
  5
9C5
331
70A
  5
711
331
3DC
  5
3DE
331
663
  5
668
331
E7F
  5
E80
331
987
  5
98E
331
911
  5
918
331
950
  5
957
331
9C6
  5
9CD
331
E87
  5
E88
331
919
  5
920
331
98F
  5
996
331
9CE
  5
9D5
331
673
  5
675
331
E8F
  5
E90
331
997
  5
99E
331
E97
  5
ECD
331
3AD
  5
3AD
331
921
  5
928
331
958
  5
95F
331
67B
  5
67D
331
3B5
  5
3B5
331
3E4
  5
3E6
331
99F
  5
9A6
331
9D6
  5
9E2
331
929
  5
930
331
960
  5
967
331
683
  5
685
331
444
  5
4DD
331
E60
  5
E61
331
9A7
  5
9AE
331
931
  5
938
331
968
  5
96F
331
68B
  5
68D
331
4DC
  5
4DE
331
E68
  5
E69
331
939
  5
940
331
970
  5
977
331
9AF
  5
9B6
331
4E4
  5
4E6
331
E70
  5
E71
331
9B7
  5
9BE
331
FA5
  5
FA6
  0
GROUP
  5
FC6
102
{ACAD_REACTORS
330
D
102
}
330
D
100
AcDbGroup
300

 70
     0
 71
     1
340
FA1
340
FA2
340
F9C
340
FA0
  0
GROUP
  5
BE1
102
{ACAD_REACTORS
330
D
102
}
330
D
100
AcDbGroup
300

 70
     0
 71
     1
  0
GROUP
  5
BE2
102
{ACAD_REACTORS
330
D
102
}
330
D
100
AcDbGroup
300

 70
     0
 71
     1
  0
GROUP
  5
BF5
102
{ACAD_REACTORS
330
D
102
}
330
D
100
AcDbGroup
300

 70
     0
 71
     1
  0
LAYOUT
  5
25
102
{ACAD_REACTORS
330
19
102
}
330
19
100
AcDbPlotSettings
  1

  2
DocuCentre-II C2200
  4
A3
  6

 40
4.857749938964843
 41
4.942420959472656
 42
4.9423828125
 43
4.857757568359375
 44
297.0106506347656
 45
420.0313415527343
 46
0.0
 47
0.0
 48
10119.34214343159
 49
-5640.30026222538
140
18179.3421434316
141
-40.30026222538071
142
1.0
143
20.89059984369346
 70
 11952
 72
     1
 73
     1
 74
     2
  7
monochrome.ctb
 75
     0
147
0.0478684196472168
 76
     0
 77
     2
 78
   300
148
-9919.342143431597
149
5840.300262225381
100
AcDbLayout
  1
Model
 70
     1
 71
     0
 10
0.0
 20
0.0
 11
12.0
 21
9.0
 12
0.0
 22
0.0
 32
0.0
 14
0.0
 24
0.0
 34
0.0
 15
0.0
 25
0.0
 35
0.0
146
0.0
 13
0.0
 23
0.0
 33
0.0
 16
1.0
 26
0.0
 36
0.0
 17
0.0
 27
1.0
 37
0.0
 76
     0
330
22
1001
ACAD_PSEXT
1000
DocuCentre-II C2200
1000
FX DocuCentre-II C2200
1000
192.168.8.52
1000

1070
     0
  0
LAYOUT
  5
21
102
{ACAD_REACTORS
330
19
102
}
330
19
100
AcDbPlotSettings
  1

  2
DocuCentre-II C2200
  4

  6

 40
0.0
 41
0.0
 42
0.0
 43
0.0
 44
0.0
 45
0.0
 46
0.0
 47
0.0
 48
0.0
 49
0.0
140
0.0
141
0.0
142
1.0
143
1.0
 70
   688
 72
     0
 73
     0
 74
     5
  7
monochrome.ctb
 75
    16
147
1.0
 76
     0
 77
     2
 78
   300
148
0.0
149
0.0
100
AcDbLayout
  1
レイアウト1
 70
     1
 71
     1
 10
-144.1413879394531
 20
-67.9833984375
 11
277.8586120605469
 21
231.0166015625
 12
0.0
 22
0.0
 32
0.0
 14
-144.1413879394531
 24
-67.9833984375
 34
0.0
 15
277.8586120605469
 25
231.0166015625
 35
0.0
146
0.0
 13
0.0
 23
0.0
 33
0.0
 16
1.0
 26
0.0
 36
0.0
 17
0.0
 27
1.0
 37
0.0
 76
     0
330
1E
  0
MLINESTYLE
  5
17
102
{ACAD_REACTORS
330
16
102
}
330
16
100
AcDbMlineStyle
  2
STANDARD
 70
     0
  3

 62
   256
 51
90.0
 52
90.0
 71
     2
 49
0.5
 62
   256
  6
BYLAYER
 49
-0.5
 62
   256
  6
BYLAYER
  0
ACDBPLACEHOLDER
  5
F
102
{ACAD_REACTORS
330
E
102
}
330
E
  0
TABLESTYLE
  5
1D
102
{ACAD_REACTORS
330
1C
102
}
330
1C
100
AcDbTableStyle
  3
Standard
 70
     0
 71
     0
 40
0.06
 41
0.06
280
     0
281
     0
  7
STANDARD
140
0.18
170
     2
 62
     0
 63
     7
283
     0
274
    -2
284
     1
 64
     0
275
    -2
285
     1
 65
     0
276
    -2
286
     1
 66
     0
277
    -2
287
     1
 67
     0
278
    -2
288
     1
 68
     0
279
    -2
289
     1
 69
     0
  7
STANDARD
140
0.25
170
     5
 62
     0
 63
     7
283
     0
274
    -2
284
     1
 64
     0
275
    -2
285
     1
 65
     0
276
    -2
286
     1
 66
     0
277
    -2
287
     1
 67
     0
278
    -2
288
     1
 68
     0
279
    -2
289
     1
 69
     0
  7
STANDARD
140
0.18
170
     5
 62
     0
 63
     7
283
     0
274
    -2
284
     1
 64
     0
275
    -2
285
     1
 65
     0
276
    -2
286
     1
 66
     0
277
    -2
287
     1
 67
     0
278
    -2
288
     1
 68
     0
279
    -2
289
     1
 69
     0
  0
DICTIONARYVAR
  5
9D9
102
{ACAD_REACTORS
330
9D8
102
}
330
9D8
100
DictionaryVariables
280
     0
  1
STANDARD
  0
ENDSEC
  0
EOF
