  0
SECTION
  2
HEADER
  9
$ACADVER
  1
AC1018
  9
$ACADMAINTVER
 70
    39
  9
$DWGCODEPAGE
  3
ANSI_932
  9
$INSBASE
 10
0.0
 20
0.0
 30
0.0
  9
$EXTMIN
 10
1523.597553998026
 20
1554.321756044566
 30
0.0
  9
$EXTMAX
 10
10705.62957180134
 20
7554.321756044567
 30
0.0
  9
$LIMMIN
 10
-144.1413879999999
 20
-67.98339799999999
  9
$LIMMAX
 10
277.858612
 20
231.016602
  9
$ORTHOMODE
 70
     0
  9
$REGENMODE
 70
     1
  9
$FILLMODE
 70
     1
  9
$QTEXTMODE
 70
     0
  9
$MIRRTEXT
 70
     0
  9
$LTSCALE
 40
20.0
  9
$ATTMODE
 70
     1
  9
$TEXTSIZE
 40
60.0
  9
$TRACEWID
 40
0.05
  9
$TEXTSTYLE
  7
STANDARD
  9
$CLAYER
  8
0
  9
$CELTYPE
  6
BYLAYER
  9
$CECOLOR
 62
   256
  9
$CELTSCALE
 40
1.0
  9
$DISPSILH
 70
     0
  9
$DIMSCALE
 40
20.0
  9
$DIMASZ
 40
1.0
  9
$DIMEXO
 40
2.0
  9
$DIMDLI
 40
0.38
  9
$DIMRND
 40
0.0
  9
$DIMDLE
 40
0.0
  9
$DIMEXE
 40
3.0
  9
$DIMTP
 40
0.0
  9
$DIMTM
 40
0.0
  9
$DIMTXT
 40
3.0
  9
$DIMCEN
 40
0.09
  9
$DIMTSZ
 40
0.0
  9
$DIMTOL
 70
     0
  9
$DIMLIM
 70
     0
  9
$DIMTIH
 70
     0
  9
$DIMTOH
 70
     0
  9
$DIMSE1
 70
     0
  9
$DIMSE2
 70
     0
  9
$DIMTAD
 70
     1
  9
$DIMZIN
 70
     8
  9
$DIMBLK
  1
OPEN30
  9
$DIMASO
 70
     1
  9
$DIMSHO
 70
     0
  9
$DIMPOST
  1

  9
$DIMAPOST
  1

  9
$DIMALT
 70
     0
  9
$DIMALTD
 70
     3
  9
$DIMALTF
 40
0.03937007874016
  9
$DIMLFAC
 40
1.0
  9
$DIMTOFL
 70
     1
  9
$DIMTVP
 40
0.0
  9
$DIMTIX
 70
     0
  9
$DIMSOXD
 70
     0
  9
$DIMSAH
 70
     0
  9
$DIMBLK1
  1

  9
$DIMBLK2
  1

  9
$DIMSTYLE
  2
1-20
  9
$DIMCLRD
 70
     0
  9
$DIMCLRE
 70
     0
  9
$DIMCLRT
 70
     0
  9
$DIMTFAC
 40
1.0
  9
$DIMGAP
 40
1.7
  9
$DIMJUST
 70
     0
  9
$DIMSD1
 70
     0
  9
$DIMSD2
 70
     0
  9
$DIMTOLJ
 70
     0
  9
$DIMTZIN
 70
     8
  9
$DIMALTZ
 70
     0
  9
$DIMALTTZ
 70
     0
  9
$DIMUPT
 70
     0
  9
$DIMDEC
 70
     1
  9
$DIMTDEC
 70
     1
  9
$DIMALTU
 70
     2
  9
$DIMALTTD
 70
     3
  9
$DIMTXSTY
  7
STANDARD
  9
$DIMAUNIT
 70
     0
  9
$DIMADEC
 70
     0
  9
$DIMALTRND
 40
0.0
  9
$DIMAZIN
 70
     2
  9
$DIMDSEP
 70
    46
  9
$DIMATFIT
 70
     3
  9
$DIMFRAC
 70
     0
  9
$DIMLDRBLK
  1
OPEN30
  9
$DIMLUNIT
 70
     2
  9
$DIMLWD
 70
    -2
  9
$DIMLWE
 70
    -2
  9
$DIMTMOVE
 70
     0
  9
$LUNITS
 70
     2
  9
$LUPREC
 70
     4
  9
$SKETCHINC
 40
0.1
  9
$FILLETRAD
 40
0.0
  9
$AUNITS
 70
     0
  9
$AUPREC
 70
     0
  9
$MENU
  1
.
  9
$ELEVATION
 40
0.0
  9
$PELEVATION
 40
0.0
  9
$THICKNESS
 40
0.0
  9
$LIMCHECK
 70
     0
  9
$CHAMFERA
 40
0.0
  9
$CHAMFERB
 40
0.0
  9
$CHAMFERC
 40
0.0
  9
$CHAMFERD
 40
0.0
  9
$SKPOLY
 70
     0
  9
$TDCREATE
 40
2455237.534097940
  9
$TDUCREATE
 40
2455237.159097940
  9
$TDUPDATE
 40
2457892.719898993
  9
$TDUUPDATE
 40
2457892.344898993
  9
$TDINDWG
 40
0.0511777546
  9
$TDUSRTIMER
 40
0.0511777546
  9
$USRTIMER
 70
     1
  9
$ANGBASE
 50
0.0
  9
$ANGDIR
 70
     0
  9
$PDMODE
 70
     0
  9
$PDSIZE
 40
0.0
  9
$PLINEWID
 40
0.0
  9
$SPLFRAME
 70
     0
  9
$SPLINETYPE
 70
     6
  9
$SPLINESEGS
 70
     8
  9
$HANDSEED
  5
F01
  9
$SURFTAB1
 70
     6
  9
$SURFTAB2
 70
     6
  9
$SURFTYPE
 70
     6
  9
$SURFU
 70
     6
  9
$SURFV
 70
     6
  9
$UCSBASE
  2

  9
$UCSNAME
  2

  9
$UCSORG
 10
0.0
 20
0.0
 30
0.0
  9
$UCSXDIR
 10
1.0
 20
0.0
 30
0.0
  9
$UCSYDIR
 10
0.0
 20
1.0
 30
0.0
  9
$UCSORTHOREF
  2

  9
$UCSORTHOVIEW
 70
     0
  9
$UCSORGTOP
 10
0.0
 20
0.0
 30
0.0
  9
$UCSORGBOTTOM
 10
0.0
 20
0.0
 30
0.0
  9
$UCSORGLEFT
 10
0.0
 20
0.0
 30
0.0
  9
$UCSORGRIGHT
 10
0.0
 20
0.0
 30
0.0
  9
$UCSORGFRONT
 10
0.0
 20
0.0
 30
0.0
  9
$UCSORGBACK
 10
0.0
 20
0.0
 30
0.0
  9
$PUCSBASE
  2

  9
$PUCSNAME
  2

  9
$PUCSORG
 10
0.0
 20
0.0
 30
0.0
  9
$PUCSXDIR
 10
1.0
 20
0.0
 30
0.0
  9
$PUCSYDIR
 10
0.0
 20
1.0
 30
0.0
  9
$PUCSORTHOREF
  2

  9
$PUCSORTHOVIEW
 70
     0
  9
$PUCSORGTOP
 10
0.0
 20
0.0
 30
0.0
  9
$PUCSORGBOTTOM
 10
0.0
 20
0.0
 30
0.0
  9
$PUCSORGLEFT
 10
0.0
 20
0.0
 30
0.0
  9
$PUCSORGRIGHT
 10
0.0
 20
0.0
 30
0.0
  9
$PUCSORGFRONT
 10
0.0
 20
0.0
 30
0.0
  9
$PUCSORGBACK
 10
0.0
 20
0.0
 30
0.0
  9
$USERI1
 70
     0
  9
$USERI2
 70
     0
  9
$USERI3
 70
     0
  9
$USERI4
 70
     0
  9
$USERI5
 70
     0
  9
$USERR1
 40
0.0
  9
$USERR2
 40
0.0
  9
$USERR3
 40
0.0
  9
$USERR4
 40
0.0
  9
$USERR5
 40
0.0
  9
$WORLDVIEW
 70
     1
  9
$SHADEDGE
 70
     3
  9
$SHADEDIF
 70
    70
  9
$TILEMODE
 70
     1
  9
$MAXACTVP
 70
    64
  9
$PINSBASE
 10
0.0
 20
0.0
 30
0.0
  9
$PLIMCHECK
 70
     0
  9
$PEXTMIN
 10
-144.1413879999999
 20
-67.98339799999999
 30
0.0
  9
$PEXTMAX
 10
277.858612
 20
231.016602
 30
0.0
  9
$PLIMMIN
 10
-144.1413879999999
 20
-67.98339799999999
  9
$PLIMMAX
 10
277.858612
 20
231.016602
  9
$UNITMODE
 70
     0
  9
$VISRETAIN
 70
     1
  9
$PLINEGEN
 70
     0
  9
$PSLTSCALE
 70
     1
  9
$TREEDEPTH
 70
  3020
  9
$CMLSTYLE
  2
STANDARD
  9
$CMLJUST
 70
     0
  9
$CMLSCALE
 40
1.0
  9
$PROXYGRAPHICS
 70
     1
  9
$MEASUREMENT
 70
     1
  9
$CELWEIGHT
370
    -1
  9
$ENDCAPS
280
     0
  9
$JOINSTYLE
280
     0
  9
$LWDISPLAY
290
     0
  9
$INSUNITS
 70
     0
  9
$HYPERLINKBASE
  1

  9
$STYLESHEET
  1

  9
$XEDIT
290
     1
  9
$CEPSNTYPE
380
     0
  9
$PSTYLEMODE
290
     1
  9
$FINGERPRINTGUID
  2
{CFA15F10-05DA-4BC7-92AE-C1D75CC0E614}
  9
$VERSIONGUID
  2
{B68CC49C-F46C-44F7-BE00-EC686B6D9F2F}
  9
$EXTNAMES
290
     1
  9
$PSVPSCALE
 40
0.0
  9
$OLESTARTUP
290
     0
  9
$SORTENTS
280
   127
  9
$INDEXCTL
280
     0
  9
$HIDETEXT
280
     0
  9
$XCLIPFRAME
290
     0
  9
$HALOGAP
280
     0
  9
$OBSCOLOR
 70
   257
  9
$OBSLTYPE
280
     0
  9
$INTERSECTIONDISPLAY
280
     0
  9
$INTERSECTIONCOLOR
 70
   257
  9
$DIMASSOC
280
     1
  9
$PROJECTNAME
  1

  0
ENDSEC
  0
SECTION
  2
CLASSES
  0
CLASS
  1
ACDBDICTIONARYWDFLT
  2
AcDbDictionaryWithDefault
  3
ObjectDBX Classes
 90
        0
 91
        1
280
     0
281
     0
  0
CLASS
  1
TABLESTYLE
  2
AcDbTableStyle
  3
ObjectDBX Classes
 90
     2047
 91
        1
280
     0
281
     0
  0
CLASS
  1
SORTENTSTABLE
  2
AcDbSortentsTable
  3
ObjectDBX Classes
 90
        0
 91
        1
280
     0
281
     0
  0
CLASS
  1
DICTIONARYVAR
  2
AcDbDictionaryVar
  3
ObjectDBX Classes
 90
        0
 91
        1
280
     0
281
     0
  0
ENDSEC
  0
SECTION
  2
TABLES
  0
TABLE
  2
VPORT
  5
105
330
0
100
AcDbSymbolTable
 70
     2
  0
VPORT
  5
F00
330
105
100
AcDbSymbolTableRecord
100
AcDbViewportTableRecord
  2
*Active
 70
     0
 10
0.0
 20
0.0
 11
1.0
 21
1.0
 12
6369.858969785679
 22
4545.333766123767
 13
0.0
 23
0.0
 14
1.0
 24
1.0
 15
0.0
 25
0.0
 16
0.0
 26
0.0
 36
1.0
 17
0.0
 27
0.0
 37
0.0
 40
6381.255685291631
 41
1.822085889570552
 42
50.0
 43
0.0
 44
0.0
 50
0.0
 51
0.0
 71
     0
 72
  1000
 73
     1
 74
     3
 75
     0
 76
     0
 77
     0
 78
     0
281
     0
 65
     1
110
0.0
120
0.0
130
0.0
111
1.0
121
0.0
131
0.0
112
0.0
122
1.0
132
0.0
 79
     0
146
0.0
  0
ENDTAB
  0
TABLE
  2
LTYPE
  5
25
330
0
100
AcDbSymbolTable
 70
     3
  0
LTYPE
  5
26
330
25
100
AcDbSymbolTableRecord
100
AcDbLinetypeTableRecord
  2
BYBLOCK
 70
     0
  3

 72
    65
 73
     0
 40
0.0
  0
LTYPE
  5
27
330
25
100
AcDbSymbolTableRecord
100
AcDbLinetypeTableRecord
  2
BYLAYER
 70
     0
  3

 72
    65
 73
     0
 40
0.0
  0
LTYPE
  5
28
330
25
100
AcDbSymbolTableRecord
100
AcDbLinetypeTableRecord
  2
CONTINUOUS
 70
     0
  3
Solid line
 72
    65
 73
     0
 40
0.0
  0
LTYPE
  5
29
330
25
100
AcDbSymbolTableRecord
100
AcDbLinetypeTableRecord
  2
DASHED
 70
     0
  3
Dashed __ __ __ __ __ __ __ __ __ __ __ __ __ _
 72
    65
 73
     2
 40
4.5
 49
3.0
 74
     0
 49
-1.5
 74
     0
  0
LTYPE
  5
2A
330
25
100
AcDbSymbolTableRecord
100
AcDbLinetypeTableRecord
  2
CENTER
 70
     0
  3
Center ____ _ ____ _ ____ _ ____ _ ____ _ ____
 72
    65
 73
     4
 40
12.0
 49
7.5
 74
     0
 49
-1.5
 74
     0
 49
1.5
 74
     0
 49
-1.5
 74
     0
  0
ENDTAB
  0
TABLE
  2
LAYER
  5
C8
102
{ACAD_XDICTIONARY
360
4F9
102
}
330
0
100
AcDbSymbolTable
 70
     4
  0
LAYER
  5
C9
330
C8
100
AcDbSymbolTableRecord
100
AcDbLayerTableRecord
  2
0
 70
     0
 62
     7
  6
CONTINUOUS
370
    -3
390
4E2
  0
LAYER
  5
CB
330
C8
100
AcDbSymbolTableRecord
100
AcDbLayerTableRecord
  2
2
 70
     0
 62
     7
  6
CONTINUOUS
370
    -3
390
4E2
  0
LAYER
  5
CD
330
C8
100
AcDbSymbolTableRecord
100
AcDbLayerTableRecord
  2
DEFPOINTS
 70
     0
 62
     7
  6
CONTINUOUS
290
     0
370
    -3
390
4E2
  0
LAYER
  5
87E
330
C8
100
AcDbSymbolTableRecord
100
AcDbLayerTableRecord
  2
寸法線
 70
     0
 62
     8
  6
CONTINUOUS
370
    -3
390
4E2
1001
AcAecLayerStandard
1000

1000

  0
ENDTAB
  0
TABLE
  2
STYLE
  5
CE
330
0
100
AcDbSymbolTable
 70
     1
  0
STYLE
  5
23
330
CE
100
AcDbSymbolTableRecord
100
AcDbTextStyleTableRecord
  2
STANDARD
 70
     0
 40
0.0
 41
1.0
 50
0.0
 71
     0
 42
60.0
  3
txt.shx
  4
extfont.shx
  0
ENDTAB
  0
TABLE
  2
VIEW
  5
D3
330
0
100
AcDbSymbolTable
 70
     0
  0
ENDTAB
  0
TABLE
  2
UCS
  5
D4
330
0
100
AcDbSymbolTable
 70
     0
  0
ENDTAB
  0
TABLE
  2
APPID
  5
D1
330
0
100
AcDbSymbolTable
 70
     4
  0
APPID
  5
D2
330
D1
100
AcDbSymbolTableRecord
100
AcDbRegAppTableRecord
  2
ACAD
 70
     0
  0
APPID
  5
4F7
330
D1
100
AcDbSymbolTableRecord
100
AcDbRegAppTableRecord
  2
ACAD_PSEXT
 70
     0
  0
APPID
  5
76C
330
D1
100
AcDbSymbolTableRecord
100
AcDbRegAppTableRecord
  2
ACAD_DSTYLE_DIMTEXT_FILL
 70
     0
  0
APPID
  5
87F
330
D1
100
AcDbSymbolTableRecord
100
AcDbRegAppTableRecord
  2
AcAecLayerStandard
 70
     0
  0
ENDTAB
  0
TABLE
  2
DIMSTYLE
  5
CF
330
0
100
AcDbSymbolTable
 70
     1
100
AcDbDimStyleTable
 71
     1
340
4F3
  0
DIMSTYLE
105
4F3
102
{ACAD_REACTORS
330
B38
330
B45
330
B52
330
B5F
330
B79
330
B86
330
B93
330
BA0
330
BAE
330
BBD
330
BD5
330
E35
330
E6D
102
}
330
CF
100
AcDbSymbolTableRecord
100
AcDbDimStyleTableRecord
  2
1-20
 70
     0
 40
20.0
 41
1.0
 42
2.0
 44
3.0
 73
     0
 74
     0
 77
     1
 78
     8
 79
     2
140
3.0
143
0.03937007874016
147
1.7
171
     3
172
     1
271
     1
272
     1
274
     3
283
     0
284
     8
340
23
341
D9
342
D9
  0
ENDTAB
  0
TABLE
  2
BLOCK_RECORD
  5
D5
330
0
100
AcDbSymbolTable
 70
    14
  0
BLOCK_RECORD
  5
D6
102
{ACAD_XDICTIONARY
360
7EB
102
}
330
D5
100
AcDbSymbolTableRecord
100
AcDbBlockTableRecord
  2
*MODEL_SPACE
340
4E9
  0
BLOCK_RECORD
  5
D7
330
D5
100
AcDbSymbolTableRecord
100
AcDbBlockTableRecord
  2
*PAPER_SPACE
340
4EA
  0
BLOCK_RECORD
  5
D9
330
D5
100
AcDbSymbolTableRecord
100
AcDbBlockTableRecord
  2
_OPEN30
340
0
102
{BLKREFS
331
C84
331
C85
331
C8D
331
C8E
331
C96
331
C97
331
C9F
331
CA0
331
CA8
331
CA9
331
CB1
331
CB2
331
CC3
331
CC4
331
CCE
331
CCF
331
CD9
331
CDA
331
E2F
331
E30
331
E40
331
E4C
331
E4D
331
E86
331
E87
102
}
  0
BLOCK_RECORD
  5
B39
330
D5
100
AcDbSymbolTableRecord
100
AcDbBlockTableRecord
  2
*D1
340
0
  0
BLOCK_RECORD
  5
B46
330
D5
100
AcDbSymbolTableRecord
100
AcDbBlockTableRecord
  2
*D2
340
0
  0
BLOCK_RECORD
  5
B53
330
D5
100
AcDbSymbolTableRecord
100
AcDbBlockTableRecord
  2
*D3
340
0
  0
BLOCK_RECORD
  5
B60
330
D5
100
AcDbSymbolTableRecord
100
AcDbBlockTableRecord
  2
*D4
340
0
  0
BLOCK_RECORD
  5
B7A
330
D5
100
AcDbSymbolTableRecord
100
AcDbBlockTableRecord
  2
*D5
340
0
  0
BLOCK_RECORD
  5
B87
330
D5
100
AcDbSymbolTableRecord
100
AcDbBlockTableRecord
  2
*D6
340
0
  0
BLOCK_RECORD
  5
B94
330
D5
100
AcDbSymbolTableRecord
100
AcDbBlockTableRecord
  2
*D7
340
0
  0
BLOCK_RECORD
  5
BA1
330
D5
100
AcDbSymbolTableRecord
100
AcDbBlockTableRecord
  2
*D8
340
0
  0
BLOCK_RECORD
  5
BAF
330
D5
100
AcDbSymbolTableRecord
100
AcDbBlockTableRecord
  2
*D9
340
0
  0
BLOCK_RECORD
  5
BBE
330
D5
100
AcDbSymbolTableRecord
100
AcDbBlockTableRecord
  2
*D10
340
0
  0
BLOCK_RECORD
  5
BD6
330
D5
100
AcDbSymbolTableRecord
100
AcDbBlockTableRecord
  2
*D11
340
0
  0
BLOCK_RECORD
  5
E36
330
D5
100
AcDbSymbolTableRecord
100
AcDbBlockTableRecord
  2
*D12
340
0
  0
BLOCK_RECORD
  5
E6E
330
D5
100
AcDbSymbolTableRecord
100
AcDbBlockTableRecord
  2
*D13
340
0
  0
ENDTAB
  0
ENDSEC
  0
SECTION
  2
BLOCKS
  0
BLOCK
  5
106
330
D6
100
AcDbEntity
  8
0
100
AcDbBlockBegin
  2
*MODEL_SPACE
 70
     0
 10
0.0
 20
0.0
 30
0.0
  3
*MODEL_SPACE
  1

  0
ENDBLK
  5
107
330
D6
100
AcDbEntity
  8
0
100
AcDbBlockEnd
  0
BLOCK
  5
108
330
D7
100
AcDbEntity
 67
     1
  8
0
100
AcDbBlockBegin
  2
*PAPER_SPACE
 70
     0
 10
0.0
 20
0.0
 30
0.0
  3
*PAPER_SPACE
  1

  0
ENDBLK
  5
109
330
D7
100
AcDbEntity
 67
     1
  8
0
100
AcDbBlockEnd
  0
BLOCK
  5
10D
330
D9
100
AcDbEntity
  8
0
100
AcDbBlockBegin
  2
_OPEN30
 70
     0
 10
0.0
 20
0.0
 30
0.0
  3
_OPEN30
  1

  0
LINE
  5
10E
330
D9
100
AcDbEntity
  8
0
  6
ByBlock
 62
     0
100
AcDbLine
 10
0.0
 20
0.0
 30
0.0
 11
-2.999999954944513
 21
-0.9999999849815248
 31
0.0
  0
LINE
  5
10F
330
D9
100
AcDbEntity
  8
0
  6
ByBlock
 62
     0
100
AcDbLine
 10
0.0
 20
0.0
 30
0.0
 11
-2.999999954944526
 21
0.9999999849814884
 31
0.0
  0
LINE
  5
110
330
D9
100
AcDbEntity
  8
0
  6
ByBlock
 62
     0
100
AcDbLine
 10
0.0
 20
0.0
 30
0.0
 11
-2.99999995494452
 21
0.0
 31
0.0
  0
ENDBLK
  5
111
330
D9
100
AcDbEntity
  8
0
100
AcDbBlockEnd
  0
BLOCK
  5
B43
330
B39
100
AcDbEntity
  8
0
 48
20.0
100
AcDbBlockBegin
  2
*D1
 70
     1
 10
0.0
 20
0.0
 30
0.0
  3
*D1
  1

  0
LINE
  5
C81
330
B39
100
AcDbEntity
  8
寸法線
 62
     0
 48
20.0
370
    -2
100
AcDbLine
 10
3067.107973316625
 20
2660.200834817777
 30
0.0
 11
2884.672376511267
 21
2660.200834817777
 31
0.0
  0
LINE
  5
C82
330
B39
100
AcDbEntity
  8
寸法線
 62
     0
 48
20.0
370
    -2
100
AcDbLine
 10
3047.107973018601
 20
4310.200835413822
 30
0.0
 11
2884.672376511268
 21
4310.200835413822
 31
0.0
  0
LINE
  5
C83
330
B39
100
AcDbEntity
  8
寸法線
 62
     0
 48
20.0
370
    -2
100
AcDbLine
 10
2944.672376511267
 20
2680.200834817777
 30
0.0
 11
2944.672376511268
 21
4290.200835413823
 31
0.0
  0
INSERT
  5
C84
330
B39
100
AcDbEntity
  8
寸法線
 62
     0
 48
20.0
370
    -2
100
AcDbBlockReference
  2
_OPEN30
 10
2944.672376511267
 20
2660.200834817777
 30
0.0
 41
20.0
 42
20.0
 43
20.0
 50
270.0
  0
INSERT
  5
C85
330
B39
100
AcDbEntity
  8
寸法線
 62
     0
 48
20.0
370
    -2
100
AcDbBlockReference
  2
_OPEN30
 10
2944.672376511268
 20
4310.200835413822
 30
0.0
 41
20.0
 42
20.0
 43
20.0
 50
90.0
  0
MTEXT
  5
C86
330
B39
100
AcDbEntity
  8
寸法線
 62
     0
 48
20.0
100
AcDbMText
 10
2880.672376511267
 20
3485.200835115801
 30
0.0
 40
60.0
 41
0.0
 71
     5
 72
     1
  1
1650
 11
0.0000000000000001
 21
1.0
 31
0.0
 73
     1
 44
1.0
  0
POINT
  5
C87
330
B39
100
AcDbEntity
  8
DEFPOINTS
 62
     0
 48
20.0
100
AcDbPoint
 10
3107.107973316625
 20
2660.200834817776
 30
0.0
  0
POINT
  5
C88
330
B39
100
AcDbEntity
  8
DEFPOINTS
 62
     0
 48
20.0
100
AcDbPoint
 10
3087.107973018601
 20
4310.200835413822
 30
0.0
  0
POINT
  5
C89
330
B39
100
AcDbEntity
  8
DEFPOINTS
 62
     0
 48
20.0
100
AcDbPoint
 10
2944.672376511268
 20
4310.200835413822
 30
0.0
  0
ENDBLK
  5
B44
330
B39
100
AcDbEntity
  8
0
 48
20.0
100
AcDbBlockEnd
  0
BLOCK
  5
B50
330
B46
100
AcDbEntity
  8
0
 48
20.0
100
AcDbBlockBegin
  2
*D2
 70
     1
 10
0.0
 20
0.0
 30
0.0
  3
*D2
  1

  0
LINE
  5
C8A
330
B46
100
AcDbEntity
  8
寸法線
 62
     0
 48
20.0
370
    -2
100
AcDbLine
 10
3047.107973018601
 20
4310.200835413822
 30
0.0
 11
2884.672376511268
 21
4310.200835413822
 31
0.0
  0
LINE
  5
C8B
330
B46
100
AcDbEntity
  8
寸法線
 62
     0
 48
20.0
370
    -2
100
AcDbLine
 10
3857.107973018602
 20
4660.200864620098
 30
0.0
 11
2884.672376511268
 21
4660.200864620098
 31
0.0
  0
LINE
  5
C8C
330
B46
100
AcDbEntity
  8
寸法線
 62
     0
 48
20.0
370
    -2
100
AcDbLine
 10
2944.672376511268
 20
4330.200835413822
 30
0.0
 11
2944.672376511268
 21
4640.200864620098
 31
0.0
  0
INSERT
  5
C8D
330
B46
100
AcDbEntity
  8
寸法線
 62
     0
 48
20.0
370
    -2
100
AcDbBlockReference
  2
_OPEN30
 10
2944.672376511268
 20
4310.200835413822
 30
0.0
 41
20.0
 42
20.0
 43
20.0
 50
270.0
  0
INSERT
  5
C8E
330
B46
100
AcDbEntity
  8
寸法線
 62
     0
 48
20.0
370
    -2
100
AcDbBlockReference
  2
_OPEN30
 10
2944.672376511268
 20
4660.200864620098
 30
0.0
 41
20.0
 42
20.0
 43
20.0
 50
90.0
  0
MTEXT
  5
C8F
330
B46
100
AcDbEntity
  8
寸法線
 62
     0
 48
20.0
100
AcDbMText
 10
2880.672376511267
 20
4485.200850016961
 30
0.0
 40
60.0
 41
0.0
 71
     5
 72
     1
  1
350
 11
0.0000000000000001
 21
1.0
 31
0.0
 73
     1
 44
1.0
  0
POINT
  5
C90
330
B46
100
AcDbEntity
  8
DEFPOINTS
 62
     0
 48
20.0
100
AcDbPoint
 10
3087.107973018601
 20
4310.200835413822
 30
0.0
  0
POINT
  5
C91
330
B46
100
AcDbEntity
  8
DEFPOINTS
 62
     0
 48
20.0
100
AcDbPoint
 10
3897.107973018601
 20
4660.200864620098
 30
0.0
  0
POINT
  5
C92
330
B46
100
AcDbEntity
  8
DEFPOINTS
 62
     0
 48
20.0
100
AcDbPoint
 10
2944.672376511268
 20
4660.200864620098
 30
0.0
  0
ENDBLK
  5
B51
330
B46
100
AcDbEntity
  8
0
 48
20.0
100
AcDbBlockEnd
  0
BLOCK
  5
B5D
330
B53
100
AcDbEntity
  8
0
 48
20.0
100
AcDbBlockBegin
  2
*D3
 70
     1
 10
0.0
 20
0.0
 30
0.0
  3
*D3
  1

  0
LINE
  5
C93
330
B53
100
AcDbEntity
  8
寸法線
 62
     0
 48
20.0
370
    -2
100
AcDbLine
 10
3857.107973018602
 20
4660.200864620098
 30
0.0
 11
2670.508023587768
 21
4660.200864620098
 31
0.0
  0
LINE
  5
C94
330
B53
100
AcDbEntity
  8
寸法線
 62
     0
 48
20.0
370
    -2
100
AcDbLine
 10
3067.107973316625
 20
2660.200834817777
 30
0.0
 11
2670.508023587767
 21
2660.200834817777
 31
0.0
  0
LINE
  5
C95
330
B53
100
AcDbEntity
  8
寸法線
 62
     0
 48
20.0
370
    -2
100
AcDbLine
 10
2730.508023587767
 20
4640.200864620098
 30
0.0
 11
2730.508023587767
 21
2680.200834817777
 31
0.0
  0
INSERT
  5
C96
330
B53
100
AcDbEntity
  8
寸法線
 62
     0
 48
20.0
370
    -2
100
AcDbBlockReference
  2
_OPEN30
 10
2730.508023587767
 20
4660.200864620098
 30
0.0
 41
20.0
 42
20.0
 43
20.0
 50
90.0
  0
INSERT
  5
C97
330
B53
100
AcDbEntity
  8
寸法線
 62
     0
 48
20.0
370
    -2
100
AcDbBlockReference
  2
_OPEN30
 10
2730.508023587767
 20
2660.200834817777
 30
0.0
 41
20.0
 42
20.0
 43
20.0
 50
270.0
  0
MTEXT
  5
C98
330
B53
100
AcDbEntity
  8
寸法線
 62
     0
 48
20.0
100
AcDbMText
 10
2666.508023587767
 20
3660.200849718938
 30
0.0
 40
60.0
 41
0.0
 71
     5
 72
     1
  1
2000
 11
0.0000000000000001
 21
1.0
 31
0.0
 73
     1
 44
1.0
  0
POINT
  5
C99
330
B53
100
AcDbEntity
  8
DEFPOINTS
 62
     0
 48
20.0
100
AcDbPoint
 10
3897.107973018601
 20
4660.200864620098
 30
0.0
  0
POINT
  5
C9A
330
B53
100
AcDbEntity
  8
DEFPOINTS
 62
     0
 48
20.0
100
AcDbPoint
 10
3107.107973316625
 20
2660.200834817776
 30
0.0
  0
POINT
  5
C9B
330
B53
100
AcDbEntity
  8
DEFPOINTS
 62
     0
 48
20.0
100
AcDbPoint
 10
2730.508023587767
 20
2660.200834817777
 30
0.0
  0
ENDBLK
  5
B5E
330
B53
100
AcDbEntity
  8
0
 48
20.0
100
AcDbBlockEnd
  0
BLOCK
  5
B6A
330
B60
100
AcDbEntity
  8
0
 48
20.0
100
AcDbBlockBegin
  2
*D4
 70
     1
 10
0.0
 20
0.0
 30
0.0
  3
*D4
  1

  0
LINE
  5
C9C
330
B60
100
AcDbEntity
  8
寸法線
 62
     0
 48
20.0
370
    -2
100
AcDbLine
 10
3087.107973018601
 20
2640.200835115799
 30
0.0
 11
3087.107973018601
 21
2369.468945327949
 31
0.0
  0
LINE
  5
C9D
330
B60
100
AcDbEntity
  8
寸法線
 62
     0
 48
20.0
370
    -2
100
AcDbLine
 10
4707.107973018601
 20
2640.200835115799
 30
0.0
 11
4707.107973018601
 21
2369.468945327949
 31
0.0
  0
LINE
  5
C9E
330
B60
100
AcDbEntity
  8
寸法線
 62
     0
 48
20.0
370
    -2
100
AcDbLine
 10
3107.107973018601
 20
2429.468945327949
 30
0.0
 11
4687.1079730186
 21
2429.468945327949
 31
0.0
  0
INSERT
  5
C9F
330
B60
100
AcDbEntity
  8
寸法線
 62
     0
 48
20.0
370
    -2
100
AcDbBlockReference
  2
_OPEN30
 10
3087.107973018601
 20
2429.468945327949
 30
0.0
 41
20.0
 42
20.0
 43
20.0
 50
180.0
  0
INSERT
  5
CA0
330
B60
100
AcDbEntity
  8
寸法線
 62
     0
 48
20.0
370
    -2
100
AcDbBlockReference
  2
_OPEN30
 10
4707.107973018601
 20
2429.468945327949
 30
0.0
 41
20.0
 42
20.0
 43
20.0
  0
MTEXT
  5
CA1
330
B60
100
AcDbEntity
  8
寸法線
 62
     0
 48
20.0
100
AcDbMText
 10
3897.107973018601
 20
2493.468945327949
 30
0.0
 40
60.0
 41
0.0
 71
     5
 72
     1
  1
O.Dφ1620
 73
     1
 44
1.0
  0
POINT
  5
CA2
330
B60
100
AcDbEntity
  8
DEFPOINTS
 62
     0
 48
20.0
100
AcDbPoint
 10
3087.107973018601
 20
2680.2008351158
 30
0.0
  0
POINT
  5
CA3
330
B60
100
AcDbEntity
  8
DEFPOINTS
 62
     0
 48
20.0
100
AcDbPoint
 10
4707.107973018601
 20
2680.2008351158
 30
0.0
  0
POINT
  5
CA4
330
B60
100
AcDbEntity
  8
DEFPOINTS
 62
     0
 48
20.0
100
AcDbPoint
 10
4707.107973018601
 20
2429.468945327949
 30
0.0
  0
ENDBLK
  5
B6B
330
B60
100
AcDbEntity
  8
0
 48
20.0
100
AcDbBlockEnd
  0
BLOCK
  5
B84
330
B7A
100
AcDbEntity
  8
0
 48
20.0
100
AcDbBlockBegin
  2
*D5
 70
     1
 10
0.0
 20
0.0
 30
0.0
  3
*D5
  1

  0
LINE
  5
CA5
330
B7A
100
AcDbEntity
  8
寸法線
 62
     0
 48
20.0
370
    -2
100
AcDbLine
 10
3662.107969516828
 20
4660.200864024051
 30
0.0
 11
3662.107969516828
 21
4919.586226322706
 31
0.0
  0
LINE
  5
CA6
330
B7A
100
AcDbEntity
  8
寸法線
 62
     0
 48
20.0
370
    -2
100
AcDbLine
 10
4132.107976520374
 20
4660.200864024051
 30
0.0
 11
4132.107976520374
 21
4919.586226322706
 31
0.0
  0
LINE
  5
CA7
330
B7A
100
AcDbEntity
  8
寸法線
 62
     0
 48
20.0
370
    -2
100
AcDbLine
 10
3682.107969516827
 20
4859.586226322705
 30
0.0
 11
4112.107976520373
 21
4859.586226322705
 31
0.0
  0
INSERT
  5
CA8
330
B7A
100
AcDbEntity
  8
寸法線
 62
     0
 48
20.0
370
    -2
100
AcDbBlockReference
  2
_OPEN30
 10
3662.107969516828
 20
4859.586226322705
 30
0.0
 41
20.0
 42
20.0
 43
20.0
 50
180.0
  0
INSERT
  5
CA9
330
B7A
100
AcDbEntity
  8
寸法線
 62
     0
 48
20.0
370
    -2
100
AcDbBlockReference
  2
_OPEN30
 10
4132.107976520374
 20
4859.586226322705
 30
0.0
 41
20.0
 42
20.0
 43
20.0
  0
MTEXT
  5
CAA
330
B7A
100
AcDbEntity
  8
寸法線
 62
     0
 48
20.0
100
AcDbMText
 10
3897.107973018601
 20
4923.586226322705
 30
0.0
 40
60.0
 41
0.0
 71
     5
 72
     1
  1
I.Dφ470
 73
     1
 44
1.0
  0
POINT
  5
CAB
330
B7A
100
AcDbEntity
  8
DEFPOINTS
 62
     0
 48
20.0
100
AcDbPoint
 10
3662.107969516828
 20
4620.200864024051
 30
0.0
  0
POINT
  5
CAC
330
B7A
100
AcDbEntity
  8
DEFPOINTS
 62
     0
 48
20.0
100
AcDbPoint
 10
4132.107976520374
 20
4620.200864024051
 30
0.0
  0
POINT
  5
CAD
330
B7A
100
AcDbEntity
  8
DEFPOINTS
 62
     0
 48
20.0
100
AcDbPoint
 10
4132.107976520374
 20
4859.586226322705
 30
0.0
  0
ENDBLK
  5
B85
330
B7A
100
AcDbEntity
  8
0
 48
20.0
100
AcDbBlockEnd
  0
BLOCK
  5
B91
330
B87
100
AcDbEntity
  8
0
 48
20.0
100
AcDbBlockBegin
  2
*D6
 70
     1
 10
0.0
 20
0.0
 30
0.0
  3
*D6
  1

  0
LINE
  5
CAE
330
B87
100
AcDbEntity
  8
寸法線
 62
     0
 48
20.0
370
    -2
100
AcDbLine
 10
8726.316819639848
 20
4669.209854706735
 30
0.0
 11
9021.568630340579
 21
4669.209854706735
 31
0.0
  0
LINE
  5
CAF
330
B87
100
AcDbEntity
  8
寸法線
 62
     0
 48
20.0
370
    -2
100
AcDbLine
 10
8726.316819639844
 20
4999.209859624119
 30
0.0
 11
9021.568630340579
 21
4999.209859624119
 31
0.0
  0
LINE
  5
CB0
330
B87
100
AcDbEntity
  8
寸法線
 62
     0
 48
20.0
370
    -2
100
AcDbLine
 10
8961.568630340581
 20
4689.209854706736
 30
0.0
 11
8961.568630340581
 21
4979.20985962412
 31
0.0
  0
INSERT
  5
CB1
330
B87
100
AcDbEntity
  8
寸法線
 62
     0
 48
20.0
370
    -2
100
AcDbBlockReference
  2
_OPEN30
 10
8961.568630340581
 20
4669.209854706735
 30
0.0
 41
20.0
 42
20.0
 43
20.0
 50
270.0
  0
INSERT
  5
CB2
330
B87
100
AcDbEntity
  8
寸法線
 62
     0
 48
20.0
370
    -2
100
AcDbBlockReference
  2
_OPEN30
 10
8961.568630340581
 20
4999.209859624119
 30
0.0
 41
20.0
 42
20.0
 43
20.0
 50
90.0
  0
MTEXT
  5
CB3
330
B87
100
AcDbEntity
  8
寸法線
 62
     0
 48
20.0
100
AcDbMText
 10
8897.568630340577
 20
4834.209857165429
 30
0.0
 40
60.0
 41
0.0
 71
     5
 72
     1
  1
110
 11
0.0000000000000001
 21
1.0
 31
0.0
 73
     1
 44
1.0
  0
POINT
  5
CB4
330
B87
100
AcDbEntity
  8
DEFPOINTS
 62
     0
 48
20.0
100
AcDbPoint
 10
8686.316819639847
 20
4669.209854706735
 30
0.0
  0
POINT
  5
CB5
330
B87
100
AcDbEntity
  8
DEFPOINTS
 62
     0
 48
20.0
100
AcDbPoint
 10
8686.316819639843
 20
4999.209859624119
 30
0.0
  0
POINT
  5
CB6
330
B87
100
AcDbEntity
  8
DEFPOINTS
 62
     0
 48
20.0
100
AcDbPoint
 10
8961.568630340581
 20
4999.209859624119
 30
0.0
  0
ENDBLK
  5
B92
330
B87
100
AcDbEntity
  8
0
 48
20.0
100
AcDbBlockEnd
  0
BLOCK
  5
B9E
330
B94
100
AcDbEntity
  8
0
 48
20.0
100
AcDbBlockBegin
  2
*D7
 70
     1
 10
0.0
 20
0.0
 30
0.0
  3
*D7
  1

  0
LINE
  5
E49
330
B94
100
AcDbEntity
  8
寸法線
 62
     0
 48
20.0
370
    -2
100
AcDbLine
 10
8669.316818790477
 20
5059.209860518194
 30
0.0
 11
9161.973097248081
 21
5059.209860518194
 31
0.0
  0
LINE
  5
E4A
330
B94
100
AcDbEntity
  8
寸法線
 62
     0
 48
20.0
370
    -2
100
AcDbLine
 10
8669.316818790468
 20
4609.209853812661
 30
0.0
 11
9161.973097248081
 21
4609.209853812661
 31
0.0
  0
LINE
  5
E4B
330
B94
100
AcDbEntity
  8
寸法線
 62
     0
 48
20.0
370
    -2
100
AcDbLine
 10
9101.973097248082
 20
5039.209860518194
 30
0.0
 11
9101.973097248082
 21
4629.20985381266
 31
0.0
  0
INSERT
  5
E4C
330
B94
100
AcDbEntity
  8
寸法線
 62
     0
 48
20.0
370
    -2
100
AcDbBlockReference
  2
_OPEN30
 10
9101.973097248082
 20
5059.209860518194
 30
0.0
 41
20.0
 42
20.0
 43
20.0
 50
90.0
  0
INSERT
  5
E4D
330
B94
100
AcDbEntity
  8
寸法線
 62
     0
 48
20.0
370
    -2
100
AcDbBlockReference
  2
_OPEN30
 10
9101.973097248082
 20
4609.209853812661
 30
0.0
 41
20.0
 42
20.0
 43
20.0
 50
270.0
  0
MTEXT
  5
E4E
330
B94
100
AcDbEntity
  8
寸法線
 62
     0
 48
20.0
100
AcDbMText
 10
9037.97309724808
 20
4834.209857165429
 30
0.0
 40
60.0
 41
0.0
 71
     5
 72
     1
  1
150
 11
0.0000000000000001
 21
1.0
 31
0.0
 73
     1
 44
1.0
  0
POINT
  5
E4F
330
B94
100
AcDbEntity
  8
DEFPOINTS
 62
     0
 48
20.0
100
AcDbPoint
 10
8629.316818790478
 20
5059.209860518194
 30
0.0
  0
POINT
  5
E50
330
B94
100
AcDbEntity
  8
DEFPOINTS
 62
     0
 48
20.0
100
AcDbPoint
 10
8629.316818790467
 20
4609.209853812661
 30
0.0
  0
POINT
  5
E51
330
B94
100
AcDbEntity
  8
DEFPOINTS
 62
     0
 48
20.0
100
AcDbPoint
 10
9101.973097248082
 20
4609.209853812661
 30
0.0
  0
ENDBLK
  5
B9F
330
B94
100
AcDbEntity
  8
0
 48
20.0
100
AcDbBlockEnd
  0
BLOCK
  5
BAC
330
BA1
100
AcDbEntity
  8
0
 48
20.0
100
AcDbBlockBegin
  2
*D8
 70
     1
 10
0.0
 20
0.0
 30
0.0
  3
*D8
  1

  0
LINE
  5
CC0
330
BA1
100
AcDbEntity
  8
寸法線
 62
     0
 48
20.0
370
    -2
100
AcDbLine
 10
8458.650300421608
 20
4103.369088015352
 30
0.0
 11
8458.650300421608
 21
4243.357912914477
 31
0.0
  0
LINE
  5
CC1
330
BA1
100
AcDbEntity
  8
寸法線
 62
     0
 48
20.0
370
    -2
100
AcDbLine
 10
8680.650303729665
 20
4103.369088015352
 30
0.0
 11
8680.650303729665
 21
4243.357912914477
 31
0.0
  0
LINE
  5
CC2
330
BA1
100
AcDbEntity
  8
寸法線
 62
     0
 48
20.0
370
    -2
100
AcDbLine
 10
8478.650300421607
 20
4183.357912914477
 30
0.0
 11
8660.650303729665
 21
4183.357912914477
 31
0.0
  0
INSERT
  5
CC3
330
BA1
100
AcDbEntity
  8
寸法線
 62
     0
 48
20.0
370
    -2
100
AcDbBlockReference
  2
_OPEN30
 10
8458.650300421608
 20
4183.357912914477
 30
0.0
 41
20.0
 42
20.0
 43
20.0
 50
180.0
  0
INSERT
  5
CC4
330
BA1
100
AcDbEntity
  8
寸法線
 62
     0
 48
20.0
370
    -2
100
AcDbBlockReference
  2
_OPEN30
 10
8680.650303729665
 20
4183.357912914477
 30
0.0
 41
20.0
 42
20.0
 43
20.0
  0
MTEXT
  5
CC5
330
BA1
100
AcDbEntity
  8
寸法線
 62
     0
 48
20.0
100
AcDbMText
 10
8569.650302075634
 20
4247.357912914477
 30
0.0
 40
60.0
 41
0.0
 71
     5
 72
     1
  1
74
 73
     1
 44
1.0
  0
POINT
  5
CC6
330
BA1
100
AcDbEntity
  8
DEFPOINTS
 62
     0
 48
20.0
100
AcDbPoint
 10
8458.650300421608
 20
4063.369088015352
 30
0.0
  0
POINT
  5
CC7
330
BA1
100
AcDbEntity
  8
DEFPOINTS
 62
     0
 48
20.0
100
AcDbPoint
 10
8680.650303729665
 20
4063.369088015352
 30
0.0
  0
POINT
  5
CC8
330
BA1
100
AcDbEntity
  8
DEFPOINTS
 62
     0
 48
20.0
100
AcDbPoint
 10
8680.650303729665
 20
4183.357912914477
 30
0.0
  0
ENDBLK
  5
BAD
330
BA1
100
AcDbEntity
  8
0
 48
20.0
100
AcDbBlockEnd
  0
BLOCK
  5
BBB
330
BAF
100
AcDbEntity
  8
0
 48
20.0
100
AcDbBlockBegin
  2
*D9
 70
     1
 10
0.0
 20
0.0
 30
0.0
  3
*D9
  1

  0
LINE
  5
CC9
330
BAF
100
AcDbEntity
  8
寸法線
 62
     0
 48
20.0
370
    -2
100
AcDbLine
 10
8720.650303729664
 20
4063.369088015352
 30
0.0
 11
9021.512671667812
 21
4063.369088015352
 31
0.0
  0
LINE
  5
CCA
330
BAF
100
AcDbEntity
  8
寸法線
 62
     0
 48
20.0
370
    -2
100
AcDbLine
 10
8720.650303729664
 20
3976.369086718951
 30
0.0
 11
9021.512671667812
 21
3976.369086718951
 31
0.0
  0
LINE
  5
CCB
330
BAF
100
AcDbEntity
  8
寸法線
 62
     0
 48
20.0
370
    -2
100
AcDbLine
 10
8961.512671667811
 20
3956.369086718951
 30
0.0
 11
8961.512671667811
 21
3936.369086718951
 31
0.0
  0
LINE
  5
CCC
330
BAF
100
AcDbEntity
  8
寸法線
 62
     0
 48
20.0
370
    -2
100
AcDbLine
 10
8961.512671667811
 20
4083.369088015351
 30
0.0
 11
8961.512671667813
 21
4271.369088015353
 31
0.0
  0
LINE
  5
CCD
330
BAF
100
AcDbEntity
  8
寸法線
 62
     0
 48
20.0
370
    -2
100
AcDbLine
 10
8961.512671667811
 20
3976.369086718951
 30
0.0
 11
8961.512671667811
 21
4063.369088015352
 31
0.0
  0
INSERT
  5
CCE
330
BAF
100
AcDbEntity
  8
寸法線
 62
     0
 48
20.0
370
    -2
100
AcDbBlockReference
  2
_OPEN30
 10
8961.512671667811
 20
3976.369086718951
 30
0.0
 41
20.0
 42
20.0
 43
20.0
 50
90.0
  0
INSERT
  5
CCF
330
BAF
100
AcDbEntity
  8
寸法線
 62
     0
 48
20.0
370
    -2
100
AcDbBlockReference
  2
_OPEN30
 10
8961.512671667811
 20
4063.369088015352
 30
0.0
 41
20.0
 42
20.0
 43
20.0
 50
270.0
  0
MTEXT
  5
CD0
330
BAF
100
AcDbEntity
  8
寸法線
 62
     0
 48
20.0
100
AcDbMText
 10
8897.512671667811
 20
4187.369088015354
 30
0.0
 40
60.0
 41
0.0
 71
     5
 72
     1
  1
29
 11
0.0000000000000001
 21
1.0
 31
0.0
 73
     1
 44
1.0
  0
POINT
  5
CD1
330
BAF
100
AcDbEntity
  8
DEFPOINTS
 62
     0
 48
20.0
100
AcDbPoint
 10
8680.650303729665
 20
4063.369088015352
 30
0.0
  0
POINT
  5
CD2
330
BAF
100
AcDbEntity
  8
DEFPOINTS
 62
     0
 48
20.0
100
AcDbPoint
 10
8680.650303729665
 20
3976.369086718951
 30
0.0
  0
POINT
  5
CD3
330
BAF
100
AcDbEntity
  8
DEFPOINTS
 62
     0
 48
20.0
100
AcDbPoint
 10
8961.512671667811
 20
3976.369086718951
 30
0.0
  0
ENDBLK
  5
BBC
330
BAF
100
AcDbEntity
  8
0
 48
20.0
100
AcDbBlockEnd
  0
BLOCK
  5
BCA
330
BBE
100
AcDbEntity
  8
0
 48
20.0
100
AcDbBlockBegin
  2
*D10
 70
     1
 10
0.0
 20
0.0
 30
0.0
  3
*D10
  1

  0
LINE
  5
CD4
330
BBE
100
AcDbEntity
  8
寸法線
 62
     0
 48
20.0
370
    -2
100
AcDbLine
 10
8720.650303729664
 20
4063.369088015352
 30
0.0
 11
9205.929633970175
 21
4063.369088015352
 31
0.0
  0
LINE
  5
CD5
330
BBE
100
AcDbEntity
  8
寸法線
 62
     0
 48
20.0
370
    -2
100
AcDbLine
 10
8699.650303574788
 20
3961.369086495434
 30
0.0
 11
9205.929633970175
 21
3961.369086495434
 31
0.0
  0
LINE
  5
CD6
330
BBE
100
AcDbEntity
  8
寸法線
 62
     0
 48
20.0
370
    -2
100
AcDbLine
 10
9145.929633970174
 20
3941.369086495433
 30
0.0
 11
9145.929633970174
 21
3921.369086495434
 31
0.0
  0
LINE
  5
CD7
330
BBE
100
AcDbEntity
  8
寸法線
 62
     0
 48
20.0
370
    -2
100
AcDbLine
 10
9145.929633970174
 20
4083.369088015351
 30
0.0
 11
9145.929633970176
 21
4271.369088015353
 31
0.0
  0
LINE
  5
CD8
330
BBE
100
AcDbEntity
  8
寸法線
 62
     0
 48
20.0
370
    -2
100
AcDbLine
 10
9145.929633970174
 20
3961.369086495434
 30
0.0
 11
9145.929633970174
 21
4063.369088015352
 31
0.0
  0
INSERT
  5
CD9
330
BBE
100
AcDbEntity
  8
寸法線
 62
     0
 48
20.0
370
    -2
100
AcDbBlockReference
  2
_OPEN30
 10
9145.929633970174
 20
3961.369086495434
 30
0.0
 41
20.0
 42
20.0
 43
20.0
 50
90.0
  0
INSERT
  5
CDA
330
BBE
100
AcDbEntity
  8
寸法線
 62
     0
 48
20.0
370
    -2
100
AcDbBlockReference
  2
_OPEN30
 10
9145.929633970174
 20
4063.369088015352
 30
0.0
 41
20.0
 42
20.0
 43
20.0
 50
270.0
  0
MTEXT
  5
CDB
330
BBE
100
AcDbEntity
  8
寸法線
 62
     0
 48
20.0
100
AcDbMText
 10
9081.929633970174
 20
4187.369088015354
 30
0.0
 40
60.0
 41
0.0
 71
     5
 72
     1
  1
34
 11
0.0000000000000001
 21
1.0
 31
0.0
 73
     1
 44
1.0
  0
POINT
  5
CDC
330
BBE
100
AcDbEntity
  8
DEFPOINTS
 62
     0
 48
20.0
100
AcDbPoint
 10
8680.650303729665
 20
4063.369088015352
 30
0.0
  0
POINT
  5
CDD
330
BBE
100
AcDbEntity
  8
DEFPOINTS
 62
     0
 48
20.0
100
AcDbPoint
 10
8659.650303574789
 20
3961.369086495434
 30
0.0
  0
POINT
  5
CDE
330
BBE
100
AcDbEntity
  8
DEFPOINTS
 62
     0
 48
20.0
100
AcDbPoint
 10
9145.929633970174
 20
3961.369086495434
 30
0.0
  0
ENDBLK
  5
BCB
330
BBE
100
AcDbEntity
  8
0
 48
20.0
100
AcDbBlockEnd
  0
BLOCK
  5
BE0
330
BD6
100
AcDbEntity
  8
0
 48
20.0
100
AcDbBlockBegin
  2
*D11
 70
     1
 10
0.0
 20
0.0
 30
0.0
  3
*D11
  1

  0
LINE
  5
E2C
330
BD6
100
AcDbEntity
  8
寸法線
 62
     0
 48
20.0
370
    -2
100
AcDbLine
 10
6872.328111432155
 20
6727.350028521465
 30
0.0
 11
6872.328111432155
 21
6919.81464152897
 31
0.0
  0
LINE
  5
E2D
330
BD6
100
AcDbEntity
  8
寸法線
 62
     0
 48
20.0
370
    -2
100
AcDbLine
 10
7172.328115902503
 20
6727.350028521465
 30
0.0
 11
7172.328115902503
 21
6919.81464152897
 31
0.0
  0
LINE
  5
E2E
330
BD6
100
AcDbEntity
  8
寸法線
 62
     0
 48
20.0
370
    -2
100
AcDbLine
 10
6892.328111432155
 20
6859.814641528969
 30
0.0
 11
7152.328115902503
 21
6859.814641528969
 31
0.0
  0
INSERT
  5
E2F
330
BD6
100
AcDbEntity
  8
寸法線
 62
     0
 48
20.0
370
    -2
100
AcDbBlockReference
  2
_OPEN30
 10
6872.328111432155
 20
6859.814641528969
 30
0.0
 41
20.0
 42
20.0
 43
20.0
 50
180.0
  0
INSERT
  5
E30
330
BD6
100
AcDbEntity
  8
寸法線
 62
     0
 48
20.0
370
    -2
100
AcDbBlockReference
  2
_OPEN30
 10
7172.328115902503
 20
6859.814641528969
 30
0.0
 41
20.0
 42
20.0
 43
20.0
  0
MTEXT
  5
E31
330
BD6
100
AcDbEntity
  8
寸法線
 62
     0
 48
20.0
100
AcDbMText
 10
7022.328113667329
 20
6923.814641528969
 30
0.0
 40
60.0
 41
0.0
 71
     5
 72
     1
  1
300
 73
     1
 44
1.0
  0
POINT
  5
E32
330
BD6
100
AcDbEntity
  8
DEFPOINTS
 62
     0
 48
20.0
100
AcDbPoint
 10
6872.328111432155
 20
6687.350028521464
 30
0.0
  0
POINT
  5
E33
330
BD6
100
AcDbEntity
  8
DEFPOINTS
 62
     0
 48
20.0
100
AcDbPoint
 10
7172.328115902503
 20
6687.350028521464
 30
0.0
  0
POINT
  5
E34
330
BD6
100
AcDbEntity
  8
DEFPOINTS
 62
     0
 48
20.0
100
AcDbPoint
 10
7172.328115902503
 20
6859.814641528969
 30
0.0
  0
ENDBLK
  5
BE1
330
BD6
100
AcDbEntity
  8
0
 48
20.0
100
AcDbBlockEnd
  0
BLOCK
  5
E3C
330
E36
100
AcDbEntity
  8
0
 48
20.0
100
AcDbBlockBegin
  2
*D12
 70
     1
 10
0.0
 20
0.0
 30
0.0
  3
*D12
  1

  0
LINE
  5
E3E
330
E36
100
AcDbEntity
  8
寸法線
 62
     0
 48
20.0
370
    -2
100
AcDbLine
 10
7300.574442797234
 20
6071.333043993075
 30
0.0
 11
7566.335361753445
 21
6206.148228432928
 31
0.0
  0
MTEXT
  5
E3F
330
E36
100
AcDbEntity
  8
寸法線
 62
     0
 48
20.0
100
AcDbMText
 10
7395.58315397429
 20
6191.292807249238
 30
0.0
 40
60.0
 41
0.0
 71
     5
 72
     1
  1
R630
 11
0.8918151642825817
 21
0.4523999477847363
 31
0.0
 73
     1
 44
1.0
  0
INSERT
  5
E40
330
E36
100
AcDbEntity
  8
寸法線
 62
     0
 48
20.0
370
    -2
100
AcDbBlockReference
  2
_OPEN30
 10
7584.171665039098
 20
6215.196227388624
 30
0.0
 41
20.0
 42
20.0
 43
20.0
 50
26.89776668018144
  0
POINT
  5
E41
330
E36
100
AcDbEntity
  8
DEFPOINTS
 62
     0
 48
20.0
100
AcDbPoint
 10
7584.171665039098
 20
6215.196227388624
 30
0.0
  0
POINT
  5
E42
330
E36
100
AcDbEntity
  8
DEFPOINTS
 62
     0
 48
20.0
100
AcDbPoint
 10
7022.328113667334
 20
5930.184261362851
 30
0.0
  0
ENDBLK
  5
E3D
330
E36
100
AcDbEntity
  8
0
 48
20.0
100
AcDbBlockEnd
  0
BLOCK
  5
E78
330
E6E
100
AcDbEntity
  8
0
 48
20.0
100
AcDbBlockBegin
  2
*D13
 70
     1
 10
0.0
 20
0.0
 30
0.0
  3
*D13
  1

  0
LINE
  5
E83
330
E6E
100
AcDbEntity
  8
寸法線
 62
     0
 48
20.0
370
    -2
100
AcDbLine
 10
3027.107972124531
 20
2602.886241945651
 30
0.0
 11
3027.107972124531
 21
2196.941218268823
 31
0.0
  0
LINE
  5
E84
330
E6E
100
AcDbEntity
  8
寸法線
 62
     0
 48
20.0
370
    -2
100
AcDbLine
 10
4767.107973912671
 20
2602.886241945651
 30
0.0
 11
4767.107973912671
 21
2196.941218268823
 31
0.0
  0
LINE
  5
E85
330
E6E
100
AcDbEntity
  8
寸法線
 62
     0
 48
20.0
370
    -2
100
AcDbLine
 10
3047.107972124531
 20
2256.941218268823
 30
0.0
 11
4747.107973912671
 21
2256.941218268823
 31
0.0
  0
INSERT
  5
E86
330
E6E
100
AcDbEntity
  8
寸法線
 62
     0
 48
20.0
370
    -2
100
AcDbBlockReference
  2
_OPEN30
 10
3027.107972124531
 20
2256.941218268823
 30
0.0
 41
20.0
 42
20.0
 43
20.0
 50
180.0
  0
INSERT
  5
E87
330
E6E
100
AcDbEntity
  8
寸法線
 62
     0
 48
20.0
370
    -2
100
AcDbBlockReference
  2
_OPEN30
 10
4767.107973912671
 20
2256.941218268823
 30
0.0
 41
20.0
 42
20.0
 43
20.0
  0
MTEXT
  5
E88
330
E6E
100
AcDbEntity
  8
寸法線
 62
     0
 48
20.0
100
AcDbMText
 10
3897.107973018601
 20
2320.941218268823
 30
0.0
 40
60.0
 41
0.0
 71
     5
 72
     1
  1
P.C.Dφ1740
 73
     1
 44
1.0
  0
POINT
  5
E89
330
E6E
100
AcDbEntity
  8
DEFPOINTS
 62
     0
 48
20.0
100
AcDbPoint
 10
3027.107972124531
 20
2642.886241945651
 30
0.0
  0
POINT
  5
E8A
330
E6E
100
AcDbEntity
  8
DEFPOINTS
 62
     0
 48
20.0
100
AcDbPoint
 10
4767.107973912671
 20
2642.886241945651
 30
0.0
  0
POINT
  5
E8B
330
E6E
100
AcDbEntity
  8
DEFPOINTS
 62
     0
 48
20.0
100
AcDbPoint
 10
4767.107973912671
 20
2256.941218268823
 30
0.0
  0
ENDBLK
  5
E79
330
E6E
100
AcDbEntity
  8
0
 48
20.0
100
AcDbBlockEnd
  0
ENDSEC
  0
SECTION
  2
ENTITIES
  0
LINE
  5
36F
102
{ACAD_REACTORS
330
E65
102
}
330
D6
100
AcDbEntity
  8
0
  6
Continuous
100
AcDbLine
 10
4732.10797339113
 20
2690.200835264811
 30
0.0
 11
4807.107974508718
 21
2690.200835264811
 31
0.0
  0
LINE
  5
370
102
{ACAD_REACTORS
330
E65
102
}
330
D6
100
AcDbEntity
  8
0
  6
CENTER
100
AcDbLine
 10
4767.107973912671
 20
2709.914851714485
 30
0.0
 11
4767.107973912671
 21
2642.886241945651
 31
0.0
  0
LINE
  5
371
102
{ACAD_REACTORS
330
E65
102
}
330
D6
100
AcDbEntity
  8
0
  6
Continuous
100
AcDbLine
 10
4737.107973465636
 20
2694.200835324416
 30
0.0
 11
4737.107973465636
 21
2690.200835264811
 31
0.0
  0
LINE
  5
374
102
{ACAD_REACTORS
330
E65
102
}
330
D6
100
AcDbEntity
  8
0
  6
Continuous
100
AcDbLine
 10
4811.107974568322
 20
2694.200835324416
 30
0.0
 11
4811.107974568322
 21
2665.200834892282
 31
0.0
  0
LINE
  5
375
102
{ACAD_REACTORS
330
E65
102
}
330
D6
100
AcDbEntity
  8
0
  6
Continuous
100
AcDbLine
 10
4737.107973465636
 20
2694.200835324416
 30
0.0
 11
4811.107974568322
 21
2694.200835324416
 31
0.0
  0
LINE
  5
376
102
{ACAD_REACTORS
330
E65
102
}
330
D6
100
AcDbEntity
  8
0
  6
Continuous
100
AcDbLine
 10
4807.107974508718
 20
2665.200834892282
 30
0.0
 11
4811.107974568322
 21
2665.200834892282
 31
0.0
  0
LINE
  5
377
102
{ACAD_REACTORS
330
E65
102
}
330
D6
100
AcDbEntity
  8
0
  6
Continuous
100
AcDbLine
 10
4707.107973018602
 20
2750.200836158881
 30
0.0
 11
4724.10797327192
 21
2750.200836158881
 31
0.0
  0
LINE
  5
378
102
{ACAD_REACTORS
330
E65
102
}
330
D6
100
AcDbEntity
  8
0
  6
Continuous
100
AcDbLine
 10
4701.250108555043
 20
2666.058699281335
 30
0.0
 11
4707.107973018601
 21
2660.200834817777
 31
0.0
  0
LINE
  5
379
102
{ACAD_REACTORS
330
E65
102
}
330
D6
100
AcDbEntity
  8
0
  6
Continuous
100
AcDbLine
 10
4807.107974508717
 20
2690.200835264811
 30
0.0
 11
4807.107974508717
 21
2663.200834862479
 31
0.0
  0
LINE
  5
37A
102
{ACAD_REACTORS
330
E65
102
}
330
D6
100
AcDbEntity
  8
0
  6
Continuous
100
AcDbLine
 10
4727.107973316625
 20
2747.200836114177
 30
0.0
 11
4727.107973316625
 21
2695.200835339317
 31
0.0
  0
LINE
  5
37B
102
{ACAD_REACTORS
330
E65
102
}
330
D6
100
AcDbEntity
  8
0
  6
Continuous
100
AcDbLine
 10
4677.107976102238
 20
2660.200834817776
 30
0.0
 11
4804.107974516697
 21
2660.200834817776
 31
0.0
  0
ARC
  5
38E
102
{ACAD_REACTORS
330
E65
102
}
330
D6
100
AcDbEntity
  8
0
  6
Continuous
100
AcDbCircle
 10
4724.10797327192
 20
2747.200836114177
 30
0.0
 40
3.000000044703484
100
AcDbArc
 50
0.0
 51
90.00000000000019
  0
ARC
  5
38F
102
{ACAD_REACTORS
330
E65
102
}
330
D6
100
AcDbEntity
  8
0
  6
Continuous
100
AcDbCircle
 10
4804.107974464013
 20
2663.200834862479
 30
0.0
 40
3.000000044703484
100
AcDbArc
 50
270.0000000000005
 51
0.0
  0
ARC
  5
390
102
{ACAD_REACTORS
330
E65
102
}
330
D6
100
AcDbEntity
  8
0
  6
Continuous
100
AcDbCircle
 10
4732.10797339113
 20
2695.200835339317
 30
0.0
 40
5.000000074505805
100
AcDbArc
 50
180.0000000000004
 51
270.0000000000005
  0
ARC
  5
391
102
{ACAD_REACTORS
330
E65
102
}
330
D6
100
AcDbEntity
  8
0
  6
Continuous
100
AcDbCircle
 10
4804.107974464013
 20
2687.200835220108
 30
0.0
 40
3.000000044703484
100
AcDbArc
 50
0.0
 51
90.00000000000019
  0
LINE
  5
446
330
D6
100
AcDbEntity
  8
2
  6
Continuous
100
AcDbLine
 10
10610.19290628782
 20
5184.489578406124
 30
0.0
 11
10536.19290518513
 21
5184.489578406126
 31
0.0
  0
LINE
  5
447
330
D6
100
AcDbEntity
  8
2
  6
Continuous
100
AcDbLine
 10
10606.19290622821
 20
5299.489580119757
 30
0.0
 11
10591.1929060047
 21
5314.489580343277
 31
0.0
  0
LINE
  5
448
330
D6
100
AcDbEntity
  8
2
  6
Continuous
100
AcDbLine
 10
10606.19290622821
 20
5294.489580045252
 30
0.0
 11
10606.19290622821
 21
5299.489580119757
 31
0.0
  0
LINE
  5
449
330
D6
100
AcDbEntity
  8
2
  6
CENTER
100
AcDbLine
 10
10566.19290563217
 20
5219.667488640027
 30
0.0
 11
10566.19290563217
 21
5263.024925942234
 31
0.0
  0
LINE
  5
44A
330
D6
100
AcDbEntity
  8
2
  6
Continuous
100
AcDbLine
 10
10591.1929060047
 20
5164.489578108101
 30
0.0
 11
10606.19290622821
 21
5179.489578331621
 31
0.0
  0
LINE
  5
44B
330
D6
100
AcDbEntity
  8
2
  6
Continuous
100
AcDbLine
 10
10502.44853529178
 20
5164.489578108099
 30
0.0
 11
10591.1929060047
 21
5164.489578108099
 31
0.0
  0
LINE
  5
44C
330
D6
100
AcDbEntity
  8
2
  6
Continuous
100
AcDbLine
 10
10502.44853529178
 20
5314.489580343275
 30
0.0
 11
10591.1929060047
 21
5314.489580343277
 31
0.0
  0
LINE
  5
44D
330
D6
100
AcDbEntity
  8
2
  6
Continuous
100
AcDbLine
 10
10606.19290622821
 20
5179.489578331621
 30
0.0
 11
10606.19290622821
 21
5184.489578406124
 31
0.0
  0
LINE
  5
44E
330
D6
100
AcDbEntity
  8
2
  6
CENTER
100
AcDbLine
 10
10705.62957180134
 20
5239.489579225688
 30
0.0
 11
10476.06949478991
 21
5239.48957922569
 31
0.0
  0
LINE
  5
44F
330
D6
100
AcDbEntity
  8
2
  6
Continuous
100
AcDbLine
 10
10610.19290628782
 20
5294.489580045252
 30
0.0
 11
10610.19290628782
 21
5184.489578406124
 31
0.0
  0
LINE
  5
450
330
D6
100
AcDbEntity
  8
2
  6
Continuous
100
AcDbLine
 10
10536.19290518513
 20
5294.489580045254
 30
0.0
 11
10536.19290518513
 21
5184.489578406126
 31
0.0
  0
LINE
  5
451
330
D6
100
AcDbEntity
  8
2
  6
Continuous
100
AcDbLine
 10
10610.19290628782
 20
5294.489580045252
 30
0.0
 11
10536.19290518513
 21
5294.489580045254
 31
0.0
  0
ARC
  5
48D
330
D6
100
AcDbEntity
  8
2
  6
Continuous
100
AcDbCircle
 10
9151.192884547024
 20
5239.48957922569
 30
0.0
 40
1375.000020489096
100
AcDbArc
 50
356.8732238864209
 51
3.126776113580378
  0
LINE
  5
4B8
330
D6
100
AcDbEntity
  8
0
100
AcDbLine
 10
8067.609184014884
 20
3961.369086495434
 30
0.0
 11
8268.650310849407
 21
3961.369086495434
 31
0.0
  0
LINE
  5
4C4
330
D6
100
AcDbEntity
  8
0
100
AcDbLine
 10
8368.650299080503
 20
4352.874054168514
 30
0.0
 11
8368.650299080503
 21
4061.369075319563
 31
0.0
  0
ARC
  5
4C6
330
D6
100
AcDbEntity
  8
0
100
AcDbCircle
 10
3818.650536381479
 20
4834.20985716543
 30
0.0
 40
4549.999762699019
100
AcDbArc
 50
355.4804635680935
 51
5.089581616662531
  0
ARC
  5
4CD
330
D6
100
AcDbEntity
  8
0
100
AcDbCircle
 10
8268.650304295908
 20
4061.369075319563
 30
0.0
 40
99.9999888241297
100
AcDbArc
 50
269.9999962451214
 51
0.0
  0
SPLINE
  5
4CE
330
D6
100
AcDbEntity
  8
0
  6
Continuous
 62
     7
100
AcDbSpline
210
0.0
220
0.0
230
1.0
 70
     8
 71
     3
 72
    25
 73
    21
 74
    19
 42
0.0000000001
 43
0.0000000001
 44
0.0000000001
 12
-0.9088068481484352
 22
-0.4172171050646258
 32
0.0
 13
-0.3606669891202438
 23
-0.9326946568727292
 33
0.0
 40
0.0
 40
0.0
 40
0.0
 40
0.0
 40
39.88253233008727
 40
79.75971074994664
 40
119.6290822781137
 40
159.5119219040305
 40
199.3987517085019
 40
239.2781282922389
 40
279.1483911711812
 40
318.9985974466861
 40
358.7960332776786
 40
398.4864689876141
 40
438.2052577343819
 40
477.9983999236808
 40
517.8143848440879
 40
557.6625210817885
 40
597.5447537499334
 40
637.293434132153
 40
677.0613357530021
 40
716.9031933727029
 40
716.9031933727029
 40
716.9031933727029
 40
716.9031933727029
 10
8409.306425148917
 20
4370.213736358027
 30
0.0
 10
8397.224585647888
 20
4364.667178130892
 30
0.0
 10
8372.832894960712
 20
4354.064902301202
 30
0.0
 10
8335.283225911753
 20
4340.49288768286
 30
0.0
 10
8296.494519458908
 20
4330.921295422643
 30
0.0
 10
8257.073602375799
 20
4324.779568900665
 30
0.0
 10
8217.58301370245
 20
4319.224983823743
 30
0.0
 10
8178.338780979666
 20
4311.984537721136
 30
0.0
 10
8139.823663009357
 20
4301.435737774075
 30
0.0
 10
8102.812116355252
 20
4286.344450597056
 30
0.0
 10
8068.976094068053
 20
4264.804639770656
 30
0.0
 10
8042.465442841214
 20
4234.046155933037
 30
0.0
 10
8029.369010830366
 20
4195.707508228387
 30
0.0
 10
8026.791808137794
 20
4155.7261435908
 30
0.0
 10
8032.55575992811
 20
4115.985654781238
 30
0.0
 10
8046.755020873913
 20
4078.558209964519
 30
0.0
 10
8063.466971292035
 20
4042.49475212222
 30
0.0
 10
8073.764220058208
 20
4003.371359357542
 30
0.0
 10
8069.317267091719
 20
3963.180102823921
 30
0.0
 10
8061.369208240007
 20
3937.801254214431
 30
0.0
 10
8056.579327297122
 20
3925.414491640504
 30
0.0
 11
8409.306425148917
 21
4370.213736358027
 31
0.0
 11
8372.670332098907
 21
4354.452611046316
 31
0.0
 11
8335.074261375721
 21
4341.158822086562
 31
0.0
 11
8296.394084290595
 21
4331.493901667116
 31
0.0
 11
8257.063855247375
 21
4324.877710917555
 31
0.0
 11
8217.620933110003
 21
4318.943480966157
 31
0.0
 11
8178.455360202255
 21
4311.431984742677
 31
0.0
 11
8140.063654717868
 21
4300.67490279467
 31
0.0
 11
8103.317018702313
 21
4285.256612301216
 31
0.0
 11
8070.163970614094
 21
4263.240452300383
 31
0.0
 11
8044.704037159332
 21
4232.791766362833
 31
0.0
 11
8031.128520658954
 21
4195.464999408564
 31
0.0
 11
8028.181654596869
 21
4155.781121753905
 31
0.0
 11
8033.957653756813
 21
4116.386318938224
 31
0.0
 11
8047.171135030319
 21
4078.792730731549
 31
0.0
 11
8062.414395877535
 21
4041.93848428233
 31
0.0
 11
8071.308682594514
 21
4003.197688524834
 31
0.0
 11
8068.076828596284
 21
3963.56132745246
 31
0.0
 11
8056.579327297122
 21
3925.414491640504
 31
0.0
  0
SPLINE
  5
4CF
330
D6
100
AcDbEntity
  8
0
  6
Continuous
 62
     7
100
AcDbSpline
210
0.0
220
0.0
230
1.0
 70
     8
 71
     3
 72
    29
 73
    25
 74
    23
 42
0.0000000001
 43
0.0000000001
 44
0.0000000001
 12
-0.9874086049190202
 22
-0.1581905399569598
 32
0.0
 13
0.9673712617183381
 23
0.2533630636092615
 33
0.0
 40
0.0
 40
0.0
 40
0.0
 40
0.0
 40
47.17667774756555
 40
94.34877691355067
 40
141.4922824299853
 40
188.5213220586512
 40
235.1859496481534
 40
282.2208061697767
 40
329.4197362983199
 40
376.5753314695987
 40
423.6177406380011
 40
470.7801736120686
 40
517.9815129263894
 40
565.1320939570768
 40
611.9597971655654
 40
658.9503808355204
 40
706.1375453171304
 40
753.3307301137355
 40
800.5153893936219
 40
847.6858669649026
 40
894.6653942483994
 40
941.6667676417084
 40
988.6217418482329
 40
1035.648445793316
 40
1035.648445793316
 40
1035.648445793316
 40
1035.648445793316
 10
8368.992797357559
 20
5241.224950715985
 30
0.0
 10
8353.465244837748
 20
5238.737316007231
 30
0.0
 10
8322.692598213746
 20
5231.910493219984
 30
0.0
 10
8277.913085655134
 20
5216.704428621985
 30
0.0
 10
8235.744587716732
 20
5195.403600114078
 30
0.0
 10
8198.16297582947
 20
5166.094655079176
 30
0.0
 10
8175.772502794714
 20
5122.309105098705
 30
0.0
 10
8178.311079718696
 20
5074.354565144765
 30
0.0
 10
8185.581638780567
 20
5028.087199684769
 30
0.0
 10
8190.736806300682
 20
4980.90217985714
 30
0.0
 10
8182.558881220982
 20
4933.817325996454
 30
0.0
 10
8163.708034039478
 20
4890.433701880886
 30
0.0
 10
8142.345858639588
 20
4848.409342267848
 30
0.0
 10
8123.034788230141
 20
4805.445960054756
 30
0.0
 10
8116.83450576314
 20
4757.093645175654
 30
0.0
 10
8135.646307170178
 20
4712.613550004945
 30
0.0
 10
8160.480376053092
 20
4672.844088851872
 30
0.0
 10
8185.91477337727
 20
4632.902026432982
 30
0.0
 10
8204.769545570691
 20
4589.593623102838
 30
0.0
 10
8223.140626001686
 20
4546.075077143281
 30
0.0
 10
8252.972474904359
 20
4508.540793436131
 30
0.0
 10
8293.777847574125
 20
4483.514091242983
 30
0.0
 10
8340.46975279292
 20
4472.755820124286
 30
0.0
 10
8372.145705862996
 20
4476.926860831381
 30
0.0
 10
8387.3097998396
 20
4480.898470759038
 30
0.0
 11
8368.992797357559
 21
5241.224950715985
 31
0.0
 11
8322.919407617
 21
5231.081889979098
 31
0.0
 11
8278.332066760247
 21
5215.681371317401
 31
0.0
 11
8236.453702934555
 21
5194.03159636104
 31
0.0
 11
8200.609051774895
 21
5163.586702673643
 31
0.0
 11
8179.947723412622
 21
5121.745371691307
 31
0.0
 11
8179.092359441311
 21
5074.718293528974
 31
0.0
 11
8185.230576570258
 21
5027.920202801285
 31
0.0
 11
8188.514629119209
 21
4980.879102103988
 31
0.0
 11
8180.793215047916
 21
4934.474705490014
 31
0.0
 11
8163.297320440698
 21
4890.677573666954
 31
0.0
 11
8142.672808047889
 21
4848.220584588304
 31
0.0
 11
8125.185935503695
 21
4804.432611580244
 31
0.0
 11
8120.987964113053
 21
4757.793456099193
 31
0.0
 11
8136.610782168707
 21
4713.475936881136
 31
0.0
 11
8160.573682783951
 21
4672.826116636533
 31
0.0
 11
8184.819859717491
 21
4632.337604742985
 31
0.0
 11
8204.69543351138
 21
4589.543286922477
 31
0.0
 11
8225.088319549179
 21
4547.008781478637
 31
0.0
 11
8254.803977777426
 21
4510.621206128761
 31
0.0
 11
8294.770723557347
 21
4485.886850818377
 31
0.0
 11
8340.583372357802
 21
4475.59263823938
 31
0.0
 11
8387.3097998396
 21
4480.898470759038
 31
0.0
  0
LINE
  5
5DE
330
D6
100
AcDbEntity
  8
0
100
AcDbLine
 10
1723.597553998026
 20
7354.321756044567
 30
0.0
 11
1863.597553998026
 21
7354.321756044567
 31
0.0
  0
LINE
  5
5DF
330
D6
100
AcDbEntity
  8
0
100
AcDbLine
 10
1863.597553998026
 20
7354.321756044567
 30
0.0
 11
1965.997553998024
 21
7354.321756044567
 31
0.0
  0
LINE
  5
5E0
330
D6
100
AcDbEntity
  8
0
100
AcDbLine
 10
1723.597553998026
 20
7354.321756044567
 30
0.0
 11
1723.597553998026
 21
7218.588422711234
 31
0.0
  0
LINE
  5
5E1
330
D6
100
AcDbEntity
  8
0
100
AcDbLine
 10
1965.997553998024
 20
7354.321756044567
 30
0.0
 11
2105.997553998024
 21
7354.321756044567
 31
0.0
  0
LINE
  5
5E2
330
D6
100
AcDbEntity
  8
0
100
AcDbLine
 10
2105.997553998024
 20
7354.321756044567
 30
0.0
 11
2245.997553998024
 21
7354.321756044567
 31
0.0
  0
LINE
  5
5E3
330
D6
100
AcDbEntity
  8
0
100
AcDbLine
 10
2245.997553998024
 20
7354.321756044567
 30
0.0
 11
2385.997553998024
 21
7354.321756044567
 31
0.0
  0
LINE
  5
5E4
330
D6
100
AcDbEntity
  8
0
100
AcDbLine
 10
2385.997553998024
 20
7354.321756044567
 30
0.0
 11
2525.997553998025
 21
7354.321756044567
 31
0.0
  0
LINE
  5
5E5
330
D6
100
AcDbEntity
  8
0
100
AcDbLine
 10
2525.997553998025
 20
7354.321756044567
 30
0.0
 11
2665.997553998024
 21
7354.321756044567
 31
0.0
  0
LINE
  5
5E6
330
D6
100
AcDbEntity
  8
0
100
AcDbLine
 10
2665.997553998024
 20
7354.321756044567
 30
0.0
 11
2805.997553998024
 21
7354.321756044567
 31
0.0
  0
LINE
  5
5E7
330
D6
100
AcDbEntity
  8
0
100
AcDbLine
 10
2805.997553998024
 20
7354.321756044567
 30
0.0
 11
2945.997553998024
 21
7354.321756044567
 31
0.0
  0
LINE
  5
5E8
330
D6
100
AcDbEntity
  8
0
100
AcDbLine
 10
2945.997553998024
 20
7354.321756044567
 30
0.0
 11
3085.997553998025
 21
7354.321756044567
 31
0.0
  0
LINE
  5
5E9
330
D6
100
AcDbEntity
  8
0
100
AcDbLine
 10
1965.997553998024
 20
7354.321756044567
 30
0.0
 11
1965.997553998024
 21
7218.588422711234
 31
0.0
  0
LINE
  5
5EA
330
D6
100
AcDbEntity
  8
0
100
AcDbLine
 10
3085.997553998025
 20
7354.321756044567
 30
0.0
 11
3225.997553998024
 21
7354.321756044567
 31
0.0
  0
LINE
  5
5EB
330
D6
100
AcDbEntity
  8
0
100
AcDbLine
 10
3225.997553998024
 20
7354.321756044567
 30
0.0
 11
3365.997553998024
 21
7354.321756044567
 31
0.0
  0
LINE
  5
5EC
330
D6
100
AcDbEntity
  8
0
100
AcDbLine
 10
3365.997553998024
 20
7354.321756044567
 30
0.0
 11
3505.997553998025
 21
7354.321756044567
 31
0.0
  0
LINE
  5
5ED
330
D6
100
AcDbEntity
  8
0
100
AcDbLine
 10
3085.997553998025
 20
7354.321756044567
 30
0.0
 11
3085.997553998025
 21
7218.588422711234
 31
0.0
  0
LINE
  5
5EE
330
D6
100
AcDbEntity
  8
0
100
AcDbLine
 10
3505.997553998025
 20
7354.321756044567
 30
0.0
 11
3645.997553998024
 21
7354.321756044567
 31
0.0
  0
LINE
  5
5EF
330
D6
100
AcDbEntity
  8
0
100
AcDbLine
 10
3645.997553998024
 20
7354.321756044567
 30
0.0
 11
3785.997553998024
 21
7354.321756044567
 31
0.0
  0
LINE
  5
5F0
330
D6
100
AcDbEntity
  8
0
100
AcDbLine
 10
3505.997553998025
 20
7354.321756044567
 30
0.0
 11
3505.997553998025
 21
7218.588422711234
 31
0.0
  0
LINE
  5
5F1
330
D6
100
AcDbEntity
  8
0
100
AcDbLine
 10
3785.997553998024
 20
7354.321756044567
 30
0.0
 11
3785.997553998024
 21
7218.588422711234
 31
0.0
  0
LINE
  5
5F2
330
D6
100
AcDbEntity
  8
0
100
AcDbLine
 10
1723.597553998026
 20
7218.588422711234
 30
0.0
 11
1863.597553998026
 21
7218.588422711234
 31
0.0
  0
LINE
  5
5F3
330
D6
100
AcDbEntity
  8
0
100
AcDbLine
 10
1863.597553998026
 20
7218.588422711234
 30
0.0
 11
1965.997553998024
 21
7218.588422711234
 31
0.0
  0
LINE
  5
5F4
330
D6
100
AcDbEntity
  8
0
100
AcDbLine
 10
1965.997553998024
 20
7218.588422711234
 30
0.0
 11
2105.997553998024
 21
7218.588422711234
 31
0.0
  0
LINE
  5
5F5
330
D6
100
AcDbEntity
  8
0
100
AcDbLine
 10
2105.997553998024
 20
7218.588422711234
 30
0.0
 11
2245.997553998024
 21
7218.588422711234
 31
0.0
  0
LINE
  5
5F6
330
D6
100
AcDbEntity
  8
0
100
AcDbLine
 10
2245.997553998024
 20
7218.588422711234
 30
0.0
 11
2385.997553998024
 21
7218.588422711234
 31
0.0
  0
LINE
  5
5F7
330
D6
100
AcDbEntity
  8
0
100
AcDbLine
 10
2385.997553998024
 20
7218.588422711234
 30
0.0
 11
2525.997553998025
 21
7218.588422711234
 31
0.0
  0
LINE
  5
5F8
330
D6
100
AcDbEntity
  8
0
100
AcDbLine
 10
2525.997553998025
 20
7218.588422711234
 30
0.0
 11
2665.997553998024
 21
7218.588422711234
 31
0.0
  0
LINE
  5
5F9
330
D6
100
AcDbEntity
  8
0
100
AcDbLine
 10
2665.997553998024
 20
7218.588422711234
 30
0.0
 11
2805.997553998024
 21
7218.588422711234
 31
0.0
  0
LINE
  5
5FA
330
D6
100
AcDbEntity
  8
0
100
AcDbLine
 10
2805.997553998024
 20
7218.588422711234
 30
0.0
 11
2945.997553998024
 21
7218.588422711234
 31
0.0
  0
LINE
  5
5FB
330
D6
100
AcDbEntity
  8
0
100
AcDbLine
 10
2945.997553998024
 20
7218.588422711234
 30
0.0
 11
3085.997553998025
 21
7218.588422711234
 31
0.0
  0
LINE
  5
5FC
330
D6
100
AcDbEntity
  8
0
100
AcDbLine
 10
3085.997553998025
 20
7218.588422711234
 30
0.0
 11
3225.997553998024
 21
7218.588422711234
 31
0.0
  0
LINE
  5
5FD
330
D6
100
AcDbEntity
  8
0
100
AcDbLine
 10
3225.997553998024
 20
7218.588422711234
 30
0.0
 11
3365.997553998024
 21
7218.588422711234
 31
0.0
  0
LINE
  5
5FE
330
D6
100
AcDbEntity
  8
0
100
AcDbLine
 10
3365.997553998024
 20
7218.588422711234
 30
0.0
 11
3505.997553998025
 21
7218.588422711234
 31
0.0
  0
LINE
  5
5FF
330
D6
100
AcDbEntity
  8
0
100
AcDbLine
 10
3505.997553998025
 20
7218.588422711234
 30
0.0
 11
3645.997553998024
 21
7218.588422711234
 31
0.0
  0
LINE
  5
600
330
D6
100
AcDbEntity
  8
0
100
AcDbLine
 10
3645.997553998024
 20
7218.588422711234
 30
0.0
 11
3785.997553998024
 21
7218.588422711234
 31
0.0
  0
TEXT
  5
601
330
D6
100
AcDbEntity
  8
0
100
AcDbText
 10
1759.928559148213
 20
7257.248040673316
 30
0.0
 40
64.0
  1
記 号
100
AcDbText
  0
TEXT
  5
602
330
D6
100
AcDbEntity
  8
0
100
AcDbText
 10
2105.858765934637
 20
7255.406233331001
 30
0.0
 40
64.0
  1
来　　　　　　　　歴
100
AcDbText
  0
TEXT
  5
603
330
D6
100
AcDbEntity
  8
0
100
AcDbText
 10
3110.217443447457
 20
7252.732802758059
 30
0.0
 40
64.0
  1
年・月・日
100
AcDbText
  0
TEXT
  5
604
330
D6
100
AcDbEntity
  8
0
100
AcDbText
 10
3556.880033185628
 20
7258.222659962655
 30
0.0
 40
64.0
  1
記 入
100
AcDbText
  0
LWPOLYLINE
  5
605
330
D6
100
AcDbEntity
  8
0
100
AcDbPolyline
 90
        4
 70
     1
 43
0.0
 10
1723.597553998026
 20
7354.321756044567
 10
9783.597553998028
 20
7354.321756044567
 10
9783.597553998028
 20
1754.321756044566
 10
1723.597553998026
 20
1754.321756044566
  0
LWPOLYLINE
  5
606
330
D6
100
AcDbEntity
  8
0
100
AcDbPolyline
 90
        4
 70
     1
 43
0.0
 10
1523.597553998026
 20
7554.321756044567
 10
9983.597553998029
 20
7554.321756044567
 10
9983.597553998029
 20
1554.321756044566
 10
1523.597553998026
 20
1554.321756044566
  0
LINE
  5
607
330
D6
100
AcDbEntity
  8
0
100
AcDbLine
 10
7123.597553998026
 20
2704.4550893779
 30
0.0
 11
7123.597553998026
 21
2568.721756044566
 31
0.0
  0
LINE
  5
608
330
D6
100
AcDbEntity
  8
0
100
AcDbLine
 10
7403.597553998027
 20
2704.4550893779
 30
0.0
 11
7403.597553998027
 21
2568.721756044566
 31
0.0
  0
LINE
  5
609
330
D6
100
AcDbEntity
  8
0
100
AcDbLine
 10
7683.597553998026
 20
2704.4550893779
 30
0.0
 11
7683.597553998026
 21
2568.721756044566
 31
0.0
  0
LINE
  5
60A
330
D6
100
AcDbEntity
  8
0
100
AcDbLine
 10
7963.597553998027
 20
2704.4550893779
 30
0.0
 11
7963.597553998027
 21
2568.721756044566
 31
0.0
  0
LINE
  5
60B
330
D6
100
AcDbEntity
  8
0
100
AcDbLine
 10
8243.597553998027
 20
2704.4550893779
 30
0.0
 11
8243.597553998027
 21
2568.721756044566
 31
0.0
  0
LINE
  5
60C
330
D6
100
AcDbEntity
  8
0
100
AcDbLine
 10
8243.597553998027
 20
2568.721756044566
 30
0.0
 11
8243.597553998027
 21
2432.988422711232
 31
0.0
  0
LINE
  5
60D
330
D6
100
AcDbEntity
  8
0
100
AcDbLine
 10
8243.597553998027
 20
2432.988422711232
 30
0.0
 11
8243.597553998027
 21
2297.2550893779
 31
0.0
  0
LINE
  5
60E
330
D6
100
AcDbEntity
  8
0
100
AcDbLine
 10
8243.597553998027
 20
2297.2550893779
 30
0.0
 11
8243.597553998027
 21
2161.521756044567
 31
0.0
  0
LINE
  5
60F
330
D6
100
AcDbEntity
  8
0
100
AcDbLine
 10
8243.597553998027
 20
2161.521756044567
 30
0.0
 11
8243.597553998027
 21
2025.788422711233
 31
0.0
  0
LINE
  5
610
330
D6
100
AcDbEntity
  8
0
100
AcDbLine
 10
8383.597553998027
 20
2704.4550893779
 30
0.0
 11
8383.597553998027
 21
2568.721756044566
 31
0.0
  0
LINE
  5
611
330
D6
100
AcDbEntity
  8
0
100
AcDbLine
 10
9783.597553998028
 20
2704.4550893779
 30
0.0
 11
9783.597553998028
 21
2568.721756044566
 31
0.0
  0
LINE
  5
612
330
D6
100
AcDbEntity
  8
0
100
AcDbLine
 10
8383.597553998027
 20
2568.721756044566
 30
0.0
 11
8383.597553998027
 21
2432.988422711232
 31
0.0
  0
LINE
  5
613
330
D6
100
AcDbEntity
  8
0
100
AcDbLine
 10
9783.597553998028
 20
2568.721756044566
 30
0.0
 11
9783.597553998028
 21
2432.988422711232
 31
0.0
  0
LINE
  5
614
330
D6
100
AcDbEntity
  8
0
100
AcDbLine
 10
8383.597553998027
 20
2432.988422711232
 30
0.0
 11
8383.597553998027
 21
2297.2550893779
 31
0.0
  0
LINE
  5
615
330
D6
100
AcDbEntity
  8
0
100
AcDbLine
 10
9783.597553998028
 20
2432.988422711232
 30
0.0
 11
9783.597553998028
 21
2297.2550893779
 31
0.0
  0
LINE
  5
616
330
D6
100
AcDbEntity
  8
0
100
AcDbLine
 10
8383.597553998027
 20
2297.2550893779
 30
0.0
 11
8383.597553998027
 21
2161.521756044567
 31
0.0
  0
LINE
  5
617
330
D6
100
AcDbEntity
  8
0
100
AcDbLine
 10
9783.597553998028
 20
2297.2550893779
 30
0.0
 11
9783.597553998028
 21
2161.521756044567
 31
0.0
  0
LINE
  5
618
330
D6
100
AcDbEntity
  8
0
100
AcDbLine
 10
8383.597553998027
 20
2161.521756044567
 30
0.0
 11
8383.597553998027
 21
2025.788422711233
 31
0.0
  0
LINE
  5
619
330
D6
100
AcDbEntity
  8
0
100
AcDbLine
 10
9783.597553998028
 20
2161.521756044567
 30
0.0
 11
9783.597553998028
 21
2025.788422711233
 31
0.0
  0
LINE
  5
61A
330
D6
100
AcDbEntity
  8
0
100
AcDbLine
 10
7123.597553998026
 20
2568.721756044566
 30
0.0
 11
7263.597553998026
 21
2568.721756044566
 31
0.0
  0
LINE
  5
61B
330
D6
100
AcDbEntity
  8
0
100
AcDbLine
 10
7263.597553998026
 20
2568.721756044566
 30
0.0
 11
7403.597553998027
 21
2568.721756044566
 31
0.0
  0
LINE
  5
61C
330
D6
100
AcDbEntity
  8
0
100
AcDbLine
 10
7123.597553998026
 20
2568.721756044566
 30
0.0
 11
7123.597553998026
 21
2432.988422711232
 31
0.0
  0
LINE
  5
61D
330
D6
100
AcDbEntity
  8
0
100
AcDbLine
 10
7123.597553998026
 20
2432.988422711232
 30
0.0
 11
7123.597553998026
 21
2297.2550893779
 31
0.0
  0
LINE
  5
61E
330
D6
100
AcDbEntity
  8
0
100
AcDbLine
 10
7403.597553998027
 20
2568.721756044566
 30
0.0
 11
7543.597553998026
 21
2568.721756044566
 31
0.0
  0
LINE
  5
61F
330
D6
100
AcDbEntity
  8
0
100
AcDbLine
 10
7543.597553998026
 20
2568.721756044566
 30
0.0
 11
7683.597553998026
 21
2568.721756044566
 31
0.0
  0
LINE
  5
620
330
D6
100
AcDbEntity
  8
0
100
AcDbLine
 10
7403.597553998027
 20
2568.721756044566
 30
0.0
 11
7403.597553998027
 21
2432.988422711232
 31
0.0
  0
LINE
  5
621
330
D6
100
AcDbEntity
  8
0
100
AcDbLine
 10
7403.597553998027
 20
2432.988422711232
 30
0.0
 11
7403.597553998027
 21
2297.2550893779
 31
0.0
  0
LINE
  5
622
330
D6
100
AcDbEntity
  8
0
100
AcDbLine
 10
7683.597553998026
 20
2568.721756044566
 30
0.0
 11
7823.597553998026
 21
2568.721756044566
 31
0.0
  0
LINE
  5
623
330
D6
100
AcDbEntity
  8
0
100
AcDbLine
 10
7823.597553998026
 20
2568.721756044566
 30
0.0
 11
7963.597553998027
 21
2568.721756044566
 31
0.0
  0
LINE
  5
624
330
D6
100
AcDbEntity
  8
0
100
AcDbLine
 10
7683.597553998026
 20
2568.721756044566
 30
0.0
 11
7683.597553998026
 21
2432.988422711232
 31
0.0
  0
LINE
  5
625
330
D6
100
AcDbEntity
  8
0
100
AcDbLine
 10
7683.597553998026
 20
2432.988422711232
 30
0.0
 11
7683.597553998026
 21
2297.2550893779
 31
0.0
  0
LINE
  5
626
330
D6
100
AcDbEntity
  8
0
100
AcDbLine
 10
7963.597553998027
 20
2568.721756044566
 30
0.0
 11
8103.597553998026
 21
2568.721756044566
 31
0.0
  0
LINE
  5
627
330
D6
100
AcDbEntity
  8
0
100
AcDbLine
 10
8103.597553998026
 20
2568.721756044566
 30
0.0
 11
8243.597553998027
 21
2568.721756044566
 31
0.0
  0
LINE
  5
628
330
D6
100
AcDbEntity
  8
0
100
AcDbLine
 10
7963.597553998027
 20
2568.721756044566
 30
0.0
 11
7963.597553998027
 21
2432.988422711232
 31
0.0
  0
LINE
  5
629
330
D6
100
AcDbEntity
  8
0
100
AcDbLine
 10
7963.597553998027
 20
2432.988422711232
 30
0.0
 11
7963.597553998027
 21
2297.2550893779
 31
0.0
  0
LINE
  5
62A
330
D6
100
AcDbEntity
  8
0
100
AcDbLine
 10
7123.597553998026
 20
2297.2550893779
 30
0.0
 11
7263.597553998026
 21
2297.2550893779
 31
0.0
  0
LINE
  5
62B
330
D6
100
AcDbEntity
  8
0
100
AcDbLine
 10
7123.597553998026
 20
2297.2550893779
 30
0.0
 11
7123.597553998026
 21
2161.521756044567
 31
0.0
  0
LINE
  5
62C
330
D6
100
AcDbEntity
  8
0
100
AcDbLine
 10
7123.597553998026
 20
2161.521756044567
 30
0.0
 11
7123.597553998026
 21
2025.788422711233
 31
0.0
  0
LINE
  5
62D
330
D6
100
AcDbEntity
  8
0
100
AcDbLine
 10
7263.597553998026
 20
2297.2550893779
 30
0.0
 11
7403.597553998027
 21
2297.2550893779
 31
0.0
  0
LINE
  5
62E
330
D6
100
AcDbEntity
  8
0
100
AcDbLine
 10
7403.597553998027
 20
2297.2550893779
 30
0.0
 11
7543.597553998026
 21
2297.2550893779
 31
0.0
  0
LINE
  5
62F
330
D6
100
AcDbEntity
  8
0
100
AcDbLine
 10
7543.597553998026
 20
2297.2550893779
 30
0.0
 11
7683.597553998026
 21
2297.2550893779
 31
0.0
  0
LINE
  5
630
330
D6
100
AcDbEntity
  8
0
100
AcDbLine
 10
7263.597553998026
 20
2297.2550893779
 30
0.0
 11
7263.597553998026
 21
2161.521756044567
 31
0.0
  0
LINE
  5
631
330
D6
100
AcDbEntity
  8
0
100
AcDbLine
 10
7263.597553998026
 20
2161.521756044567
 30
0.0
 11
7263.597553998026
 21
2025.788422711233
 31
0.0
  0
LINE
  5
632
330
D6
100
AcDbEntity
  8
0
100
AcDbLine
 10
7683.597553998026
 20
2297.2550893779
 30
0.0
 11
7823.597553998026
 21
2297.2550893779
 31
0.0
  0
LINE
  5
633
330
D6
100
AcDbEntity
  8
0
100
AcDbLine
 10
7683.597553998026
 20
2297.2550893779
 30
0.0
 11
7683.597553998026
 21
2161.521756044567
 31
0.0
  0
LINE
  5
634
330
D6
100
AcDbEntity
  8
0
100
AcDbLine
 10
7683.597553998026
 20
2161.521756044567
 30
0.0
 11
7683.597553998026
 21
2025.788422711233
 31
0.0
  0
LINE
  5
635
330
D6
100
AcDbEntity
  8
0
100
AcDbLine
 10
7823.597553998026
 20
2297.2550893779
 30
0.0
 11
7963.597553998027
 21
2297.2550893779
 31
0.0
  0
LINE
  5
636
330
D6
100
AcDbEntity
  8
0
100
AcDbLine
 10
7963.597553998027
 20
2297.2550893779
 30
0.0
 11
8103.597553998026
 21
2297.2550893779
 31
0.0
  0
LINE
  5
637
330
D6
100
AcDbEntity
  8
0
100
AcDbLine
 10
8103.597553998026
 20
2297.2550893779
 30
0.0
 11
8243.597553998027
 21
2297.2550893779
 31
0.0
  0
LINE
  5
638
330
D6
100
AcDbEntity
  8
0
100
AcDbLine
 10
7823.597553998026
 20
2297.2550893779
 30
0.0
 11
7823.597553998026
 21
2161.521756044567
 31
0.0
  0
LINE
  5
639
330
D6
100
AcDbEntity
  8
0
100
AcDbLine
 10
7823.597553998026
 20
2161.521756044567
 30
0.0
 11
7823.597553998026
 21
2025.788422711233
 31
0.0
  0
LINE
  5
63A
330
D6
100
AcDbEntity
  8
0
100
AcDbLine
 10
7123.597553998026
 20
2025.788422711233
 30
0.0
 11
7263.597553998026
 21
2025.788422711233
 31
0.0
  0
LINE
  5
63B
330
D6
100
AcDbEntity
  8
0
100
AcDbLine
 10
7123.597553998026
 20
1754.321756044566
 30
0.0
 11
7263.597553998026
 21
1754.321756044566
 31
0.0
  0
LINE
  5
63C
330
D6
100
AcDbEntity
  8
0
100
AcDbLine
 10
7263.597553998026
 20
2025.788422711233
 30
0.0
 11
7403.597553998027
 21
2025.788422711233
 31
0.0
  0
LINE
  5
63D
330
D6
100
AcDbEntity
  8
0
100
AcDbLine
 10
7263.597553998026
 20
1754.321756044566
 30
0.0
 11
7403.597553998027
 21
1754.321756044566
 31
0.0
  0
LINE
  5
63E
330
D6
100
AcDbEntity
  8
0
100
AcDbLine
 10
7403.597553998027
 20
2025.788422711233
 30
0.0
 11
7543.597553998026
 21
2025.788422711233
 31
0.0
  0
LINE
  5
63F
330
D6
100
AcDbEntity
  8
0
100
AcDbLine
 10
7403.597553998027
 20
1754.321756044566
 30
0.0
 11
7543.597553998026
 21
1754.321756044566
 31
0.0
  0
LINE
  5
640
330
D6
100
AcDbEntity
  8
0
100
AcDbLine
 10
7543.597553998026
 20
2025.788422711233
 30
0.0
 11
7683.597553998026
 21
2025.788422711233
 31
0.0
  0
LINE
  5
641
330
D6
100
AcDbEntity
  8
0
100
AcDbLine
 10
7543.597553998026
 20
1754.321756044566
 30
0.0
 11
7683.597553998026
 21
1754.321756044566
 31
0.0
  0
LINE
  5
642
330
D6
100
AcDbEntity
  8
0
100
AcDbLine
 10
7683.597553998026
 20
2025.788422711233
 30
0.0
 11
7823.597553998026
 21
2025.788422711233
 31
0.0
  0
LINE
  5
643
330
D6
100
AcDbEntity
  8
0
100
AcDbLine
 10
7683.597553998026
 20
1754.321756044566
 30
0.0
 11
7823.597553998026
 21
1754.321756044566
 31
0.0
  0
LINE
  5
644
330
D6
100
AcDbEntity
  8
0
100
AcDbLine
 10
7823.597553998026
 20
2025.788422711233
 30
0.0
 11
7963.597553998027
 21
2025.788422711233
 31
0.0
  0
LINE
  5
645
330
D6
100
AcDbEntity
  8
0
100
AcDbLine
 10
7823.597553998026
 20
1754.321756044566
 30
0.0
 11
7963.597553998027
 21
1754.321756044566
 31
0.0
  0
LINE
  5
646
330
D6
100
AcDbEntity
  8
0
100
AcDbLine
 10
7963.597553998027
 20
2025.788422711233
 30
0.0
 11
8103.597553998026
 21
2025.788422711233
 31
0.0
  0
LINE
  5
647
330
D6
100
AcDbEntity
  8
0
100
AcDbLine
 10
7963.597553998027
 20
1754.321756044566
 30
0.0
 11
8103.597553998026
 21
1754.321756044566
 31
0.0
  0
LINE
  5
648
330
D6
100
AcDbEntity
  8
0
100
AcDbLine
 10
8103.597553998026
 20
2025.788422711233
 30
0.0
 11
8243.597553998027
 21
2025.788422711233
 31
0.0
  0
LINE
  5
649
330
D6
100
AcDbEntity
  8
0
100
AcDbLine
 10
8103.597553998026
 20
1754.321756044566
 30
0.0
 11
8243.597553998027
 21
1754.321756044566
 31
0.0
  0
LINE
  5
64A
330
D6
100
AcDbEntity
  8
0
100
AcDbLine
 10
7123.597553998026
 20
2025.788422711233
 30
0.0
 11
7123.597553998026
 21
1890.055089377899
 31
0.0
  0
LINE
  5
64B
330
D6
100
AcDbEntity
  8
0
100
AcDbLine
 10
7123.597553998026
 20
1890.055089377899
 30
0.0
 11
7123.597553998026
 21
1754.321756044566
 31
0.0
  0
LINE
  5
64C
330
D6
100
AcDbEntity
  8
0
100
AcDbLine
 10
8243.597553998027
 20
2025.788422711233
 30
0.0
 11
8383.597553998027
 21
2025.788422711233
 31
0.0
  0
LINE
  5
64D
330
D6
100
AcDbEntity
  8
0
100
AcDbLine
 10
8243.597553998027
 20
1754.321756044566
 30
0.0
 11
8383.597553998027
 21
1754.321756044566
 31
0.0
  0
LINE
  5
64E
330
D6
100
AcDbEntity
  8
0
100
AcDbLine
 10
8243.597553998027
 20
2025.788422711233
 30
0.0
 11
8243.597553998027
 21
1890.055089377899
 31
0.0
  0
LINE
  5
64F
330
D6
100
AcDbEntity
  8
0
100
AcDbLine
 10
8243.597553998027
 20
1890.055089377899
 30
0.0
 11
8243.597553998027
 21
1754.321756044566
 31
0.0
  0
LINE
  5
650
330
D6
100
AcDbEntity
  8
0
100
AcDbLine
 10
8383.597553998027
 20
2025.788422711233
 30
0.0
 11
8523.597553998026
 21
2025.788422711233
 31
0.0
  0
LINE
  5
651
330
D6
100
AcDbEntity
  8
0
100
AcDbLine
 10
8383.597553998027
 20
1754.321756044566
 30
0.0
 11
8523.597553998026
 21
1754.321756044566
 31
0.0
  0
LINE
  5
652
330
D6
100
AcDbEntity
  8
0
100
AcDbLine
 10
8523.597553998026
 20
2025.788422711233
 30
0.0
 11
8663.597553998027
 21
2025.788422711233
 31
0.0
  0
LINE
  5
653
330
D6
100
AcDbEntity
  8
0
100
AcDbLine
 10
8523.597553998026
 20
1754.321756044566
 30
0.0
 11
8663.597553998027
 21
1754.321756044566
 31
0.0
  0
LINE
  5
654
330
D6
100
AcDbEntity
  8
0
100
AcDbLine
 10
8663.597553998027
 20
2025.788422711233
 30
0.0
 11
8803.597553998027
 21
2025.788422711233
 31
0.0
  0
LINE
  5
655
330
D6
100
AcDbEntity
  8
0
100
AcDbLine
 10
8663.597553998027
 20
1754.321756044566
 30
0.0
 11
8803.597553998027
 21
1754.321756044566
 31
0.0
  0
LINE
  5
656
330
D6
100
AcDbEntity
  8
0
100
AcDbLine
 10
8803.597553998027
 20
2025.788422711233
 30
0.0
 11
8943.597553998026
 21
2025.788422711233
 31
0.0
  0
LINE
  5
657
330
D6
100
AcDbEntity
  8
0
100
AcDbLine
 10
8803.597553998027
 20
1754.321756044566
 30
0.0
 11
8943.597553998026
 21
1754.321756044566
 31
0.0
  0
LINE
  5
658
330
D6
100
AcDbEntity
  8
0
100
AcDbLine
 10
8943.597553998026
 20
2025.788422711233
 30
0.0
 11
9083.597553998027
 21
2025.788422711233
 31
0.0
  0
LINE
  5
659
330
D6
100
AcDbEntity
  8
0
100
AcDbLine
 10
8943.597553998026
 20
1754.321756044566
 30
0.0
 11
9083.597553998027
 21
1754.321756044566
 31
0.0
  0
LINE
  5
65A
330
D6
100
AcDbEntity
  8
0
100
AcDbLine
 10
9083.597553998027
 20
2025.788422711233
 30
0.0
 11
9223.597553998025
 21
2025.788422711233
 31
0.0
  0
LINE
  5
65B
330
D6
100
AcDbEntity
  8
0
100
AcDbLine
 10
9083.597553998027
 20
1754.321756044566
 30
0.0
 11
9223.597553998025
 21
1754.321756044566
 31
0.0
  0
LINE
  5
65C
330
D6
100
AcDbEntity
  8
0
100
AcDbLine
 10
9223.597553998025
 20
2025.788422711233
 30
0.0
 11
9363.597553998026
 21
2025.788422711233
 31
0.0
  0
LINE
  5
65D
330
D6
100
AcDbEntity
  8
0
100
AcDbLine
 10
9223.597553998025
 20
1754.321756044566
 30
0.0
 11
9363.597553998026
 21
1754.321756044566
 31
0.0
  0
LINE
  5
65E
330
D6
100
AcDbEntity
  8
0
100
AcDbLine
 10
9363.597553998026
 20
2025.788422711233
 30
0.0
 11
9503.597553998027
 21
2025.788422711233
 31
0.0
  0
LINE
  5
65F
330
D6
100
AcDbEntity
  8
0
100
AcDbLine
 10
9363.597553998026
 20
1754.321756044566
 30
0.0
 11
9503.597553998027
 21
1754.321756044566
 31
0.0
  0
LINE
  5
660
330
D6
100
AcDbEntity
  8
0
100
AcDbLine
 10
9503.597553998027
 20
2025.788422711233
 30
0.0
 11
9643.597553998027
 21
2025.788422711233
 31
0.0
  0
LINE
  5
661
330
D6
100
AcDbEntity
  8
0
100
AcDbLine
 10
9503.597553998027
 20
1754.321756044566
 30
0.0
 11
9643.597553998027
 21
1754.321756044566
 31
0.0
  0
LINE
  5
662
330
D6
100
AcDbEntity
  8
0
100
AcDbLine
 10
9643.597553998027
 20
2025.788422711233
 30
0.0
 11
9783.597553998028
 21
2025.788422711233
 31
0.0
  0
LINE
  5
663
330
D6
100
AcDbEntity
  8
0
100
AcDbLine
 10
9643.597553998027
 20
1754.321756044566
 30
0.0
 11
9783.597553998028
 21
1754.321756044566
 31
0.0
  0
LINE
  5
664
330
D6
100
AcDbEntity
  8
0
100
AcDbLine
 10
8383.597553998027
 20
2025.788422711233
 30
0.0
 11
8383.597553998027
 21
1890.055089377899
 31
0.0
  0
LINE
  5
665
330
D6
100
AcDbEntity
  8
0
100
AcDbLine
 10
9783.597553998028
 20
2025.788422711233
 30
0.0
 11
9783.597553998028
 21
1890.055089377899
 31
0.0
  0
LINE
  5
666
330
D6
100
AcDbEntity
  8
0
100
AcDbLine
 10
8383.597553998027
 20
1890.055089377899
 30
0.0
 11
8383.597553998027
 21
1754.321756044566
 31
0.0
  0
LINE
  5
667
330
D6
100
AcDbEntity
  8
0
100
AcDbLine
 10
9783.597553998028
 20
1890.055089377899
 30
0.0
 11
9783.597553998028
 21
1754.321756044566
 31
0.0
  0
MTEXT
  5
668
330
D6
100
AcDbEntity
  8
0
100
AcDbMText
 10
7145.867270127986
 20
1953.73769079841
 30
0.0
 40
30.0
 41
280.0
 71
     1
 72
     5
  1
HOKKAIDO
 73
     1
 44
1.0
  0
MTEXT
  5
669
330
D6
100
AcDbEntity
  8
0
100
AcDbMText
 10
7143.746033787015
 20
1885.816746974712
 30
0.0
 40
60.0
 41
280.0
 71
     1
 72
     5
  1
SUIKO
 73
     1
 44
1.0
  0
MTEXT
  5
66A
330
D6
100
AcDbEntity
  8
0
100
AcDbMText
 10
7433.144271691199
 20
1907.461656816984
 30
0.0
 40
60.0
 41
893.3007031411397
 71
     1
 72
     5
  1
北海道スイコー株式会社
 73
     1
 44
1.0
  0
MTEXT
  5
66B
330
D6
100
AcDbEntity
  8
0
100
AcDbMText
 10
8276.325853491275
 20
1986.547321308756
 30
0.0
 40
70.0
 41
140.0
 71
     1
 72
     5
  1
図
 73
     1
 44
1.0
  0
MTEXT
  5
66C
330
D6
100
AcDbEntity
  8
0
100
AcDbMText
 10
8273.053219468915
 20
1860.624263326032
 30
0.0
 40
70.0
 41
140.0
 71
     1
 72
     5
  1
番
 73
     1
 44
1.0
  0
MTEXT
  5
66D
330
D6
100
AcDbEntity
  8
0
100
AcDbMText
 10
8273.053219468915
 20
2568.721756044566
 30
0.0
 40
70.0
 41
140.0
 71
     1
 72
     5
  1
名
 73
     1
 44
1.0
  0
MTEXT
  5
66E
330
D6
100
AcDbEntity
  8
0
100
AcDbMText
 10
8272.610300511452
 20
2234.156936732647
 30
0.0
 40
70.0
 41
140.0
 71
     1
 72
     5
  1
称
 73
     1
 44
1.0
  0
MTEXT
  5
66F
330
D6
100
AcDbEntity
  8
0
100
AcDbMText
 10
7166.144735193215
 20
2290.71490581085
 30
0.0
 40
50.0
 41
140.0
 71
     1
 72
     5
  1
年
 73
     1
 44
1.0
  0
MTEXT
  5
670
330
D6
100
AcDbEntity
  8
0
100
AcDbMText
 10
7189.054479529426
 20
2235.928606278319
 30
0.0
 40
50.0
 41
140.0
 71
     1
 72
     5
  1
・
 73
     1
 44
1.0
  0
MTEXT
  5
671
330
D6
100
AcDbEntity
  8
0
100
AcDbMText
 10
7162.871774625877
 20
2190.952582096397
 30
0.0
 40
50.0
 41
140.0
 71
     1
 72
     5
  1
月
 73
     1
 44
1.0
  0
MTEXT
  5
672
330
D6
100
AcDbEntity
  8
0
100
AcDbMText
 10
7185.781518962162
 20
2145.976557914438
 30
0.0
 40
50.0
 41
140.0
 71
     1
 72
     5
  1
・
 73
     1
 44
1.0
  0
MTEXT
  5
673
330
D6
100
AcDbEntity
  8
0
100
AcDbMText
 10
7172.69032978284
 20
2100.195272944985
 30
0.0
 40
50.0
 41
140.0
 71
     1
 72
     5
  1
日
 73
     1
 44
1.0
  0
MTEXT
  5
674
330
D6
100
AcDbEntity
  8
0
100
AcDbMText
 10
7715.33270322589
 20
2261.107727495223
 30
0.0
 40
60.0
 41
140.0
 71
     1
 72
     5
  1
尺
 73
     1
 44
1.0
  0
MTEXT
  5
675
330
D6
100
AcDbEntity
  8
0
100
AcDbMText
 10
7715.215338833488
 20
2140.615234754491
 30
0.0
 40
60.0
 41
140.0
 71
     1
 72
     5
  1
度
 73
     1
 44
1.0
  0
MTEXT
  5
676
330
D6
100
AcDbEntity
  8
0
100
AcDbMText
 10
7153.053546013966
 20
2668.484079759021
 30
0.0
 40
60.0
 41
280.0
 71
     1
 72
     5
  1
設　計
 73
     1
 44
1.0
  0
MTEXT
  5
677
330
D6
100
AcDbEntity
  8
0
100
AcDbMText
 10
7429.780258901577
 20
2668.484079758985
 30
0.0
 40
60.0
 41
280.0
 71
     1
 72
     5
  1
製　図
 73
     1
 44
1.0
  0
MTEXT
  5
678
330
D6
100
AcDbEntity
  8
0
100
AcDbMText
 10
7709.780258901577
 20
2671.754171542545
 30
0.0
 40
60.0
 41
280.0
 71
     1
 72
     5
  1
検　図
 73
     1
 44
1.0
  0
MTEXT
  5
679
330
D6
100
AcDbEntity
  8
0
100
AcDbMText
 10
7996.325853491201
 20
2668.484079759021
 30
0.0
 40
60.0
 41
280.0
 71
     1
 72
     5
  1
承　認
 73
     1
 44
1.0
  0
LINE
  5
67A
330
D6
100
AcDbEntity
  8
0
100
AcDbLine
 10
7123.597553998026
 20
2704.4550893779
 30
0.0
 11
7263.597553998026
 21
2704.4550893779
 31
0.0
  0
LINE
  5
67B
330
D6
100
AcDbEntity
  8
0
100
AcDbLine
 10
7263.597553998026
 20
2704.4550893779
 30
0.0
 11
7403.597553998027
 21
2704.4550893779
 31
0.0
  0
LINE
  5
67C
330
D6
100
AcDbEntity
  8
0
100
AcDbLine
 10
7403.597553998027
 20
2704.4550893779
 30
0.0
 11
7543.597553998026
 21
2704.4550893779
 31
0.0
  0
LINE
  5
67D
330
D6
100
AcDbEntity
  8
0
100
AcDbLine
 10
7543.597553998026
 20
2704.4550893779
 30
0.0
 11
7683.597553998026
 21
2704.4550893779
 31
0.0
  0
LINE
  5
67E
330
D6
100
AcDbEntity
  8
0
100
AcDbLine
 10
7683.597553998026
 20
2704.4550893779
 30
0.0
 11
7823.597553998026
 21
2704.4550893779
 31
0.0
  0
LINE
  5
67F
330
D6
100
AcDbEntity
  8
0
100
AcDbLine
 10
7823.597553998026
 20
2704.4550893779
 30
0.0
 11
7963.597553998027
 21
2704.4550893779
 31
0.0
  0
LINE
  5
680
330
D6
100
AcDbEntity
  8
0
100
AcDbLine
 10
7963.597553998027
 20
2704.4550893779
 30
0.0
 11
8103.597553998026
 21
2704.4550893779
 31
0.0
  0
LINE
  5
681
330
D6
100
AcDbEntity
  8
0
100
AcDbLine
 10
8103.597553998026
 20
2704.4550893779
 30
0.0
 11
8243.597553998027
 21
2704.4550893779
 31
0.0
  0
LINE
  5
682
330
D6
100
AcDbEntity
  8
0
100
AcDbLine
 10
8243.597553998027
 20
2704.4550893779
 30
0.0
 11
8383.597553998027
 21
2704.4550893779
 31
0.0
  0
LINE
  5
683
330
D6
100
AcDbEntity
  8
0
100
AcDbLine
 10
8383.597553998027
 20
2704.4550893779
 30
0.0
 11
8523.597553998026
 21
2704.4550893779
 31
0.0
  0
LINE
  5
684
330
D6
100
AcDbEntity
  8
0
100
AcDbLine
 10
8523.597553998026
 20
2704.4550893779
 30
0.0
 11
8663.597553998027
 21
2704.4550893779
 31
0.0
  0
LINE
  5
685
330
D6
100
AcDbEntity
  8
0
100
AcDbLine
 10
8663.597553998027
 20
2704.4550893779
 30
0.0
 11
8803.597553998027
 21
2704.4550893779
 31
0.0
  0
LINE
  5
686
330
D6
100
AcDbEntity
  8
0
100
AcDbLine
 10
8803.597553998027
 20
2704.4550893779
 30
0.0
 11
8943.597553998026
 21
2704.4550893779
 31
0.0
  0
LINE
  5
687
330
D6
100
AcDbEntity
  8
0
100
AcDbLine
 10
8943.597553998026
 20
2704.4550893779
 30
0.0
 11
9083.597553998027
 21
2704.4550893779
 31
0.0
  0
LINE
  5
688
330
D6
100
AcDbEntity
  8
0
100
AcDbLine
 10
9083.597553998027
 20
2704.4550893779
 30
0.0
 11
9223.597553998025
 21
2704.4550893779
 31
0.0
  0
LINE
  5
689
330
D6
100
AcDbEntity
  8
0
100
AcDbLine
 10
9223.597553998025
 20
2704.4550893779
 30
0.0
 11
9363.597553998026
 21
2704.4550893779
 31
0.0
  0
LINE
  5
68A
330
D6
100
AcDbEntity
  8
0
100
AcDbLine
 10
9363.597553998026
 20
2704.4550893779
 30
0.0
 11
9503.597553998027
 21
2704.4550893779
 31
0.0
  0
LINE
  5
68B
330
D6
100
AcDbEntity
  8
0
100
AcDbLine
 10
9503.597553998027
 20
2704.4550893779
 30
0.0
 11
9643.597553998027
 21
2704.4550893779
 31
0.0
  0
LINE
  5
68C
330
D6
100
AcDbEntity
  8
0
100
AcDbLine
 10
9643.597553998027
 20
2704.4550893779
 30
0.0
 11
9783.597553998028
 21
2704.4550893779
 31
0.0
  0
LINE
  5
68D
330
D6
100
AcDbEntity
  8
0
100
AcDbLine
 10
7123.597553998026
 20
2984.4550893779
 30
0.0
 11
7263.597553998026
 21
2984.4550893779
 31
0.0
  0
LINE
  5
68E
330
D6
100
AcDbEntity
  8
0
100
AcDbLine
 10
7123.597553998026
 20
2704.4550893779
 30
0.0
 11
7263.597553998026
 21
2704.4550893779
 31
0.0
  0
LINE
  5
68F
330
D6
100
AcDbEntity
  8
0
100
AcDbLine
 10
7263.597553998026
 20
2984.4550893779
 30
0.0
 11
7403.597553998027
 21
2984.4550893779
 31
0.0
  0
LINE
  5
690
330
D6
100
AcDbEntity
  8
0
100
AcDbLine
 10
7263.597553998026
 20
2704.4550893779
 30
0.0
 11
7403.597553998027
 21
2704.4550893779
 31
0.0
  0
LINE
  5
691
330
D6
100
AcDbEntity
  8
0
100
AcDbLine
 10
7403.597553998027
 20
2984.4550893779
 30
0.0
 11
7543.597553998026
 21
2984.4550893779
 31
0.0
  0
LINE
  5
692
330
D6
100
AcDbEntity
  8
0
100
AcDbLine
 10
7403.597553998027
 20
2704.4550893779
 30
0.0
 11
7543.597553998026
 21
2704.4550893779
 31
0.0
  0
LINE
  5
693
330
D6
100
AcDbEntity
  8
0
100
AcDbLine
 10
7543.597553998026
 20
2984.4550893779
 30
0.0
 11
7683.597553998026
 21
2984.4550893779
 31
0.0
  0
LINE
  5
694
330
D6
100
AcDbEntity
  8
0
100
AcDbLine
 10
7543.597553998026
 20
2704.4550893779
 30
0.0
 11
7683.597553998026
 21
2704.4550893779
 31
0.0
  0
LINE
  5
695
330
D6
100
AcDbEntity
  8
0
100
AcDbLine
 10
7123.597553998026
 20
2984.4550893779
 30
0.0
 11
7123.597553998026
 21
2844.4550893779
 31
0.0
  0
LINE
  5
696
330
D6
100
AcDbEntity
  8
0
100
AcDbLine
 10
7123.597553998026
 20
2844.4550893779
 30
0.0
 11
7123.597553998026
 21
2704.4550893779
 31
0.0
  0
LINE
  5
697
330
D6
100
AcDbEntity
  8
0
100
AcDbLine
 10
7683.597553998026
 20
2984.4550893779
 30
0.0
 11
7823.597553998026
 21
2984.4550893779
 31
0.0
  0
LINE
  5
698
330
D6
100
AcDbEntity
  8
0
100
AcDbLine
 10
7683.597553998026
 20
2704.4550893779
 30
0.0
 11
7823.597553998026
 21
2704.4550893779
 31
0.0
  0
LINE
  5
699
330
D6
100
AcDbEntity
  8
0
100
AcDbLine
 10
7823.597553998026
 20
2984.4550893779
 30
0.0
 11
7963.597553998027
 21
2984.4550893779
 31
0.0
  0
LINE
  5
69A
330
D6
100
AcDbEntity
  8
0
100
AcDbLine
 10
7823.597553998026
 20
2704.4550893779
 30
0.0
 11
7963.597553998027
 21
2704.4550893779
 31
0.0
  0
LINE
  5
69B
330
D6
100
AcDbEntity
  8
0
100
AcDbLine
 10
7963.597553998027
 20
2984.4550893779
 30
0.0
 11
8103.597553998026
 21
2984.4550893779
 31
0.0
  0
LINE
  5
69C
330
D6
100
AcDbEntity
  8
0
100
AcDbLine
 10
7963.597553998027
 20
2704.4550893779
 30
0.0
 11
8103.597553998026
 21
2704.4550893779
 31
0.0
  0
LINE
  5
69D
330
D6
100
AcDbEntity
  8
0
100
AcDbLine
 10
8103.597553998026
 20
2984.4550893779
 30
0.0
 11
8243.597553998027
 21
2984.4550893779
 31
0.0
  0
LINE
  5
69E
330
D6
100
AcDbEntity
  8
0
100
AcDbLine
 10
8103.597553998026
 20
2704.4550893779
 30
0.0
 11
8243.597553998027
 21
2704.4550893779
 31
0.0
  0
LINE
  5
69F
330
D6
100
AcDbEntity
  8
0
100
AcDbLine
 10
8243.597553998027
 20
2984.4550893779
 30
0.0
 11
8383.597553998027
 21
2984.4550893779
 31
0.0
  0
LINE
  5
6A0
330
D6
100
AcDbEntity
  8
0
100
AcDbLine
 10
8243.597553998027
 20
2704.4550893779
 30
0.0
 11
8383.597553998027
 21
2704.4550893779
 31
0.0
  0
LINE
  5
6A1
330
D6
100
AcDbEntity
  8
0
100
AcDbLine
 10
8383.597553998027
 20
2984.4550893779
 30
0.0
 11
8523.597553998026
 21
2984.4550893779
 31
0.0
  0
LINE
  5
6A2
330
D6
100
AcDbEntity
  8
0
100
AcDbLine
 10
8383.597553998027
 20
2704.4550893779
 30
0.0
 11
8523.597553998026
 21
2704.4550893779
 31
0.0
  0
LINE
  5
6A3
330
D6
100
AcDbEntity
  8
0
100
AcDbLine
 10
8523.597553998026
 20
2984.4550893779
 30
0.0
 11
8663.597553998027
 21
2984.4550893779
 31
0.0
  0
LINE
  5
6A4
330
D6
100
AcDbEntity
  8
0
100
AcDbLine
 10
8523.597553998026
 20
2704.4550893779
 30
0.0
 11
8663.597553998027
 21
2704.4550893779
 31
0.0
  0
LINE
  5
6A5
330
D6
100
AcDbEntity
  8
0
100
AcDbLine
 10
8663.597553998027
 20
2984.4550893779
 30
0.0
 11
8803.597553998027
 21
2984.4550893779
 31
0.0
  0
LINE
  5
6A6
330
D6
100
AcDbEntity
  8
0
100
AcDbLine
 10
8663.597553998027
 20
2704.4550893779
 30
0.0
 11
8803.597553998027
 21
2704.4550893779
 31
0.0
  0
LINE
  5
6A7
330
D6
100
AcDbEntity
  8
0
100
AcDbLine
 10
8803.597553998027
 20
2984.4550893779
 30
0.0
 11
8943.597553998026
 21
2984.4550893779
 31
0.0
  0
LINE
  5
6A8
330
D6
100
AcDbEntity
  8
0
100
AcDbLine
 10
8803.597553998027
 20
2704.4550893779
 30
0.0
 11
8943.597553998026
 21
2704.4550893779
 31
0.0
  0
LINE
  5
6A9
330
D6
100
AcDbEntity
  8
0
100
AcDbLine
 10
8943.597553998026
 20
2984.4550893779
 30
0.0
 11
9083.597553998027
 21
2984.4550893779
 31
0.0
  0
LINE
  5
6AA
330
D6
100
AcDbEntity
  8
0
100
AcDbLine
 10
8943.597553998026
 20
2704.4550893779
 30
0.0
 11
9083.597553998027
 21
2704.4550893779
 31
0.0
  0
LINE
  5
6AB
330
D6
100
AcDbEntity
  8
0
100
AcDbLine
 10
9083.597553998027
 20
2984.4550893779
 30
0.0
 11
9223.597553998025
 21
2984.4550893779
 31
0.0
  0
LINE
  5
6AC
330
D6
100
AcDbEntity
  8
0
100
AcDbLine
 10
9083.597553998027
 20
2704.4550893779
 30
0.0
 11
9223.597553998025
 21
2704.4550893779
 31
0.0
  0
LINE
  5
6AD
330
D6
100
AcDbEntity
  8
0
100
AcDbLine
 10
9223.597553998025
 20
2984.4550893779
 30
0.0
 11
9363.597553998026
 21
2984.4550893779
 31
0.0
  0
LINE
  5
6AE
330
D6
100
AcDbEntity
  8
0
100
AcDbLine
 10
9223.597553998025
 20
2704.4550893779
 30
0.0
 11
9363.597553998026
 21
2704.4550893779
 31
0.0
  0
LINE
  5
6AF
330
D6
100
AcDbEntity
  8
0
100
AcDbLine
 10
9363.597553998026
 20
2984.4550893779
 30
0.0
 11
9503.597553998027
 21
2984.4550893779
 31
0.0
  0
LINE
  5
6B0
330
D6
100
AcDbEntity
  8
0
100
AcDbLine
 10
9363.597553998026
 20
2704.4550893779
 30
0.0
 11
9503.597553998027
 21
2704.4550893779
 31
0.0
  0
LINE
  5
6B1
330
D6
100
AcDbEntity
  8
0
100
AcDbLine
 10
9503.597553998027
 20
2984.4550893779
 30
0.0
 11
9643.597553998027
 21
2984.4550893779
 31
0.0
  0
LINE
  5
6B2
330
D6
100
AcDbEntity
  8
0
100
AcDbLine
 10
9503.597553998027
 20
2704.4550893779
 30
0.0
 11
9643.597553998027
 21
2704.4550893779
 31
0.0
  0
LINE
  5
6B3
330
D6
100
AcDbEntity
  8
0
100
AcDbLine
 10
9643.597553998027
 20
2984.4550893779
 30
0.0
 11
9783.597553998028
 21
2984.4550893779
 31
0.0
  0
LINE
  5
6B4
330
D6
100
AcDbEntity
  8
0
100
AcDbLine
 10
9643.597553998027
 20
2704.4550893779
 30
0.0
 11
9783.597553998028
 21
2704.4550893779
 31
0.0
  0
LINE
  5
6B5
330
D6
100
AcDbEntity
  8
0
100
AcDbLine
 10
7683.597553998026
 20
2984.4550893779
 30
0.0
 11
7683.597553998026
 21
2844.4550893779
 31
0.0
  0
LINE
  5
6B6
330
D6
100
AcDbEntity
  8
0
100
AcDbLine
 10
9783.597553998028
 20
2984.4550893779
 30
0.0
 11
9783.597553998028
 21
2844.4550893779
 31
0.0
  0
LINE
  5
6B7
330
D6
100
AcDbEntity
  8
0
100
AcDbLine
 10
7683.597553998026
 20
2844.4550893779
 30
0.0
 11
7683.597553998026
 21
2704.4550893779
 31
0.0
  0
LINE
  5
6B8
330
D6
100
AcDbEntity
  8
0
100
AcDbLine
 10
9783.597553998028
 20
2844.4550893779
 30
0.0
 11
9783.597553998028
 21
2704.4550893779
 31
0.0
  0
MTEXT
  5
6B9
330
D6
100
AcDbEntity
  8
0
100
AcDbMText
 10
7195.606740135675
 20
2878.414732075709
 30
0.0
 40
70.0
 41
560.0
 71
     1
 72
     5
  1
納　入　先
 73
     1
 44
1.0
  0
LINE
  5
7EA
102
{ACAD_REACTORS
330
E65
102
}
330
D6
100
AcDbEntity
  8
0
  6
DASHED
100
AcDbLine
 10
4782.107973912671
 20
2690.200835264811
 30
0.0
 11
4782.107973912671
 21
2660.200834817776
 31
0.0
  0
LINE
  5
7ED
102
{ACAD_REACTORS
330
E65
102
}
330
D6
100
AcDbEntity
  8
0
  6
DASHED
100
AcDbLine
 10
4752.107973912671
 20
2690.200835264811
 30
0.0
 11
4752.107973912671
 21
2660.200834817776
 31
0.0
  0
LWPOLYLINE
  5
7EE
102
{ACAD_REACTORS
330
E65
102
}
330
D6
100
AcDbEntity
  8
0
  6
DASHED
 48
20.0
100
AcDbPolyline
 90
        2
 70
     0
 43
0.0
 10
4752.107973912671
 20
2690.200835264811
 10
4752.107973912671
 20
2694.200835324416
  0
LWPOLYLINE
  5
7EF
102
{ACAD_REACTORS
330
E65
102
}
330
D6
100
AcDbEntity
  8
0
  6
DASHED
 48
20.0
100
AcDbPolyline
 90
        2
 70
     0
 43
0.0
 10
4782.107973912671
 20
2690.200835264811
 10
4782.107973912671
 20
2694.200835324416
  0
LINE
  5
7F0
330
D6
100
AcDbEntity
  8
0
  6
Continuous
100
AcDbLine
 10
10546.61284648663
 20
4950.657991678537
 30
0.0
 11
10621.61284760422
 21
4950.657991678537
 31
0.0
  0
LINE
  5
7F1
330
D6
100
AcDbEntity
  8
0
  6
CENTER
100
AcDbLine
 10
10581.61284700817
 20
4970.37200812821
 30
0.0
 11
10581.61284700817
 21
4903.343398359377
 31
0.0
  0
LINE
  5
7F2
330
D6
100
AcDbEntity
  8
0
  6
DASHED
100
AcDbLine
 10
10566.61284700817
 20
4950.657991678537
 30
0.0
 11
10566.61284700817
 21
4920.657991231502
 31
0.0
  0
LINE
  5
7F3
330
D6
100
AcDbEntity
  8
0
  6
DASHED
100
AcDbLine
 10
10596.61284700817
 20
4950.657991678537
 30
0.0
 11
10596.61284700817
 21
4920.657991231502
 31
0.0
  0
LINE
  5
7F4
330
D6
100
AcDbEntity
  8
0
  6
Continuous
100
AcDbLine
 10
10551.61284656114
 20
4954.657991738141
 30
0.0
 11
10551.61284656114
 21
4950.657991678537
 31
0.0
  0
LINE
  5
7F5
330
D6
100
AcDbEntity
  8
0
  6
Continuous
100
AcDbLine
 10
10625.61284766382
 20
4954.657991738141
 30
0.0
 11
10625.61284766382
 21
4925.657991306008
 31
0.0
  0
LINE
  5
7F6
330
D6
100
AcDbEntity
  8
0
  6
Continuous
100
AcDbLine
 10
10551.61284656114
 20
4954.657991738141
 30
0.0
 11
10625.61284766382
 21
4954.657991738141
 31
0.0
  0
LINE
  5
7F7
330
D6
100
AcDbEntity
  8
0
  6
Continuous
100
AcDbLine
 10
10621.61284760422
 20
4925.657991306008
 30
0.0
 11
10625.61284766382
 21
4925.657991306008
 31
0.0
  0
LINE
  5
7F8
330
D6
100
AcDbEntity
  8
0
  6
Continuous
100
AcDbLine
 10
10521.6128461141
 20
5010.657992572607
 30
0.0
 11
10538.61284636742
 21
5010.657992572607
 31
0.0
  0
LINE
  5
7F9
330
D6
100
AcDbEntity
  8
0
  6
Continuous
100
AcDbLine
 10
10512.8260495067
 20
4929.444787838907
 30
0.0
 11
10521.6128461141
 21
4920.657991231502
 31
0.0
  0
LINE
  5
7FA
330
D6
100
AcDbEntity
  8
0
  6
Continuous
100
AcDbLine
 10
10621.61284760422
 20
4950.657991678537
 30
0.0
 11
10621.61284760422
 21
4923.657991276205
 31
0.0
  0
LINE
  5
7FB
330
D6
100
AcDbEntity
  8
0
  6
Continuous
100
AcDbLine
 10
10541.61284641213
 20
5007.657992527903
 30
0.0
 11
10541.61284641213
 21
4955.657991753042
 31
0.0
  0
LINE
  5
7FC
330
D6
100
AcDbEntity
  8
0
  6
Continuous
100
AcDbLine
 10
10491.61284919774
 20
4920.657991231502
 30
0.0
 11
10618.6128476122
 21
4920.657991231502
 31
0.0
  0
ARC
  5
7FD
330
D6
100
AcDbEntity
  8
0
  6
Continuous
100
AcDbCircle
 10
10538.61284636742
 20
5007.657992527903
 30
0.0
 40
3.000000044703484
100
AcDbArc
 50
0.0
 51
90.00000000000019
  0
ARC
  5
7FE
330
D6
100
AcDbEntity
  8
0
  6
Continuous
100
AcDbCircle
 10
10618.61284755952
 20
4923.657991276205
 30
0.0
 40
3.000000044703484
100
AcDbArc
 50
270.0000000000005
 51
0.0
  0
ARC
  5
7FF
330
D6
100
AcDbEntity
  8
0
  6
Continuous
100
AcDbCircle
 10
10546.61284648663
 20
4955.657991753042
 30
0.0
 40
5.000000074505805
100
AcDbArc
 50
180.0000000000004
 51
270.0000000000005
  0
ARC
  5
800
330
D6
100
AcDbEntity
  8
0
  6
Continuous
100
AcDbCircle
 10
10618.61284755952
 20
4947.657991633833
 30
0.0
 40
3.000000044703484
100
AcDbArc
 50
0.0
 51
90.00000000000019
  0
LWPOLYLINE
  5
801
330
D6
100
AcDbEntity
  8
0
  6
DASHED
 48
20.0
100
AcDbPolyline
 90
        2
 70
     0
 43
0.0
 10
10566.61284700817
 20
4950.657991678537
 10
10566.61284700817
 20
4954.657991738141
  0
LWPOLYLINE
  5
802
330
D6
100
AcDbEntity
  8
0
  6
DASHED
 48
20.0
100
AcDbPolyline
 90
        2
 70
     0
 43
0.0
 10
10596.61284700817
 20
4950.657991678537
 10
10596.61284700817
 20
4954.657991738141
  0
LINE
  5
803
330
D6
100
AcDbEntity
  8
2
100
AcDbLine
 10
10571.19290563216
 20
5249.48957922569
 30
0.0
 11
10561.19290563216
 21
5249.48957922569
 31
0.0
  0
LINE
  5
804
330
D6
100
AcDbEntity
  8
2
100
AcDbLine
 10
10571.19290563217
 20
5229.489579225689
 30
0.0
 11
10561.19290563216
 21
5229.489579225689
 31
0.0
  0
LINE
  5
85A
330
D6
100
AcDbEntity
  8
0
  6
Continuous
100
AcDbLine
 10
8686.316819639843
 20
4669.209854706735
 30
0.0
 11
8464.316816331779
 21
4669.209854706742
 31
0.0
  0
LINE
  5
85B
330
D6
100
AcDbEntity
  8
0
  6
Continuous
100
AcDbLine
 10
8674.316819461031
 20
5014.209859847636
 30
0.0
 11
8629.316818790478
 21
5059.209860518194
 31
0.0
  0
LINE
  5
85C
330
D6
100
AcDbEntity
  8
0
  6
Continuous
100
AcDbLine
 10
8674.316819461031
 20
4999.209859624119
 30
0.0
 11
8674.316819461031
 21
5014.209859847636
 31
0.0
  0
LINE
  5
85D
330
D6
100
AcDbEntity
  8
0
  6
CENTER
100
AcDbLine
 10
8554.316817672891
 20
4774.743585408443
 30
0.0
 11
8554.316817672891
 21
4904.815897315065
 31
0.0
  0
LINE
  5
85E
330
D6
100
AcDbEntity
  8
0
  6
Continuous
100
AcDbLine
 10
8629.316818790469
 20
4609.209853812666
 30
0.0
 11
8674.316819461031
 21
4654.209854483224
 31
0.0
  0
LINE
  5
85F
330
D6
100
AcDbEntity
  8
0
  6
Continuous
100
AcDbLine
 10
8363.083706651719
 20
4609.209853812661
 30
0.0
 11
8629.316818790478
 21
4609.209853812661
 31
0.0
  0
LINE
  5
860
330
D6
100
AcDbEntity
  8
0
  6
Continuous
100
AcDbLine
 10
8363.083706651716
 20
5059.209860518189
 30
0.0
 11
8629.316818790478
 21
5059.209860518194
 31
0.0
  0
LINE
  5
861
330
D6
100
AcDbEntity
  8
0
  6
Continuous
100
AcDbLine
 10
8674.316819461031
 20
4654.209854483224
 30
0.0
 11
8674.316819461031
 21
4669.209854706735
 31
0.0
  0
LINE
  5
862
330
D6
100
AcDbEntity
  8
0
  6
CENTER
100
AcDbLine
 10
8833.047747034717
 20
4834.209857165429
 30
0.0
 11
7929.804620349035
 21
4834.209857165433
 31
0.0
  0
LINE
  5
863
330
D6
100
AcDbEntity
  8
0
100
AcDbLine
 10
8569.316817672891
 20
4804.209857165431
 30
0.0
 11
8539.316817672883
 21
4804.209857165431
 31
0.0
  0
LINE
  5
864
330
D6
100
AcDbEntity
  8
0
100
AcDbLine
 10
8569.316817672882
 20
4864.20985716543
 30
0.0
 11
8539.316817672883
 21
4864.20985716543
 31
0.0
  0
LINE
  5
865
330
D6
100
AcDbEntity
  8
0
  6
Continuous
100
AcDbLine
 10
8686.316819639843
 20
4999.209859624119
 30
0.0
 11
8686.316819639847
 21
4669.209854706735
 31
0.0
  0
LINE
  5
866
330
D6
100
AcDbEntity
  8
0
  6
Continuous
100
AcDbLine
 10
8464.316816331779
 20
4999.209859624125
 30
0.0
 11
8464.316816331779
 21
4669.209854706742
 31
0.0
  0
LINE
  5
867
330
D6
100
AcDbEntity
  8
0
  6
Continuous
100
AcDbLine
 10
8686.316819639843
 20
4999.209859624119
 30
0.0
 11
8464.316816331786
 21
4999.209859624127
 31
0.0
  0
ARC
  5
868
330
D6
100
AcDbEntity
  8
0
  6
Continuous
100
AcDbCircle
 10
4309.316754417449
 20
4834.20985716543
 30
0.0
 40
4125.000061467289
100
AcDbArc
 50
356.8732238864209
 51
3.126776113580378
  0
LINE
  5
86B
330
D6
100
AcDbEntity
  8
0
  6
Continuous
100
AcDbLine
 10
8443.65030019809
 20
4051.369087836538
 30
0.0
 11
8668.650303550851
 21
4051.369087836538
 31
0.0
  0
LINE
  5
86C
330
D6
100
AcDbEntity
  8
0
  6
CENTER
100
AcDbLine
 10
8548.650301762711
 20
4110.511137185556
 30
0.0
 11
8548.650301762711
 21
3909.425307879058
 31
0.0
  0
LINE
  5
86D
330
D6
100
AcDbEntity
  8
0
  6
DASHED
100
AcDbLine
 10
8503.650301762711
 20
4051.369087836538
 30
0.0
 11
8503.650301762711
 21
3961.369086495434
 31
0.0
  0
LINE
  5
86E
330
D6
100
AcDbEntity
  8
0
  6
DASHED
100
AcDbLine
 10
8593.650301762712
 20
4051.369087836538
 30
0.0
 11
8593.650301762712
 21
3961.369086495434
 31
0.0
  0
LINE
  5
86F
330
D6
100
AcDbEntity
  8
0
  6
Continuous
100
AcDbLine
 10
8458.650300421608
 20
4063.369088015352
 30
0.0
 11
8458.650300421608
 21
4051.369087836538
 31
0.0
  0
LINE
  5
870
330
D6
100
AcDbEntity
  8
0
  6
Continuous
100
AcDbLine
 10
8680.650303729665
 20
4063.369088015352
 30
0.0
 11
8680.650303729665
 21
3976.369086718951
 31
0.0
  0
LINE
  5
871
330
D6
100
AcDbEntity
  8
0
  6
Continuous
100
AcDbLine
 10
8458.650300421608
 20
4063.369088015352
 30
0.0
 11
8680.650303729665
 21
4063.369088015352
 31
0.0
  0
LINE
  5
872
330
D6
100
AcDbEntity
  8
0
  6
Continuous
100
AcDbLine
 10
8668.650303550851
 20
3976.369086718951
 30
0.0
 11
8680.650303729665
 21
3976.369086718951
 31
0.0
  0
LINE
  5
873
330
D6
100
AcDbEntity
  8
0
  6
Continuous
100
AcDbLine
 10
8368.650299080503
 20
4231.369090518747
 30
0.0
 11
8419.65029984046
 21
4231.369090518747
 31
0.0
  0
LINE
  5
874
330
D6
100
AcDbEntity
  8
0
  6
Continuous
100
AcDbLine
 10
8339.360982789509
 20
3990.658402786431
 30
0.0
 11
8368.650299080503
 21
3961.369086495434
 31
0.0
  0
LINE
  5
875
330
D6
100
AcDbEntity
  8
0
  6
Continuous
100
AcDbLine
 10
8668.650303550851
 20
4051.369087836538
 30
0.0
 11
8668.650303550851
 21
3970.369086629544
 31
0.0
  0
LINE
  5
876
330
D6
100
AcDbEntity
  8
0
  6
Continuous
100
AcDbLine
 10
8428.650299974572
 20
4222.369090384637
 30
0.0
 11
8428.650299974572
 21
4066.369088060056
 31
0.0
  0
LINE
  5
877
330
D6
100
AcDbEntity
  8
0
  6
Continuous
100
AcDbLine
 10
8368.650299080503
 20
3961.369086495434
 30
0.0
 11
8659.650303574789
 21
3961.369086495434
 31
0.0
  0
ARC
  5
878
330
D6
100
AcDbEntity
  8
0
  6
Continuous
100
AcDbCircle
 10
8419.65029984046
 20
4222.369090384637
 30
0.0
 40
9.000000134110452
100
AcDbArc
 50
0.0
 51
90.00000000000019
  0
ARC
  5
879
330
D6
100
AcDbEntity
  8
0
  6
Continuous
100
AcDbCircle
 10
8659.650303416739
 20
3970.369086629544
 30
0.0
 40
9.000000134110452
100
AcDbArc
 50
270.0000000000005
 51
0.0
  0
ARC
  5
87A
330
D6
100
AcDbEntity
  8
0
  6
Continuous
100
AcDbCircle
 10
8443.65030019809
 20
4066.369088060056
 30
0.0
 40
15.00000022351741
100
AcDbArc
 50
180.0000000000004
 51
270.0000000000005
  0
ARC
  5
87B
330
D6
100
AcDbEntity
  8
0
  6
Continuous
100
AcDbCircle
 10
8659.650303416739
 20
4042.369087702428
 30
0.0
 40
9.000000134110452
100
AcDbArc
 50
0.0
 51
90.00000000000019
  0
LWPOLYLINE
  5
87C
330
D6
100
AcDbEntity
  8
0
  6
DASHED
 48
20.0
100
AcDbPolyline
 90
        2
 70
     0
 43
0.0
 10
8503.650301762711
 20
4051.369087836538
 10
8503.650301762711
 20
4063.369088015352
  0
LWPOLYLINE
  5
87D
330
D6
100
AcDbEntity
  8
0
  6
DASHED
 48
20.0
100
AcDbPolyline
 90
        2
 70
     0
 43
0.0
 10
8593.650301762712
 20
4051.369087836538
 10
8593.650301762712
 20
4063.369088015352
  0
LINE
  5
94A
330
D6
100
AcDbEntity
  8
0
  6
CENTER
100
AcDbLine
 10
3897.107973018601
 20
4777.118388837161
 30
0.0
 11
3897.107973018601
 21
2605.776320047268
 31
0.0
  0
LINE
  5
94B
330
D6
100
AcDbEntity
  8
0
100
AcDbLine
 10
3087.107973018601
 20
2680.2008351158
 30
0.0
 11
3087.107973018601
 21
4310.200835413822
 31
0.0
  0
LINE
  5
94C
330
D6
100
AcDbEntity
  8
0
100
AcDbLine
 10
4707.107973018601
 20
2680.2008351158
 30
0.0
 11
4707.107973018601
 21
4310.200835413822
 31
0.0
  0
LINE
  5
94D
330
D6
100
AcDbEntity
  8
0
100
AcDbLine
 10
3087.107973018601
 20
4310.200835413822
 30
0.0
 11
4707.107973018601
 21
4310.200835413822
 31
0.0
  0
LINE
  5
94E
330
D6
100
AcDbEntity
  8
0
100
AcDbLine
 10
3117.107977935984
 20
4420.20083705295
 30
0.0
 11
3417.107977935984
 21
4420.20083705295
 31
0.0
  0
LINE
  5
94F
330
D6
100
AcDbEntity
  8
0
100
AcDbLine
 10
3187.107974508717
 20
4320.200835562834
 30
0.0
 11
3738.017061557052
 21
4320.200835562834
 31
0.0
  0
LINE
  5
950
330
D6
100
AcDbEntity
  8
0
100
AcDbLine
 10
3187.107974508717
 20
4310.200835413822
 30
0.0
 11
3187.107974508717
 21
4320.200835562834
 31
0.0
  0
LINE
  5
951
330
D6
100
AcDbEntity
  8
0
100
AcDbLine
 10
3107.460339579846
 20
4412.832011001067
 30
0.0
 11
3087.107973018601
 21
4310.200835413822
 31
0.0
  0
LINE
  5
952
330
D6
100
AcDbEntity
  8
0
100
AcDbLine
 10
3622.107968920782
 20
4585.200863502511
 30
0.0
 11
3622.107968920782
 21
4494.363841659366
 31
0.0
  0
LINE
  5
953
330
D6
100
AcDbEntity
  8
0
100
AcDbLine
 10
3582.107968324736
 20
4620.200864024051
 30
0.0
 11
3582.107968324736
 21
4585.200863502511
 31
0.0
  0
LINE
  5
954
330
D6
100
AcDbEntity
  8
0
100
AcDbLine
 10
3582.107968324736
 20
4585.200863502511
 30
0.0
 11
3897.107973018601
 21
4585.200863502511
 31
0.0
  0
LINE
  5
955
330
D6
100
AcDbEntity
  8
0
100
AcDbLine
 10
3582.107968324736
 20
4620.200864024051
 30
0.0
 11
3897.107973018601
 21
4620.200864024051
 31
0.0
  0
LINE
  5
956
330
D6
100
AcDbEntity
  8
0
100
AcDbLine
 10
3756.240117298767
 20
4420.20083705295
 30
0.0
 11
3897.107973018601
 21
4420.20083705295
 31
0.0
  0
LINE
  5
957
330
D6
100
AcDbEntity
  8
0
100
AcDbLine
 10
3746.281185085691
 20
4411.106194377855
 30
0.0
 11
3737.107970634415
 21
4310.200835413822
 31
0.0
  0
LINE
  5
958
330
D6
100
AcDbEntity
  8
0
100
AcDbLine
 10
4677.107968101218
 20
4420.20083705295
 30
0.0
 11
4377.107968101218
 21
4420.20083705295
 31
0.0
  0
LINE
  5
959
330
D6
100
AcDbEntity
  8
0
100
AcDbLine
 10
4047.934760951512
 20
4411.106194377854
 30
0.0
 11
4057.107975402787
 21
4310.200835413822
 31
0.0
  0
LINE
  5
95A
330
D6
100
AcDbEntity
  8
0
100
AcDbLine
 10
4212.107977712467
 20
4620.200864024051
 30
0.0
 11
4212.107977712467
 21
4585.200863502511
 31
0.0
  0
LINE
  5
95B
330
D6
100
AcDbEntity
  8
0
100
AcDbLine
 10
4212.107977712467
 20
4585.200863502511
 30
0.0
 11
3897.107973018601
 21
4585.200863502511
 31
0.0
  0
LINE
  5
95C
330
D6
100
AcDbEntity
  8
0
100
AcDbLine
 10
4037.975828738434
 20
4420.20083705295
 30
0.0
 11
3897.107973018601
 21
4420.20083705295
 31
0.0
  0
LINE
  5
95D
330
D6
100
AcDbEntity
  8
0
100
AcDbLine
 10
4686.755606457356
 20
4412.832011001068
 30
0.0
 11
4707.107973018601
 21
4310.200835413822
 31
0.0
  0
LINE
  5
95E
330
D6
100
AcDbEntity
  8
0
100
AcDbLine
 10
4607.107971528485
 20
4310.200835413822
 30
0.0
 11
4607.107971528485
 21
4320.200835562834
 31
0.0
  0
LINE
  5
95F
330
D6
100
AcDbEntity
  8
0
100
AcDbLine
 10
4607.107971528485
 20
4320.200835562834
 30
0.0
 11
4056.198884480148
 21
4320.200835562834
 31
0.0
  0
LINE
  5
960
330
D6
100
AcDbEntity
  8
0
100
AcDbLine
 10
4172.107977116421
 20
4585.200863502511
 30
0.0
 11
4172.107977116421
 21
4494.363841659366
 31
0.0
  0
LINE
  5
961
330
D6
100
AcDbEntity
  8
0
100
AcDbLine
 10
4212.107977712467
 20
4620.200864024051
 30
0.0
 11
3897.107973018601
 21
4620.200864024051
 31
0.0
  0
LINE
  5
962
330
D6
100
AcDbEntity
  8
0
100
AcDbLine
 10
3107.107973316625
 20
2660.200834817776
 30
0.0
 11
4687.107972720577
 21
2660.200834817776
 31
0.0
  0
ARC
  5
980
330
D6
100
AcDbEntity
  8
0
100
AcDbCircle
 10
3897.107973018601
 20
3001.700843676517
 30
0.0
 40
1497.512012134879
100
AcDbArc
 50
101.364082074473
 51
118.3020515320049
  0
ARC
  5
981
330
D6
100
AcDbEntity
  8
0
100
AcDbCircle
 10
3597.107968548253
 20
4494.363841659366
 30
0.0
 40
25.00000037252905
100
AcDbArc
 50
281.364082074473
 51
0.0
  0
ARC
  5
982
330
D6
100
AcDbEntity
  8
0
100
AcDbCircle
 10
3897.107973018601
 20
3949.888354035618
 30
0.0
 40
710.3125105844811
100
AcDbArc
 50
90.0
 51
109.319786156901
  0
ARC
  5
983
330
D6
100
AcDbEntity
  8
0
100
AcDbCircle
 10
3117.107977935984
 20
4410.200836903938
 30
0.0
 40
10.00000014901161
100
AcDbArc
 50
90.0
 51
164.7448812969262
  0
ARC
  5
984
330
D6
100
AcDbEntity
  8
0
100
AcDbCircle
 10
3756.240117298767
 20
4410.200836903938
 30
0.0
 40
10.00000014901161
100
AcDbArc
 50
90.0
 51
174.8055710922723
  0
ARC
  5
985
330
D6
100
AcDbEntity
  8
0
100
AcDbCircle
 10
3897.107973018601
 20
3949.888354035618
 30
0.0
 40
710.3125105844811
100
AcDbArc
 50
70.68021384309893
 51
90.0
  0
ARC
  5
986
330
D6
100
AcDbEntity
  8
0
100
AcDbCircle
 10
4197.10797748895
 20
4494.363841659366
 30
0.0
 40
25.00000037252905
100
AcDbArc
 50
180.0
 51
258.635917925527
  0
ARC
  5
987
330
D6
100
AcDbEntity
  8
0
100
AcDbCircle
 10
4037.975828738434
 20
4410.200836903938
 30
0.0
 40
10.00000014901161
100
AcDbArc
 50
5.194428907727728
 51
90.0
  0
ARC
  5
988
330
D6
100
AcDbEntity
  8
0
100
AcDbCircle
 10
4677.107968101218
 20
4410.200836903938
 30
0.0
 40
10.00000014901161
100
AcDbArc
 50
15.25511870307377
 51
90.0
  0
ARC
  5
989
330
D6
100
AcDbEntity
  8
0
100
AcDbCircle
 10
3897.107973018601
 20
3001.700843676517
 30
0.0
 40
1497.512012134879
100
AcDbArc
 50
61.69794846799508
 51
78.63591792552703
  0
ARC
  5
98A
330
D6
100
AcDbEntity
  8
0
100
AcDbCircle
 10
3107.107973316625
 20
2680.2008351158
 30
0.0
 40
20.00000029802322
100
AcDbArc
 50
180.0
 51
270.0
  0
ARC
  5
98B
330
D6
100
AcDbEntity
  8
0
100
AcDbCircle
 10
4687.107972720577
 20
2680.2008351158
 30
0.0
 40
20.00000029802322
100
AcDbArc
 50
270.0
 51
0.0
  0
LWPOLYLINE
  5
996
330
D6
100
AcDbEntity
  8
0
 48
20.0
100
AcDbPolyline
 90
        2
 70
     0
 43
0.0
 10
3267.107977935984
 20
4495.440104441247
 10
3267.107977935984
 20
4335.416315370678
  0
LWPOLYLINE
  5
997
330
D6
100
AcDbEntity
  8
0
 48
20.0
100
AcDbPolyline
 90
        2
 70
     0
 43
0.0
 10
4527.107968101216
 20
4495.440104441247
 10
4527.107968101218
 20
4335.416315370678
  0
DIMENSION
  5
B38
330
D6
100
AcDbEntity
  8
寸法線
 48
20.0
100
AcDbDimension
  2
*D1
 10
2944.672376511268
 20
4310.200835413822
 30
0.0
 11
2880.672376511267
 21
3485.200835115801
 31
0.0
 70
    32
 71
     5
 42
1650.000000596046
  3
1-20
100
AcDbAlignedDimension
 13
3107.107973316625
 23
2660.200834817776
 33
0.0
 14
3087.107973018601
 24
4310.200835413822
 34
0.0
 50
90.0
100
AcDbRotatedDimension
  0
DIMENSION
  5
B45
330
D6
100
AcDbEntity
  8
寸法線
 48
20.0
100
AcDbDimension
  2
*D2
 10
2944.672376511268
 20
4660.200864620098
 30
0.0
 11
2880.672376511267
 21
4485.200850016961
 31
0.0
 70
    32
 71
     5
 42
350.0000292062759
  3
1-20
100
AcDbAlignedDimension
 13
3087.107973018601
 23
4310.200835413822
 33
0.0
 14
3897.107973018601
 24
4660.200864620098
 34
0.0
 50
90.0
100
AcDbRotatedDimension
  0
DIMENSION
  5
B52
330
D6
100
AcDbEntity
  8
寸法線
 48
20.0
100
AcDbDimension
  2
*D3
 10
2730.508023587767
 20
2660.200834817777
 30
0.0
 11
2666.508023587767
 21
3660.200849718938
 31
0.0
 70
    32
 71
     5
 42
2000.000029802322
  3
1-20
100
AcDbAlignedDimension
 13
3897.107973018601
 23
4660.200864620098
 33
0.0
 14
3107.107973316625
 24
2660.200834817776
 34
0.0
 50
90.0
100
AcDbRotatedDimension
  0
DIMENSION
  5
B5F
330
D6
100
AcDbEntity
  8
寸法線
 48
20.0
100
AcDbDimension
  2
*D4
 10
4707.107973018601
 20
2429.468945327949
 30
0.0
 11
3897.107973018601
 21
2493.468945327949
 31
0.0
 70
    32
  1
O.Dφ<>
 71
     5
 42
1620.0
  3
1-20
100
AcDbAlignedDimension
 13
3087.107973018601
 23
2680.2008351158
 33
0.0
 14
4707.107973018601
 24
2680.2008351158
 34
0.0
100
AcDbRotatedDimension
  0
DIMENSION
  5
B79
330
D6
100
AcDbEntity
  8
寸法線
 48
20.0
100
AcDbDimension
  2
*D5
 10
4132.107976520374
 20
4859.586226322705
 30
0.0
 11
3897.107973018601
 21
4923.586226322705
 31
0.0
 70
    32
  1
I.Dφ<>
 71
     5
 42
470.0000070035466
  3
1-20
100
AcDbAlignedDimension
 13
3662.107969516828
 23
4620.200864024051
 33
0.0
 14
4132.107976520374
 24
4620.200864024051
 34
0.0
100
AcDbRotatedDimension
  0
DIMENSION
  5
B86
330
D6
100
AcDbEntity
  8
寸法線
 48
20.0
100
AcDbDimension
  2
*D6
 10
8961.568630340581
 20
4999.209859624119
 30
0.0
 11
8897.568630340577
 21
4834.209857165429
 31
0.0
 70
    32
  1
110
 71
     5
 42
330.0000049173832
  3
1-20
100
AcDbAlignedDimension
 13
8686.316819639847
 23
4669.209854706735
 33
0.0
 14
8686.316819639843
 24
4999.209859624119
 34
0.0
 50
90.0
100
AcDbRotatedDimension
  0
DIMENSION
  5
B93
330
D6
100
AcDbEntity
  8
寸法線
 48
20.0
100
AcDbDimension
  2
*D7
 10
9101.973097248082
 20
4609.209853812661
 30
0.0
 11
9037.97309724808
 21
4834.209857165429
 31
0.0
 70
    32
  1
150
 71
     5
 42
450.0000067055334
  3
1-20
100
AcDbAlignedDimension
 13
8629.316818790478
 23
5059.209860518194
 33
0.0
 14
8629.316818790467
 24
4609.209853812661
 34
0.0
 50
90.0
100
AcDbRotatedDimension
  0
DIMENSION
  5
BA0
330
D6
100
AcDbEntity
  8
寸法線
 48
20.0
100
AcDbDimension
  2
*D8
 10
8680.650303729665
 20
4183.357912914477
 30
0.0
 11
8569.650302075634
 21
4247.357912914477
 31
0.0
 70
    32
  1
74
 71
     5
 42
222.0000033080578
  3
1-20
100
AcDbAlignedDimension
 13
8458.650300421608
 23
4063.369088015352
 33
0.0
 14
8680.650303729665
 24
4063.369088015352
 34
0.0
100
AcDbRotatedDimension
  0
DIMENSION
  5
BAE
330
D6
100
AcDbEntity
  8
寸法線
 48
20.0
100
AcDbDimension
  2
*D9
 10
8961.512671667811
 20
3976.369086718951
 30
0.0
 11
8961.512671667811
 21
4187.369088015354
 31
0.0
 70
   160
  1
29
 71
     5
 42
87.00000129640102
  3
1-20
100
AcDbAlignedDimension
 13
8680.650303729665
 23
4063.369088015352
 33
0.0
 14
8680.650303729665
 24
3976.369086718951
 34
0.0
 50
90.0
100
AcDbRotatedDimension
  0
DIMENSION
  5
BBD
330
D6
100
AcDbEntity
  8
寸法線
 48
20.0
100
AcDbDimension
  2
*D10
 10
9145.929633970174
 20
3961.369086495434
 30
0.0
 11
9145.929633970174
 21
4187.369088015354
 31
0.0
 70
   160
  1
34
 71
     5
 42
102.0000015199184
  3
1-20
100
AcDbAlignedDimension
 13
8680.650303729665
 23
4063.369088015352
 33
0.0
 14
8659.650303574789
 24
3961.369086495434
 34
0.0
 50
90.0
100
AcDbRotatedDimension
  0
DIMENSION
  5
BD5
330
D6
100
AcDbEntity
  8
寸法線
 48
20.0
100
AcDbDimension
  2
*D11
 10
7172.328115902503
 20
6859.814641528969
 30
0.0
 11
7022.328113667329
 21
6923.814641528969
 31
0.0
 70
    32
 71
     5
 42
300.0000044703484
  3
1-20
100
AcDbAlignedDimension
 13
6872.328111432155
 23
6687.350028521464
 33
0.0
 14
7172.328115902503
 24
6687.350028521464
 34
0.0
100
AcDbRotatedDimension
  0
TEXT
  5
BE2
330
D6
100
AcDbEntity
  8
0
 48
20.0
100
AcDbText
 10
6997.051234836471
 20
7038.116527904254
 30
0.0
 40
60.0
  1
０°
100
AcDbText
  0
TEXT
  5
BE3
330
D6
100
AcDbEntity
  8
0
 48
20.0
100
AcDbText
 10
7742.507763621439
 20
6683.053558004765
 30
0.0
 40
60.0
  1
４５°
100
AcDbText
  0
TEXT
  5
BE4
330
D6
100
AcDbEntity
  8
0
 48
20.0
100
AcDbText
 10
7986.457788565791
 20
5902.259081695969
 30
0.0
 40
60.0
  1
９０°
100
AcDbText
  0
TEXT
  5
BE5
330
D6
100
AcDbEntity
  8
0
 48
20.0
100
AcDbText
 10
7677.18882098262
 20
5116.84665820973
 30
0.0
 40
60.0
  1
１３５°
100
AcDbText
  0
TEXT
  5
BE6
330
D6
100
AcDbEntity
  8
0
 48
20.0
100
AcDbText
 10
6927.257317990201
 20
4920.789055233172
 30
0.0
 40
60.0
  1
１８０°
100
AcDbText
  0
TEXT
  5
BE7
330
D6
100
AcDbEntity
  8
0
 48
20.0
100
AcDbText
 10
6080.973881121556
 20
5134.18998219299
 30
0.0
 40
60.0
  1
２２５°
100
AcDbText
  0
TEXT
  5
BE8
330
D6
100
AcDbEntity
  8
0
 48
20.0
100
AcDbText
 10
5825.676868636741
 20
5897.931696737348
 30
0.0
 40
60.0
  1
２７０°
100
AcDbText
  0
TEXT
  5
BE9
330
D6
100
AcDbEntity
  8
0
 48
20.0
100
AcDbText
 10
6109.043709259101
 20
6652.176689959102
 30
0.0
 40
60.0
  1
３１５°
100
AcDbText
  0
LEADER
  5
C4A
330
D6
100
AcDbEntity
  8
0
 48
20.0
100
AcDbLeader
  3
1-20
 73
     0
 40
60.00000000000003
 41
756.0000000000002
 76
     3
 10
4767.107973912671
 20
2694.200835324416
 30
0.0
 10
4837.405781166517
 20
2844.252730532886
 30
0.0
 10
5701.777626874878
 20
2844.252730532886
 30
0.0
340
C4B
213
829.6737171939621
223
-80.45763840620566
233
0.0
1001
ACAD
1000
DSTYLE
1002
{
1070
   147
1040
1.7
1070
    77
1070
     0
1002
}
  0
MTEXT
  5
C4B
102
{ACAD_REACTORS
330
C4A
102
}
330
D6
100
AcDbEntity
  8
0
 48
20.0
100
AcDbMText
 10
4906.103909680917
 20
2924.710368939093
 30
0.0
 40
60.0
 41
0.0
 71
     1
 72
     1
  1
4-20×30アンカー穴
 73
     1
 44
1.0
  0
LEADER
  5
C4D
330
D6
100
AcDbEntity
  8
0
 48
20.0
100
AcDbLeader
  3
1-20
 73
     0
 40
50.00000000000002
 41
530.0
 76
     3
 10
8569.316817672882
 20
4864.20985716543
 30
0.0
 10
8764.348198964491
 20
5172.393693164376
 30
0.0
 10
9437.98966398184
 20
5172.393693164376
 30
0.0
340
C4E
213
617.5980618852791
223
-66.82161510992592
233
0.0
1001
ACAD
1000
DSTYLE
1002
{
1070
   147
1040
1.7
1070
    77
1070
     0
1002
}
  0
MTEXT
  5
C4E
102
{ACAD_REACTORS
330
C4D
102
}
330
D6
100
AcDbEntity
  8
0
 48
20.0
100
AcDbMText
 10
8854.39160209656
 20
5239.215308274301
 30
0.0
 40
50.0
 41
0.0
 71
     1
 72
     1
  1
20×30アンカー穴
 73
     1
 44
1.0
  0
LEADER
  5
C52
330
D6
100
AcDbEntity
  8
0
 48
20.0
100
AcDbLeader
  3
1-20
 73
     0
 40
50.0
 41
106.6666666666666
 76
     3
 10
8368.650299080503
 20
4231.369090518747
 30
0.0
 10
8517.680864275963
 20
4382.840357054916
 30
0.0
 10
8728.307878151339
 20
4382.840357054916
 30
0.0
340
C53
213
162.5629541749749
223
-62.01581008950597
233
0.0
1001
ACAD
1000
DSTYLE
1002
{
1070
   147
1040
1.7
1070
    77
1070
     0
1002
}
  0
MTEXT
  5
C53
102
{ACAD_REACTORS
330
C52
102
}
330
D6
100
AcDbEntity
  8
0
 48
20.0
100
AcDbMText
 10
8599.744923976365
 20
4444.856167144421
 30
0.0
 40
50.0
 41
0.0
 71
     1
 72
     1
  1
融着
 73
     1
 44
1.0
  0
LEADER
  5
C6B
330
D6
100
AcDbEntity
  8
0
 48
20.0
100
AcDbLeader
  3
1-20
 73
     0
 40
50.0
 41
495.4761904761905
 76
     3
 10
8680.650303729665
 20
4063.369088015352
 30
0.0
 10
8817.196088002752
 20
4382.840357054916
 30
0.0
 10
9412.089412588313
 20
4382.840357054916
 30
0.0
340
C6C
213
572.9792401943504
223
-66.67058150427329
233
0.0
1001
ACAD
1000
DSTYLE
1002
{
1070
   147
1040
1.7
1070
    77
1070
     0
1002
}
  0
MTEXT
  5
C6C
102
{ACAD_REACTORS
330
C6B
102
}
330
D6
100
AcDbEntity
  8
0
 48
20.0
100
AcDbMText
 10
8873.110172393962
 20
4449.510938559188
 30
0.0
 40
50.0
 41
0.0
 71
     1
 72
     1
  1
押え金具（ＳＵＳ）
 73
     1
 44
1.0
  0
LEADER
  5
C6E
330
D6
100
AcDbEntity
  8
0
 48
20.0
100
AcDbLeader
  3
1-20
 73
     0
 40
50.00000000000001
 41
576.6666666666667
 76
     3
 10
8434.138641911536
 20
4003.425623749669
 30
0.0
 10
8373.702420390399
 20
3796.807842674009
 30
0.0
 10
7728.943630077607
 20
3796.807842674009
 30
0.0
340
C6F
213
-634.3841059624082
223
-13.19177359575042
233
0.0
1001
ACAD
1000
DSTYLE
1002
{
1070
   147
1040
1.7
1070
    77
1070
     0
1002
}
  0
MTEXT
  5
C6F
102
{ACAD_REACTORS
330
C6E
102
}
330
D6
100
AcDbEntity
  8
0
 48
20.0
100
AcDbMText
 10
8329.327736040015
 20
3809.99961626976
 30
0.0
 40
50.0
 41
0.0
 71
     9
 72
     1
  1
融着アンカープレート
 73
     1
 44
1.0
  0
TEXT
  5
C71
330
D6
100
AcDbEntity
  8
0
 48
20.0
100
AcDbText
 10
7728.113527703221
 20
3733.537408609164
 30
0.0
 40
50.0
  1
（ＰＥ製）
100
AcDbText
  0
TEXT
  5
C73
330
D6
100
AcDbEntity
  8
0
 48
20.0
100
AcDbText
 10
8243.968126128214
 20
3634.324377926568
 30
0.0
 40
60.0
  1
融着アンカープレート詳細図
100
AcDbText
  0
LWPOLYLINE
  5
C75
330
D6
100
AcDbEntity
  8
0
 48
20.0
100
AcDbPolyline
 90
        2
 70
     0
 43
0.0
 10
8197.833803539809
 20
3611.72893648079
 10
9204.617216282574
 20
3611.72893648079
  0
LWPOLYLINE
  5
C76
330
D6
100
AcDbEntity
  8
0
 48
20.0
100
AcDbPolyline
 90
        2
 70
     0
 43
0.0
 10
8197.833803539809
 20
3594.711475717813
 10
9204.617216282574
 20
3594.711475717813
  0
TEXT
  5
C77
330
D6
100
AcDbEntity
  8
0
 48
20.0
100
AcDbText
 10
7250.693919352539
 20
3163.413864266272
 30
0.0
 40
60.0
  1
注記　１）タンク寸法公差：±１．５％
100
AcDbText
  0
TEXT
  5
C78
330
D6
100
AcDbEntity
  8
0
 48
20.0
100
AcDbText
 10
7250.693919352539
 20
3262.50909164375
 30
0.0
 40
60.0
  1
　　　２）アンカープレート融着公差：Ｐ．Ｃ．Ｄ\U+00b1１．５％
100
AcDbText
  0
LWPOLYLINE
  5
C79
330
D6
100
AcDbEntity
  8
0
 48
20.0
100
AcDbPolyline
 90
        2
 70
     0
 43
0.0
 10
7123.597553998026
 20
3133.385011009202
 10
9783.597553998028
 20
3133.385011009202
  0
TEXT
  5
C7A
330
D6
100
AcDbEntity
  8
0
 48
20.0
100
AcDbText
 10
8509.013080028626
 20
2418.157420023584
 30
0.0
 40
120.0
  1
ＬＡ－３０００
100
AcDbText
  0
TEXT
  5
C7B
330
D6
100
AcDbEntity
  8
0
 48
20.0
100
AcDbText
 10
8518.206571304121
 20
2189.266152596697
 30
0.0
 40
90.0
  1
製品図
100
AcDbText
  0
TEXT
  5
C7C
330
D6
100
AcDbEntity
  8
0
 48
20.0
100
AcDbText
 10
7882.076220391098
 20
2131.397108514378
 30
0.0
 40
60.0
  1
１／２０
100
AcDbText
  0
POINT
  5
D8A
330
D6
100
AcDbEntity
  8
2
  6
Continuous
100
AcDbPoint
 10
7022.328113667329
 20
5930.184261362835
 30
0.0
  0
POINT
  5
D8D
330
D6
100
AcDbEntity
  8
2
100
AcDbPoint
 10
6862.328111283144
 20
6724.22456212663
 30
0.0
  0
POINT
  5
D8E
330
D6
100
AcDbEntity
  8
2
  6
Continuous
100
AcDbPoint
 10
7182.328116051515
 20
6724.22456212663
 30
0.0
  0
LINE
  5
D90
330
D6
100
AcDbEntity
  8
2
  6
CENTER
100
AcDbLine
 10
7022.328113667329
 20
5030.184261362834
 30
0.0
 11
7022.328113667329
 21
6830.184261362834
 31
0.0
  0
LINE
  5
D91
330
D6
100
AcDbEntity
  8
2
  6
CENTER
100
AcDbLine
 10
7919.695915167993
 20
5930.184261362835
 30
0.0
 11
6122.328113667329
 21
5930.184261362835
 31
0.0
  0
LINE
  5
D92
330
D6
100
AcDbEntity
  8
2
100
AcDbLine
 10
6872.328111432155
 20
6386.144780371729
 30
0.0
 11
6872.328111432155
 21
6687.350028521464
 31
0.0
  0
LINE
  5
D93
330
D6
100
AcDbEntity
  8
2
100
AcDbLine
 10
7172.328115902503
 20
6386.144780371729
 30
0.0
 11
7172.328115902503
 21
6687.350028521464
 31
0.0
  0
LINE
  5
D94
330
D6
100
AcDbEntity
  8
2
100
AcDbLine
 10
6862.328111283144
 20
6621.921203502764
 30
0.0
 11
6862.328111283144
 21
6724.22456212663
 31
0.0
  0
LINE
  5
D95
330
D6
100
AcDbEntity
  8
2
100
AcDbLine
 10
7182.328116051515
 20
6621.921203502764
 30
0.0
 11
7182.328116051515
 21
6724.22456212663
 31
0.0
  0
LINE
  5
D96
330
D6
100
AcDbEntity
  8
2
100
AcDbLine
 10
6862.328111283144
 20
6724.22456212663
 30
0.0
 11
6872.328111432155
 21
6695.625310103356
 31
0.0
  0
LINE
  5
D97
330
D6
100
AcDbEntity
  8
2
100
AcDbLine
 10
7182.328116051515
 20
6724.22456212663
 30
0.0
 11
7172.328115902503
 21
6695.625310103356
 31
0.0
  0
LINE
  5
D98
330
D6
100
AcDbEntity
  8
2
100
AcDbLine
 10
7182.328116051515
 20
6621.921203502764
 30
0.0
 11
7172.328115902503
 21
6386.144780371729
 31
0.0
  0
LINE
  5
D99
330
D6
100
AcDbEntity
  8
2
100
AcDbLine
 10
6862.328111283144
 20
6621.921203502764
 30
0.0
 11
6872.328111432155
 21
6386.144780371729
 31
0.0
  0
LINE
  5
D9A
330
D6
100
AcDbEntity
  8
2
100
AcDbLine
 10
6330.591171527404
 20
6090.184263747022
 30
0.0
 11
6566.367594658436
 21
6080.18426359801
 31
0.0
  0
LINE
  5
D9B
330
D6
100
AcDbEntity
  8
2
100
AcDbLine
 10
6228.287812903535
 20
5770.184258978646
 30
0.0
 11
6256.887064926809
 21
5780.18425912766
 31
0.0
  0
LINE
  5
D9C
330
D6
100
AcDbEntity
  8
2
100
AcDbLine
 10
6228.287812903535
 20
6090.18426374702
 30
0.0
 11
6256.887064926807
 21
6080.184263598006
 31
0.0
  0
LINE
  5
D9D
330
D6
100
AcDbEntity
  8
2
100
AcDbLine
 10
6330.591171527406
 20
5770.184258978646
 30
0.0
 11
6566.367594658436
 21
5780.18425912766
 31
0.0
  0
LINE
  5
D9E
330
D6
100
AcDbEntity
  8
2
100
AcDbLine
 10
6330.591171527404
 20
5770.184258978646
 30
0.0
 11
6228.287812903535
 21
5770.184258978646
 31
0.0
  0
LINE
  5
D9F
330
D6
100
AcDbEntity
  8
2
100
AcDbLine
 10
6566.367594658435
 20
6080.184263598006
 30
0.0
 11
6265.162346508699
 21
6080.184263598006
 31
0.0
  0
LINE
  5
DA0
330
D6
100
AcDbEntity
  8
2
100
AcDbLine
 10
6330.591171527404
 20
6090.18426374702
 30
0.0
 11
6228.287812903535
 21
6090.18426374702
 31
0.0
  0
LINE
  5
DA1
330
D6
100
AcDbEntity
  8
2
100
AcDbLine
 10
6566.367594658435
 20
5780.18425912766
 30
0.0
 11
6265.162346508699
 21
5780.18425912766
 31
0.0
  0
LINE
  5
DA2
330
D6
100
AcDbEntity
  8
2
100
AcDbLine
 10
7182.328116051515
 20
5136.143960599039
 30
0.0
 11
7172.328115902503
 21
5164.743212622314
 31
0.0
  0
LINE
  5
DA3
330
D6
100
AcDbEntity
  8
2
100
AcDbLine
 10
6862.328111283146
 20
5136.143960599039
 30
0.0
 11
6872.328111432155
 21
5164.743212622312
 31
0.0
  0
LINE
  5
DA4
330
D6
100
AcDbEntity
  8
2
100
AcDbLine
 10
7182.328116051515
 20
5238.447319222908
 30
0.0
 11
7182.328116051515
 21
5136.143960599039
 31
0.0
  0
LINE
  5
DA5
330
D6
100
AcDbEntity
  8
2
100
AcDbLine
 10
6872.328111432155
 20
5474.223742353937
 30
0.0
 11
6872.328111432155
 21
5173.018494204201
 31
0.0
  0
LINE
  5
DA6
330
D6
100
AcDbEntity
  8
2
100
AcDbLine
 10
6862.328111283144
 20
5238.447319222908
 30
0.0
 11
6872.328111432155
 21
5474.223742353937
 31
0.0
  0
LINE
  5
DA7
330
D6
100
AcDbEntity
  8
2
100
AcDbLine
 10
7172.328115902503
 20
5474.223742353937
 30
0.0
 11
7172.328115902503
 21
5173.018494204201
 31
0.0
  0
LINE
  5
DA8
330
D6
100
AcDbEntity
  8
2
100
AcDbLine
 10
6862.328111283144
 20
5238.447319222908
 30
0.0
 11
6862.328111283144
 21
5136.143960599039
 31
0.0
  0
LINE
  5
DA9
330
D6
100
AcDbEntity
  8
2
100
AcDbLine
 10
7182.328116051515
 20
5238.44731922291
 30
0.0
 11
7172.328115902503
 21
5474.223742353941
 31
0.0
  0
LINE
  5
DAA
330
D6
100
AcDbEntity
  8
2
100
AcDbLine
 10
7816.368414431123
 20
5770.18425897865
 30
0.0
 11
7787.769162407852
 21
5780.18425912766
 31
0.0
  0
LINE
  5
DAB
330
D6
100
AcDbEntity
  8
2
100
AcDbLine
 10
7478.288632676228
 20
5780.18425912766
 30
0.0
 11
7779.493880825963
 21
5780.18425912766
 31
0.0
  0
LINE
  5
DAC
330
D6
100
AcDbEntity
  8
2
100
AcDbLine
 10
7714.065055807257
 20
6090.18426374702
 30
0.0
 11
7816.368414431123
 21
6090.18426374702
 31
0.0
  0
LINE
  5
DAD
330
D6
100
AcDbEntity
  8
2
100
AcDbLine
 10
7714.065055807257
 20
5770.184258978646
 30
0.0
 11
7478.288632676228
 21
5780.18425912766
 31
0.0
  0
LINE
  5
DAE
330
D6
100
AcDbEntity
  8
2
  6
Continuous
100
AcDbLine
 10
7816.368414431123
 20
6090.18426374702
 30
0.0
 11
7787.769162407852
 21
6080.184263598006
 31
0.0
  0
LINE
  5
DAF
330
D6
100
AcDbEntity
  8
2
100
AcDbLine
 10
7714.065055807257
 20
6090.184263747022
 30
0.0
 11
7478.288632676228
 21
6080.18426359801
 31
0.0
  0
LINE
  5
DB0
330
D6
100
AcDbEntity
  8
2
100
AcDbLine
 10
7714.065055807257
 20
5770.184258978646
 30
0.0
 11
7816.368414431123
 21
5770.184258978646
 31
0.0
  0
LINE
  5
DB1
330
D6
100
AcDbEntity
  8
2
100
AcDbLine
 10
7478.288632676228
 20
6080.184263598006
 30
0.0
 11
7779.493880825963
 21
6080.184263598006
 31
0.0
  0
CIRCLE
  5
DC5
330
D6
100
AcDbEntity
  8
2
100
AcDbCircle
 10
7022.328113667329
 20
5930.184261362835
 30
0.0
 40
810.0
  0
ARC
  5
DC6
330
D6
100
AcDbEntity
  8
2
100
AcDbCircle
 10
7022.328113667329
 20
5930.184261362835
 30
0.0
 40
709.9999985098837
100
AcDbArc
 50
193.0235847371217
 51
256.9764152628275
  0
ARC
  5
DC7
330
D6
100
AcDbEntity
  8
2
100
AcDbCircle
 10
7022.328113667329
 20
5930.184261362835
 30
0.0
 40
709.9999985098837
100
AcDbArc
 50
283.0235847371725
 51
346.9764152628783
  0
ARC
  5
DC8
330
D6
100
AcDbEntity
  8
2
100
AcDbCircle
 10
7022.328113667329
 20
5930.184261362835
 30
0.0
 40
709.9999985098837
100
AcDbArc
 50
13.02358473712171
 51
76.97641526282751
  0
ARC
  5
DC9
330
D6
100
AcDbEntity
  8
2
100
AcDbCircle
 10
7022.328113667329
 20
5930.184261362835
 30
0.0
 40
709.9999985098837
100
AcDbArc
 50
103.0235847371725
 51
166.9764152628783
  0
CIRCLE
  5
DCA
330
D6
100
AcDbEntity
  8
2
100
AcDbCircle
 10
7022.328113667329
 20
5930.184261362835
 30
0.0
 40
235.0000035017728
  0
CIRCLE
  5
DCB
330
D6
100
AcDbEntity
  8
2
100
AcDbCircle
 10
7022.328113667329
 20
5930.184261362835
 30
0.0
 40
315.0000046938658
  0
ARC
  5
DCC
330
D6
100
AcDbEntity
  8
2
100
AcDbCircle
 10
7022.328113667329
 20
5930.184261362835
 30
0.0
 40
779.9999998509885
100
AcDbArc
 50
79.5243181416686
 51
100.4756818583314
  0
ARC
  5
DCD
330
D6
100
AcDbEntity
  8
2
100
AcDbCircle
 10
7022.328113667329
 20
5930.184261362835
 30
0.0
 40
479.99999538064
100
AcDbArc
 50
71.79004267348425
 51
108.2099573265157
  0
ARC
  5
DCE
330
D6
100
AcDbEntity
  8
2
100
AcDbCircle
 10
6882.328111581166
 20
6687.350028521464
 30
0.0
 40
10.00000014901161
100
AcDbArc
 50
100.4756818583314
 51
180.0
  0
ARC
  5
DCF
330
D6
100
AcDbEntity
  8
2
100
AcDbCircle
 10
7162.328115753492
 20
6687.350028521464
 30
0.0
 40
10.00000014901161
100
AcDbArc
 50
0.0
 51
79.5243181416686
  0
ARC
  5
DD0
330
D6
100
AcDbEntity
  8
2
100
AcDbCircle
 10
7022.328113667329
 20
5930.184261362835
 30
0.0
 40
479.99999538064
100
AcDbArc
 50
161.7900426734347
 51
198.2099573265652
  0
ARC
  5
DD1
330
D6
100
AcDbEntity
  8
2
100
AcDbCircle
 10
6265.1623465087
 20
6070.184263448998
 30
0.0
 40
10.00000014901161
100
AcDbArc
 50
90.0
 51
169.5243181416685
  0
ARC
  5
DD2
330
D6
100
AcDbEntity
  8
2
100
AcDbCircle
 10
6265.1623465087
 20
5790.184259276672
 30
0.0
 40
10.00000014901161
100
AcDbArc
 50
190.4756818583314
 51
270.0
  0
ARC
  5
DD3
330
D6
100
AcDbEntity
  8
2
100
AcDbCircle
 10
7022.328113667329
 20
5930.184261362835
 30
0.0
 40
779.9999998509885
100
AcDbArc
 50
169.5243181416685
 51
190.4756818583314
  0
ARC
  5
DD4
330
D6
100
AcDbEntity
  8
2
100
AcDbCircle
 10
7022.328113667329
 20
5930.184261362835
 30
0.0
 40
479.99999538064
100
AcDbArc
 50
251.7900426734843
 51
288.2099573265157
  0
ARC
  5
DD5
330
D6
100
AcDbEntity
  8
2
100
AcDbCircle
 10
7022.328113667329
 20
5930.184261362835
 30
0.0
 40
779.9999998509885
100
AcDbArc
 50
259.5243181416686
 51
280.4756818583314
  0
ARC
  5
DD6
330
D6
100
AcDbEntity
  8
2
100
AcDbCircle
 10
7162.328115753492
 20
5173.018494204203
 30
0.0
 40
10.00000014901161
100
AcDbArc
 50
280.4756818583314
 51
0.0
  0
ARC
  5
DD7
330
D6
100
AcDbEntity
  8
2
100
AcDbCircle
 10
6882.328111581166
 20
5173.018494204203
 30
0.0
 40
10.00000014901161
100
AcDbArc
 50
180.0
 51
259.5243181416686
  0
ARC
  5
DD8
330
D6
100
AcDbEntity
  8
2
  6
Continuous
100
AcDbCircle
 10
7779.493880825963
 20
6070.184263448998
 30
0.0
 40
10.00000014901161
100
AcDbArc
 50
10.4756818583314
 51
90.0
  0
ARC
  5
DD9
330
D6
100
AcDbEntity
  8
2
100
AcDbCircle
 10
7022.328113667329
 20
5930.184261362835
 30
0.0
 40
779.9999998509885
100
AcDbArc
 50
349.5243181416686
 51
10.4756818583314
  0
ARC
  5
DDA
330
D6
100
AcDbEntity
  8
2
100
AcDbCircle
 10
7022.328113667329
 20
5930.184261362835
 30
0.0
 40
479.99999538064
100
AcDbArc
 50
341.7900426734348
 51
18.20995732656526
  0
ARC
  5
DDB
330
D6
100
AcDbEntity
  8
2
100
AcDbCircle
 10
7779.493880825963
 20
5790.184259276672
 30
0.0
 40
10.00000014901161
100
AcDbArc
 50
270.0
 51
349.5243181416686
  0
CIRCLE
  5
DDC
330
D6
100
AcDbEntity
  8
2
  6
CENTER
100
AcDbCircle
 10
7022.328113667329
 20
5930.184261362835
 30
0.0
 40
629.9999976158142
  0
DIMENSION
  5
E35
330
D6
100
AcDbEntity
  8
寸法線
 48
20.0
100
AcDbDimension
  2
*D12
 10
7022.328113667334
 20
5930.184261362851
 30
0.0
 11
7424.536750632512
 21
6134.216636735153
 31
0.0
 70
   164
 71
     5
 42
629.9999976158014
  3
1-20
100
AcDbRadialDimension
 15
7584.171665039098
 25
6215.196227388624
 35
0.0
 40
0.0
1001
ACAD
1000
DSTYLE
1002
{
1070
   288
1070
     1
1002
}
  0
DIMENSION
  5
E6D
330
D6
100
AcDbEntity
  8
寸法線
 48
20.0
100
AcDbDimension
  2
*D13
 10
4767.107973912671
 20
2256.941218268823
 30
0.0
 11
3897.107973018601
 21
2320.941218268823
 31
0.0
 70
    32
  1
P.C.Dφ<>
 71
     5
 42
1740.000001788139
  3
1-20
100
AcDbAlignedDimension
 13
3027.107972124531
 23
2642.886241945651
 33
0.0
 14
4767.107973912671
 24
2642.886241945651
 34
0.0
100
AcDbRotatedDimension
  0
ARC
  5
E96
330
D6
100
AcDbEntity
  8
0
 48
20.0
100
AcDbCircle
 10
10561.19290563216
 20
5239.48957922569
 30
0.0
 40
10.0
100
AcDbArc
 50
89.99999999997914
 51
270.0000000000208
  0
ARC
  5
E97
330
D6
100
AcDbEntity
  8
0
 48
20.0
100
AcDbCircle
 10
10571.19290563216
 20
5239.48957922569
 30
0.0
 40
10.0
100
AcDbArc
 50
270.0000000000208
 51
89.99999999997916
  0
LINE
  5
E98
102
{ACAD_REACTORS
330
E58
102
}
330
D6
100
AcDbEntity
  8
2
  6
Continuous
100
AcDbLine
 10
7707.701738292612
 20
6537.776138898559
 30
0.0
 11
7655.37583570509
 21
6485.450236311035
 31
0.0
  0
LINE
  5
E99
102
{ACAD_REACTORS
330
E58
102
}
330
D6
100
AcDbEntity
  8
2
  6
Continuous
100
AcDbLine
 10
7623.556030077546
 20
6616.264992779839
 30
0.0
 11
7602.342826325847
 21
6616.264992779839
 31
0.0
  0
LINE
  5
E9A
102
{ACAD_REACTORS
330
E58
102
}
330
D6
100
AcDbEntity
  8
2
  6
Continuous
100
AcDbLine
 10
7627.091564036162
 20
6612.729458821222
 30
0.0
 11
7623.556030077546
 21
6616.264992779839
 31
0.0
  0
LINE
  5
E9B
102
{ACAD_REACTORS
330
E58
102
}
330
D6
100
AcDbEntity
  8
2
  6
CENTER
100
AcDbLine
 10
7651.714500582425
 20
6531.537978937098
 30
0.0
 11
7621.056162651163
 21
6562.196316868359
 31
0.0
  0
LINE
  5
E9C
102
{ACAD_REACTORS
330
E58
102
}
330
D6
100
AcDbEntity
  8
2
  6
Continuous
100
AcDbLine
 10
7708.408845084335
 20
6510.198974021348
 30
0.0
 11
7708.408845084335
 21
6531.412177773049
 31
0.0
  0
LINE
  5
E9D
102
{ACAD_REACTORS
330
E58
102
}
330
D6
100
AcDbEntity
  8
2
  6
Continuous
100
AcDbLine
 10
7645.6570987611
 20
6447.44722769811
 30
0.0
 11
7708.408845084338
 21
6510.198974021348
 31
0.0
  0
LINE
  5
E9E
102
{ACAD_REACTORS
330
E58
102
}
330
D6
100
AcDbEntity
  8
2
  6
Continuous
100
AcDbLine
 10
7539.591080002608
 20
6553.513246456599
 30
0.0
 11
7602.342826325847
 21
6616.264992779839
 31
0.0
  0
LINE
  5
E9F
102
{ACAD_REACTORS
330
E58
102
}
330
D6
100
AcDbEntity
  8
2
  6
Continuous
100
AcDbLine
 10
7708.408845084335
 20
6531.412177773049
 30
0.0
 11
7704.87331112572
 21
6534.947711731665
 31
0.0
  0
LINE
  5
EA0
102
{ACAD_REACTORS
330
E58
102
}
330
D6
100
AcDbEntity
  8
2
  6
CENTER
100
AcDbLine
 10
7736.294778106274
 20
6644.150925801778
 30
0.0
 11
7573.97129096179
 21
6481.827438657294
 31
0.0
  0
LINE
  5
EA1
102
{ACAD_REACTORS
330
E58
102
}
330
D6
100
AcDbEntity
  8
2
100
AcDbLine
 10
7648.304767629809
 20
6542.018779701582
 30
0.0
 11
7641.23369981794
 21
6534.947711889714
 31
0.0
  0
LINE
  5
EA2
102
{ACAD_REACTORS
330
E58
102
}
330
D6
100
AcDbEntity
  8
2
100
AcDbLine
 10
7634.162632006074
 20
6556.16091532531
 30
0.0
 11
7627.091564194208
 21
6549.089847513444
 31
0.0
  0
LINE
  5
EA3
102
{ACAD_REACTORS
330
E58
102
}
330
D6
100
AcDbEntity
  8
2
  6
Continuous
100
AcDbLine
 10
7629.919991203054
 20
6615.557885988116
 30
0.0
 11
7707.701738292614
 21
6537.776138898559
 31
0.0
  0
LINE
  5
EA4
102
{ACAD_REACTORS
330
E58
102
}
330
D6
100
AcDbEntity
  8
2
  6
Continuous
100
AcDbLine
 10
7577.594088615531
 20
6563.231983400595
 30
0.0
 11
7655.37583570509
 21
6485.450236311035
 31
0.0
  0
LINE
  5
EA5
102
{ACAD_REACTORS
330
E58
102
}
330
D6
100
AcDbEntity
  8
2
  6
Continuous
100
AcDbLine
 10
7629.919991203054
 20
6615.557885988116
 30
0.0
 11
7577.594088615531
 21
6563.231983400595
 31
0.0
  0
ARC
  5
EA6
102
{ACAD_REACTORS
330
E58
102
}
330
D6
100
AcDbEntity
  8
2
  6
Continuous
100
AcDbCircle
 10
6637.142055623595
 20
5544.998203319101
 30
0.0
 40
1375.000020489096
100
AcDbArc
 50
41.8732238864209
 51
48.12677611358037
  0
ARC
  5
EA7
102
{ACAD_REACTORS
330
E58
102
}
330
D6
100
AcDbEntity
  8
0
 48
20.0
100
AcDbCircle
 10
7634.162632006074
 20
6542.018779701582
 30
0.0
 40
10.0
100
AcDbArc
 50
134.9999999999791
 51
315.0000000000209
  0
ARC
  5
EA8
102
{ACAD_REACTORS
330
E58
102
}
330
D6
100
AcDbEntity
  8
0
 48
20.0
100
AcDbCircle
 10
7641.23369981794
 20
6549.089847513446
 30
0.0
 40
10.0
100
AcDbArc
 50
315.0000000000209
 51
134.9999999999791
  0
LINE
  5
EAA
102
{ACAD_REACTORS
330
E58
102
}
330
D6
100
AcDbEntity
  8
2
  6
Continuous
100
AcDbLine
 10
6414.736236131604
 20
6615.557885988117
 30
0.0
 11
6467.062138719128
 21
6563.231983400594
 31
0.0
  0
LINE
  5
EAB
102
{ACAD_REACTORS
330
E58
102
}
330
D6
100
AcDbEntity
  8
2
  6
Continuous
100
AcDbLine
 10
6336.247382250324
 20
6531.41217777305
 30
0.0
 11
6336.247382250324
 21
6510.198974021351
 31
0.0
  0
LINE
  5
EAC
102
{ACAD_REACTORS
330
E58
102
}
330
D6
100
AcDbEntity
  8
2
  6
Continuous
100
AcDbLine
 10
6339.78291620894
 20
6534.947711731667
 30
0.0
 11
6336.247382250324
 21
6531.41217777305
 31
0.0
  0
LINE
  5
EAD
102
{ACAD_REACTORS
330
E58
102
}
330
D6
100
AcDbEntity
  8
2
  6
CENTER
100
AcDbLine
 10
6420.974396093065
 20
6559.570648277929
 30
0.0
 11
6390.316058161803
 21
6528.912310346668
 31
0.0
  0
LINE
  5
EAE
102
{ACAD_REACTORS
330
E58
102
}
330
D6
100
AcDbEntity
  8
2
  6
Continuous
100
AcDbLine
 10
6442.313401008814
 20
6616.264992779839
 30
0.0
 11
6421.100197257114
 21
6616.264992779839
 31
0.0
  0
LINE
  5
EAF
102
{ACAD_REACTORS
330
E58
102
}
330
D6
100
AcDbEntity
  8
2
  6
Continuous
100
AcDbLine
 10
6505.065147332053
 20
6553.513246456605
 30
0.0
 11
6442.313401008814
 21
6616.264992779843
 31
0.0
  0
LINE
  5
EB0
102
{ACAD_REACTORS
330
E58
102
}
330
D6
100
AcDbEntity
  8
2
  6
Continuous
100
AcDbLine
 10
6398.999128573564
 20
6447.447227698113
 30
0.0
 11
6336.247382250324
 21
6510.198974021351
 31
0.0
  0
LINE
  5
EB1
102
{ACAD_REACTORS
330
E58
102
}
330
D6
100
AcDbEntity
  8
2
  6
Continuous
100
AcDbLine
 10
6421.100197257114
 20
6616.264992779839
 30
0.0
 11
6417.564663298498
 21
6612.729458821225
 31
0.0
  0
LINE
  5
EB2
102
{ACAD_REACTORS
330
E58
102
}
330
D6
100
AcDbEntity
  8
2
  6
CENTER
100
AcDbLine
 10
6308.361449228385
 20
6644.150925801779
 30
0.0
 11
6470.684936372869
 21
6481.827438657295
 31
0.0
  0
LINE
  5
EB3
102
{ACAD_REACTORS
330
E58
102
}
330
D6
100
AcDbEntity
  8
2
100
AcDbLine
 10
6410.493595328581
 20
6556.160915325313
 30
0.0
 11
6417.564663140449
 21
6549.089847513444
 31
0.0
  0
LINE
  5
EB4
102
{ACAD_REACTORS
330
E58
102
}
330
D6
100
AcDbEntity
  8
2
100
AcDbLine
 10
6396.351459704852
 20
6542.018779701578
 30
0.0
 11
6403.422527516719
 21
6534.947711889713
 31
0.0
  0
LINE
  5
EB5
102
{ACAD_REACTORS
330
E58
102
}
330
D6
100
AcDbEntity
  8
2
  6
Continuous
100
AcDbLine
 10
6336.954489042048
 20
6537.776138898559
 30
0.0
 11
6414.736236131604
 21
6615.557885988119
 31
0.0
  0
LINE
  5
EB6
102
{ACAD_REACTORS
330
E58
102
}
330
D6
100
AcDbEntity
  8
2
  6
Continuous
100
AcDbLine
 10
6389.280391629567
 20
6485.450236311035
 30
0.0
 11
6467.062138719128
 21
6563.231983400594
 31
0.0
  0
LINE
  5
EB7
102
{ACAD_REACTORS
330
E58
102
}
330
D6
100
AcDbEntity
  8
2
  6
Continuous
100
AcDbLine
 10
6336.954489042048
 20
6537.776138898559
 30
0.0
 11
6389.280391629567
 21
6485.450236311035
 31
0.0
  0
ARC
  5
EB8
102
{ACAD_REACTORS
330
E58
102
}
330
D6
100
AcDbEntity
  8
2
  6
Continuous
100
AcDbCircle
 10
7407.514171711063
 20
5544.998203319099
 30
0.0
 40
1375.000020489096
100
AcDbArc
 50
131.8732238864209
 51
138.1267761135803
  0
ARC
  5
EB9
102
{ACAD_REACTORS
330
E58
102
}
330
D6
100
AcDbEntity
  8
0
 48
20.0
100
AcDbCircle
 10
6410.493595328581
 20
6542.018779701578
 30
0.0
 40
10.0
100
AcDbArc
 50
224.9999999999791
 51
45.00000000002086
  0
ARC
  5
EBA
102
{ACAD_REACTORS
330
E58
102
}
330
D6
100
AcDbEntity
  8
0
 48
20.0
100
AcDbCircle
 10
6403.422527516717
 20
6549.089847513444
 30
0.0
 40
10.0
100
AcDbArc
 50
45.00000000002086
 51
224.9999999999791
  0
LINE
  5
EBC
102
{ACAD_REACTORS
330
E58
102
}
330
D6
100
AcDbEntity
  8
2
  6
Continuous
100
AcDbLine
 10
6336.954489042046
 20
5322.592383827111
 30
0.0
 11
6389.280391629569
 21
5374.918286414634
 31
0.0
  0
LINE
  5
EBD
102
{ACAD_REACTORS
330
E58
102
}
330
D6
100
AcDbEntity
  8
2
  6
Continuous
100
AcDbLine
 10
6421.100197257112
 20
5244.10352994583
 30
0.0
 11
6442.313401008812
 21
5244.10352994583
 31
0.0
  0
LINE
  5
EBE
102
{ACAD_REACTORS
330
E58
102
}
330
D6
100
AcDbEntity
  8
2
  6
Continuous
100
AcDbLine
 10
6417.564663298498
 20
5247.639063904447
 30
0.0
 11
6421.100197257112
 21
5244.10352994583
 31
0.0
  0
LINE
  5
EBF
102
{ACAD_REACTORS
330
E58
102
}
330
D6
100
AcDbEntity
  8
2
  6
CENTER
100
AcDbLine
 10
6392.941726752233
 20
5328.830543788571
 30
0.0
 11
6423.600064683495
 21
5298.172205857309
 31
0.0
  0
LINE
  5
EC0
102
{ACAD_REACTORS
330
E58
102
}
330
D6
100
AcDbEntity
  8
2
  6
Continuous
100
AcDbLine
 10
6336.247382250324
 20
5350.169548704321
 30
0.0
 11
6336.247382250324
 21
5328.95634495262
 31
0.0
  0
LINE
  5
EC1
102
{ACAD_REACTORS
330
E58
102
}
330
D6
100
AcDbEntity
  8
2
  6
Continuous
100
AcDbLine
 10
6398.99912857356
 20
5412.921295027558
 30
0.0
 11
6336.247382250322
 21
5350.169548704321
 31
0.0
  0
LINE
  5
EC2
102
{ACAD_REACTORS
330
E58
102
}
330
D6
100
AcDbEntity
  8
2
  6
Continuous
100
AcDbLine
 10
6505.06514733205
 20
5306.85527626907
 30
0.0
 11
6442.313401008812
 21
5244.10352994583
 31
0.0
  0
LINE
  5
EC3
102
{ACAD_REACTORS
330
E58
102
}
330
D6
100
AcDbEntity
  8
2
  6
Continuous
100
AcDbLine
 10
6336.247382250324
 20
5328.95634495262
 30
0.0
 11
6339.782916208939
 21
5325.420810994003
 31
0.0
  0
LINE
  5
EC4
102
{ACAD_REACTORS
330
E58
102
}
330
D6
100
AcDbEntity
  8
2
  6
CENTER
100
AcDbLine
 10
6308.361449228385
 20
5216.217596923891
 30
0.0
 11
6470.684936372869
 21
5378.541084068375
 31
0.0
  0
LINE
  5
EC5
102
{ACAD_REACTORS
330
E58
102
}
330
D6
100
AcDbEntity
  8
2
100
AcDbLine
 10
6396.351459704851
 20
5318.349743024089
 30
0.0
 11
6403.422527516719
 21
5325.420810835955
 31
0.0
  0
LINE
  5
EC6
102
{ACAD_REACTORS
330
E58
102
}
330
D6
100
AcDbEntity
  8
2
100
AcDbLine
 10
6410.493595328585
 20
5304.207607400359
 30
0.0
 11
6417.56466314045
 21
5311.278675212225
 31
0.0
  0
LINE
  5
EC7
102
{ACAD_REACTORS
330
E58
102
}
330
D6
100
AcDbEntity
  8
2
  6
Continuous
100
AcDbLine
 10
6414.736236131604
 20
5244.810636737554
 30
0.0
 11
6336.954489042045
 21
5322.592383827111
 31
0.0
  0
LINE
  5
EC8
102
{ACAD_REACTORS
330
E58
102
}
330
D6
100
AcDbEntity
  8
2
  6
Continuous
100
AcDbLine
 10
6467.062138719128
 20
5297.136539325073
 30
0.0
 11
6389.280391629569
 21
5374.918286414634
 31
0.0
  0
LINE
  5
EC9
102
{ACAD_REACTORS
330
E58
102
}
330
D6
100
AcDbEntity
  8
2
  6
Continuous
100
AcDbLine
 10
6414.736236131604
 20
5244.810636737554
 30
0.0
 11
6467.062138719128
 21
5297.136539325073
 31
0.0
  0
ARC
  5
ECA
102
{ACAD_REACTORS
330
E58
102
}
330
D6
100
AcDbEntity
  8
2
  6
Continuous
100
AcDbCircle
 10
7407.514171711065
 20
6315.370319406566
 30
0.0
 40
1375.000020489096
100
AcDbArc
 50
221.8732238864209
 51
228.1267761135803
  0
ARC
  5
ECB
102
{ACAD_REACTORS
330
E58
102
}
330
D6
100
AcDbEntity
  8
0
 48
20.0
100
AcDbCircle
 10
6410.493595328585
 20
5318.349743024088
 30
0.0
 40
10.0
100
AcDbArc
 50
314.9999999999791
 51
135.0000000000207
  0
ARC
  5
ECC
102
{ACAD_REACTORS
330
E58
102
}
330
D6
100
AcDbEntity
  8
0
 48
20.0
100
AcDbCircle
 10
6403.422527516719
 20
5311.278675212223
 30
0.0
 40
10.0
100
AcDbArc
 50
135.0000000000207
 51
314.9999999999792
  0
LINE
  5
ECE
102
{ACAD_REACTORS
330
E58
102
}
330
D6
100
AcDbEntity
  8
2
  6
Continuous
100
AcDbLine
 10
7629.919991203053
 20
5244.810636737549
 30
0.0
 11
7577.59408861553
 21
5297.136539325073
 31
0.0
  0
LINE
  5
ECF
102
{ACAD_REACTORS
330
E58
102
}
330
D6
100
AcDbEntity
  8
2
  6
Continuous
100
AcDbLine
 10
7708.408845084334
 20
5328.956344952617
 30
0.0
 11
7708.408845084334
 21
5350.169548704316
 31
0.0
  0
LINE
  5
ED0
102
{ACAD_REACTORS
330
E58
102
}
330
D6
100
AcDbEntity
  8
2
  6
Continuous
100
AcDbLine
 10
7704.873311125718
 20
5325.420810994001
 30
0.0
 11
7708.408845084334
 21
5328.956344952617
 31
0.0
  0
LINE
  5
ED1
102
{ACAD_REACTORS
330
E58
102
}
330
D6
100
AcDbEntity
  8
2
  6
CENTER
100
AcDbLine
 10
7623.681831241594
 20
5300.797874447738
 30
0.0
 11
7654.340169172854
 21
5331.456212378999
 31
0.0
  0
LINE
  5
ED2
102
{ACAD_REACTORS
330
E58
102
}
330
D6
100
AcDbEntity
  8
2
  6
Continuous
100
AcDbLine
 10
7602.342826325842
 20
5244.103529945827
 30
0.0
 11
7623.556030077543
 21
5244.103529945827
 31
0.0
  0
LINE
  5
ED3
102
{ACAD_REACTORS
330
E58
102
}
330
D6
100
AcDbEntity
  8
2
  6
Continuous
100
AcDbLine
 10
7539.591080002605
 20
5306.855276269064
 30
0.0
 11
7602.342826325842
 21
5244.103529945825
 31
0.0
  0
LINE
  5
ED4
102
{ACAD_REACTORS
330
E58
102
}
330
D6
100
AcDbEntity
  8
2
  6
Continuous
100
AcDbLine
 10
7645.657098761095
 20
5412.921295027555
 30
0.0
 11
7708.408845084334
 21
5350.169548704316
 31
0.0
  0
LINE
  5
ED5
102
{ACAD_REACTORS
330
E58
102
}
330
D6
100
AcDbEntity
  8
2
  6
Continuous
100
AcDbLine
 10
7623.556030077543
 20
5244.103529945827
 30
0.0
 11
7627.09156403616
 21
5247.639063904443
 31
0.0
  0
LINE
  5
ED6
102
{ACAD_REACTORS
330
E58
102
}
330
D6
100
AcDbEntity
  8
2
  6
CENTER
100
AcDbLine
 10
7736.294778106273
 20
5216.217596923889
 30
0.0
 11
7573.971290961788
 21
5378.541084068372
 31
0.0
  0
LINE
  5
ED7
102
{ACAD_REACTORS
330
E58
102
}
330
D6
100
AcDbEntity
  8
2
100
AcDbLine
 10
7634.162632006075
 20
5304.207607400354
 30
0.0
 11
7627.091564194208
 21
5311.278675212223
 31
0.0
  0
LINE
  5
ED8
102
{ACAD_REACTORS
330
E58
102
}
330
D6
100
AcDbEntity
  8
2
100
AcDbLine
 10
7648.304767629804
 20
5318.349743024089
 30
0.0
 11
7641.233699817938
 21
5325.420810835954
 31
0.0
  0
LINE
  5
ED9
102
{ACAD_REACTORS
330
E58
102
}
330
D6
100
AcDbEntity
  8
2
  6
Continuous
100
AcDbLine
 10
7707.70173829261
 20
5322.592383827108
 30
0.0
 11
7629.919991203053
 21
5244.810636737549
 31
0.0
  0
LINE
  5
EDA
102
{ACAD_REACTORS
330
E58
102
}
330
D6
100
AcDbEntity
  8
2
  6
Continuous
100
AcDbLine
 10
7655.375835705091
 20
5374.918286414631
 30
0.0
 11
7577.59408861553
 21
5297.136539325073
 31
0.0
  0
LINE
  5
EDB
102
{ACAD_REACTORS
330
E58
102
}
330
D6
100
AcDbEntity
  8
2
  6
Continuous
100
AcDbLine
 10
7707.70173829261
 20
5322.592383827108
 30
0.0
 11
7655.375835705091
 21
5374.918286414631
 31
0.0
  0
ARC
  5
EDC
102
{ACAD_REACTORS
330
E58
102
}
330
D6
100
AcDbEntity
  8
2
  6
Continuous
100
AcDbCircle
 10
6637.142055623596
 20
6315.370319406571
 30
0.0
 40
1375.000020489096
100
AcDbArc
 50
311.8732238864208
 51
318.1267761135803
  0
ARC
  5
EDD
102
{ACAD_REACTORS
330
E58
102
}
330
D6
100
AcDbEntity
  8
0
 48
20.0
100
AcDbCircle
 10
7634.162632006075
 20
5318.349743024089
 30
0.0
 40
10.0
100
AcDbArc
 50
44.99999999997907
 51
225.0000000000208
  0
ARC
  5
EDE
102
{ACAD_REACTORS
330
E58
102
}
330
D6
100
AcDbEntity
  8
0
 48
20.0
100
AcDbCircle
 10
7641.23369981794
 20
5311.278675212224
 30
0.0
 40
10.0
100
AcDbArc
 50
225.0000000000208
 51
44.9999999999791
  0
ARC
  5
EE3
330
D6
100
AcDbEntity
  8
0
 48
20.0
100
AcDbCircle
 10
8539.316817672883
 20
4834.20985716543
 30
0.0
 40
30.0
100
AcDbArc
 50
89.9999999999861
 51
270.0000000000139
  0
ARC
  5
EE4
330
D6
100
AcDbEntity
  8
0
 48
20.0
100
AcDbCircle
 10
8569.316817672882
 20
4834.20985716543
 30
0.0
 40
30.0
100
AcDbArc
 50
270.0000000000139
 51
89.9999999999861
  0
ENDSEC
  0
SECTION
  2
OBJECTS
  0
DICTIONARY
  5
4DB
330
0
100
AcDbDictionary
281
     1
  3
ACAD_COLOR
350
4E4
  3
ACAD_GROUP
350
4DC
  3
ACAD_LAYOUT
350
4E7
  3
ACAD_MATERIAL
350
4E3
  3
ACAD_MLINESTYLE
350
4DD
  3
ACAD_PLOTSETTINGS
350
4E8
  3
ACAD_PLOTSTYLENAME
350
4E1
  3
ACAD_TABLESTYLE
350
4E5
  3
AcDbVariableDictionary
350
858
  0
DICTIONARY
  5
4F9
330
C8
100
AcDbDictionary
280
     1
281
     1
  3
ACAD_LAYERFILTERS
360
883
  3
ACAD_LAYERSTATES
360
4FA
  3
ACLYDICTIONARY
360
882
  0
DICTIONARY
  5
7EB
330
D6
100
AcDbDictionary
280
     1
281
     1
  3
ACAD_SORTENTS
360
7EC
  0
DICTIONARY
  5
4E4
102
{ACAD_REACTORS
330
4DB
102
}
330
4DB
100
AcDbDictionary
281
     1
  0
DICTIONARY
  5
4DC
102
{ACAD_REACTORS
330
4DB
102
}
330
4DB
100
AcDbDictionary
281
     1
  3
A-P
350
E58
  3
A-P2
350
E65
  0
DICTIONARY
  5
4E7
102
{ACAD_REACTORS
330
4DB
102
}
330
4DB
100
AcDbDictionary
281
     1
  3
Model
350
4E9
  3
レイアウト1
350
4EA
  0
DICTIONARY
  5
4E3
102
{ACAD_REACTORS
330
4DB
102
}
330
4DB
100
AcDbDictionary
281
     1
  0
DICTIONARY
  5
4DD
102
{ACAD_REACTORS
330
4DB
102
}
330
4DB
100
AcDbDictionary
281
     1
  3
STANDARD
350
4DE
  0
DICTIONARY
  5
4E8
102
{ACAD_REACTORS
330
4DB
102
}
330
4DB
100
AcDbDictionary
281
     1
  0
ACDBDICTIONARYWDFLT
  5
4E1
102
{ACAD_REACTORS
330
4DB
102
}
330
4DB
100
AcDbDictionary
281
     1
  3
Normal
350
4E2
100
AcDbDictionaryWithDefault
340
4E2
  0
DICTIONARY
  5
4E5
102
{ACAD_REACTORS
330
4DB
102
}
330
4DB
100
AcDbDictionary
281
     1
  3
Standard
350
4E6
  0
DICTIONARY
  5
858
102
{ACAD_REACTORS
330
4DB
102
}
330
4DB
100
AcDbDictionary
281
     1
  3
CTABLESTYLE
350
859
  0
DICTIONARY
  5
883
102
{ACAD_REACTORS
330
4F9
102
}
330
4F9
100
AcDbDictionary
281
     1
  0
DICTIONARY
  5
4FA
102
{ACAD_REACTORS
330
4F9
102
}
330
4F9
100
AcDbDictionary
281
     1
  0
DICTIONARY
  5
882
102
{ACAD_REACTORS
330
4F9
102
}
330
4F9
100
AcDbDictionary
281
     1
1001
ACAD
1000
<All
  0
SORTENTSTABLE
  5
7EC
102
{ACAD_REACTORS
330
7EB
102
}
330
7EB
100
AcDbSortentsTable
330
D6
331
5EB
  5
5F5
331
622
  5
62C
331
661
  5
66B
331
698
  5
6A2
331
BE3
  5
C18
331
DA8
  5
DAE
331
669
  5
673
331
44D
  5
479
331
5F3
  5
5FD
331
62A
  5
634
331
6A0
  5
6AA
331
7FF
  5
807
331
94E
  5
954
331
B45
  5
BE3
331
DB0
  5
DC9
331
5FB
  5
605
331
632
  5
63C
331
671
  5
67B
331
6A8
  5
6B2
331
EBD
  5
EC0
331
85F
  5
865
331
956
  5
95C
331
C4B
  5
C6C
331
63A
  5
644
331
6B0
  5
7EA
331
EC5
  5
EC8
331
95E
  5
981
331
DC8
  5
DCE
331
E96
  5
E99
331
376
  5
378
331
603
  5
60D
331
642
  5
64C
331
679
  5
683
331
6B8
  5
7F4
331
DD0
  5
DD6
331
867
  5
86D
331
C53
  5
C73
331
48D
  5
4CC
331
60B
  5
615
331
64A
  5
654
331
681
  5
68B
331
DD8
  5
E6D
331
986
  5
996
331
86F
  5
875
331
C6B
  5
C75
331
D91
  5
D97
331
38E
  5
390
331
613
  5
61D
331
652
  5
65C
331
689
  5
693
331
E9E
  5
EA1
331
ED5
  5
ED8
331
877
  5
87D
331
C73
  5
C7A
331
D99
  5
D9F
331
65A
  5
664
331
5E4
  5
5EE
331
61B
  5
625
331
691
  5
69B
331
7F0
  5
7F8
331
EA6
  5
EAA
331
EDD
  5
EE1
331
996
  5
BCC
331
C7B
  5
D91
331
DA1
  5
DA7
331
EAE
  5
EB1
331
EB6
  5
EB9
331
5EC
  5
5F6
331
446
  5
448
331
4CD
  5
4D7
331
623
  5
62D
331
662
  5
66C
331
699
  5
6A3
331
7F8
  5
800
331
BE4
  5
C4A
331
DA9
  5
DAF
331
66A
  5
674
331
44E
  5
47A
331
5F4
  5
5FE
331
62B
  5
635
331
6A1
  5
6AB
331
800
  5
808
331
94F
  5
955
331
DB1
  5
DCA
331
5FC
  5
606
331
633
  5
63D
331
672
  5
67C
331
6A9
  5
6B3
331
EBE
  5
EC1
331
957
  5
95D
331
63B
  5
645
331
6B1
  5
7ED
331
EC6
  5
EC9
331
95F
  5
982
331
DC9
  5
DCF
331
ECE
  5
ED1
331
E97
  5
E9A
331
36F
  5
36F
331
860
  5
866
331
643
  5
64D
331
377
  5
379
331
604
  5
60E
331
67A
  5
684
331
6B9
  5
7F5
331
DD1
  5
DD7
331
868
  5
86E
331
D8A
  5
D93
331
60C
  5
616
331
64B
  5
655
331
682
  5
68C
331
DD9
  5
E93
331
870
  5
876
331
987
  5
997
331
BBD
  5
C15
331
C6C
  5
C76
331
D92
  5
D98
331
38F
  5
391
331
614
  5
61E
331
653
  5
65D
331
68A
  5
694
331
E9F
  5
EA2
331
ED6
  5
ED9
331
878
  5
94A
331
D9A
  5
DA0
331
65B
  5
665
331
5E5
  5
5EF
331
4C6
  5
4D6
331
61C
  5
626
331
692
  5
69C
331
7F1
  5
7F9
331
EA7
  5
EAB
331
EDE
  5
EE2
331
997
  5
BD5
331
BD5
  5
C16
331
C7C
  5
D92
331
DA2
  5
DA8
331
EAF
  5
EB2
331
EB7
  5
EBA
331
663
  5
66D
331
5ED
  5
5F7
331
447
  5
449
331
4CE
  5
5E6
331
624
  5
62E
331
69A
  5
6A4
331
7F9
  5
801
331
BE5
  5
C4B
331
B86
  5
BE8
331
DAA
  5
DB0
331
66B
  5
675
331
44F
  5
47D
331
5F5
  5
5FF
331
62C
  5
636
331
6A2
  5
6AC
331
801
  5
809
331
950
  5
956
331
673
  5
67D
331
5FD
  5
607
331
634
  5
63E
331
6AA
  5
6B4
331
EBF
  5
EC2
331
958
  5
95E
331
C4D
  5
C6E
331
63C
  5
646
331
6B2
  5
7EE
331
EC7
  5
ECA
331
DCA
  5
DD0
331
ECF
  5
ED2
331
370
  5
370
331
861
  5
867
331
960
  5
983
331
605
  5
60F
331
644
  5
64E
331
67B
  5
685
331
378
  5
37A
331
BAE
  5
C14
331
DD2
  5
DD8
331
980
  5
986
331
B5F
  5
BE5
331
60D
  5
617
331
64C
  5
656
331
683
  5
68D
331
E98
  5
E9B
331
DDA
  5
E94
331
871
  5
877
331
988
  5
B38
331
D93
  5
D99
331
7EA
  5
372
331
5DE
  5
5E8
331
615
  5
61F
331
654
  5
65E
331
68B
  5
695
331
EA0
  5
EA3
331
ED7
  5
EDA
331
879
  5
94B
331
C75
  5
C7B
331
D9B
  5
DA1
331
65C
  5
666
331
5E6
  5
5F0
331
61D
  5
627
331
693
  5
69D
331
7F2
  5
7FA
331
EA8
  5
EAC
331
DA3
  5
DA9
331
EB0
  5
EB3
331
390
  5
3EE
331
B38
  5
BE2
331
664
  5
66E
331
5EE
  5
5F8
331
4CF
  5
5E7
331
625
  5
62F
331
69B
  5
6A5
331
7FA
  5
802
331
448
  5
44A
331
BE6
  5
C4D
331
DAB
  5
DB1
331
66C
  5
676
331
5F6
  5
600
331
62D
  5
637
331
6A3
  5
6AD
331
802
  5
80A
331
EB8
  5
EBC
331
85A
  5
85C
331
951
  5
957
331
674
  5
67E
331
5FE
  5
608
331
635
  5
63F
331
6AB
  5
6B5
331
EC0
  5
EC3
331
959
  5
95F
331
C4E
  5
C6F
331
63D
  5
647
331
6B3
  5
7EF
331
EC8
  5
ECB
331
DCB
  5
DD1
331
450
  5
4AF
331
371
  5
373
331
862
  5
868
331
961
  5
984
331
606
  5
610
331
645
  5
64F
331
67C
  5
686
331
379
  5
37B
331
981
  5
987
331
DD3
  5
DD9
331
4B8
  5
4CE
331
60E
  5
618
331
64D
  5
657
331
684
  5
68E
331
E99
  5
E9C
331
ED0
  5
ED3
331
DDB
  5
E95
331
872
  5
878
331
989
  5
B45
331
C6E
  5
C77
331
D94
  5
D9A
331
5DF
  5
5E9
331
616
  5
620
331
655
  5
65F
331
68C
  5
696
331
EA1
  5
EA4
331
ED8
  5
EDB
331
87A
  5
94C
331
C76
  5
C7C
331
D9C
  5
DA2
331
65D
  5
667
331
5E7
  5
5F1
331
61E
  5
628
331
694
  5
69E
331
7F3
  5
7FB
331
DA4
  5
DAA
331
EB1
  5
EB4
331
391
  5
3EF
331
665
  5
66F
331
5EF
  5
5F9
331
626
  5
630
331
69C
  5
6A6
331
7FB
  5
803
331
449
  5
44B
331
94A
  5
950
331
BE7
  5
C4E
331
DAC
  5
DC5
331
803
  5
47C
331
62E
  5
638
331
5F7
  5
601
331
66D
  5
677
331
6A4
  5
6AE
331
EB9
  5
EBD
331
85B
  5
85D
331
952
  5
958
331
675
  5
67F
331
5FF
  5
609
331
636
  5
640
331
6AC
  5
6B6
331
EC1
  5
EC4
331
95A
  5
960
331
BA0
  5
C13
331
63E
  5
648
331
6B4
  5
7F0
331
EC9
  5
ECC
331
DCC
  5
DD2
331
451
  5
4C0
331
863
  5
869
331
962
  5
985
331
607
  5
611
331
646
  5
650
331
67D
  5
687
331
37A
  5
37C
331
DD4
  5
DDA
331
982
  5
988
331
86B
  5
871
331
D8D
  5
D94
331
60F
  5
619
331
64E
  5
658
331
685
  5
68F
331
E9A
  5
E9D
331
ED1
  5
ED4
331
DDC
  5
E96
331
98A
  5
B52
331
C6F
  5
C78
331
D95
  5
D9B
331
EA2
  5
EA5
331
ED9
  5
EDC
331
5E0
  5
5EA
331
617
  5
621
331
656
  5
660
331
68D
  5
697
331
873
  5
879
331
B79
  5
BE7
331
C77
  5
D8A
331
D9D
  5
DA3
331
EAA
  5
EAD
331
65E
  5
668
331
61F
  5
629
331
695
  5
69F
331
7F4
  5
7FC
331
87B
  5
94D
331
DA5
  5
DAB
331
EB2
  5
EB5
331
5E8
  5
5F2
331
666
  5
670
331
5F0
  5
5FA
331
627
  5
631
331
69D
  5
6A7
331
7FC
  5
804
331
44A
  5
476
331
DAD
  5
DC6
331
EBA
  5
EBE
331
804
  5
47B
331
62F
  5
639
331
5F8
  5
602
331
66E
  5
678
331
6A5
  5
6AF
331
94B
  5
951
331
BE8
  5
C52
331
EC2
  5
EC5
331
676
  5
680
331
637
  5
641
331
6AD
  5
6B7
331
85C
  5
85F
331
953
  5
959
331
B52
  5
BE4
331
ECA
  5
ECE
331
63F
  5
649
331
6B5
  5
7F1
331
95B
  5
961
331
DC5
  5
DCB
331
DCD
  5
DD3
331
600
  5
60A
331
608
  5
612
331
647
  5
651
331
67E
  5
688
331
37B
  5
37D
331
864
  5
86A
331
E9B
  5
E9E
331
ED2
  5
ED5
331
DD5
  5
DDB
331
983
  5
989
331
610
  5
61A
331
64F
  5
659
331
686
  5
690
331
86C
  5
872
331
D8E
  5
D95
331
EA3
  5
EA6
331
EDA
  5
EDD
331
7ED
  5
371
331
5E1
  5
5EB
331
618
  5
622
331
657
  5
661
331
68E
  5
698
331
874
  5
87A
331
98B
  5
B5F
331
D96
  5
D9C
331
EAB
  5
EAE
331
65F
  5
669
331
696
  5
6A0
331
7F5
  5
7FD
331
87C
  5
94E
331
C78
  5
D8D
331
D9E
  5
DA4
331
EB3
  5
EB6
331
E35
  5
E97
331
DA6
  5
DAC
331
5E9
  5
5F3
331
620
  5
62A
331
667
  5
671
331
44B
  5
477
331
5F1
  5
5FB
331
628
  5
632
331
69E
  5
6A8
331
7FD
  5
805
331
94C
  5
952
331
BE9
  5
C53
331
DAE
  5
DC7
331
5F9
  5
603
331
630
  5
63A
331
66F
  5
679
331
6A6
  5
6B0
331
EC3
  5
EC6
331
85D
  5
860
331
954
  5
95A
331
677
  5
681
331
638
  5
642
331
6AE
  5
6B8
331
ECB
  5
ECF
331
95C
  5
962
331
DC6
  5
DCC
331
6B6
  5
7F2
331
DCE
  5
DD4
331
374
  5
376
331
601
  5
60B
331
640
  5
64A
331
865
  5
86B
331
609
  5
613
331
648
  5
652
331
67F
  5
689
331
E9C
  5
E9F
331
ED3
  5
ED6
331
984
  5
98A
331
86D
  5
873
331
DD6
  5
DDC
331
611
  5
61B
331
650
  5
65A
331
687
  5
691
331
EA4
  5
EA7
331
EDB
  5
EDE
331
875
  5
87B
331
C71
  5
C79
331
D97
  5
D9D
331
658
  5
662
331
5E2
  5
5EC
331
619
  5
623
331
68F
  5
699
331
7EE
  5
7F6
331
EAC
  5
EAF
331
87D
  5
94F
331
C79
  5
D8E
331
D9F
  5
DA5
331
697
  5
6A1
331
7F6
  5
7FE
331
EB4
  5
EB7
331
DA7
  5
DAD
331
E6D
  5
E98
331
5EA
  5
5F4
331
621
  5
62B
331
660
  5
66A
331
BE2
  5
C17
331
668
  5
672
331
44C
  5
478
331
5F2
  5
5FC
331
629
  5
633
331
69F
  5
6A9
331
7FE
  5
806
331
EBC
  5
EBF
331
94D
  5
953
331
B93
  5
BE9
331
DAF
  5
DC8
331
631
  5
63B
331
5FA
  5
604
331
670
  5
67A
331
6A7
  5
6B1
331
85E
  5
864
331
955
  5
95B
331
C4A
  5
C6B
331
639
  5
643
331
6AF
  5
6B9
331
EC4
  5
EC7
331
95D
  5
980
331
DC7
  5
DCD
331
6B7
  5
7F3
331
ECC
  5
ED0
331
DCF
  5
DD5
331
375
  5
377
331
602
  5
60C
331
641
  5
64B
331
678
  5
682
331
866
  5
86C
331
C52
  5
C71
331
60A
  5
614
331
649
  5
653
331
680
  5
68A
331
DD7
  5
E35
331
985
  5
98B
331
86E
  5
874
331
D90
  5
D96
331
612
  5
61C
331
651
  5
65B
331
688
  5
692
331
E9D
  5
EA0
331
ED4
  5
ED7
331
876
  5
87C
331
D98
  5
D9E
331
659
  5
663
331
5E3
  5
5ED
331
4C4
  5
4D5
331
61A
  5
624
331
690
  5
69A
331
7EF
  5
7F7
331
EA5
  5
EA8
331
EDC
  5
EE0
331
C7A
  5
D90
331
DA0
  5
DA6
331
7F7
  5
7FF
331
EAD
  5
EB0
331
EB5
  5
EB8
  0
GROUP
  5
E58
102
{ACAD_REACTORS
330
4DC
102
}
330
4DC
100
AcDbGroup
300

 70
     0
 71
     1
340
EA8
340
EA7
340
EA6
340
EA4
340
EA3
340
EA1
340
E9B
340
EA5
340
EA2
340
E9E
340
E9A
340
E99
340
EA0
340
E9F
340
E9D
340
E9C
340
E98
340
EBA
340
EB9
340
EB8
340
EB6
340
EB5
340
EB3
340
EAD
340
EB7
340
EB4
340
EB0
340
EAC
340
EAB
340
EB2
340
EB1
340
EAF
340
EAE
340
EAA
340
ECC
340
ECB
340
ECA
340
EC8
340
EC5
340
EC3
340
EC1
340
EC0
340
EBF
340
EBC
340
EC9
340
EC6
340
EC4
340
EC7
340
EC2
340
EBE
340
EBD
340
EDE
340
EDD
340
EDC
340
EDA
340
ED9
340
ED7
340
ED1
340
EDB
340
ED8
340
ED4
340
ED0
340
ECF
340
ED6
340
ED5
340
ED3
340
ED2
340
ECE
  0
GROUP
  5
E65
102
{ACAD_REACTORS
330
4DC
102
}
330
4DC
100
AcDbGroup
300

 70
     0
 71
     1
340
7EE
340
390
340
38E
340
37B
340
37A
340
377
340
375
340
371
340
7ED
340
36F
340
378
340
7EF
340
391
340
38F
340
379
340
376
340
374
340
7EA
340
370
  0
LAYOUT
  5
4E9
102
{ACAD_REACTORS
330
4E7
102
}
330
4E7
100
AcDbPlotSettings
  1

  2
DocuCentre-II C2200.pc3
  4
A3
  6

 40
4.900083065032958
 41
4.900057315826416
 42
4.85772705078125
 43
4.90008544921875
 44
419.9889831542968
 45
297.0106506347656
 46
0.0
 47
0.0
 48
1723.597553998026
 49
1754.321756044566
140
9783.597553998028
141
7354.321756044567
142
1.0
143
19.64745862753807
 70
 11952
 72
     1
 73
     0
 74
     4
  7

 75
     0
147
0.0508971678707795
 76
     0
 77
     2
 78
   300
148
-1723.597553998026
149
-1754.321756044566
100
AcDbLayout
  1
Model
 70
     1
 71
     0
 10
0.0
 20
0.0
 11
12.0
 21
9.0
 12
0.0
 22
0.0
 32
0.0
 14
0.0
 24
0.0
 34
0.0
 15
0.0
 25
0.0
 35
0.0
146
0.0
 13
0.0
 23
0.0
 33
0.0
 16
1.0
 26
0.0
 36
0.0
 17
0.0
 27
1.0
 37
0.0
 76
     0
330
D6
1001
ACAD_PSEXT
1000
DocuCentre-II C2200.pc3
1000
FX DocuCentre-II C2200
1000
192.168.8.52
1000

1070
     0
  0
LAYOUT
  5
4EA
102
{ACAD_REACTORS
330
4E7
102
}
330
4E7
100
AcDbPlotSettings
  1

  2
DocuCentre-II C2200
  4

  6

 40
0.0
 41
0.0
 42
0.0
 43
0.0
 44
0.0
 45
0.0
 46
0.0
 47
0.0
 48
0.0
 49
0.0
140
0.0
141
0.0
142
1.0
143
1.0
 70
   688
 72
     0
 73
     0
 74
     5
  7

 75
    16
147
1.0
 76
     0
 77
     2
 78
   300
148
0.0
149
0.0
100
AcDbLayout
  1
レイアウト1
 70
     1
 71
     1
 10
-144.1413879999999
 20
-67.98339799999999
 11
277.858612
 21
231.016602
 12
0.0
 22
0.0
 32
0.0
 14
-144.1413879999999
 24
-67.98339799999999
 34
0.0
 15
277.858612
 25
231.016602
 35
0.0
146
0.0
 13
0.0
 23
0.0
 33
0.0
 16
1.0
 26
0.0
 36
0.0
 17
0.0
 27
1.0
 37
0.0
 76
     0
330
D7
  0
MLINESTYLE
  5
4DE
102
{ACAD_REACTORS
330
4DD
102
}
330
4DD
100
AcDbMlineStyle
  2
STANDARD
 70
     0
  3

 62
     0
 51
90.0
 52
90.0
 71
     2
 49
0.5
 62
   256
  6
BYLAYER
 49
-0.5
 62
   256
  6
BYLAYER
  0
ACDBPLACEHOLDER
  5
4E2
102
{ACAD_REACTORS
330
4E1
102
}
330
4E1
  0
TABLESTYLE
  5
4E6
102
{ACAD_REACTORS
330
4E5
102
}
330
4E5
100
AcDbTableStyle
  3
Standard
 70
     0
 71
     0
 40
1.5
 41
1.5
280
     0
281
     0
  7
STANDARD
140
4.5
170
     2
 62
     0
 63
     7
283
     0
274
    -2
284
     1
 64
     0
275
    -2
285
     1
 65
     0
276
    -2
286
     1
 66
     0
277
    -2
287
     1
 67
     0
278
    -2
288
     1
 68
     0
279
    -2
289
     1
 69
     0
  7
STANDARD
140
6.0
170
     5
 62
     0
 63
     7
283
     0
274
    -2
284
     1
 64
     0
275
    -2
285
     1
 65
     0
276
    -2
286
     1
 66
     0
277
    -2
287
     1
 67
     0
278
    -2
288
     1
 68
     0
279
    -2
289
     1
 69
     0
  7
STANDARD
140
4.5
170
     5
 62
     0
 63
     7
283
     0
274
    -2
284
     1
 64
     0
275
    -2
285
     1
 65
     0
276
    -2
286
     1
 66
     0
277
    -2
287
     1
 67
     0
278
    -2
288
     1
 68
     0
279
    -2
289
     1
 69
     0
  0
DICTIONARYVAR
  5
859
102
{ACAD_REACTORS
330
858
102
}
330
858
100
DictionaryVariables
280
     0
  1
STANDARD
  0
ENDSEC
  0
EOF
