  0
SECTION
  2
HEADER
  9
$ACADVER
  1
AC1018
  9
$ACADMAINTVER
 70
    39
  9
$DWGCODEPAGE
  3
ANSI_932
  9
$INSBASE
 10
0.0
 20
0.0
 30
0.0
  9
$EXTMIN
 10
356.0490209958389
 20
-10265.45039005577
 30
0.0
  9
$EXTMAX
 10
15161.04902099584
 20
234.5496099442262
 30
0.0
  9
$LIMMIN
 10
-144.1413879394531
 20
-67.9833984375
  9
$LIMMAX
 10
277.8586120605469
 20
231.0166015625
  9
$ORTHOMODE
 70
     0
  9
$REGENMODE
 70
     1
  9
$FILLMODE
 70
     1
  9
$QTEXTMODE
 70
     0
  9
$MIRRTEXT
 70
     0
  9
$LTSCALE
 40
35.0
  9
$ATTMODE
 70
     1
  9
$TEXTSIZE
 40
105.0
  9
$TRACEWID
 40
0.05
  9
$TEXTSTYLE
  7
STANDARD
  9
$CLAYER
  8
0
  9
$CELTYPE
  6
ByLayer
  9
$CECOLOR
 62
   256
  9
$CELTSCALE
 40
1.0
  9
$DISPSILH
 70
     0
  9
$DIMSCALE
 40
35.0
  9
$DIMASZ
 40
3.0
  9
$DIMEXO
 40
2.0
  9
$DIMDLI
 40
0.38
  9
$DIMRND
 40
0.0
  9
$DIMDLE
 40
0.0
  9
$DIMEXE
 40
3.0
  9
$DIMTP
 40
0.0
  9
$DIMTM
 40
0.0
  9
$DIMTXT
 40
3.0
  9
$DIMCEN
 40
0.09
  9
$DIMTSZ
 40
0.0
  9
$DIMTOL
 70
     0
  9
$DIMLIM
 70
     0
  9
$DIMTIH
 70
     0
  9
$DIMTOH
 70
     0
  9
$DIMSE1
 70
     0
  9
$DIMSE2
 70
     0
  9
$DIMTAD
 70
     1
  9
$DIMZIN
 70
     8
  9
$DIMBLK
  1
Open30
  9
$DIMASO
 70
     1
  9
$DIMSHO
 70
     0
  9
$DIMPOST
  1

  9
$DIMAPOST
  1

  9
$DIMALT
 70
     0
  9
$DIMALTD
 70
     2
  9
$DIMALTF
 40
25.4
  9
$DIMLFAC
 40
1.0
  9
$DIMTOFL
 70
     1
  9
$DIMTVP
 40
1.0
  9
$DIMTIX
 70
     0
  9
$DIMSOXD
 70
     0
  9
$DIMSAH
 70
     0
  9
$DIMBLK1
  1

  9
$DIMBLK2
  1

  9
$DIMSTYLE
  2
1-35
  9
$DIMCLRD
 70
     0
  9
$DIMCLRE
 70
     0
  9
$DIMCLRT
 70
     0
  9
$DIMTFAC
 40
1.0
  9
$DIMGAP
 40
1.700000047683715
  9
$DIMJUST
 70
     0
  9
$DIMSD1
 70
     0
  9
$DIMSD2
 70
     0
  9
$DIMTOLJ
 70
     1
  9
$DIMTZIN
 70
     0
  9
$DIMALTZ
 70
     0
  9
$DIMALTTZ
 70
     0
  9
$DIMUPT
 70
     0
  9
$DIMDEC
 70
     1
  9
$DIMTDEC
 70
     1
  9
$DIMALTU
 70
     2
  9
$DIMALTTD
 70
     2
  9
$DIMTXSTY
  7
STANDARD
  9
$DIMAUNIT
 70
     0
  9
$DIMADEC
 70
     0
  9
$DIMALTRND
 40
0.0
  9
$DIMAZIN
 70
     2
  9
$DIMDSEP
 70
    46
  9
$DIMATFIT
 70
     3
  9
$DIMFRAC
 70
     0
  9
$DIMLDRBLK
  1
Open30
  9
$DIMLUNIT
 70
     2
  9
$DIMLWD
 70
    -2
  9
$DIMLWE
 70
    -2
  9
$DIMTMOVE
 70
     0
  9
$LUNITS
 70
     2
  9
$LUPREC
 70
     4
  9
$SKETCHINC
 40
0.1
  9
$FILLETRAD
 40
0.0
  9
$AUNITS
 70
     0
  9
$AUPREC
 70
     0
  9
$MENU
  1
.
  9
$ELEVATION
 40
0.0
  9
$PELEVATION
 40
0.0
  9
$THICKNESS
 40
0.0
  9
$LIMCHECK
 70
     0
  9
$CHAMFERA
 40
0.0
  9
$CHAMFERB
 40
0.0
  9
$CHAMFERC
 40
0.0
  9
$CHAMFERD
 40
0.0
  9
$SKPOLY
 70
     0
  9
$TDCREATE
 40
2454617.659487118
  9
$TDUCREATE
 40
2454617.284487118
  9
$TDUPDATE
 40
2457893.805758646
  9
$TDUUPDATE
 40
2457893.430758646
  9
$TDINDWG
 40
0.2350275231
  9
$TDUSRTIMER
 40
0.2350275231
  9
$USRTIMER
 70
     1
  9
$ANGBASE
 50
0.0
  9
$ANGDIR
 70
     0
  9
$PDMODE
 70
     0
  9
$PDSIZE
 40
0.0
  9
$PLINEWID
 40
0.0
  9
$SPLFRAME
 70
     0
  9
$SPLINETYPE
 70
     6
  9
$SPLINESEGS
 70
     8
  9
$HANDSEED
  5
1663
  9
$SURFTAB1
 70
     6
  9
$SURFTAB2
 70
     6
  9
$SURFTYPE
 70
     6
  9
$SURFU
 70
     6
  9
$SURFV
 70
     6
  9
$UCSBASE
  2

  9
$UCSNAME
  2

  9
$UCSORG
 10
0.0
 20
0.0
 30
0.0
  9
$UCSXDIR
 10
1.0
 20
0.0
 30
0.0
  9
$UCSYDIR
 10
0.0
 20
1.0
 30
0.0
  9
$UCSORTHOREF
  2

  9
$UCSORTHOVIEW
 70
     0
  9
$UCSORGTOP
 10
0.0
 20
0.0
 30
0.0
  9
$UCSORGBOTTOM
 10
0.0
 20
0.0
 30
0.0
  9
$UCSORGLEFT
 10
0.0
 20
0.0
 30
0.0
  9
$UCSORGRIGHT
 10
0.0
 20
0.0
 30
0.0
  9
$UCSORGFRONT
 10
0.0
 20
0.0
 30
0.0
  9
$UCSORGBACK
 10
0.0
 20
0.0
 30
0.0
  9
$PUCSBASE
  2

  9
$PUCSNAME
  2

  9
$PUCSORG
 10
0.0
 20
0.0
 30
0.0
  9
$PUCSXDIR
 10
1.0
 20
0.0
 30
0.0
  9
$PUCSYDIR
 10
0.0
 20
1.0
 30
0.0
  9
$PUCSORTHOREF
  2

  9
$PUCSORTHOVIEW
 70
     0
  9
$PUCSORGTOP
 10
0.0
 20
0.0
 30
0.0
  9
$PUCSORGBOTTOM
 10
0.0
 20
0.0
 30
0.0
  9
$PUCSORGLEFT
 10
0.0
 20
0.0
 30
0.0
  9
$PUCSORGRIGHT
 10
0.0
 20
0.0
 30
0.0
  9
$PUCSORGFRONT
 10
0.0
 20
0.0
 30
0.0
  9
$PUCSORGBACK
 10
0.0
 20
0.0
 30
0.0
  9
$USERI1
 70
     0
  9
$USERI2
 70
     0
  9
$USERI3
 70
     0
  9
$USERI4
 70
     0
  9
$USERI5
 70
     0
  9
$USERR1
 40
0.0
  9
$USERR2
 40
0.0
  9
$USERR3
 40
0.0
  9
$USERR4
 40
0.0
  9
$USERR5
 40
0.0
  9
$WORLDVIEW
 70
     1
  9
$SHADEDGE
 70
     3
  9
$SHADEDIF
 70
    70
  9
$TILEMODE
 70
     1
  9
$MAXACTVP
 70
    64
  9
$PINSBASE
 10
0.0
 20
0.0
 30
0.0
  9
$PLIMCHECK
 70
     0
  9
$PEXTMIN
 10
-144.1413879394531
 20
-67.9833984375
 30
0.0
  9
$PEXTMAX
 10
277.8586120605469
 20
231.0166015625
 30
0.0
  9
$PLIMMIN
 10
-144.1413879394531
 20
-67.9833984375
  9
$PLIMMAX
 10
277.8586120605469
 20
231.0166015625
  9
$UNITMODE
 70
     0
  9
$VISRETAIN
 70
     1
  9
$PLINEGEN
 70
     0
  9
$PSLTSCALE
 70
     1
  9
$TREEDEPTH
 70
  3020
  9
$CMLSTYLE
  2
Standard
  9
$CMLJUST
 70
     0
  9
$CMLSCALE
 40
1.0
  9
$PROXYGRAPHICS
 70
     1
  9
$MEASUREMENT
 70
     0
  9
$CELWEIGHT
370
    -1
  9
$ENDCAPS
280
     0
  9
$JOINSTYLE
280
     0
  9
$LWDISPLAY
290
     0
  9
$INSUNITS
 70
     0
  9
$HYPERLINKBASE
  1

  9
$STYLESHEET
  1

  9
$XEDIT
290
     1
  9
$CEPSNTYPE
380
     0
  9
$PSTYLEMODE
290
     1
  9
$FINGERPRINTGUID
  2
{CAE6499F-CB28-4C99-910A-303047F3FB48}
  9
$VERSIONGUID
  2
{03A5A67B-AEE1-4035-8D55-0FE04F4ABCC5}
  9
$EXTNAMES
290
     1
  9
$PSVPSCALE
 40
0.0
  9
$OLESTARTUP
290
     0
  9
$SORTENTS
280
   127
  9
$INDEXCTL
280
     0
  9
$HIDETEXT
280
     0
  9
$XCLIPFRAME
290
     0
  9
$HALOGAP
280
     0
  9
$OBSCOLOR
 70
   257
  9
$OBSLTYPE
280
     0
  9
$INTERSECTIONDISPLAY
280
     0
  9
$INTERSECTIONCOLOR
 70
   257
  9
$DIMASSOC
280
     1
  9
$PROJECTNAME
  1

  0
ENDSEC
  0
SECTION
  2
CLASSES
  0
CLASS
  1
ACDBDICTIONARYWDFLT
  2
AcDbDictionaryWithDefault
  3
ObjectDBX Classes
 90
        0
 91
        1
280
     0
281
     0
  0
CLASS
  1
TABLESTYLE
  2
AcDbTableStyle
  3
ObjectDBX Classes
 90
     2047
 91
        1
280
     0
281
     0
  0
CLASS
  1
SORTENTSTABLE
  2
AcDbSortentsTable
  3
ObjectDBX Classes
 90
        0
 91
        1
280
     0
281
     0
  0
CLASS
  1
DICTIONARYVAR
  2
AcDbDictionaryVar
  3
ObjectDBX Classes
 90
        0
 91
        1
280
     0
281
     0
  0
ENDSEC
  0
SECTION
  2
TABLES
  0
TABLE
  2
VPORT
  5
8
330
0
100
AcDbSymbolTable
 70
     2
  0
VPORT
  5
1662
330
8
100
AcDbSymbolTableRecord
100
AcDbViewportTableRecord
  2
*Active
 70
     0
 10
0.0
 20
0.0
 11
1.0
 21
1.0
 12
7770.26211326947
 22
-5066.638249355964
 13
0.0
 23
0.0
 14
1.0
 24
1.0
 15
0.0
 25
0.0
 16
0.0
 26
0.0
 36
1.0
 17
0.0
 27
0.0
 37
0.0
 40
10750.59884638353
 41
2.240490797546012
 42
50.0
 43
0.0
 44
0.0
 50
0.0
 51
0.0
 71
     0
 72
   100
 73
     1
 74
     1
 75
     0
 76
     0
 77
     0
 78
     0
281
     0
 65
     1
110
0.0
120
0.0
130
0.0
111
1.0
121
0.0
131
0.0
112
0.0
122
1.0
132
0.0
 79
     0
146
0.0
  0
ENDTAB
  0
TABLE
  2
LTYPE
  5
5
330
0
100
AcDbSymbolTable
 70
     3
  0
LTYPE
  5
13
330
5
100
AcDbSymbolTableRecord
100
AcDbLinetypeTableRecord
  2
ByBlock
 70
     0
  3

 72
    65
 73
     0
 40
0.0
  0
LTYPE
  5
14
330
5
100
AcDbSymbolTableRecord
100
AcDbLinetypeTableRecord
  2
ByLayer
 70
     0
  3

 72
    65
 73
     0
 40
0.0
  0
LTYPE
  5
15
330
5
100
AcDbSymbolTableRecord
100
AcDbLinetypeTableRecord
  2
CONTINUOUS
 70
     0
  3
Solid line
 72
    65
 73
     0
 40
0.0
  0
LTYPE
  5
37
330
5
100
AcDbSymbolTableRecord
100
AcDbLinetypeTableRecord
  2
CENTER
 70
     0
  3
Center ____ _ ____ _ ____ _ ____ _ ____ _ ____
 72
    65
 73
     4
 40
12.0
 49
7.5
 74
     0
 49
-1.5
 74
     0
 49
1.5
 74
     0
 49
-1.5
 74
     0
  0
LTYPE
  5
E7E
330
5
100
AcDbSymbolTableRecord
100
AcDbLinetypeTableRecord
  2
DASHED
 70
     0
  3
Dashed __ __ __ __ __ __ __ __ __ __ __ __ __ _
 72
    65
 73
     2
 40
4.5
 49
3.0
 74
     0
 49
-1.5
 74
     0
  0
ENDTAB
  0
TABLE
  2
LAYER
  5
2
102
{ACAD_XDICTIONARY
360
534
102
}
330
0
100
AcDbSymbolTable
 70
     5
  0
LAYER
  5
10
330
2
100
AcDbSymbolTableRecord
100
AcDbLayerTableRecord
  2
0
 70
     0
 62
     7
  6
CONTINUOUS
370
    -3
390
F
  0
LAYER
  5
4D
330
2
100
AcDbSymbolTableRecord
100
AcDbLayerTableRecord
  2
2
 70
     0
 62
     7
  6
CONTINUOUS
370
    -3
390
F
  0
LAYER
  5
4E
330
2
100
AcDbSymbolTableRecord
100
AcDbLayerTableRecord
  2
DEFPOINTS
 70
     0
 62
     7
  6
CONTINUOUS
290
     0
370
    -3
390
F
  0
LAYER
  5
532
330
2
100
AcDbSymbolTableRecord
100
AcDbLayerTableRecord
  2
寸法線
 70
     0
 62
     8
  6
CONTINUOUS
370
    -3
390
F
1001
AcAecLayerStandard
1000

1000

  0
LAYER
  5
E7F
330
2
100
AcDbSymbolTableRecord
100
AcDbLayerTableRecord
  2
3
 70
     0
 62
     7
  6
CONTINUOUS
370
    -3
390
F
  0
ENDTAB
  0
TABLE
  2
STYLE
  5
3
330
0
100
AcDbSymbolTable
 70
     1
  0
STYLE
  5
11
330
3
100
AcDbSymbolTableRecord
100
AcDbTextStyleTableRecord
  2
STANDARD
 70
     0
 40
0.0
 41
1.0
 50
0.0
 71
     0
 42
105.0
  3
txt.shx
  4
extfont.shx
  0
ENDTAB
  0
TABLE
  2
VIEW
  5
6
330
0
100
AcDbSymbolTable
 70
     0
  0
ENDTAB
  0
TABLE
  2
UCS
  5
7
330
0
100
AcDbSymbolTable
 70
     0
  0
ENDTAB
  0
TABLE
  2
APPID
  5
9
330
0
100
AcDbSymbolTable
 70
     4
  0
APPID
  5
12
330
9
100
AcDbSymbolTableRecord
100
AcDbRegAppTableRecord
  2
ACAD
 70
     0
  0
APPID
  5
29D
330
9
100
AcDbSymbolTableRecord
100
AcDbRegAppTableRecord
  2
ACAD_DSTYLE_DIMTEXT_FILL
 70
     0
  0
APPID
  5
360
330
9
100
AcDbSymbolTableRecord
100
AcDbRegAppTableRecord
  2
ACAD_PSEXT
 70
     0
  0
APPID
  5
533
330
9
100
AcDbSymbolTableRecord
100
AcDbRegAppTableRecord
  2
AcAecLayerStandard
 70
     0
  0
ENDTAB
  0
TABLE
  2
DIMSTYLE
  5
A
330
0
100
AcDbSymbolTable
 70
     3
100
AcDbDimStyleTable
 71
     1
340
346
  0
DIMSTYLE
105
346
102
{ACAD_REACTORS
330
539
330
58A
330
5D7
330
5E4
330
E0B
330
F3A
330
F39
330
F38
330
F11
330
F10
330
1243
330
15D4
102
}
330
A
100
AcDbSymbolTableRecord
100
AcDbDimStyleTableRecord
  2
1-35
 70
     0
 40
35.0
 41
3.0
 42
2.0
 44
3.0
 73
     0
 74
     0
 77
     1
 78
     8
 79
     2
140
3.0
145
1.0
147
1.700000047683715
172
     1
271
     1
272
     1
340
11
341
D07
342
D07
  0
DIMSTYLE
105
650
330
A
100
AcDbSymbolTableRecord
100
AcDbDimStyleTableRecord
  2
Standard
 70
     0
340
11
  0
DIMSTYLE
105
1330
102
{ACAD_REACTORS
330
15CE
330
15CF
330
15D0
330
15D1
330
15D2
102
}
330
A
100
AcDbSymbolTableRecord
100
AcDbDimStyleTableRecord
  2
1-30
 70
     0
 40
30.0
 41
3.0
 42
2.0
 44
3.0
 73
     0
 74
     0
 77
     1
 78
     8
 79
     2
140
3.0
145
1.0
147
1.700000047683715
172
     1
271
     1
272
     1
340
11
  0
ENDTAB
  0
TABLE
  2
BLOCK_RECORD
  5
1
330
0
100
AcDbSymbolTable
 70
    40
  0
BLOCK_RECORD
  5
22
102
{ACAD_XDICTIONARY
360
525
102
}
330
1
100
AcDbSymbolTableRecord
100
AcDbBlockTableRecord
  2
*Model_Space
340
25
  0
BLOCK_RECORD
  5
1E
330
1
100
AcDbSymbolTableRecord
100
AcDbBlockTableRecord
  2
*Paper_Space
340
21
  0
BLOCK_RECORD
  5
53A
330
1
100
AcDbSymbolTableRecord
100
AcDbBlockTableRecord
  2
*D0
340
0
  0
BLOCK_RECORD
  5
58B
330
1
100
AcDbSymbolTableRecord
100
AcDbBlockTableRecord
  2
*D4
340
0
  0
BLOCK_RECORD
  5
5D8
330
1
100
AcDbSymbolTableRecord
100
AcDbBlockTableRecord
  2
*D5
340
0
  0
BLOCK_RECORD
  5
5E5
330
1
100
AcDbSymbolTableRecord
100
AcDbBlockTableRecord
  2
*D6
340
0
  0
BLOCK_RECORD
  5
D07
330
1
100
AcDbSymbolTableRecord
100
AcDbBlockTableRecord
  2
_Open30
340
0
102
{BLKREFS
331
DD5
331
DD6
331
DDE
331
DDF
331
DE9
331
DEA
331
DF2
331
DF3
331
E2C
331
E2D
331
11B2
331
11B3
331
11BB
331
11BC
331
11C5
331
11C6
331
11D0
331
11D1
331
11D9
331
11DA
331
11E4
331
11E5
331
11EF
331
11F0
331
11FA
331
11FB
331
120C
331
120D
331
125C
331
125D
331
1329
331
132A
331
1403
331
1404
331
157B
331
157C
331
1656
331
1657
102
}
  0
BLOCK_RECORD
  5
E0C
330
1
100
AcDbSymbolTableRecord
100
AcDbBlockTableRecord
  2
*D9
340
0
  0
BLOCK_RECORD
  5
F47
330
1
100
AcDbSymbolTableRecord
100
AcDbBlockTableRecord
  2
*D10
340
0
  0
BLOCK_RECORD
  5
F53
330
1
100
AcDbSymbolTableRecord
100
AcDbBlockTableRecord
  2
*D11
340
0
  0
BLOCK_RECORD
  5
F5F
330
1
100
AcDbSymbolTableRecord
100
AcDbBlockTableRecord
  2
*D12
340
0
  0
BLOCK_RECORD
  5
F6B
330
1
100
AcDbSymbolTableRecord
100
AcDbBlockTableRecord
  2
*D13
340
0
  0
BLOCK_RECORD
  5
F79
330
1
100
AcDbSymbolTableRecord
100
AcDbBlockTableRecord
  2
*D14
340
0
  0
BLOCK_RECORD
  5
1244
330
1
100
AcDbSymbolTableRecord
100
AcDbBlockTableRecord
  2
*D15
340
0
  0
BLOCK_RECORD
  5
15D6
330
1
100
AcDbSymbolTableRecord
100
AcDbBlockTableRecord
  2
*D34
340
0
  0
BLOCK_RECORD
  5
15E4
330
1
100
AcDbSymbolTableRecord
100
AcDbBlockTableRecord
  2
*D35
340
0
  0
BLOCK_RECORD
  5
15F0
330
1
100
AcDbSymbolTableRecord
100
AcDbBlockTableRecord
  2
*D36
340
0
  0
BLOCK_RECORD
  5
15FC
330
1
100
AcDbSymbolTableRecord
100
AcDbBlockTableRecord
  2
*D37
340
0
  0
BLOCK_RECORD
  5
1608
330
1
100
AcDbSymbolTableRecord
100
AcDbBlockTableRecord
  2
*D38
340
0
  0
BLOCK_RECORD
  5
1614
330
1
100
AcDbSymbolTableRecord
100
AcDbBlockTableRecord
  2
*D39
340
0
  0
ENDTAB
  0
ENDSEC
  0
SECTION
  2
BLOCKS
  0
BLOCK
  5
23
330
22
100
AcDbEntity
  8
0
100
AcDbBlockBegin
  2
*Model_Space
 70
     0
 10
0.0
 20
0.0
 30
0.0
  3
*Model_Space
  1

  0
ENDBLK
  5
24
330
22
100
AcDbEntity
  8
0
100
AcDbBlockEnd
  0
BLOCK
  5
1F
330
1E
100
AcDbEntity
 67
     1
  8
0
100
AcDbBlockBegin
  2
*Paper_Space
 70
     0
 10
0.0
 20
0.0
 30
0.0
  3
*Paper_Space
  1

  0
ENDBLK
  5
20
330
1E
100
AcDbEntity
 67
     1
  8
0
100
AcDbBlockEnd
  0
BLOCK
  5
544
330
53A
100
AcDbEntity
  8
0
 48
35.0
100
AcDbBlockBegin
  2
*D0
 70
     1
 10
0.0
 20
0.0
 30
0.0
  3
*D0
  1

  0
LINE
  5
DEF
330
53A
100
AcDbEntity
  8
寸法線
 62
     0
 48
35.0
370
    -2
100
AcDbLine
 10
3343.964769000406
 20
-8212.430741947304
 30
0.0
 11
2853.226644406721
 21
-8212.430741947304
 31
0.0
  0
LINE
  5
DF0
330
53A
100
AcDbEntity
  8
寸法線
 62
     0
 48
35.0
370
    -2
100
AcDbLine
 10
3343.964769000406
 20
-4512.430659245858
 30
0.0
 11
2853.226644406722
 21
-4512.430659245858
 31
0.0
  0
LINE
  5
DF1
330
53A
100
AcDbEntity
  8
寸法線
 62
     0
 48
35.0
370
    -2
100
AcDbLine
 10
2958.226644406721
 20
-8107.430741947306
 30
0.0
 11
2958.226644406721
 21
-4617.430659245857
 31
0.0
  0
INSERT
  5
DF2
330
53A
100
AcDbEntity
  8
寸法線
 62
     0
 48
35.0
370
    -2
100
AcDbBlockReference
  2
_Open30
 10
2958.226644406721
 20
-8212.430741947304
 30
0.0
 41
105.0
 42
105.0
 43
105.0
 50
270.0
  0
INSERT
  5
DF3
330
53A
100
AcDbEntity
  8
寸法線
 62
     0
 48
35.0
370
    -2
100
AcDbBlockReference
  2
_Open30
 10
2958.226644406721
 20
-4512.430659245858
 30
0.0
 41
105.0
 42
105.0
 43
105.0
 50
90.0
  0
MTEXT
  5
DF4
330
53A
100
AcDbEntity
  8
寸法線
 62
     0
 48
35.0
100
AcDbMText
 10
2846.226642737792
 20
-6362.43070059658
 30
0.0
 40
105.0
 41
0.0
 71
     5
 72
     1
  1
\A1;3700
 11
0.0000000000000001
 21
1.0
 31
0.0
 73
     1
 44
1.0
  0
POINT
  5
DF5
330
53A
100
AcDbEntity
  8
DEFPOINTS
 62
     0
 48
35.0
100
AcDbPoint
 10
3413.964769000406
 20
-8212.430741947304
 30
0.0
  0
POINT
  5
DF6
330
53A
100
AcDbEntity
  8
DEFPOINTS
 62
     0
 48
35.0
100
AcDbPoint
 10
3413.964769000406
 20
-4512.430659245858
 30
0.0
  0
POINT
  5
DF7
330
53A
100
AcDbEntity
  8
DEFPOINTS
 62
     0
 48
35.0
100
AcDbPoint
 10
2958.226644406721
 20
-4512.430659245858
 30
0.0
  0
ENDBLK
  5
545
330
53A
100
AcDbEntity
  8
0
 48
35.0
100
AcDbBlockEnd
  0
BLOCK
  5
595
330
58B
100
AcDbEntity
  8
0
 48
35.0
100
AcDbBlockBegin
  2
*D4
 70
     1
 10
0.0
 20
0.0
 30
0.0
  3
*D4
  1

  0
LINE
  5
1209
330
58B
100
AcDbEntity
  8
寸法線
 62
     0
 48
35.0
370
    -2
100
AcDbLine
 10
3388.964769000406
 20
-8257.430741947304
 30
0.0
 11
3388.964769000406
 21
-9035.674125459609
 31
0.0
  0
LINE
  5
120A
330
58B
100
AcDbEntity
  8
寸法線
 62
     0
 48
35.0
370
    -2
100
AcDbLine
 10
6118.964753726715
 20
-8257.430741947304
 30
0.0
 11
6118.964753726715
 21
-9035.674125459609
 31
0.0
  0
LINE
  5
120B
330
58B
100
AcDbEntity
  8
寸法線
 62
     0
 48
35.0
370
    -2
100
AcDbLine
 10
3493.964769000406
 20
-8930.674125459608
 30
0.0
 11
6013.964753726716
 21
-8930.674125459608
 31
0.0
  0
INSERT
  5
120C
330
58B
100
AcDbEntity
  8
寸法線
 62
     0
 48
35.0
370
    -2
100
AcDbBlockReference
  2
_Open30
 10
3388.964769000406
 20
-8930.674125459608
 30
0.0
 41
105.0
 42
105.0
 43
105.0
 50
180.0
  0
INSERT
  5
120D
330
58B
100
AcDbEntity
  8
寸法線
 62
     0
 48
35.0
370
    -2
100
AcDbBlockReference
  2
_Open30
 10
6118.964753726715
 20
-8930.674125459608
 30
0.0
 41
105.0
 42
105.0
 43
105.0
  0
MTEXT
  5
120E
330
58B
100
AcDbEntity
  8
寸法線
 62
     0
 48
35.0
100
AcDbMText
 10
4753.964761363561
 20
-8818.674123790678
 30
0.0
 40
105.0
 41
0.0
 71
     5
 72
     1
  1
\A1;O.Dφ2730
 73
     1
 44
1.0
  0
POINT
  5
120F
330
58B
100
AcDbEntity
  8
DEFPOINTS
 62
     0
 48
35.0
100
AcDbPoint
 10
3388.964769000406
 20
-8187.430741947306
 30
0.0
  0
POINT
  5
1210
330
58B
100
AcDbEntity
  8
DEFPOINTS
 62
     0
 48
35.0
100
AcDbPoint
 10
6118.964753726715
 20
-8187.430741947306
 30
0.0
  0
POINT
  5
1211
330
58B
100
AcDbEntity
  8
DEFPOINTS
 62
     0
 48
35.0
100
AcDbPoint
 10
6118.964753726715
 20
-8930.674125459608
 30
0.0
  0
ENDBLK
  5
596
330
58B
100
AcDbEntity
  8
0
 48
35.0
100
AcDbBlockEnd
  0
BLOCK
  5
5E2
330
5D8
100
AcDbEntity
  8
0
 48
35.0
100
AcDbBlockBegin
  2
*D5
 70
     1
 10
0.0
 20
0.0
 30
0.0
  3
*D5
  1

  0
LINE
  5
11AF
330
5D8
100
AcDbEntity
  8
寸法線
 62
     0
 48
35.0
370
    -2
100
AcDbLine
 10
11412.69616578203
 20
-1342.880976040241
 30
0.0
 11
11412.69616578203
 21
-1036.907225227411
 31
0.0
  0
LINE
  5
11B0
330
5D8
100
AcDbEntity
  8
寸法線
 62
     0
 48
35.0
370
    -2
100
AcDbLine
 10
11812.694899808
 20
-1342.880976040241
 30
0.0
 11
11812.694899808
 21
-1036.907225227411
 31
0.0
  0
LINE
  5
11B1
330
5D8
100
AcDbEntity
  8
寸法線
 62
     0
 48
35.0
370
    -2
100
AcDbLine
 10
11517.69616578203
 20
-1141.907225227411
 30
0.0
 11
11707.694899808
 21
-1141.907225227411
 31
0.0
  0
INSERT
  5
11B2
330
5D8
100
AcDbEntity
  8
寸法線
 62
     0
 48
35.0
370
    -2
100
AcDbBlockReference
  2
_Open30
 10
11412.69616578203
 20
-1141.907225227411
 30
0.0
 41
105.0
 42
105.0
 43
105.0
 50
180.0
  0
INSERT
  5
11B3
330
5D8
100
AcDbEntity
  8
寸法線
 62
     0
 48
35.0
370
    -2
100
AcDbBlockReference
  2
_Open30
 10
11812.694899808
 20
-1141.907225227411
 30
0.0
 41
105.0
 42
105.0
 43
105.0
  0
MTEXT
  5
11B4
330
5D8
100
AcDbEntity
  8
寸法線
 62
     0
 48
35.0
100
AcDbMText
 10
11612.69553279502
 20
-1029.907223558481
 30
0.0
 40
105.0
 41
0.0
 71
     5
 72
     1
  1
\A1;400
 73
     1
 44
1.0
  0
POINT
  5
11B5
330
5D8
100
AcDbEntity
  8
DEFPOINTS
 62
     0
 48
35.0
100
AcDbPoint
 10
11412.69616578203
 20
-1412.880976040241
 30
0.0
  0
POINT
  5
11B6
330
5D8
100
AcDbEntity
  8
DEFPOINTS
 62
     0
 48
35.0
100
AcDbPoint
 10
11812.694899808
 20
-1412.880976040241
 30
0.0
  0
POINT
  5
11B7
330
5D8
100
AcDbEntity
  8
DEFPOINTS
 62
     0
 48
35.0
100
AcDbPoint
 10
11812.694899808
 20
-1141.907225227411
 30
0.0
  0
ENDBLK
  5
5E3
330
5D8
100
AcDbEntity
  8
0
 48
35.0
100
AcDbBlockEnd
  0
BLOCK
  5
5EF
330
5E5
100
AcDbEntity
  8
0
 48
35.0
100
AcDbBlockBegin
  2
*D6
 70
     1
 10
0.0
 20
0.0
 30
0.0
  3
*D6
  1

  0
LINE
  5
11B8
330
5E5
100
AcDbEntity
  8
寸法線
 62
     0
 48
35.0
370
    -2
100
AcDbLine
 10
11402.69629667305
 20
-1314.070015349431
 30
0.0
 11
11402.69629667305
 21
-779.1968763748791
 31
0.0
  0
LINE
  5
11B9
330
5E5
100
AcDbEntity
  8
寸法線
 62
     0
 48
35.0
370
    -2
100
AcDbLine
 10
11822.72554775545
 20
-1314.070015349431
 30
0.0
 11
11822.72554775545
 21
-779.1968763748791
 31
0.0
  0
LINE
  5
11BA
330
5E5
100
AcDbEntity
  8
寸法線
 62
     0
 48
35.0
370
    -2
100
AcDbLine
 10
11507.69629667305
 20
-884.1968763748791
 30
0.0
 11
11717.72554775545
 21
-884.1968763748791
 31
0.0
  0
INSERT
  5
11BB
330
5E5
100
AcDbEntity
  8
寸法線
 62
     0
 48
35.0
370
    -2
100
AcDbBlockReference
  2
_Open30
 10
11402.69629667305
 20
-884.1968763748791
 30
0.0
 41
105.0
 42
105.0
 43
105.0
 50
180.0
  0
INSERT
  5
11BC
330
5E5
100
AcDbEntity
  8
寸法線
 62
     0
 48
35.0
370
    -2
100
AcDbBlockReference
  2
_Open30
 10
11822.72554775545
 20
-884.1968763748791
 30
0.0
 41
105.0
 42
105.0
 43
105.0
  0
MTEXT
  5
11BD
330
5E5
100
AcDbEntity
  8
寸法線
 62
     0
 48
35.0
100
AcDbMText
 10
11612.71092221425
 20
-772.1968747059491
 30
0.0
 40
105.0
 41
0.0
 71
     5
 72
     1
  1
\A1;420
 73
     1
 44
1.0
  0
POINT
  5
11BE
330
5E5
100
AcDbEntity
  8
DEFPOINTS
 62
     0
 48
35.0
100
AcDbPoint
 10
11402.69629667305
 20
-1384.070015349431
 30
0.0
  0
POINT
  5
11BF
330
5E5
100
AcDbEntity
  8
DEFPOINTS
 62
     0
 48
35.0
100
AcDbPoint
 10
11822.72554775545
 20
-1384.070015349431
 30
0.0
  0
POINT
  5
11C0
330
5E5
100
AcDbEntity
  8
DEFPOINTS
 62
     0
 48
35.0
100
AcDbPoint
 10
11822.72554775545
 20
-884.1968763748791
 30
0.0
  0
ENDBLK
  5
5F0
330
5E5
100
AcDbEntity
  8
0
 48
35.0
100
AcDbBlockEnd
  0
BLOCK
  5
D0B
330
D07
100
AcDbEntity
  8
0
 48
35.0
100
AcDbBlockBegin
  2
_Open30
 70
     0
 10
0.0
 20
0.0
 30
0.0
  3
_Open30
  1

  0
LINE
  5
D08
330
D07
100
AcDbEntity
  8
0
  6
ByBlock
 62
     0
370
    -2
100
AcDbLine
 10
-1.0
 20
0.26794919
 30
0.0
 11
0.0
 21
0.0
 31
0.0
  0
LINE
  5
D09
330
D07
100
AcDbEntity
  8
0
  6
ByBlock
 62
     0
370
    -2
100
AcDbLine
 10
0.0
 20
0.0
 30
0.0
 11
-1.0
 21
-0.26794919
 31
0.0
  0
LINE
  5
D0A
330
D07
100
AcDbEntity
  8
0
  6
ByBlock
 62
     0
370
    -2
100
AcDbLine
 10
0.0
 20
0.0
 30
0.0
 11
-1.0
 21
0.0
 31
0.0
  0
ENDBLK
  5
D0C
330
D07
100
AcDbEntity
  8
0
 48
35.0
100
AcDbBlockEnd
  0
BLOCK
  5
E15
330
E0C
100
AcDbEntity
  8
0
 48
35.0
100
AcDbBlockBegin
  2
*D9
 70
     1
 10
0.0
 20
0.0
 30
0.0
  3
*D9
  1

  0
LINE
  5
11C1
330
E0C
100
AcDbEntity
  8
寸法線
 62
     0
 48
35.0
370
    -2
100
AcDbLine
 10
13329.7155862186
 20
-1249.161591369063
 30
0.0
 11
11881.30793669158
 21
-2500.710509945108
 31
0.0
  0
LINE
  5
11C2
330
E0C
100
AcDbEntity
  8
寸法線
 62
     0
 48
35.0
370
    -2
100
AcDbLine
 10
11344.08312889845
 20
-2964.918999485512
 30
0.0
 11
11264.63439096836
 21
-3033.569549674966
 31
0.0
  0
MTEXT
  5
11C3
330
E0C
100
AcDbEntity
  8
寸法線
 62
     0
 48
35.0
100
AcDbMText
 10
12999.60407768856
 20
-1386.386383017896
 30
0.0
 40
105.0
 41
0.0
 71
     5
 72
     1
  1
\A1;I.D\U+2205500
 11
0.756654646953303
 21
0.6538147637090895
 31
0.0
 73
     1
 44
1.0
  0
LINE
  5
11C4
330
E0C
100
AcDbEntity
  8
寸法線
 62
     0
 48
35.0
370
    -2
100
AcDbLine
 10
11423.53186682855
 20
-2896.268449296057
 30
0.0
 11
11801.85919876148
 21
-2569.361060134562
 31
0.0
  0
INSERT
  5
11C5
330
E0C
100
AcDbEntity
  8
寸法線
 62
     0
 48
35.0
370
    -2
100
AcDbBlockReference
  2
_Open30
 10
11423.53186682855
 20
-2896.268449296057
 30
0.0
 41
105.0
 42
105.0
 43
105.0
 50
40.82984004529254
  0
INSERT
  5
11C6
330
E0C
100
AcDbEntity
  8
寸法線
 62
     0
 48
35.0
370
    -2
100
AcDbBlockReference
  2
_Open30
 10
11801.85919876148
 20
-2569.361060134562
 30
0.0
 41
105.0
 42
105.0
 43
105.0
 50
220.8298400452926
  0
POINT
  5
11C7
330
E0C
100
AcDbEntity
  8
DEFPOINTS
 62
     0
 48
35.0
100
AcDbPoint
 10
11801.85919876148
 20
-2569.361060134562
 30
0.0
  0
POINT
  5
11C8
330
E0C
100
AcDbEntity
  8
DEFPOINTS
 62
     0
 48
35.0
100
AcDbPoint
 10
11423.53186682855
 20
-2896.268449296057
 30
0.0
  0
ENDBLK
  5
E16
330
E0C
100
AcDbEntity
  8
0
 48
35.0
100
AcDbBlockEnd
  0
BLOCK
  5
F51
330
F47
100
AcDbEntity
  8
0
 48
35.0
100
AcDbBlockBegin
  2
*D10
 70
     1
 10
0.0
 20
0.0
 30
0.0
  3
*D10
  1

  0
LINE
  5
11CD
330
F47
100
AcDbEntity
  8
寸法線
 62
     0
 48
35.0
370
    -2
100
AcDbLine
 10
13264.12610857068
 20
-4600.317262476312
 30
0.0
 11
13625.23253553596
 21
-4600.317262476312
 31
0.0
  0
LINE
  5
11CE
330
F47
100
AcDbEntity
  8
寸法線
 62
     0
 48
35.0
370
    -2
100
AcDbLine
 10
13264.12610857067
 20
-4930.317264935004
 30
0.0
 11
13625.23253553596
 21
-4930.317264935004
 31
0.0
  0
LINE
  5
11CF
330
F47
100
AcDbEntity
  8
寸法線
 62
     0
 48
35.0
370
    -2
100
AcDbLine
 10
13520.23253553596
 20
-4705.317262476312
 30
0.0
 11
13520.23253553596
 21
-4825.317264935003
 31
0.0
  0
INSERT
  5
11D0
330
F47
100
AcDbEntity
  8
寸法線
 62
     0
 48
35.0
370
    -2
100
AcDbBlockReference
  2
_Open30
 10
13520.23253553596
 20
-4600.317262476312
 30
0.0
 41
105.0
 42
105.0
 43
105.0
 50
90.0
  0
INSERT
  5
11D1
330
F47
100
AcDbEntity
  8
寸法線
 62
     0
 48
35.0
370
    -2
100
AcDbBlockReference
  2
_Open30
 10
13520.23253553596
 20
-4930.317264935004
 30
0.0
 41
105.0
 42
105.0
 43
105.0
 50
270.0
  0
MTEXT
  5
11D2
330
F47
100
AcDbEntity
  8
寸法線
 62
     0
 48
35.0
100
AcDbMText
 10
13408.23253386703
 20
-4765.317263705656
 30
0.0
 40
105.0
 41
0.0
 71
     5
 72
     1
  1
\A1;110
 11
0.0000000000000001
 21
1.0
 31
0.0
 73
     1
 44
1.0
  0
POINT
  5
11D3
330
F47
100
AcDbEntity
  8
DEFPOINTS
 62
     0
 48
35.0
100
AcDbPoint
 10
13194.12610857068
 20
-4600.317262476312
 30
0.0
  0
POINT
  5
11D4
330
F47
100
AcDbEntity
  8
DEFPOINTS
 62
     0
 48
35.0
100
AcDbPoint
 10
13194.12610857067
 20
-4930.317264935004
 30
0.0
  0
POINT
  5
11D5
330
F47
100
AcDbEntity
  8
DEFPOINTS
 62
     0
 48
35.0
100
AcDbPoint
 10
13520.23253553596
 20
-4930.317264935004
 30
0.0
  0
ENDBLK
  5
F52
330
F47
100
AcDbEntity
  8
0
 48
35.0
100
AcDbBlockEnd
  0
BLOCK
  5
F5D
330
F53
100
AcDbEntity
  8
0
 48
35.0
100
AcDbBlockBegin
  2
*D11
 70
     1
 10
0.0
 20
0.0
 30
0.0
  3
*D11
  1

  0
LINE
  5
11D6
330
F53
100
AcDbEntity
  8
寸法線
 62
     0
 48
35.0
370
    -2
100
AcDbLine
 10
13207.1261077213
 20
-4990.317265829062
 30
0.0
 11
13886.37349558285
 21
-4990.317265829062
 31
0.0
  0
LINE
  5
11D7
330
F53
100
AcDbEntity
  8
寸法線
 62
     0
 48
35.0
370
    -2
100
AcDbLine
 10
13207.1261077213
 20
-4540.317259123545
 30
0.0
 11
13886.37349558285
 21
-4540.317259123545
 31
0.0
  0
LINE
  5
11D8
330
F53
100
AcDbEntity
  8
寸法線
 62
     0
 48
35.0
370
    -2
100
AcDbLine
 10
13781.37349558285
 20
-4885.317265829062
 30
0.0
 11
13781.37349558285
 21
-4645.317259123545
 31
0.0
  0
INSERT
  5
11D9
330
F53
100
AcDbEntity
  8
寸法線
 62
     0
 48
35.0
370
    -2
100
AcDbBlockReference
  2
_Open30
 10
13781.37349558285
 20
-4990.317265829062
 30
0.0
 41
105.0
 42
105.0
 43
105.0
 50
270.0
  0
INSERT
  5
11DA
330
F53
100
AcDbEntity
  8
寸法線
 62
     0
 48
35.0
370
    -2
100
AcDbBlockReference
  2
_Open30
 10
13781.37349558285
 20
-4540.317259123545
 30
0.0
 41
105.0
 42
105.0
 43
105.0
 50
90.0
  0
MTEXT
  5
11DB
330
F53
100
AcDbEntity
  8
寸法線
 62
     0
 48
35.0
100
AcDbMText
 10
13669.37349391392
 20
-4765.317262476302
 30
0.0
 40
105.0
 41
0.0
 71
     5
 72
     1
  1
\A1;150
 11
0.0000000000000001
 21
1.0
 31
0.0
 73
     1
 44
1.0
  0
POINT
  5
11DC
330
F53
100
AcDbEntity
  8
DEFPOINTS
 62
     0
 48
35.0
100
AcDbPoint
 10
13137.1261077213
 20
-4990.317265829062
 30
0.0
  0
POINT
  5
11DD
330
F53
100
AcDbEntity
  8
DEFPOINTS
 62
     0
 48
35.0
100
AcDbPoint
 10
13137.1261077213
 20
-4540.317259123545
 30
0.0
  0
POINT
  5
11DE
330
F53
100
AcDbEntity
  8
DEFPOINTS
 62
     0
 48
35.0
100
AcDbPoint
 10
13781.37349558285
 20
-4540.317259123545
 30
0.0
  0
ENDBLK
  5
F5E
330
F53
100
AcDbEntity
  8
0
 48
35.0
100
AcDbBlockEnd
  0
BLOCK
  5
F69
330
F5F
100
AcDbEntity
  8
0
 48
35.0
100
AcDbBlockBegin
  2
*D12
 70
     1
 10
0.0
 20
0.0
 30
0.0
  3
*D12
  1

  0
LINE
  5
11DF
330
F5F
100
AcDbEntity
  8
寸法線
 62
     0
 48
35.0
370
    -2
100
AcDbLine
 10
12967.07743961846
 20
-5764.76411659229
 30
0.0
 11
12967.07743961846
 21
-5586.24953730697
 31
0.0
  0
LINE
  5
11E0
330
F5F
100
AcDbEntity
  8
寸法線
 62
     0
 48
35.0
370
    -2
100
AcDbLine
 10
13189.07744292652
 20
-5764.76411659229
 30
0.0
 11
13189.07744292652
 21
-5586.24953730697
 31
0.0
  0
LINE
  5
11E1
330
F5F
100
AcDbEntity
  8
寸法線
 62
     0
 48
35.0
370
    -2
100
AcDbLine
 10
12862.07743961846
 20
-5691.24953730697
 30
0.0
 11
12757.07743961846
 21
-5691.24953730697
 31
0.0
  0
LINE
  5
11E2
330
F5F
100
AcDbEntity
  8
寸法線
 62
     0
 48
35.0
370
    -2
100
AcDbLine
 10
13294.07744292652
 20
-5691.24953730697
 30
0.0
 11
13399.07744292652
 21
-5691.24953730697
 31
0.0
  0
LINE
  5
11E3
330
F5F
100
AcDbEntity
  8
寸法線
 62
     0
 48
35.0
370
    -2
100
AcDbLine
 10
12967.07743961846
 20
-5691.24953730697
 30
0.0
 11
13189.07744292652
 21
-5691.24953730697
 31
0.0
  0
INSERT
  5
11E4
330
F5F
100
AcDbEntity
  8
寸法線
 62
     0
 48
35.0
370
    -2
100
AcDbBlockReference
  2
_Open30
 10
12967.07743961846
 20
-5691.24953730697
 30
0.0
 41
105.0
 42
105.0
 43
105.0
  0
INSERT
  5
11E5
330
F5F
100
AcDbEntity
  8
寸法線
 62
     0
 48
35.0
370
    -2
100
AcDbBlockReference
  2
_Open30
 10
13189.07744292652
 20
-5691.24953730697
 30
0.0
 41
105.0
 42
105.0
 43
105.0
 50
180.0
  0
MTEXT
  5
11E6
330
F5F
100
AcDbEntity
  8
寸法線
 62
     0
 48
35.0
100
AcDbMText
 10
13078.07744127249
 20
-5579.249535638041
 30
0.0
 40
105.0
 41
0.0
 71
     5
 72
     1
  1
\A1;74
 73
     1
 44
1.0
  0
POINT
  5
11E7
330
F5F
100
AcDbEntity
  8
DEFPOINTS
 62
     0
 48
35.0
100
AcDbPoint
 10
12967.07743961846
 20
-5834.764116592289
 30
0.0
  0
POINT
  5
11E8
330
F5F
100
AcDbEntity
  8
DEFPOINTS
 62
     0
 48
35.0
100
AcDbPoint
 10
13189.07744292652
 20
-5834.764116592289
 30
0.0
  0
POINT
  5
11E9
330
F5F
100
AcDbEntity
  8
DEFPOINTS
 62
     0
 48
35.0
100
AcDbPoint
 10
13189.07744292652
 20
-5691.24953730697
 30
0.0
  0
ENDBLK
  5
F6A
330
F5F
100
AcDbEntity
  8
0
 48
35.0
100
AcDbBlockEnd
  0
BLOCK
  5
F77
330
F6B
100
AcDbEntity
  8
0
 48
35.0
100
AcDbBlockBegin
  2
*D13
 70
     1
 10
0.0
 20
0.0
 30
0.0
  3
*D13
  1

  0
LINE
  5
11EA
330
F6B
100
AcDbEntity
  8
寸法線
 62
     0
 48
35.0
370
    -2
100
AcDbLine
 10
13259.07744292652
 20
-5909.764117709876
 30
0.0
 11
13851.16268369857
 21
-5909.764117709876
 31
0.0
  0
LINE
  5
11EB
330
F6B
100
AcDbEntity
  8
寸法線
 62
     0
 48
35.0
370
    -2
100
AcDbLine
 10
13259.07744292652
 20
-5822.764116413476
 30
0.0
 11
13851.16268369857
 21
-5822.764116413476
 31
0.0
  0
LINE
  5
11EC
330
F6B
100
AcDbEntity
  8
寸法線
 62
     0
 48
35.0
370
    -2
100
AcDbLine
 10
13746.16268369857
 20
-6014.764117709876
 30
0.0
 11
13746.16268369857
 21
-6119.764117709877
 31
0.0
  0
LINE
  5
11ED
330
F6B
100
AcDbEntity
  8
寸法線
 62
     0
 48
35.0
370
    -2
100
AcDbLine
 10
13746.16268369857
 20
-5717.764116413476
 30
0.0
 11
13746.16268369857
 21
-5318.764113075616
 31
0.0
  0
LINE
  5
11EE
330
F6B
100
AcDbEntity
  8
寸法線
 62
     0
 48
35.0
370
    -2
100
AcDbLine
 10
13746.16268369857
 20
-5909.764117709876
 30
0.0
 11
13746.16268369857
 21
-5822.764116413476
 31
0.0
  0
INSERT
  5
11EF
330
F6B
100
AcDbEntity
  8
寸法線
 62
     0
 48
35.0
370
    -2
100
AcDbBlockReference
  2
_Open30
 10
13746.16268369857
 20
-5909.764117709876
 30
0.0
 41
105.0
 42
105.0
 43
105.0
 50
90.0
  0
INSERT
  5
11F0
330
F6B
100
AcDbEntity
  8
寸法線
 62
     0
 48
35.0
370
    -2
100
AcDbBlockReference
  2
_Open30
 10
13746.16268369857
 20
-5822.764116413476
 30
0.0
 41
105.0
 42
105.0
 43
105.0
 50
270.0
  0
MTEXT
  5
11F1
330
F6B
100
AcDbEntity
  8
寸法線
 62
     0
 48
35.0
100
AcDbMText
 10
13634.16268202964
 20
-5465.764114744544
 30
0.0
 40
105.0
 41
0.0
 71
     5
 72
     1
  1
\A1;29
 11
0.0000000000000001
 21
1.0
 31
0.0
 73
     1
 44
1.0
  0
POINT
  5
11F2
330
F6B
100
AcDbEntity
  8
DEFPOINTS
 62
     0
 48
35.0
100
AcDbPoint
 10
13189.07744292652
 20
-5909.764117709876
 30
0.0
  0
POINT
  5
11F3
330
F6B
100
AcDbEntity
  8
DEFPOINTS
 62
     0
 48
35.0
100
AcDbPoint
 10
13189.07744292652
 20
-5822.764116413476
 30
0.0
  0
POINT
  5
11F4
330
F6B
100
AcDbEntity
  8
DEFPOINTS
 62
     0
 48
35.0
100
AcDbPoint
 10
13746.16268369857
 20
-5822.764116413476
 30
0.0
  0
ENDBLK
  5
F78
330
F6B
100
AcDbEntity
  8
0
 48
35.0
100
AcDbBlockEnd
  0
BLOCK
  5
F85
330
F79
100
AcDbEntity
  8
0
 48
35.0
100
AcDbBlockBegin
  2
*D14
 70
     1
 10
0.0
 20
0.0
 30
0.0
  3
*D14
  1

  0
LINE
  5
11F5
330
F79
100
AcDbEntity
  8
寸法線
 62
     0
 48
35.0
370
    -2
100
AcDbLine
 10
13238.07744277164
 20
-5924.764117933394
 30
0.0
 11
14071.71311679817
 21
-5924.764117933394
 31
0.0
  0
LINE
  5
11F6
330
F79
100
AcDbEntity
  8
寸法線
 62
     0
 48
35.0
370
    -2
100
AcDbLine
 10
13259.07744292652
 20
-5822.764116413476
 30
0.0
 11
14071.71311679817
 21
-5822.764116413476
 31
0.0
  0
LINE
  5
11F7
330
F79
100
AcDbEntity
  8
寸法線
 62
     0
 48
35.0
370
    -2
100
AcDbLine
 10
13966.71311679817
 20
-6029.764117933394
 30
0.0
 11
13966.71311679817
 21
-6134.764117933394
 31
0.0
  0
LINE
  5
11F8
330
F79
100
AcDbEntity
  8
寸法線
 62
     0
 48
35.0
370
    -2
100
AcDbLine
 10
13966.71311679817
 20
-5717.764116413476
 30
0.0
 11
13966.71311679817
 21
-5318.764113075616
 31
0.0
  0
LINE
  5
11F9
330
F79
100
AcDbEntity
  8
寸法線
 62
     0
 48
35.0
370
    -2
100
AcDbLine
 10
13966.71311679817
 20
-5924.764117933394
 30
0.0
 11
13966.71311679817
 21
-5822.764116413476
 31
0.0
  0
INSERT
  5
11FA
330
F79
100
AcDbEntity
  8
寸法線
 62
     0
 48
35.0
370
    -2
100
AcDbBlockReference
  2
_Open30
 10
13966.71311679817
 20
-5924.764117933394
 30
0.0
 41
105.0
 42
105.0
 43
105.0
 50
90.0
  0
INSERT
  5
11FB
330
F79
100
AcDbEntity
  8
寸法線
 62
     0
 48
35.0
370
    -2
100
AcDbBlockReference
  2
_Open30
 10
13966.71311679817
 20
-5822.764116413476
 30
0.0
 41
105.0
 42
105.0
 43
105.0
 50
270.0
  0
MTEXT
  5
11FC
330
F79
100
AcDbEntity
  8
寸法線
 62
     0
 48
35.0
100
AcDbMText
 10
13854.71311512924
 20
-5465.764114744544
 30
0.0
 40
105.0
 41
0.0
 71
     5
 72
     1
  1
\A1;34
 11
0.0000000000000001
 21
1.0
 31
0.0
 73
     1
 44
1.0
  0
POINT
  5
11FD
330
F79
100
AcDbEntity
  8
DEFPOINTS
 62
     0
 48
35.0
100
AcDbPoint
 10
13168.07744277164
 20
-5924.764117933394
 30
0.0
  0
POINT
  5
11FE
330
F79
100
AcDbEntity
  8
DEFPOINTS
 62
     0
 48
35.0
100
AcDbPoint
 10
13189.07744292652
 20
-5822.764116413476
 30
0.0
  0
POINT
  5
11FF
330
F79
100
AcDbEntity
  8
DEFPOINTS
 62
     0
 48
35.0
100
AcDbPoint
 10
13966.71311679817
 20
-5822.764116413476
 30
0.0
  0
ENDBLK
  5
F86
330
F79
100
AcDbEntity
  8
0
 48
35.0
100
AcDbBlockEnd
  0
BLOCK
  5
124E
330
1244
100
AcDbEntity
  8
0
 48
35.0
100
AcDbBlockBegin
  2
*D15
 70
     1
 10
0.0
 20
0.0
 30
0.0
  3
*D15
  1

  0
LINE
  5
1259
330
1244
100
AcDbEntity
  8
寸法線
 62
     0
 48
35.0
370
    -2
100
AcDbLine
 10
6178.964754620785
 20
-8299.745334819428
 30
0.0
 11
6178.964754620785
 21
-9282.402390159591
 31
0.0
  0
LINE
  5
125A
330
1244
100
AcDbEntity
  8
寸法線
 62
     0
 48
35.0
370
    -2
100
AcDbLine
 10
3328.964768106338
 20
-8299.745334819428
 30
0.0
 11
3328.964768106338
 21
-9282.402390159591
 31
0.0
  0
LINE
  5
125B
330
1244
100
AcDbEntity
  8
寸法線
 62
     0
 48
35.0
370
    -2
100
AcDbLine
 10
6073.964754620785
 20
-9177.40239015959
 30
0.0
 11
3433.964768106338
 21
-9177.40239015959
 31
0.0
  0
INSERT
  5
125C
330
1244
100
AcDbEntity
  8
寸法線
 62
     0
 48
35.0
370
    -2
100
AcDbBlockReference
  2
_Open30
 10
6178.964754620785
 20
-9177.40239015959
 30
0.0
 41
105.0
 42
105.0
 43
105.0
  0
INSERT
  5
125D
330
1244
100
AcDbEntity
  8
寸法線
 62
     0
 48
35.0
370
    -2
100
AcDbBlockReference
  2
_Open30
 10
3328.964768106338
 20
-9177.40239015959
 30
0.0
 41
105.0
 42
105.0
 43
105.0
 50
180.0
  0
MTEXT
  5
125E
330
1244
100
AcDbEntity
  8
寸法線
 62
     0
 48
35.0
100
AcDbMText
 10
4753.964761363561
 20
-9065.40238849066
 30
0.0
 40
105.0
 41
0.0
 71
     5
 72
     1
  1
\A1;P.C.Dφ2850
 73
     1
 44
1.0
  0
POINT
  5
125F
330
1244
100
AcDbEntity
  8
DEFPOINTS
 62
     0
 48
35.0
100
AcDbPoint
 10
6178.964754620785
 20
-8229.745334819428
 30
0.0
  0
POINT
  5
1260
330
1244
100
AcDbEntity
  8
DEFPOINTS
 62
     0
 48
35.0
100
AcDbPoint
 10
3328.964768106338
 20
-8229.745334819428
 30
0.0
  0
POINT
  5
1261
330
1244
100
AcDbEntity
  8
DEFPOINTS
 62
     0
 48
35.0
100
AcDbPoint
 10
3328.964768106338
 20
-9177.40239015959
 30
0.0
  0
ENDBLK
  5
124F
330
1244
100
AcDbEntity
  8
0
 48
35.0
100
AcDbBlockEnd
  0
BLOCK
  5
15E2
330
15D6
100
AcDbEntity
  8
0
100
AcDbBlockBegin
  2
*D34
 70
     1
 10
0.0
 20
0.0
 30
0.0
  3
*D34
  1

  0
LINE
  5
1622
330
15D6
100
AcDbEntity
  8
寸法線
 62
     0
370
    -2
100
AcDbLine
 10
3388.964769000406
 20
-4452.430659245858
 30
0.0
 11
3388.964769000406
 21
-3981.299636233018
 31
0.0
  0
LINE
  5
1623
330
15D6
100
AcDbEntity
  8
寸法線
 62
     0
370
    -2
100
AcDbLine
 10
3418.964845207127
 20
-4202.430731143962
 30
0.0
 11
3418.964845207127
 21
-3981.299636233018
 31
0.0
  0
LINE
  5
1624
330
15D6
100
AcDbEntity
  8
寸法線
 62
     0
370
    -2
100
AcDbLine
 10
3508.964845207128
 20
-4071.299636233018
 30
0.0
 11
3598.964845207127
 21
-4071.299636233018
 31
0.0
  0
LINE
  5
1625
330
15D6
100
AcDbEntity
  8
寸法線
 62
     0
370
    -2
100
AcDbLine
 10
3298.964769000406
 20
-4071.299636233018
 30
0.0
 11
2971.964766139383
 21
-4071.299636233018
 31
0.0
  0
LINE
  5
1626
330
15D6
100
AcDbEntity
  8
寸法線
 62
     0
370
    -2
100
AcDbLine
 10
3418.964845207127
 20
-4071.299636233018
 30
0.0
 11
3388.964769000406
 21
-4071.299636233018
 31
0.0
  0
SOLID
  5
1627
330
15D6
100
AcDbEntity
  8
寸法線
 62
     0
100
AcDbTrace
 10
3508.964845207128
 20
-4056.299636233017
 30
0.0
 11
3508.964845207128
 21
-4086.299636233017
 31
0.0
 12
3418.964845207127
 22
-4071.299636233018
 32
0.0
 13
3418.964845207127
 23
-4071.299636233018
 33
0.0
  0
SOLID
  5
1628
330
15D6
100
AcDbEntity
  8
寸法線
 62
     0
100
AcDbTrace
 10
3298.964769000406
 20
-4056.299636233017
 30
0.0
 11
3298.964769000406
 21
-4086.299636233017
 31
0.0
 12
3388.964769000406
 22
-4071.299636233018
 32
0.0
 13
3388.964769000406
 23
-4071.299636233018
 33
0.0
  0
MTEXT
  5
1629
330
15D6
100
AcDbEntity
  8
寸法線
 62
     0
100
AcDbMText
 10
3090.464767569895
 20
-3975.299634802507
 30
0.0
 40
90.0
 41
0.0
 71
     5
 72
     1
  1
\A1;30
 73
     1
 44
1.0
  0
POINT
  5
162A
330
15D6
100
AcDbEntity
  8
DEFPOINTS
 62
     0
100
AcDbPoint
 10
3388.964769000406
 20
-4512.430659245858
 30
0.0
  0
POINT
  5
162B
330
15D6
100
AcDbEntity
  8
DEFPOINTS
 62
     0
100
AcDbPoint
 10
3418.964845207127
 20
-4262.430731143962
 30
0.0
  0
POINT
  5
162C
330
15D6
100
AcDbEntity
  8
DEFPOINTS
 62
     0
100
AcDbPoint
 10
3418.964845207127
 20
-4071.299636233018
 30
0.0
  0
ENDBLK
  5
15E3
330
15D6
100
AcDbEntity
  8
0
100
AcDbBlockEnd
  0
BLOCK
  5
15EE
330
15E4
100
AcDbEntity
  8
0
100
AcDbBlockBegin
  2
*D35
 70
     1
 10
0.0
 20
0.0
 30
0.0
  3
*D35
  1

  0
LINE
  5
162D
330
15E4
100
AcDbEntity
  8
寸法線
 62
     0
370
    -2
100
AcDbLine
 10
3418.964845207127
 20
-4202.430731143962
 30
0.0
 11
3418.964845207127
 21
-3981.299636233018
 31
0.0
  0
LINE
  5
162E
330
15E4
100
AcDbEntity
  8
寸法線
 62
     0
370
    -2
100
AcDbLine
 10
3818.964845207127
 20
-4202.430731143962
 30
0.0
 11
3818.964845207127
 21
-3981.299636233018
 31
0.0
  0
LINE
  5
162F
330
15E4
100
AcDbEntity
  8
寸法線
 62
     0
370
    -2
100
AcDbLine
 10
3508.964845207128
 20
-4071.299636233018
 30
0.0
 11
3728.964845207127
 21
-4071.299636233018
 31
0.0
  0
SOLID
  5
1630
330
15E4
100
AcDbEntity
  8
寸法線
 62
     0
100
AcDbTrace
 10
3508.964845207128
 20
-4056.299636233017
 30
0.0
 11
3508.964845207128
 21
-4086.299636233017
 31
0.0
 12
3418.964845207127
 22
-4071.299636233018
 32
0.0
 13
3418.964845207127
 23
-4071.299636233018
 33
0.0
  0
SOLID
  5
1631
330
15E4
100
AcDbEntity
  8
寸法線
 62
     0
100
AcDbTrace
 10
3728.964845207127
 20
-4056.299636233017
 30
0.0
 11
3728.964845207127
 21
-4086.299636233017
 31
0.0
 12
3818.964845207127
 22
-4071.299636233018
 32
0.0
 13
3818.964845207127
 23
-4071.299636233018
 33
0.0
  0
MTEXT
  5
1632
330
15E4
100
AcDbEntity
  8
寸法線
 62
     0
100
AcDbMText
 10
3618.964845207127
 20
-3975.299634802507
 30
0.0
 40
90.0
 41
0.0
 71
     5
 72
     1
  1
\A1;400
 73
     1
 44
1.0
  0
POINT
  5
1633
330
15E4
100
AcDbEntity
  8
DEFPOINTS
 62
     0
100
AcDbPoint
 10
3418.964845207127
 20
-4262.430731143962
 30
0.0
  0
POINT
  5
1634
330
15E4
100
AcDbEntity
  8
DEFPOINTS
 62
     0
100
AcDbPoint
 10
3818.964845207127
 20
-4262.430731143962
 30
0.0
  0
POINT
  5
1635
330
15E4
100
AcDbEntity
  8
DEFPOINTS
 62
     0
100
AcDbPoint
 10
3818.964845207127
 20
-4071.299636233018
 30
0.0
  0
ENDBLK
  5
15EF
330
15E4
100
AcDbEntity
  8
0
100
AcDbBlockEnd
  0
BLOCK
  5
15FA
330
15F0
100
AcDbEntity
  8
0
100
AcDbBlockBegin
  2
*D36
 70
     1
 10
0.0
 20
0.0
 30
0.0
  3
*D36
  1

  0
LINE
  5
1636
330
15F0
100
AcDbEntity
  8
寸法線
 62
     0
370
    -2
100
AcDbLine
 10
4693.964761363564
 20
-3792.430659245858
 30
0.0
 11
2348.799696379586
 21
-3792.430659245858
 31
0.0
  0
LINE
  5
1637
330
15F0
100
AcDbEntity
  8
寸法線
 62
     0
370
    -2
100
AcDbLine
 10
3275.764809010031
 20
-8212.430741947303
 30
0.0
 11
2348.799696379585
 21
-8212.430741947303
 31
0.0
  0
LINE
  5
1638
330
15F0
100
AcDbEntity
  8
寸法線
 62
     0
370
    -2
100
AcDbLine
 10
2438.799696379586
 20
-3882.430659245858
 30
0.0
 11
2438.799696379585
 21
-8122.430741947303
 31
0.0
  0
SOLID
  5
1639
330
15F0
100
AcDbEntity
  8
寸法線
 62
     0
100
AcDbTrace
 10
2423.799696379586
 20
-3882.430659245858
 30
0.0
 11
2453.799696379586
 21
-3882.430659245858
 31
0.0
 12
2438.799696379586
 22
-3792.430659245858
 32
0.0
 13
2438.799696379586
 23
-3792.430659245858
 33
0.0
  0
SOLID
  5
163A
330
15F0
100
AcDbEntity
  8
寸法線
 62
     0
100
AcDbTrace
 10
2423.799696379585
 20
-8122.430741947303
 30
0.0
 11
2453.799696379585
 21
-8122.430741947303
 31
0.0
 12
2438.799696379585
 22
-8212.430741947303
 32
0.0
 13
2438.799696379585
 23
-8212.430741947303
 33
0.0
  0
MTEXT
  5
163B
330
15F0
100
AcDbEntity
  8
寸法線
 62
     0
100
AcDbMText
 10
2342.799694949075
 20
-6002.43070059658
 30
0.0
 40
90.0
 41
0.0
 71
     5
 72
     1
  1
\A1;4420
 11
0.0000000000000001
 21
1.0
 31
0.0
 73
     1
 44
1.0
  0
POINT
  5
163C
330
15F0
100
AcDbEntity
  8
DEFPOINTS
 62
     0
100
AcDbPoint
 10
4753.964761363564
 20
-3792.430659245858
 30
0.0
  0
POINT
  5
163D
330
15F0
100
AcDbEntity
  8
DEFPOINTS
 62
     0
100
AcDbPoint
 10
3335.764809010031
 20
-8212.430741947303
 30
0.0
  0
POINT
  5
163E
330
15F0
100
AcDbEntity
  8
DEFPOINTS
 62
     0
100
AcDbPoint
 10
2438.799696379585
 20
-8212.430741947303
 30
0.0
  0
ENDBLK
  5
15FB
330
15F0
100
AcDbEntity
  8
0
100
AcDbBlockEnd
  0
BLOCK
  5
1606
330
15FC
100
AcDbEntity
  8
0
100
AcDbBlockBegin
  2
*D37
 70
     1
 10
0.0
 20
0.0
 30
0.0
  3
*D37
  1

  0
LINE
  5
163F
330
15FC
100
AcDbEntity
  8
寸法線
 62
     0
370
    -2
100
AcDbLine
 10
4503.963920437305
 20
-3792.43055135281
 30
0.0
 11
4503.963920437305
 21
-3576.309035112036
 31
0.0
  0
LINE
  5
1640
330
15FC
100
AcDbEntity
  8
寸法線
 62
     0
370
    -2
100
AcDbLine
 10
5003.965500866986
 20
-3792.430499694628
 30
0.0
 11
5003.965500866986
 21
-3576.309035112036
 31
0.0
  0
LINE
  5
1641
330
15FC
100
AcDbEntity
  8
寸法線
 62
     0
370
    -2
100
AcDbLine
 10
4593.963920437305
 20
-3666.309035112036
 30
0.0
 11
4913.965500866987
 21
-3666.309035112036
 31
0.0
  0
SOLID
  5
1642
330
15FC
100
AcDbEntity
  8
寸法線
 62
     0
100
AcDbTrace
 10
4593.963920437305
 20
-3651.309035112036
 30
0.0
 11
4593.963920437305
 21
-3681.309035112036
 31
0.0
 12
4503.963920437305
 22
-3666.309035112036
 32
0.0
 13
4503.963920437305
 23
-3666.309035112036
 33
0.0
  0
SOLID
  5
1643
330
15FC
100
AcDbEntity
  8
寸法線
 62
     0
100
AcDbTrace
 10
4913.965500866987
 20
-3651.309035112036
 30
0.0
 11
4913.965500866987
 21
-3681.309035112036
 31
0.0
 12
5003.965500866986
 22
-3666.309035112036
 32
0.0
 13
5003.965500866986
 23
-3666.309035112036
 33
0.0
  0
MTEXT
  5
1644
330
15FC
100
AcDbEntity
  8
寸法線
 62
     0
100
AcDbMText
 10
4753.964710652146
 20
-3570.309033681525
 30
0.0
 40
90.0
 41
0.0
 71
     5
 72
     1
  1
\A1;I.Dφ500
 73
     1
 44
1.0
  0
POINT
  5
1645
330
15FC
100
AcDbEntity
  8
DEFPOINTS
 62
     0
100
AcDbPoint
 10
4503.963920437305
 20
-3852.43055135281
 30
0.0
  0
POINT
  5
1646
330
15FC
100
AcDbEntity
  8
DEFPOINTS
 62
     0
100
AcDbPoint
 10
5003.965500866986
 20
-3852.430499694628
 30
0.0
  0
POINT
  5
1647
330
15FC
100
AcDbEntity
  8
DEFPOINTS
 62
     0
100
AcDbPoint
 10
5003.965500866986
 20
-3666.309035112036
 30
0.0
  0
ENDBLK
  5
1607
330
15FC
100
AcDbEntity
  8
0
100
AcDbBlockEnd
  0
BLOCK
  5
1612
330
1608
100
AcDbEntity
  8
0
100
AcDbBlockBegin
  2
*D38
 70
     1
 10
0.0
 20
0.0
 30
0.0
  3
*D38
  1

  0
LINE
  5
1648
330
1608
100
AcDbEntity
  8
寸法線
 62
     0
370
    -2
100
AcDbLine
 10
3328.964769000406
 20
-4512.430499972069
 30
0.0
 11
2672.015865180725
 21
-4512.430499972069
 31
0.0
  0
LINE
  5
1649
330
1608
100
AcDbEntity
  8
寸法線
 62
     0
370
    -2
100
AcDbLine
 10
4693.964761363564
 20
-3792.430659245858
 30
0.0
 11
2672.015865180725
 21
-3792.430659245858
 31
0.0
  0
LINE
  5
164A
330
1608
100
AcDbEntity
  8
寸法線
 62
     0
370
    -2
100
AcDbLine
 10
2762.015865180725
 20
-4422.430499972068
 30
0.0
 11
2762.015865180725
 21
-3882.430659245858
 31
0.0
  0
SOLID
  5
164B
330
1608
100
AcDbEntity
  8
寸法線
 62
     0
100
AcDbTrace
 10
2747.015865180725
 20
-4422.430499972068
 30
0.0
 11
2777.015865180725
 21
-4422.430499972068
 31
0.0
 12
2762.015865180725
 22
-4512.430499972069
 32
0.0
 13
2762.015865180725
 23
-4512.430499972069
 33
0.0
  0
SOLID
  5
164C
330
1608
100
AcDbEntity
  8
寸法線
 62
     0
100
AcDbTrace
 10
2747.015865180725
 20
-3882.430659245858
 30
0.0
 11
2777.015865180725
 21
-3882.430659245858
 31
0.0
 12
2762.015865180725
 22
-3792.430659245858
 32
0.0
 13
2762.015865180725
 23
-3792.430659245858
 33
0.0
  0
MTEXT
  5
164D
330
1608
100
AcDbEntity
  8
寸法線
 62
     0
100
AcDbMText
 10
2666.015863750214
 20
-4152.430579608963
 30
0.0
 40
90.0
 41
0.0
 71
     5
 72
     1
  1
\A1;720
 11
0.0000000000000001
 21
1.0
 31
0.0
 73
     1
 44
1.0
  0
POINT
  5
164E
330
1608
100
AcDbEntity
  8
DEFPOINTS
 62
     0
100
AcDbPoint
 10
3388.964769000406
 20
-4512.430499972069
 30
0.0
  0
POINT
  5
164F
330
1608
100
AcDbEntity
  8
DEFPOINTS
 62
     0
100
AcDbPoint
 10
4753.964761363564
 20
-3792.430659245858
 30
0.0
  0
POINT
  5
1650
330
1608
100
AcDbEntity
  8
DEFPOINTS
 62
     0
100
AcDbPoint
 10
2762.015865180725
 20
-3792.430659245858
 30
0.0
  0
ENDBLK
  5
1613
330
1608
100
AcDbEntity
  8
0
100
AcDbBlockEnd
  0
BLOCK
  5
1620
330
1614
100
AcDbEntity
  8
0
100
AcDbBlockBegin
  2
*D39
 70
     1
 10
0.0
 20
0.0
 30
0.0
  3
*D39
  1

  0
LINE
  5
1651
330
1614
100
AcDbEntity
  8
寸法線
 62
     0
370
    -2
100
AcDbLine
 10
3348.964845207145
 20
-4262.430731143964
 30
0.0
 11
3046.839652993586
 21
-4262.430731143964
 31
0.0
  0
LINE
  5
1652
330
1614
100
AcDbEntity
  8
寸法線
 62
     0
370
    -2
100
AcDbLine
 10
3318.964769000406
 20
-4512.430659245858
 30
0.0
 11
3046.839652993586
 21
-4512.430659245858
 31
0.0
  0
LINE
  5
1653
330
1614
100
AcDbEntity
  8
寸法線
 62
     0
370
    -2
100
AcDbLine
 10
3151.839652993585
 20
-4157.430731143963
 30
0.0
 11
3151.839652993585
 21
-4052.430731143963
 31
0.0
  0
LINE
  5
1654
330
1614
100
AcDbEntity
  8
寸法線
 62
     0
370
    -2
100
AcDbLine
 10
3151.839652993585
 20
-4617.430659245857
 30
0.0
 11
3151.839652993585
 21
-5103.930662583718
 31
0.0
  0
LINE
  5
1655
330
1614
100
AcDbEntity
  8
寸法線
 62
     0
370
    -2
100
AcDbLine
 10
3151.839652993585
 20
-4262.430731143964
 30
0.0
 11
3151.839652993585
 21
-4512.430659245858
 31
0.0
  0
INSERT
  5
1656
330
1614
100
AcDbEntity
  8
寸法線
 62
     0
370
    -2
100
AcDbBlockReference
  2
_Open30
 10
3151.839652993585
 20
-4262.430731143964
 30
0.0
 41
105.0
 42
105.0
 43
105.0
 50
270.0
  0
INSERT
  5
1657
330
1614
100
AcDbEntity
  8
寸法線
 62
     0
370
    -2
100
AcDbBlockReference
  2
_Open30
 10
3151.839652993585
 20
-4512.430659245858
 30
0.0
 41
105.0
 42
105.0
 43
105.0
 50
90.0
  0
MTEXT
  5
1658
330
1614
100
AcDbEntity
  8
寸法線
 62
     0
100
AcDbMText
 10
3039.839651324656
 20
-4913.180660914787
 30
0.0
 40
105.0
 41
0.0
 71
     5
 72
     1
  1
\A1;250
 11
0.0000000000000001
 21
1.0
 31
0.0
 73
     1
 44
1.0
  0
POINT
  5
1659
330
1614
100
AcDbEntity
  8
DEFPOINTS
 62
     0
100
AcDbPoint
 10
3418.964845207145
 20
-4262.430731143964
 30
0.0
  0
POINT
  5
165A
330
1614
100
AcDbEntity
  8
DEFPOINTS
 62
     0
100
AcDbPoint
 10
3388.964769000406
 20
-4512.430659245858
 30
0.0
  0
POINT
  5
165B
330
1614
100
AcDbEntity
  8
DEFPOINTS
 62
     0
100
AcDbPoint
 10
3151.839652993585
 20
-4512.430659245858
 30
0.0
  0
ENDBLK
  5
1621
330
1614
100
AcDbEntity
  8
0
100
AcDbBlockEnd
  0
ENDSEC
  0
SECTION
  2
ENTITIES
  0
POINT
  5
131
330
22
100
AcDbEntity
  8
0
100
AcDbPoint
 10
6118.964753726715
 20
-8212.430741947304
 30
0.0
  0
POINT
  5
132
330
22
100
AcDbEntity
  8
0
100
AcDbPoint
 10
3388.964769000406
 20
-8212.430741947304
 30
0.0
  0
POINT
  5
138
330
22
100
AcDbEntity
  8
0
  6
Continuous
100
AcDbPoint
 10
4753.964761363561
 20
-4007.430741947307
 30
0.0
  0
POINT
  5
13B
330
22
100
AcDbEntity
  8
0
  6
Continuous
100
AcDbPoint
 10
4753.964761363561
 20
-4007.430741947307
 30
0.0
  0
LINE
  5
13E
330
22
100
AcDbEntity
  8
0
  6
CENTER
100
AcDbLine
 10
4753.964761363561
 20
-3816.555475845157
 30
0.0
 11
4753.964761363561
 21
-8373.776632737808
 31
0.0
  0
LINE
  5
13F
330
22
100
AcDbEntity
  8
0
100
AcDbLine
 10
3413.964769000406
 20
-8212.430741947304
 30
0.0
 11
6093.964753726716
 21
-8212.430741947304
 31
0.0
  0
LINE
  5
145
330
22
100
AcDbEntity
  8
0
100
AcDbLine
 10
3388.964769000406
 20
-4512.430659245858
 30
0.0
 11
6118.964753726715
 21
-4512.430659245858
 31
0.0
  0
LINE
  5
147
330
22
100
AcDbEntity
  8
0
100
AcDbLine
 10
3388.964769000406
 20
-4512.430659245858
 30
0.0
 11
3388.964769000406
 21
-8187.430741947306
 31
0.0
  0
LINE
  5
14A
330
22
100
AcDbEntity
  8
0
100
AcDbLine
 10
6118.964753726715
 20
-4512.430659245858
 30
0.0
 11
6118.964753726715
 21
-8187.430741947306
 31
0.0
  0
ARC
  5
1B4
330
22
100
AcDbEntity
  8
0
100
AcDbCircle
 10
6093.964753726716
 20
-8187.430741947306
 30
0.0
 40
25.0
100
AcDbArc
 50
270.0000000000005
 51
0.0
  0
ARC
  5
1B5
330
22
100
AcDbEntity
  8
0
100
AcDbCircle
 10
3413.964769000406
 20
-8187.430741947306
 30
0.0
 40
25.0
100
AcDbArc
 50
180.0000000000007
 51
270.0000000000005
  0
POINT
  5
250
330
22
100
AcDbEntity
  8
2
100
AcDbPoint
 10
11402.69618127672
 20
-1384.065240716027
 30
0.0
  0
POINT
  5
251
330
22
100
AcDbEntity
  8
2
100
AcDbPoint
 10
11822.6954349256
 20
-1384.065326446088
 30
0.0
  0
LINE
  5
254
330
22
100
AcDbEntity
  8
2
  6
CENTER
100
AcDbLine
 10
13112.69556632263
 20
-2732.81475471531
 30
0.0
 11
10112.6954992674
 21
-2732.81475471531
 31
0.0
  0
LINE
  5
255
330
22
100
AcDbEntity
  8
2
  6
CENTER
100
AcDbLine
 10
11612.69553279502
 20
-4232.814788242924
 30
0.0
 11
11612.69553279502
 21
-1232.814721187699
 31
0.0
  0
LINE
  5
256
330
22
100
AcDbEntity
  8
2
100
AcDbLine
 10
11412.6959097944
 20
-1797.81450493459
 30
0.0
 11
11412.6959097944
 21
-1412.881024650968
 31
0.0
  0
LINE
  5
257
330
22
100
AcDbEntity
  8
2
100
AcDbLine
 10
11812.6959187351
 20
-1797.81450493459
 30
0.0
 11
11812.6959187351
 21
-1412.881024650968
 31
0.0
  0
LINE
  5
258
330
22
100
AcDbEntity
  8
2
100
AcDbLine
 10
11822.69572096734
 20
-1384.064735579314
 30
0.0
 11
11812.69589360475
 21
-1412.88050273752
 31
0.0
  0
LINE
  5
259
330
22
100
AcDbEntity
  8
2
100
AcDbLine
 10
11402.69494381747
 20
-1384.066116920756
 30
0.0
 11
11412.69476144431
 21
-1412.881887457524
 31
0.0
  0
LINE
  5
25A
330
22
100
AcDbEntity
  8
2
100
AcDbLine
 10
11822.69545071811
 20
-1384.064673028355
 30
0.0
 11
11812.69551541726
 21
-1797.813713071581
 31
0.0
  0
LINE
  5
25B
330
22
100
AcDbEntity
  8
2
100
AcDbLine
 10
11402.69618850476
 20
-1384.06553978316
 30
0.0
 11
11412.69594349362
 21
-1797.814965765456
 31
0.0
  0
LINE
  5
25C
330
22
100
AcDbEntity
  8
2
100
AcDbLine
 10
11822.69477934573
 20
-4081.56468548175
 30
0.0
 11
11812.69496118052
 21
-3667.815261026345
 31
0.0
  0
LINE
  5
25D
330
22
100
AcDbEntity
  8
2
100
AcDbLine
 10
11812.69515579563
 20
-3667.815004496028
 30
0.0
 11
11812.69515579563
 21
-4052.748484779651
 31
0.0
  0
LINE
  5
25E
330
22
100
AcDbEntity
  8
2
100
AcDbLine
 10
11412.69514685494
 20
-3667.815004496028
 30
0.0
 11
11412.69514685494
 21
-4052.748484779651
 31
0.0
  0
LINE
  5
25F
330
22
100
AcDbEntity
  8
2
100
AcDbLine
 10
11402.69580920885
 20
-4081.565032185149
 30
0.0
 11
11412.69563332619
 21
-4052.749263900751
 31
0.0
  0
LINE
  5
260
330
22
100
AcDbEntity
  8
2
100
AcDbLine
 10
11822.69430351379
 20
-4081.564296039214
 30
0.0
 11
11812.69448264171
 21
-4052.748526628632
 31
0.0
  0
LINE
  5
261
330
22
100
AcDbEntity
  8
2
100
AcDbLine
 10
11402.69570662742
 20
-4081.564471616378
 30
0.0
 11
11412.69558336047
 21
-3667.815239367061
 31
0.0
  0
LINE
  5
262
330
22
100
AcDbEntity
  8
2
100
AcDbLine
 10
12961.44502027487
 20
-2522.815667057586
 30
0.0
 11
12547.69559505602
 21
-2532.815453634622
 31
0.0
  0
LINE
  5
263
330
22
100
AcDbEntity
  8
2
100
AcDbLine
 10
12547.69578257574
 20
-2532.81551318443
 30
0.0
 11
12932.62926285936
 21
-2532.81551318443
 31
0.0
  0
LINE
  5
264
330
22
100
AcDbEntity
  8
2
100
AcDbLine
 10
12547.69578257574
 20
-2932.81552212513
 30
0.0
 11
12932.62926285936
 21
-2932.81552212513
 31
0.0
  0
LINE
  5
265
330
22
100
AcDbEntity
  8
2
100
AcDbLine
 10
12961.44633845327
 20
-2942.814512283074
 30
0.0
 11
12932.63057073197
 21
-2932.814686543114
 31
0.0
  0
LINE
  5
266
330
22
100
AcDbEntity
  8
2
100
AcDbLine
 10
12961.4445391917
 20
-2522.816177048778
 30
0.0
 11
12932.62876921803
 21
-2532.815996298233
 31
0.0
  0
LINE
  5
267
330
22
100
AcDbEntity
  8
2
100
AcDbLine
 10
12961.44619035827
 20
-2942.814648114949
 30
0.0
 11
12547.69714955159
 21
-2932.814744402252
 31
0.0
  0
CIRCLE
  5
27B
330
22
100
AcDbEntity
  8
2
100
AcDbCircle
 10
11612.69553279502
 20
-2732.81475471531
 30
0.0
 40
1364.999992363154
  0
CIRCLE
  5
27C
330
22
100
AcDbEntity
  8
2
100
AcDbCircle
 10
11612.69553279502
 20
-2732.81475471531
 30
0.0
 40
250.0000055879356
  0
CIRCLE
  5
27D
330
22
100
AcDbEntity
  8
2
100
AcDbCircle
 10
11612.69553279502
 20
-2732.81475471531
 30
0.0
 40
339.9999932944773
  0
ARC
  5
27E
330
22
100
AcDbEntity
  8
2
100
AcDbCircle
 10
11612.69553279502
 20
-2732.81475471531
 30
0.0
 40
1334.999972619115
100
AcDbArc
 50
81.38394426274969
 51
98.61604708582831
  0
ARC
  5
280
330
22
100
AcDbEntity
  8
2
100
AcDbCircle
 10
11612.69553279502
 20
-2732.81475471531
 30
0.0
 40
1334.999972619115
100
AcDbArc
 50
261.3839529141724
 51
278.6160557372511
  0
ARC
  5
281
330
22
100
AcDbEntity
  8
2
100
AcDbCircle
 10
11612.69553279502
 20
-2732.81475471531
 30
0.0
 40
1334.999972619115
100
AcDbArc
 50
351.3839485884614
 51
8.61605141153932
  0
ARC
  5
282
330
22
100
AcDbEntity
  8
2
100
AcDbCircle
 10
11612.69553279502
 20
-2732.81475471531
 30
0.0
 40
1214.999989010393
100
AcDbArc
 50
9.777789749730329
 51
80.22219055663304
  0
ARC
  5
283
330
22
100
AcDbEntity
  8
2
100
AcDbCircle
 10
11612.69553279502
 20
-2732.81475471531
 30
0.0
 40
1214.999989010393
100
AcDbArc
 50
190.5787344597285
 51
260.2221718872991
  0
ARC
  5
284
330
22
100
AcDbEntity
  8
2
100
AcDbCircle
 10
11612.69553279502
 20
-2732.81475471531
 30
0.0
 40
1214.999989010393
100
AcDbArc
 50
279.7777889528002
 51
350.2221931747976
  0
ARC
  5
285
330
22
100
AcDbEntity
  8
2
100
AcDbCircle
 10
11612.69553279502
 20
-2732.81475471531
 30
0.0
 40
1214.999989010393
100
AcDbArc
 50
99.77778713156661
 51
170.0019226115364
  0
CIRCLE
  5
286
330
22
100
AcDbEntity
  8
2
  6
CENTER
100
AcDbCircle
 10
11612.69553279502
 20
-2732.81475471531
 30
0.0
 40
1134.999968148767
  0
ARC
  5
28E
330
22
100
AcDbEntity
  8
2
100
AcDbCircle
 10
11612.69553279502
 20
-2732.81475471531
 30
0.0
 40
934.9999726191155
100
AcDbArc
 50
351.3839485884614
 51
8.616051411539324
  0
ARC
  5
28F
330
22
100
AcDbEntity
  8
2
100
AcDbCircle
 10
11612.69553279502
 20
-2732.81475471531
 30
0.0
 40
934.9999726191155
100
AcDbArc
 50
261.3839529141724
 51
278.6160557372511
  0
ARC
  5
290
330
22
100
AcDbEntity
  8
2
100
AcDbCircle
 10
11612.69553279502
 20
-2732.81475471531
 30
0.0
 40
934.9999726191155
100
AcDbArc
 50
81.38394426274967
 51
98.61604708582831
  0
LINE
  5
444
330
22
100
AcDbEntity
  8
0
  6
Continuous
100
AcDbLine
 10
706.0490209958397
 20
-115.4503900557738
 30
0.0
 11
951.0490209958398
 21
-115.4503900557738
 31
0.0
  0
LINE
  5
445
330
22
100
AcDbEntity
  8
0
  6
Continuous
100
AcDbLine
 10
951.0490209958398
 20
-115.4503900557738
 30
0.0
 11
1130.249020995836
 21
-115.4503900557738
 31
0.0
  0
LINE
  5
446
330
22
100
AcDbEntity
  8
0
  6
Continuous
100
AcDbLine
 10
706.0490209958397
 20
-115.4503900557738
 30
0.0
 11
706.0490209958397
 21
-352.983723389106
 31
0.0
  0
LINE
  5
447
330
22
100
AcDbEntity
  8
0
  6
Continuous
100
AcDbLine
 10
1130.249020995836
 20
-115.4503900557738
 30
0.0
 11
1375.249020995836
 21
-115.4503900557738
 31
0.0
  0
LINE
  5
448
330
22
100
AcDbEntity
  8
0
  6
Continuous
100
AcDbLine
 10
1375.249020995836
 20
-115.4503900557738
 30
0.0
 11
1620.249020995836
 21
-115.4503900557738
 31
0.0
  0
LINE
  5
449
330
22
100
AcDbEntity
  8
0
  6
Continuous
100
AcDbLine
 10
1620.249020995836
 20
-115.4503900557738
 30
0.0
 11
1865.249020995836
 21
-115.4503900557738
 31
0.0
  0
LINE
  5
44A
330
22
100
AcDbEntity
  8
0
  6
Continuous
100
AcDbLine
 10
1865.249020995836
 20
-115.4503900557738
 30
0.0
 11
2110.249020995836
 21
-115.4503900557738
 31
0.0
  0
LINE
  5
44B
330
22
100
AcDbEntity
  8
0
  6
Continuous
100
AcDbLine
 10
2110.249020995836
 20
-115.4503900557738
 30
0.0
 11
2355.249020995836
 21
-115.4503900557738
 31
0.0
  0
LINE
  5
44C
330
22
100
AcDbEntity
  8
0
  6
Continuous
100
AcDbLine
 10
2355.249020995836
 20
-115.4503900557738
 30
0.0
 11
2600.249020995836
 21
-115.4503900557738
 31
0.0
  0
LINE
  5
44D
330
22
100
AcDbEntity
  8
0
  6
Continuous
100
AcDbLine
 10
2600.249020995836
 20
-115.4503900557738
 30
0.0
 11
2845.249020995836
 21
-115.4503900557738
 31
0.0
  0
LINE
  5
44E
330
22
100
AcDbEntity
  8
0
  6
Continuous
100
AcDbLine
 10
2845.249020995836
 20
-115.4503900557738
 30
0.0
 11
3090.249020995836
 21
-115.4503900557738
 31
0.0
  0
LINE
  5
44F
330
22
100
AcDbEntity
  8
0
  6
Continuous
100
AcDbLine
 10
1130.249020995836
 20
-115.4503900557738
 30
0.0
 11
1130.249020995836
 21
-352.983723389106
 31
0.0
  0
LINE
  5
450
330
22
100
AcDbEntity
  8
0
  6
Continuous
100
AcDbLine
 10
3090.249020995836
 20
-115.4503900557738
 30
0.0
 11
3335.249020995836
 21
-115.4503900557738
 31
0.0
  0
LINE
  5
451
330
22
100
AcDbEntity
  8
0
  6
Continuous
100
AcDbLine
 10
3335.249020995836
 20
-115.4503900557738
 30
0.0
 11
3580.249020995836
 21
-115.4503900557738
 31
0.0
  0
LINE
  5
452
330
22
100
AcDbEntity
  8
0
  6
Continuous
100
AcDbLine
 10
3580.249020995836
 20
-115.4503900557738
 30
0.0
 11
3825.249020995836
 21
-115.4503900557738
 31
0.0
  0
LINE
  5
453
330
22
100
AcDbEntity
  8
0
  6
Continuous
100
AcDbLine
 10
3090.249020995836
 20
-115.4503900557738
 30
0.0
 11
3090.249020995836
 21
-352.983723389106
 31
0.0
  0
LINE
  5
454
330
22
100
AcDbEntity
  8
0
  6
Continuous
100
AcDbLine
 10
3825.249020995836
 20
-115.4503900557738
 30
0.0
 11
4070.249020995836
 21
-115.4503900557738
 31
0.0
  0
LINE
  5
455
330
22
100
AcDbEntity
  8
0
  6
Continuous
100
AcDbLine
 10
4070.249020995836
 20
-115.4503900557738
 30
0.0
 11
4315.249020995835
 21
-115.4503900557738
 31
0.0
  0
LINE
  5
456
330
22
100
AcDbEntity
  8
0
  6
Continuous
100
AcDbLine
 10
3825.249020995836
 20
-115.4503900557738
 30
0.0
 11
3825.249020995836
 21
-352.983723389106
 31
0.0
  0
LINE
  5
457
330
22
100
AcDbEntity
  8
0
  6
Continuous
100
AcDbLine
 10
4315.249020995835
 20
-115.4503900557738
 30
0.0
 11
4315.249020995835
 21
-352.983723389106
 31
0.0
  0
LINE
  5
458
330
22
100
AcDbEntity
  8
0
  6
Continuous
100
AcDbLine
 10
706.0490209958397
 20
-352.983723389106
 30
0.0
 11
951.0490209958398
 21
-352.983723389106
 31
0.0
  0
LINE
  5
459
330
22
100
AcDbEntity
  8
0
  6
Continuous
100
AcDbLine
 10
951.0490209958398
 20
-352.983723389106
 30
0.0
 11
1130.249020995836
 21
-352.983723389106
 31
0.0
  0
LINE
  5
45A
330
22
100
AcDbEntity
  8
0
  6
Continuous
100
AcDbLine
 10
1130.249020995836
 20
-352.983723389106
 30
0.0
 11
1375.249020995836
 21
-352.983723389106
 31
0.0
  0
LINE
  5
45B
330
22
100
AcDbEntity
  8
0
  6
Continuous
100
AcDbLine
 10
1375.249020995836
 20
-352.983723389106
 30
0.0
 11
1620.249020995836
 21
-352.983723389106
 31
0.0
  0
LINE
  5
45C
330
22
100
AcDbEntity
  8
0
  6
Continuous
100
AcDbLine
 10
1620.249020995836
 20
-352.983723389106
 30
0.0
 11
1865.249020995836
 21
-352.983723389106
 31
0.0
  0
LINE
  5
45D
330
22
100
AcDbEntity
  8
0
  6
Continuous
100
AcDbLine
 10
1865.249020995836
 20
-352.983723389106
 30
0.0
 11
2110.249020995836
 21
-352.983723389106
 31
0.0
  0
LINE
  5
45E
330
22
100
AcDbEntity
  8
0
  6
Continuous
100
AcDbLine
 10
2110.249020995836
 20
-352.983723389106
 30
0.0
 11
2355.249020995836
 21
-352.983723389106
 31
0.0
  0
LINE
  5
45F
330
22
100
AcDbEntity
  8
0
  6
Continuous
100
AcDbLine
 10
2355.249020995836
 20
-352.983723389106
 30
0.0
 11
2600.249020995836
 21
-352.983723389106
 31
0.0
  0
LINE
  5
460
330
22
100
AcDbEntity
  8
0
  6
Continuous
100
AcDbLine
 10
2600.249020995836
 20
-352.983723389106
 30
0.0
 11
2845.249020995836
 21
-352.983723389106
 31
0.0
  0
LINE
  5
461
330
22
100
AcDbEntity
  8
0
  6
Continuous
100
AcDbLine
 10
2845.249020995836
 20
-352.983723389106
 30
0.0
 11
3090.249020995836
 21
-352.983723389106
 31
0.0
  0
LINE
  5
462
330
22
100
AcDbEntity
  8
0
  6
Continuous
100
AcDbLine
 10
3090.249020995836
 20
-352.983723389106
 30
0.0
 11
3335.249020995836
 21
-352.983723389106
 31
0.0
  0
LINE
  5
463
330
22
100
AcDbEntity
  8
0
  6
Continuous
100
AcDbLine
 10
3335.249020995836
 20
-352.983723389106
 30
0.0
 11
3580.249020995836
 21
-352.983723389106
 31
0.0
  0
LINE
  5
464
330
22
100
AcDbEntity
  8
0
  6
Continuous
100
AcDbLine
 10
3580.249020995836
 20
-352.983723389106
 30
0.0
 11
3825.249020995836
 21
-352.983723389106
 31
0.0
  0
LINE
  5
465
330
22
100
AcDbEntity
  8
0
  6
Continuous
100
AcDbLine
 10
3825.249020995836
 20
-352.983723389106
 30
0.0
 11
4070.249020995836
 21
-352.983723389106
 31
0.0
  0
LINE
  5
466
330
22
100
AcDbEntity
  8
0
  6
Continuous
100
AcDbLine
 10
4070.249020995836
 20
-352.983723389106
 30
0.0
 11
4315.249020995835
 21
-352.983723389106
 31
0.0
  0
TEXT
  5
467
330
22
100
AcDbEntity
  8
0
  6
Continuous
100
AcDbText
 10
769.6282800086664
 20
-285.3293919554618
 30
0.0
 40
112.0
  1
記 号
100
AcDbText
  0
TEXT
  5
468
330
22
100
AcDbEntity
  8
0
  6
Continuous
100
AcDbText
 10
1420.55768335856
 20
-292.0535927617984
 30
0.0
 40
112.0
  1
来　　　　　　　　歴
100
AcDbText
  0
TEXT
  5
469
330
22
100
AcDbEntity
  8
0
  6
Continuous
100
AcDbText
 10
3128.64572624506
 20
-291.7266517453697
 30
0.0
 40
112.0
  1
年・月・日
100
AcDbText
  0
TEXT
  5
46A
330
22
100
AcDbEntity
  8
0
  6
Continuous
100
AcDbText
 10
3914.293359574142
 20
-283.6238081991173
 30
0.0
 40
112.0
  1
記 入
100
AcDbText
  0
LWPOLYLINE
  5
46B
330
22
100
AcDbEntity
  8
0
  6
Continuous
100
AcDbPolyline
 90
        4
 70
     1
 43
0.0
 10
706.0490209958389
 20
-115.4503900557738
 10
14811.04902099584
 20
-115.4503900557738
 10
14811.04902099584
 20
-9915.450390055774
 10
706.0490209958389
 20
-9915.450390055774
  0
LWPOLYLINE
  5
46C
330
22
100
AcDbEntity
  8
0
  6
Continuous
100
AcDbPolyline
 90
        4
 70
     1
 43
0.0
 10
356.0490209958389
 20
234.5496099442262
 10
15161.04902099584
 20
234.5496099442262
 10
15161.04902099584
 20
-10265.45039005577
 10
356.0490209958389
 20
-10265.45039005577
  0
LINE
  5
46D
330
22
100
AcDbEntity
  8
0
  6
Continuous
100
AcDbLine
 10
10156.04902099584
 20
-8252.71705672244
 30
0.0
 11
10156.04902099584
 21
-8490.250390055775
 31
0.0
  0
LINE
  5
46E
330
22
100
AcDbEntity
  8
0
  6
Continuous
100
AcDbLine
 10
10646.04902099584
 20
-8252.71705672244
 30
0.0
 11
10646.04902099584
 21
-8490.250390055775
 31
0.0
  0
LINE
  5
46F
330
22
100
AcDbEntity
  8
0
  6
Continuous
100
AcDbLine
 10
11136.04902099584
 20
-8252.71705672244
 30
0.0
 11
11136.04902099584
 21
-8490.250390055775
 31
0.0
  0
LINE
  5
470
330
22
100
AcDbEntity
  8
0
  6
Continuous
100
AcDbLine
 10
11626.04902099584
 20
-8252.71705672244
 30
0.0
 11
11626.04902099584
 21
-8490.250390055775
 31
0.0
  0
LINE
  5
471
330
22
100
AcDbEntity
  8
0
  6
Continuous
100
AcDbLine
 10
12116.04902099584
 20
-8252.71705672244
 30
0.0
 11
12116.04902099584
 21
-8490.250390055775
 31
0.0
  0
LINE
  5
472
330
22
100
AcDbEntity
  8
0
  6
Continuous
100
AcDbLine
 10
12116.04902099584
 20
-8490.250390055775
 30
0.0
 11
12116.04902099584
 21
-8727.783723389109
 31
0.0
  0
LINE
  5
473
330
22
100
AcDbEntity
  8
0
  6
Continuous
100
AcDbLine
 10
12116.04902099584
 20
-8727.783723389109
 30
0.0
 11
12116.04902099584
 21
-8965.31705672244
 31
0.0
  0
LINE
  5
474
330
22
100
AcDbEntity
  8
0
  6
Continuous
100
AcDbLine
 10
12116.04902099584
 20
-8965.31705672244
 30
0.0
 11
12116.04902099584
 21
-9202.850390055774
 31
0.0
  0
LINE
  5
475
330
22
100
AcDbEntity
  8
0
  6
Continuous
100
AcDbLine
 10
12116.04902099584
 20
-9202.850390055774
 30
0.0
 11
12116.04902099584
 21
-9440.383723389109
 31
0.0
  0
LINE
  5
476
330
22
100
AcDbEntity
  8
0
  6
Continuous
100
AcDbLine
 10
12361.04902099584
 20
-8252.71705672244
 30
0.0
 11
12361.04902099584
 21
-8490.250390055775
 31
0.0
  0
LINE
  5
477
330
22
100
AcDbEntity
  8
0
  6
Continuous
100
AcDbLine
 10
14811.04902099584
 20
-8252.71705672244
 30
0.0
 11
14811.04902099584
 21
-8490.250390055775
 31
0.0
  0
LINE
  5
478
330
22
100
AcDbEntity
  8
0
  6
Continuous
100
AcDbLine
 10
12361.04902099584
 20
-8490.250390055775
 30
0.0
 11
12361.04902099584
 21
-8727.783723389109
 31
0.0
  0
LINE
  5
479
330
22
100
AcDbEntity
  8
0
  6
Continuous
100
AcDbLine
 10
14811.04902099584
 20
-8490.250390055775
 30
0.0
 11
14811.04902099584
 21
-8727.783723389109
 31
0.0
  0
LINE
  5
47A
330
22
100
AcDbEntity
  8
0
  6
Continuous
100
AcDbLine
 10
12361.04902099584
 20
-8727.783723389109
 30
0.0
 11
12361.04902099584
 21
-8965.31705672244
 31
0.0
  0
LINE
  5
47B
330
22
100
AcDbEntity
  8
0
  6
Continuous
100
AcDbLine
 10
14811.04902099584
 20
-8727.783723389109
 30
0.0
 11
14811.04902099584
 21
-8965.31705672244
 31
0.0
  0
LINE
  5
47C
330
22
100
AcDbEntity
  8
0
  6
Continuous
100
AcDbLine
 10
12361.04902099584
 20
-8965.31705672244
 30
0.0
 11
12361.04902099584
 21
-9202.850390055774
 31
0.0
  0
LINE
  5
47D
330
22
100
AcDbEntity
  8
0
  6
Continuous
100
AcDbLine
 10
14811.04902099584
 20
-8965.31705672244
 30
0.0
 11
14811.04902099584
 21
-9202.850390055774
 31
0.0
  0
LINE
  5
47E
330
22
100
AcDbEntity
  8
0
  6
Continuous
100
AcDbLine
 10
12361.04902099584
 20
-9202.850390055774
 30
0.0
 11
12361.04902099584
 21
-9440.383723389109
 31
0.0
  0
LINE
  5
47F
330
22
100
AcDbEntity
  8
0
  6
Continuous
100
AcDbLine
 10
14811.04902099584
 20
-9202.850390055774
 30
0.0
 11
14811.04902099584
 21
-9440.383723389109
 31
0.0
  0
LINE
  5
480
330
22
100
AcDbEntity
  8
0
  6
Continuous
100
AcDbLine
 10
10156.04902099584
 20
-8490.250390055775
 30
0.0
 11
10401.04902099584
 21
-8490.250390055775
 31
0.0
  0
LINE
  5
481
330
22
100
AcDbEntity
  8
0
  6
Continuous
100
AcDbLine
 10
10401.04902099584
 20
-8490.250390055775
 30
0.0
 11
10646.04902099584
 21
-8490.250390055775
 31
0.0
  0
LINE
  5
482
330
22
100
AcDbEntity
  8
0
  6
Continuous
100
AcDbLine
 10
10156.04902099584
 20
-8490.250390055775
 30
0.0
 11
10156.04902099584
 21
-8727.783723389109
 31
0.0
  0
LINE
  5
483
330
22
100
AcDbEntity
  8
0
  6
Continuous
100
AcDbLine
 10
10156.04902099584
 20
-8727.783723389109
 30
0.0
 11
10156.04902099584
 21
-8965.31705672244
 31
0.0
  0
LINE
  5
484
330
22
100
AcDbEntity
  8
0
  6
Continuous
100
AcDbLine
 10
10646.04902099584
 20
-8490.250390055775
 30
0.0
 11
10891.04902099584
 21
-8490.250390055775
 31
0.0
  0
LINE
  5
485
330
22
100
AcDbEntity
  8
0
  6
Continuous
100
AcDbLine
 10
10891.04902099584
 20
-8490.250390055775
 30
0.0
 11
11136.04902099584
 21
-8490.250390055775
 31
0.0
  0
LINE
  5
486
330
22
100
AcDbEntity
  8
0
  6
Continuous
100
AcDbLine
 10
10646.04902099584
 20
-8490.250390055775
 30
0.0
 11
10646.04902099584
 21
-8727.783723389109
 31
0.0
  0
LINE
  5
487
330
22
100
AcDbEntity
  8
0
  6
Continuous
100
AcDbLine
 10
10646.04902099584
 20
-8727.783723389109
 30
0.0
 11
10646.04902099584
 21
-8965.31705672244
 31
0.0
  0
LINE
  5
488
330
22
100
AcDbEntity
  8
0
  6
Continuous
100
AcDbLine
 10
11136.04902099584
 20
-8490.250390055775
 30
0.0
 11
11381.04902099584
 21
-8490.250390055775
 31
0.0
  0
LINE
  5
489
330
22
100
AcDbEntity
  8
0
  6
Continuous
100
AcDbLine
 10
11381.04902099584
 20
-8490.250390055775
 30
0.0
 11
11626.04902099584
 21
-8490.250390055775
 31
0.0
  0
LINE
  5
48A
330
22
100
AcDbEntity
  8
0
  6
Continuous
100
AcDbLine
 10
11136.04902099584
 20
-8490.250390055775
 30
0.0
 11
11136.04902099584
 21
-8727.783723389109
 31
0.0
  0
LINE
  5
48B
330
22
100
AcDbEntity
  8
0
  6
Continuous
100
AcDbLine
 10
11136.04902099584
 20
-8727.783723389109
 30
0.0
 11
11136.04902099584
 21
-8965.31705672244
 31
0.0
  0
LINE
  5
48C
330
22
100
AcDbEntity
  8
0
  6
Continuous
100
AcDbLine
 10
11626.04902099584
 20
-8490.250390055775
 30
0.0
 11
11871.04902099584
 21
-8490.250390055775
 31
0.0
  0
LINE
  5
48D
330
22
100
AcDbEntity
  8
0
  6
Continuous
100
AcDbLine
 10
11871.04902099584
 20
-8490.250390055775
 30
0.0
 11
12116.04902099584
 21
-8490.250390055775
 31
0.0
  0
LINE
  5
48E
330
22
100
AcDbEntity
  8
0
  6
Continuous
100
AcDbLine
 10
11626.04902099584
 20
-8490.250390055775
 30
0.0
 11
11626.04902099584
 21
-8727.783723389109
 31
0.0
  0
LINE
  5
48F
330
22
100
AcDbEntity
  8
0
  6
Continuous
100
AcDbLine
 10
11626.04902099584
 20
-8727.783723389109
 30
0.0
 11
11626.04902099584
 21
-8965.31705672244
 31
0.0
  0
LINE
  5
490
330
22
100
AcDbEntity
  8
0
  6
Continuous
100
AcDbLine
 10
10156.04902099584
 20
-8965.31705672244
 30
0.0
 11
10401.04902099584
 21
-8965.31705672244
 31
0.0
  0
LINE
  5
491
330
22
100
AcDbEntity
  8
0
  6
Continuous
100
AcDbLine
 10
10156.04902099584
 20
-8965.31705672244
 30
0.0
 11
10156.04902099584
 21
-9202.850390055774
 31
0.0
  0
LINE
  5
492
330
22
100
AcDbEntity
  8
0
  6
Continuous
100
AcDbLine
 10
10156.04902099584
 20
-9202.850390055774
 30
0.0
 11
10156.04902099584
 21
-9440.383723389109
 31
0.0
  0
LINE
  5
493
330
22
100
AcDbEntity
  8
0
  6
Continuous
100
AcDbLine
 10
10401.04902099584
 20
-8965.31705672244
 30
0.0
 11
10646.04902099584
 21
-8965.31705672244
 31
0.0
  0
LINE
  5
494
330
22
100
AcDbEntity
  8
0
  6
Continuous
100
AcDbLine
 10
10646.04902099584
 20
-8965.31705672244
 30
0.0
 11
10891.04902099584
 21
-8965.31705672244
 31
0.0
  0
LINE
  5
495
330
22
100
AcDbEntity
  8
0
  6
Continuous
100
AcDbLine
 10
10891.04902099584
 20
-8965.31705672244
 30
0.0
 11
11136.04902099584
 21
-8965.31705672244
 31
0.0
  0
LINE
  5
496
330
22
100
AcDbEntity
  8
0
  6
Continuous
100
AcDbLine
 10
10401.04902099584
 20
-8965.31705672244
 30
0.0
 11
10401.04902099584
 21
-9202.850390055774
 31
0.0
  0
LINE
  5
497
330
22
100
AcDbEntity
  8
0
  6
Continuous
100
AcDbLine
 10
10401.04902099584
 20
-9202.850390055774
 30
0.0
 11
10401.04902099584
 21
-9440.383723389109
 31
0.0
  0
LINE
  5
498
330
22
100
AcDbEntity
  8
0
  6
Continuous
100
AcDbLine
 10
11136.04902099584
 20
-8965.31705672244
 30
0.0
 11
11381.04902099584
 21
-8965.31705672244
 31
0.0
  0
LINE
  5
499
330
22
100
AcDbEntity
  8
0
  6
Continuous
100
AcDbLine
 10
11136.04902099584
 20
-8965.31705672244
 30
0.0
 11
11136.04902099584
 21
-9202.850390055774
 31
0.0
  0
LINE
  5
49A
330
22
100
AcDbEntity
  8
0
  6
Continuous
100
AcDbLine
 10
11136.04902099584
 20
-9202.850390055774
 30
0.0
 11
11136.04902099584
 21
-9440.383723389109
 31
0.0
  0
LINE
  5
49B
330
22
100
AcDbEntity
  8
0
  6
Continuous
100
AcDbLine
 10
11381.04902099584
 20
-8965.31705672244
 30
0.0
 11
11626.04902099584
 21
-8965.31705672244
 31
0.0
  0
LINE
  5
49C
330
22
100
AcDbEntity
  8
0
  6
Continuous
100
AcDbLine
 10
11626.04902099584
 20
-8965.31705672244
 30
0.0
 11
11871.04902099584
 21
-8965.31705672244
 31
0.0
  0
LINE
  5
49D
330
22
100
AcDbEntity
  8
0
  6
Continuous
100
AcDbLine
 10
11871.04902099584
 20
-8965.31705672244
 30
0.0
 11
12116.04902099584
 21
-8965.31705672244
 31
0.0
  0
LINE
  5
49E
330
22
100
AcDbEntity
  8
0
  6
Continuous
100
AcDbLine
 10
11381.04902099584
 20
-8965.31705672244
 30
0.0
 11
11381.04902099584
 21
-9202.850390055774
 31
0.0
  0
LINE
  5
49F
330
22
100
AcDbEntity
  8
0
  6
Continuous
100
AcDbLine
 10
11381.04902099584
 20
-9202.850390055774
 30
0.0
 11
11381.04902099584
 21
-9440.383723389109
 31
0.0
  0
LINE
  5
4A0
330
22
100
AcDbEntity
  8
0
  6
Continuous
100
AcDbLine
 10
10156.04902099584
 20
-9440.383723389109
 30
0.0
 11
10401.04902099584
 21
-9440.383723389109
 31
0.0
  0
LINE
  5
4A1
330
22
100
AcDbEntity
  8
0
  6
Continuous
100
AcDbLine
 10
10156.04902099584
 20
-9915.450390055774
 30
0.0
 11
10401.04902099584
 21
-9915.450390055774
 31
0.0
  0
LINE
  5
4A2
330
22
100
AcDbEntity
  8
0
  6
Continuous
100
AcDbLine
 10
10401.04902099584
 20
-9440.383723389109
 30
0.0
 11
10646.04902099584
 21
-9440.383723389109
 31
0.0
  0
LINE
  5
4A3
330
22
100
AcDbEntity
  8
0
  6
Continuous
100
AcDbLine
 10
10401.04902099584
 20
-9915.450390055774
 30
0.0
 11
10646.04902099584
 21
-9915.450390055774
 31
0.0
  0
LINE
  5
4A4
330
22
100
AcDbEntity
  8
0
  6
Continuous
100
AcDbLine
 10
10646.04902099584
 20
-9440.383723389109
 30
0.0
 11
10891.04902099584
 21
-9440.383723389109
 31
0.0
  0
LINE
  5
4A5
330
22
100
AcDbEntity
  8
0
  6
Continuous
100
AcDbLine
 10
10646.04902099584
 20
-9915.450390055774
 30
0.0
 11
10891.04902099584
 21
-9915.450390055774
 31
0.0
  0
LINE
  5
4A6
330
22
100
AcDbEntity
  8
0
  6
Continuous
100
AcDbLine
 10
10891.04902099584
 20
-9440.383723389109
 30
0.0
 11
11136.04902099584
 21
-9440.383723389109
 31
0.0
  0
LINE
  5
4A7
330
22
100
AcDbEntity
  8
0
  6
Continuous
100
AcDbLine
 10
10891.04902099584
 20
-9915.450390055774
 30
0.0
 11
11136.04902099584
 21
-9915.450390055774
 31
0.0
  0
LINE
  5
4A8
330
22
100
AcDbEntity
  8
0
  6
Continuous
100
AcDbLine
 10
11136.04902099584
 20
-9440.383723389109
 30
0.0
 11
11381.04902099584
 21
-9440.383723389109
 31
0.0
  0
LINE
  5
4A9
330
22
100
AcDbEntity
  8
0
  6
Continuous
100
AcDbLine
 10
11136.04902099584
 20
-9915.450390055774
 30
0.0
 11
11381.04902099584
 21
-9915.450390055774
 31
0.0
  0
LINE
  5
4AA
330
22
100
AcDbEntity
  8
0
  6
Continuous
100
AcDbLine
 10
11381.04902099584
 20
-9440.383723389109
 30
0.0
 11
11626.04902099584
 21
-9440.383723389109
 31
0.0
  0
LINE
  5
4AB
330
22
100
AcDbEntity
  8
0
  6
Continuous
100
AcDbLine
 10
11381.04902099584
 20
-9915.450390055774
 30
0.0
 11
11626.04902099584
 21
-9915.450390055774
 31
0.0
  0
LINE
  5
4AC
330
22
100
AcDbEntity
  8
0
  6
Continuous
100
AcDbLine
 10
11626.04902099584
 20
-9440.383723389109
 30
0.0
 11
11871.04902099584
 21
-9440.383723389109
 31
0.0
  0
LINE
  5
4AD
330
22
100
AcDbEntity
  8
0
  6
Continuous
100
AcDbLine
 10
11626.04902099584
 20
-9915.450390055774
 30
0.0
 11
11871.04902099584
 21
-9915.450390055774
 31
0.0
  0
LINE
  5
4AE
330
22
100
AcDbEntity
  8
0
  6
Continuous
100
AcDbLine
 10
11871.04902099584
 20
-9440.383723389109
 30
0.0
 11
12116.04902099584
 21
-9440.383723389109
 31
0.0
  0
LINE
  5
4AF
330
22
100
AcDbEntity
  8
0
  6
Continuous
100
AcDbLine
 10
11871.04902099584
 20
-9915.450390055774
 30
0.0
 11
12116.04902099584
 21
-9915.450390055774
 31
0.0
  0
LINE
  5
4B0
330
22
100
AcDbEntity
  8
0
  6
Continuous
100
AcDbLine
 10
10156.04902099584
 20
-9440.383723389109
 30
0.0
 11
10156.04902099584
 21
-9677.917056722442
 31
0.0
  0
LINE
  5
4B1
330
22
100
AcDbEntity
  8
0
  6
Continuous
100
AcDbLine
 10
10156.04902099584
 20
-9677.917056722442
 30
0.0
 11
10156.04902099584
 21
-9915.450390055774
 31
0.0
  0
LINE
  5
4B2
330
22
100
AcDbEntity
  8
0
  6
Continuous
100
AcDbLine
 10
12116.04902099584
 20
-9440.383723389109
 30
0.0
 11
12361.04902099584
 21
-9440.383723389109
 31
0.0
  0
LINE
  5
4B3
330
22
100
AcDbEntity
  8
0
  6
Continuous
100
AcDbLine
 10
12116.04902099584
 20
-9915.450390055774
 30
0.0
 11
12361.04902099584
 21
-9915.450390055774
 31
0.0
  0
LINE
  5
4B4
330
22
100
AcDbEntity
  8
0
  6
Continuous
100
AcDbLine
 10
12116.04902099584
 20
-9440.383723389109
 30
0.0
 11
12116.04902099584
 21
-9677.917056722442
 31
0.0
  0
LINE
  5
4B5
330
22
100
AcDbEntity
  8
0
  6
Continuous
100
AcDbLine
 10
12116.04902099584
 20
-9677.917056722442
 30
0.0
 11
12116.04902099584
 21
-9915.450390055774
 31
0.0
  0
LINE
  5
4B6
330
22
100
AcDbEntity
  8
0
  6
Continuous
100
AcDbLine
 10
12361.04902099584
 20
-9440.383723389109
 30
0.0
 11
12606.04902099584
 21
-9440.383723389109
 31
0.0
  0
LINE
  5
4B7
330
22
100
AcDbEntity
  8
0
  6
Continuous
100
AcDbLine
 10
12361.04902099584
 20
-9915.450390055774
 30
0.0
 11
12606.04902099584
 21
-9915.450390055774
 31
0.0
  0
LINE
  5
4B8
330
22
100
AcDbEntity
  8
0
  6
Continuous
100
AcDbLine
 10
12606.04902099584
 20
-9440.383723389109
 30
0.0
 11
12851.04902099584
 21
-9440.383723389109
 31
0.0
  0
LINE
  5
4B9
330
22
100
AcDbEntity
  8
0
  6
Continuous
100
AcDbLine
 10
12606.04902099584
 20
-9915.450390055774
 30
0.0
 11
12851.04902099584
 21
-9915.450390055774
 31
0.0
  0
LINE
  5
4BA
330
22
100
AcDbEntity
  8
0
  6
Continuous
100
AcDbLine
 10
12851.04902099584
 20
-9440.383723389109
 30
0.0
 11
13096.04902099584
 21
-9440.383723389109
 31
0.0
  0
LINE
  5
4BB
330
22
100
AcDbEntity
  8
0
  6
Continuous
100
AcDbLine
 10
12851.04902099584
 20
-9915.450390055774
 30
0.0
 11
13096.04902099584
 21
-9915.450390055774
 31
0.0
  0
LINE
  5
4BC
330
22
100
AcDbEntity
  8
0
  6
Continuous
100
AcDbLine
 10
13096.04902099584
 20
-9440.383723389109
 30
0.0
 11
13341.04902099584
 21
-9440.383723389109
 31
0.0
  0
LINE
  5
4BD
330
22
100
AcDbEntity
  8
0
  6
Continuous
100
AcDbLine
 10
13096.04902099584
 20
-9915.450390055774
 30
0.0
 11
13341.04902099584
 21
-9915.450390055774
 31
0.0
  0
LINE
  5
4BE
330
22
100
AcDbEntity
  8
0
  6
Continuous
100
AcDbLine
 10
13341.04902099584
 20
-9440.383723389109
 30
0.0
 11
13586.04902099584
 21
-9440.383723389109
 31
0.0
  0
LINE
  5
4BF
330
22
100
AcDbEntity
  8
0
  6
Continuous
100
AcDbLine
 10
13341.04902099584
 20
-9915.450390055774
 30
0.0
 11
13586.04902099584
 21
-9915.450390055774
 31
0.0
  0
LINE
  5
4C0
330
22
100
AcDbEntity
  8
0
  6
Continuous
100
AcDbLine
 10
13586.04902099584
 20
-9440.383723389109
 30
0.0
 11
13831.04902099584
 21
-9440.383723389109
 31
0.0
  0
LINE
  5
4C1
330
22
100
AcDbEntity
  8
0
  6
Continuous
100
AcDbLine
 10
13586.04902099584
 20
-9915.450390055774
 30
0.0
 11
13831.04902099584
 21
-9915.450390055774
 31
0.0
  0
LINE
  5
4C2
330
22
100
AcDbEntity
  8
0
  6
Continuous
100
AcDbLine
 10
13831.04902099584
 20
-9440.383723389109
 30
0.0
 11
14076.04902099584
 21
-9440.383723389109
 31
0.0
  0
LINE
  5
4C3
330
22
100
AcDbEntity
  8
0
  6
Continuous
100
AcDbLine
 10
13831.04902099584
 20
-9915.450390055774
 30
0.0
 11
14076.04902099584
 21
-9915.450390055774
 31
0.0
  0
LINE
  5
4C4
330
22
100
AcDbEntity
  8
0
  6
Continuous
100
AcDbLine
 10
14076.04902099584
 20
-9440.383723389109
 30
0.0
 11
14321.04902099584
 21
-9440.383723389109
 31
0.0
  0
LINE
  5
4C5
330
22
100
AcDbEntity
  8
0
  6
Continuous
100
AcDbLine
 10
14076.04902099584
 20
-9915.450390055774
 30
0.0
 11
14321.04902099584
 21
-9915.450390055774
 31
0.0
  0
LINE
  5
4C6
330
22
100
AcDbEntity
  8
0
  6
Continuous
100
AcDbLine
 10
14321.04902099584
 20
-9440.383723389109
 30
0.0
 11
14566.04902099584
 21
-9440.383723389109
 31
0.0
  0
LINE
  5
4C7
330
22
100
AcDbEntity
  8
0
  6
Continuous
100
AcDbLine
 10
14321.04902099584
 20
-9915.450390055774
 30
0.0
 11
14566.04902099584
 21
-9915.450390055774
 31
0.0
  0
LINE
  5
4C8
330
22
100
AcDbEntity
  8
0
  6
Continuous
100
AcDbLine
 10
14566.04902099584
 20
-9440.383723389109
 30
0.0
 11
14811.04902099584
 21
-9440.383723389109
 31
0.0
  0
LINE
  5
4C9
330
22
100
AcDbEntity
  8
0
  6
Continuous
100
AcDbLine
 10
14566.04902099584
 20
-9915.450390055774
 30
0.0
 11
14811.04902099584
 21
-9915.450390055774
 31
0.0
  0
LINE
  5
4CA
330
22
100
AcDbEntity
  8
0
  6
Continuous
100
AcDbLine
 10
12361.04902099584
 20
-9440.383723389109
 30
0.0
 11
12361.04902099584
 21
-9677.917056722442
 31
0.0
  0
LINE
  5
4CB
330
22
100
AcDbEntity
  8
0
  6
Continuous
100
AcDbLine
 10
14811.04902099584
 20
-9440.383723389109
 30
0.0
 11
14811.04902099584
 21
-9677.917056722442
 31
0.0
  0
LINE
  5
4CC
330
22
100
AcDbEntity
  8
0
  6
Continuous
100
AcDbLine
 10
12361.04902099584
 20
-9677.917056722442
 30
0.0
 11
12361.04902099584
 21
-9915.450390055774
 31
0.0
  0
LINE
  5
4CD
330
22
100
AcDbEntity
  8
0
  6
Continuous
100
AcDbLine
 10
14811.04902099584
 20
-9677.917056722442
 30
0.0
 11
14811.04902099584
 21
-9915.450390055774
 31
0.0
  0
MTEXT
  5
4CE
330
22
100
AcDbEntity
  8
0
  6
Continuous
100
AcDbMText
 10
10195.02102422326
 20
-9566.472504236548
 30
0.0
 40
52.5
 41
490.0
 71
     1
 72
     5
  1
HOKKAIDO
 73
     1
 44
1.0
  0
MTEXT
  5
4CF
330
22
100
AcDbEntity
  8
0
  6
Continuous
100
AcDbMText
 10
10191.30886062656
 20
-9685.334155928018
 30
0.0
 40
105.0
 41
490.0
 71
     1
 72
     5
  1
SUIKO
 73
     1
 44
1.0
  0
MTEXT
  5
4D0
330
22
100
AcDbEntity
  8
0
  6
Continuous
100
AcDbMText
 10
10706.1404928379
 20
-9634.654671176953
 30
0.0
 40
105.0
 41
1563.276230496995
 71
     1
 72
     5
  1
北海道スイコー株式会社
 73
     1
 44
1.0
  0
MTEXT
  5
4D1
330
22
100
AcDbEntity
  8
0
  6
Continuous
100
AcDbMText
 10
12173.32354510902
 20
-9509.055650843441
 30
0.0
 40
122.5
 41
245.0
 71
     1
 72
     5
  1
図
 73
     1
 44
1.0
  0
MTEXT
  5
4D2
330
22
100
AcDbEntity
  8
0
  6
Continuous
100
AcDbMText
 10
12167.59643556989
 20
-9729.421002313209
 30
0.0
 40
122.5
 41
245.0
 71
     1
 72
     5
  1
番
 73
     1
 44
1.0
  0
MTEXT
  5
4D3
330
22
100
AcDbEntity
  8
0
  6
Continuous
100
AcDbMText
 10
12167.59643556989
 20
-8490.250390055775
 30
0.0
 40
122.5
 41
245.0
 71
     1
 72
     5
  1
名
 73
     1
 44
1.0
  0
MTEXT
  5
4D4
330
22
100
AcDbEntity
  8
0
  6
Continuous
100
AcDbMText
 10
12166.82132739433
 20
-9075.738823851633
 30
0.0
 40
122.5
 41
245.0
 71
     1
 72
     5
  1
称
 73
     1
 44
1.0
  0
MTEXT
  5
4D5
330
22
100
AcDbEntity
  8
0
  6
Continuous
100
AcDbMText
 10
10230.50658808741
 20
-8976.762377964776
 30
0.0
 40
87.5
 41
245.0
 71
     1
 72
     5
  1
年
 73
     1
 44
1.0
  0
MTEXT
  5
4D6
330
22
100
AcDbEntity
  8
0
  6
Continuous
100
AcDbMText
 10
10270.59864067578
 20
-9072.638402146706
 30
0.0
 40
87.5
 41
245.0
 71
     1
 72
     5
  1
・
 73
     1
 44
1.0
  0
MTEXT
  5
4D7
330
22
100
AcDbEntity
  8
0
  6
Continuous
100
AcDbMText
 10
10224.77890709457
 20
-9151.346444465071
 30
0.0
 40
87.5
 41
245.0
 71
     1
 72
     5
  1
月
 73
     1
 44
1.0
  0
MTEXT
  5
4D8
330
22
100
AcDbEntity
  8
0
  6
Continuous
100
AcDbMText
 10
10264.87095968307
 20
-9230.054486783499
 30
0.0
 40
87.5
 41
245.0
 71
     1
 72
     5
  1
・
 73
     1
 44
1.0
  0
MTEXT
  5
4D9
330
22
100
AcDbEntity
  8
0
  6
Continuous
100
AcDbMText
 10
10241.96137861926
 20
-9310.171735480043
 30
0.0
 40
87.5
 41
245.0
 71
     1
 72
     5
  1
日
 73
     1
 44
1.0
  0
MTEXT
  5
4DA
330
22
100
AcDbEntity
  8
0
  6
Continuous
100
AcDbMText
 10
11191.5855321446
 20
-9028.574940017128
 30
0.0
 40
105.0
 41
245.0
 71
     1
 72
     5
  1
尺
 73
     1
 44
1.0
  0
MTEXT
  5
4DB
330
22
100
AcDbEntity
  8
0
  6
Continuous
100
AcDbMText
 10
11191.3801444579
 20
-9239.436802313406
 30
0.0
 40
105.0
 41
245.0
 71
     1
 72
     5
  1
度
 73
     1
 44
1.0
  0
MTEXT
  5
4DC
330
22
100
AcDbEntity
  8
0
  6
Continuous
100
AcDbMText
 10
10207.59700702373
 20
-8315.666323555479
 30
0.0
 40
105.0
 41
490.0
 71
     1
 72
     5
  1
設　計
 73
     1
 44
1.0
  0
MTEXT
  5
4DD
330
22
100
AcDbEntity
  8
0
  6
Continuous
100
AcDbMText
 10
10691.86875457705
 20
-8315.666323555543
 30
0.0
 40
105.0
 41
490.0
 71
     1
 72
     5
  1
製　図
 73
     1
 44
1.0
  0
MTEXT
  5
4DE
330
22
100
AcDbEntity
  8
0
  6
Continuous
100
AcDbMText
 10
11181.86875457705
 20
-8309.943662934312
 30
0.0
 40
105.0
 41
490.0
 71
     1
 72
     5
  1
検　図
 73
     1
 44
1.0
  0
MTEXT
  5
4DF
330
22
100
AcDbEntity
  8
0
  6
Continuous
100
AcDbMText
 10
11683.32354510889
 20
-8315.666323555479
 30
0.0
 40
105.0
 41
490.0
 71
     1
 72
     5
  1
承　認
 73
     1
 44
1.0
  0
LINE
  5
4E0
330
22
100
AcDbEntity
  8
0
100
AcDbLine
 10
10156.04902099584
 20
-8252.71705672244
 30
0.0
 11
10401.04902099584
 21
-8252.71705672244
 31
0.0
  0
LINE
  5
4E1
330
22
100
AcDbEntity
  8
0
100
AcDbLine
 10
10401.04902099584
 20
-8252.71705672244
 30
0.0
 11
10646.04902099584
 21
-8252.71705672244
 31
0.0
  0
LINE
  5
4E2
330
22
100
AcDbEntity
  8
0
100
AcDbLine
 10
10646.04902099584
 20
-8252.71705672244
 30
0.0
 11
10891.04902099584
 21
-8252.71705672244
 31
0.0
  0
LINE
  5
4E3
330
22
100
AcDbEntity
  8
0
100
AcDbLine
 10
10891.04902099584
 20
-8252.71705672244
 30
0.0
 11
11136.04902099584
 21
-8252.71705672244
 31
0.0
  0
LINE
  5
4E4
330
22
100
AcDbEntity
  8
0
100
AcDbLine
 10
11136.04902099584
 20
-8252.71705672244
 30
0.0
 11
11381.04902099584
 21
-8252.71705672244
 31
0.0
  0
LINE
  5
4E5
330
22
100
AcDbEntity
  8
0
100
AcDbLine
 10
11381.04902099584
 20
-8252.71705672244
 30
0.0
 11
11626.04902099584
 21
-8252.71705672244
 31
0.0
  0
LINE
  5
4E6
330
22
100
AcDbEntity
  8
0
100
AcDbLine
 10
11626.04902099584
 20
-8252.71705672244
 30
0.0
 11
11871.04902099584
 21
-8252.71705672244
 31
0.0
  0
LINE
  5
4E7
330
22
100
AcDbEntity
  8
0
100
AcDbLine
 10
11871.04902099584
 20
-8252.71705672244
 30
0.0
 11
12116.04902099584
 21
-8252.71705672244
 31
0.0
  0
LINE
  5
4E8
330
22
100
AcDbEntity
  8
0
100
AcDbLine
 10
12116.04902099584
 20
-8252.71705672244
 30
0.0
 11
12361.04902099584
 21
-8252.71705672244
 31
0.0
  0
LINE
  5
4E9
330
22
100
AcDbEntity
  8
0
100
AcDbLine
 10
12361.04902099584
 20
-8252.71705672244
 30
0.0
 11
12606.04902099584
 21
-8252.71705672244
 31
0.0
  0
LINE
  5
4EA
330
22
100
AcDbEntity
  8
0
100
AcDbLine
 10
12606.04902099584
 20
-8252.71705672244
 30
0.0
 11
12851.04902099584
 21
-8252.71705672244
 31
0.0
  0
LINE
  5
4EB
330
22
100
AcDbEntity
  8
0
100
AcDbLine
 10
12851.04902099584
 20
-8252.71705672244
 30
0.0
 11
13096.04902099584
 21
-8252.71705672244
 31
0.0
  0
LINE
  5
4EC
330
22
100
AcDbEntity
  8
0
100
AcDbLine
 10
13096.04902099584
 20
-8252.71705672244
 30
0.0
 11
13341.04902099584
 21
-8252.71705672244
 31
0.0
  0
LINE
  5
4ED
330
22
100
AcDbEntity
  8
0
100
AcDbLine
 10
13341.04902099584
 20
-8252.71705672244
 30
0.0
 11
13586.04902099584
 21
-8252.71705672244
 31
0.0
  0
LINE
  5
4EE
330
22
100
AcDbEntity
  8
0
100
AcDbLine
 10
13586.04902099584
 20
-8252.71705672244
 30
0.0
 11
13831.04902099584
 21
-8252.71705672244
 31
0.0
  0
LINE
  5
4EF
330
22
100
AcDbEntity
  8
0
100
AcDbLine
 10
13831.04902099584
 20
-8252.71705672244
 30
0.0
 11
14076.04902099584
 21
-8252.71705672244
 31
0.0
  0
LINE
  5
4F0
330
22
100
AcDbEntity
  8
0
100
AcDbLine
 10
14076.04902099584
 20
-8252.71705672244
 30
0.0
 11
14321.04902099584
 21
-8252.71705672244
 31
0.0
  0
LINE
  5
4F1
330
22
100
AcDbEntity
  8
0
100
AcDbLine
 10
14321.04902099584
 20
-8252.71705672244
 30
0.0
 11
14566.04902099584
 21
-8252.71705672244
 31
0.0
  0
LINE
  5
4F2
330
22
100
AcDbEntity
  8
0
100
AcDbLine
 10
14566.04902099584
 20
-8252.71705672244
 30
0.0
 11
14811.04902099584
 21
-8252.71705672244
 31
0.0
  0
LINE
  5
4F3
330
22
100
AcDbEntity
  8
0
100
AcDbLine
 10
10156.04902099584
 20
-7762.717056722441
 30
0.0
 11
10401.04902099584
 21
-7762.717056722441
 31
0.0
  0
LINE
  5
4F4
330
22
100
AcDbEntity
  8
0
100
AcDbLine
 10
10156.04902099584
 20
-8252.71705672244
 30
0.0
 11
10401.04902099584
 21
-8252.71705672244
 31
0.0
  0
LINE
  5
4F5
330
22
100
AcDbEntity
  8
0
100
AcDbLine
 10
10401.04902099584
 20
-7762.717056722441
 30
0.0
 11
10646.04902099584
 21
-7762.717056722441
 31
0.0
  0
LINE
  5
4F6
330
22
100
AcDbEntity
  8
0
100
AcDbLine
 10
10401.04902099584
 20
-8252.71705672244
 30
0.0
 11
10646.04902099584
 21
-8252.71705672244
 31
0.0
  0
LINE
  5
4F7
330
22
100
AcDbEntity
  8
0
100
AcDbLine
 10
10646.04902099584
 20
-7762.717056722441
 30
0.0
 11
10891.04902099584
 21
-7762.717056722441
 31
0.0
  0
LINE
  5
4F8
330
22
100
AcDbEntity
  8
0
100
AcDbLine
 10
10646.04902099584
 20
-8252.71705672244
 30
0.0
 11
10891.04902099584
 21
-8252.71705672244
 31
0.0
  0
LINE
  5
4F9
330
22
100
AcDbEntity
  8
0
100
AcDbLine
 10
10891.04902099584
 20
-7762.717056722441
 30
0.0
 11
11136.04902099584
 21
-7762.717056722441
 31
0.0
  0
LINE
  5
4FA
330
22
100
AcDbEntity
  8
0
100
AcDbLine
 10
10891.04902099584
 20
-8252.71705672244
 30
0.0
 11
11136.04902099584
 21
-8252.71705672244
 31
0.0
  0
LINE
  5
4FB
330
22
100
AcDbEntity
  8
0
100
AcDbLine
 10
10156.04902099584
 20
-7762.717056722441
 30
0.0
 11
10156.04902099584
 21
-8007.717056722439
 31
0.0
  0
LINE
  5
4FC
330
22
100
AcDbEntity
  8
0
100
AcDbLine
 10
10156.04902099584
 20
-8007.717056722439
 30
0.0
 11
10156.04902099584
 21
-8252.71705672244
 31
0.0
  0
LINE
  5
4FD
330
22
100
AcDbEntity
  8
0
100
AcDbLine
 10
11136.04902099584
 20
-7762.717056722441
 30
0.0
 11
11381.04902099584
 21
-7762.717056722441
 31
0.0
  0
LINE
  5
4FE
330
22
100
AcDbEntity
  8
0
100
AcDbLine
 10
11136.04902099584
 20
-8252.71705672244
 30
0.0
 11
11381.04902099584
 21
-8252.71705672244
 31
0.0
  0
LINE
  5
4FF
330
22
100
AcDbEntity
  8
0
100
AcDbLine
 10
11381.04902099584
 20
-7762.717056722441
 30
0.0
 11
11626.04902099584
 21
-7762.717056722441
 31
0.0
  0
LINE
  5
500
330
22
100
AcDbEntity
  8
0
100
AcDbLine
 10
11381.04902099584
 20
-8252.71705672244
 30
0.0
 11
11626.04902099584
 21
-8252.71705672244
 31
0.0
  0
LINE
  5
501
330
22
100
AcDbEntity
  8
0
100
AcDbLine
 10
11626.04902099584
 20
-7762.717056722441
 30
0.0
 11
11871.04902099584
 21
-7762.717056722441
 31
0.0
  0
LINE
  5
502
330
22
100
AcDbEntity
  8
0
100
AcDbLine
 10
11626.04902099584
 20
-8252.71705672244
 30
0.0
 11
11871.04902099584
 21
-8252.71705672244
 31
0.0
  0
LINE
  5
503
330
22
100
AcDbEntity
  8
0
100
AcDbLine
 10
11871.04902099584
 20
-7762.717056722441
 30
0.0
 11
12116.04902099584
 21
-7762.717056722441
 31
0.0
  0
LINE
  5
504
330
22
100
AcDbEntity
  8
0
100
AcDbLine
 10
11871.04902099584
 20
-8252.71705672244
 30
0.0
 11
12116.04902099584
 21
-8252.71705672244
 31
0.0
  0
LINE
  5
505
330
22
100
AcDbEntity
  8
0
100
AcDbLine
 10
12116.04902099584
 20
-7762.717056722441
 30
0.0
 11
12361.04902099584
 21
-7762.717056722441
 31
0.0
  0
LINE
  5
506
330
22
100
AcDbEntity
  8
0
100
AcDbLine
 10
12116.04902099584
 20
-8252.71705672244
 30
0.0
 11
12361.04902099584
 21
-8252.71705672244
 31
0.0
  0
LINE
  5
507
330
22
100
AcDbEntity
  8
0
100
AcDbLine
 10
12361.04902099584
 20
-7762.717056722441
 30
0.0
 11
12606.04902099584
 21
-7762.717056722441
 31
0.0
  0
LINE
  5
508
330
22
100
AcDbEntity
  8
0
100
AcDbLine
 10
12361.04902099584
 20
-8252.71705672244
 30
0.0
 11
12606.04902099584
 21
-8252.71705672244
 31
0.0
  0
LINE
  5
509
330
22
100
AcDbEntity
  8
0
100
AcDbLine
 10
12606.04902099584
 20
-7762.717056722441
 30
0.0
 11
12851.04902099584
 21
-7762.717056722441
 31
0.0
  0
LINE
  5
50A
330
22
100
AcDbEntity
  8
0
100
AcDbLine
 10
12606.04902099584
 20
-8252.71705672244
 30
0.0
 11
12851.04902099584
 21
-8252.71705672244
 31
0.0
  0
LINE
  5
50B
330
22
100
AcDbEntity
  8
0
100
AcDbLine
 10
12851.04902099584
 20
-7762.717056722441
 30
0.0
 11
13096.04902099584
 21
-7762.717056722441
 31
0.0
  0
LINE
  5
50C
330
22
100
AcDbEntity
  8
0
100
AcDbLine
 10
12851.04902099584
 20
-8252.71705672244
 30
0.0
 11
13096.04902099584
 21
-8252.71705672244
 31
0.0
  0
LINE
  5
50D
330
22
100
AcDbEntity
  8
0
100
AcDbLine
 10
13096.04902099584
 20
-7762.717056722441
 30
0.0
 11
13341.04902099584
 21
-7762.717056722441
 31
0.0
  0
LINE
  5
50E
330
22
100
AcDbEntity
  8
0
100
AcDbLine
 10
13096.04902099584
 20
-8252.71705672244
 30
0.0
 11
13341.04902099584
 21
-8252.71705672244
 31
0.0
  0
LINE
  5
50F
330
22
100
AcDbEntity
  8
0
100
AcDbLine
 10
13341.04902099584
 20
-7762.717056722441
 30
0.0
 11
13586.04902099584
 21
-7762.717056722441
 31
0.0
  0
LINE
  5
510
330
22
100
AcDbEntity
  8
0
100
AcDbLine
 10
13341.04902099584
 20
-8252.71705672244
 30
0.0
 11
13586.04902099584
 21
-8252.71705672244
 31
0.0
  0
LINE
  5
511
330
22
100
AcDbEntity
  8
0
100
AcDbLine
 10
13586.04902099584
 20
-7762.717056722441
 30
0.0
 11
13831.04902099584
 21
-7762.717056722441
 31
0.0
  0
LINE
  5
512
330
22
100
AcDbEntity
  8
0
100
AcDbLine
 10
13586.04902099584
 20
-8252.71705672244
 30
0.0
 11
13831.04902099584
 21
-8252.71705672244
 31
0.0
  0
LINE
  5
513
330
22
100
AcDbEntity
  8
0
100
AcDbLine
 10
13831.04902099584
 20
-7762.717056722441
 30
0.0
 11
14076.04902099584
 21
-7762.717056722441
 31
0.0
  0
LINE
  5
514
330
22
100
AcDbEntity
  8
0
100
AcDbLine
 10
13831.04902099584
 20
-8252.71705672244
 30
0.0
 11
14076.04902099584
 21
-8252.71705672244
 31
0.0
  0
LINE
  5
515
330
22
100
AcDbEntity
  8
0
100
AcDbLine
 10
14076.04902099584
 20
-7762.717056722441
 30
0.0
 11
14321.04902099584
 21
-7762.717056722441
 31
0.0
  0
LINE
  5
516
330
22
100
AcDbEntity
  8
0
100
AcDbLine
 10
14076.04902099584
 20
-8252.71705672244
 30
0.0
 11
14321.04902099584
 21
-8252.71705672244
 31
0.0
  0
LINE
  5
517
330
22
100
AcDbEntity
  8
0
100
AcDbLine
 10
14321.04902099584
 20
-7762.717056722441
 30
0.0
 11
14566.04902099584
 21
-7762.717056722441
 31
0.0
  0
LINE
  5
518
330
22
100
AcDbEntity
  8
0
100
AcDbLine
 10
14321.04902099584
 20
-8252.71705672244
 30
0.0
 11
14566.04902099584
 21
-8252.71705672244
 31
0.0
  0
LINE
  5
519
330
22
100
AcDbEntity
  8
0
100
AcDbLine
 10
14566.04902099584
 20
-7762.717056722441
 30
0.0
 11
14811.04902099584
 21
-7762.717056722441
 31
0.0
  0
LINE
  5
51A
330
22
100
AcDbEntity
  8
0
100
AcDbLine
 10
14566.04902099584
 20
-8252.71705672244
 30
0.0
 11
14811.04902099584
 21
-8252.71705672244
 31
0.0
  0
LINE
  5
51B
330
22
100
AcDbEntity
  8
0
100
AcDbLine
 10
11136.04902099584
 20
-7762.717056722441
 30
0.0
 11
11136.04902099584
 21
-8007.717056722439
 31
0.0
  0
LINE
  5
51C
330
22
100
AcDbEntity
  8
0
100
AcDbLine
 10
14811.04902099584
 20
-7762.717056722441
 30
0.0
 11
14811.04902099584
 21
-8007.717056722439
 31
0.0
  0
LINE
  5
51D
330
22
100
AcDbEntity
  8
0
100
AcDbLine
 10
11136.04902099584
 20
-8007.717056722439
 30
0.0
 11
11136.04902099584
 21
-8252.71705672244
 31
0.0
  0
LINE
  5
51E
330
22
100
AcDbEntity
  8
0
100
AcDbLine
 10
14811.04902099584
 20
-8007.717056722439
 30
0.0
 11
14811.04902099584
 21
-8252.71705672244
 31
0.0
  0
MTEXT
  5
51F
330
22
100
AcDbEntity
  8
0
100
AcDbMText
 10
10275.22777837644
 20
-7954.46310932614
 30
0.0
 40
122.5
 41
980.0
 71
     1
 72
     5
  1
納　入　先
 73
     1
 44
1.0
  0
TEXT
  5
528
330
22
100
AcDbEntity
  8
0
 48
35.0
100
AcDbText
 10
11491.97073331811
 20
-9259.113464642156
 30
0.0
 40
105.0
  1
１／３５
100
AcDbText
  0
TEXT
  5
529
330
22
100
AcDbEntity
  8
0
 48
35.0
100
AcDbText
 10
12546.97216290337
 20
-8712.37042856036
 30
0.0
 40
200.0
  1
ＬＡ－２００００
100
AcDbText
  0
TEXT
  5
52A
330
22
100
AcDbEntity
  8
0
 48
35.0
100
AcDbText
 10
12595.87187705529
 20
-9138.373709881355
 30
0.0
 40
130.0
  1
製品図
100
AcDbText
  0
DIMENSION
  5
539
330
22
100
AcDbEntity
  8
寸法線
 48
35.0
100
AcDbDimension
  2
*D0
 10
2958.226644406721
 20
-4512.430659245858
 30
0.0
 11
2846.226642737792
 21
-6362.43070059658
 31
0.0
 70
    32
 71
     5
 42
3700.000082701448
  3
1-35
100
AcDbAlignedDimension
 13
3413.964769000406
 23
-8212.430741947304
 33
0.0
 14
3413.964769000406
 24
-4512.430659245858
 34
0.0
 50
90.0
100
AcDbRotatedDimension
1001
ACAD
1000
DSTYLE
1002
{
1070
   340
1005
11
1002
}
  0
DIMENSION
  5
58A
330
22
100
AcDbEntity
  8
寸法線
 48
35.0
100
AcDbDimension
  2
*D4
 10
6118.964753726715
 20
-8930.674125459608
 30
0.0
 11
4753.964761363561
 21
-8818.674123790678
 31
0.0
 70
    32
  1
O.Dφ<>
 71
     5
 42
2729.99998472631
  3
1-35
100
AcDbAlignedDimension
 13
3388.964769000406
 23
-8187.430741947306
 33
0.0
 14
6118.964753726715
 24
-8187.430741947306
 34
0.0
100
AcDbRotatedDimension
1001
ACAD
1000
DSTYLE
1002
{
1070
   340
1005
11
1002
}
  0
DIMENSION
  5
5D7
330
22
100
AcDbEntity
  8
寸法線
 48
35.0
100
AcDbDimension
  2
*D5
 10
11812.694899808
 20
-1141.907225227411
 30
0.0
 11
11612.69553279502
 21
-1029.907223558481
 31
0.0
 70
    32
 71
     5
 42
399.9987340259686
  3
1-35
100
AcDbAlignedDimension
 13
11412.69616578203
 23
-1412.880976040241
 33
0.0
 14
11812.694899808
 24
-1412.880976040241
 34
0.0
100
AcDbRotatedDimension
1001
ACAD
1000
DSTYLE
1002
{
1070
   340
1005
11
1002
}
  0
DIMENSION
  5
5E4
330
22
100
AcDbEntity
  8
寸法線
 48
35.0
100
AcDbDimension
  2
*D6
 10
11822.72554775545
 20
-884.1968763748791
 30
0.0
 11
11612.71092221425
 21
-772.1968747059491
 31
0.0
 70
    32
 71
     5
 42
420.0292510824056
  3
1-35
100
AcDbAlignedDimension
 13
11402.69629667305
 23
-1384.070015349431
 33
0.0
 14
11822.72554775545
 24
-1384.070015349431
 34
0.0
100
AcDbRotatedDimension
1001
ACAD
1000
DSTYLE
1002
{
1070
   340
1005
11
1002
}
  0
LINE
  5
736
330
22
100
AcDbEntity
  8
2
100
AcDbLine
 10
10263.94604531516
 20
-2522.815667057586
 30
0.0
 11
10677.69547053401
 21
-2532.815453634622
 31
0.0
  0
LINE
  5
737
330
22
100
AcDbEntity
  8
2
100
AcDbLine
 10
10677.6952830143
 20
-2532.81551318443
 30
0.0
 11
10292.76180273068
 21
-2532.81551318443
 31
0.0
  0
LINE
  5
738
330
22
100
AcDbEntity
  8
2
100
AcDbLine
 10
10677.6952830143
 20
-2932.81552212513
 30
0.0
 11
10292.76180273068
 21
-2932.81552212513
 31
0.0
  0
LINE
  5
739
330
22
100
AcDbEntity
  8
2
100
AcDbLine
 10
10263.94472713677
 20
-2942.814512283074
 30
0.0
 11
10292.76049485807
 21
-2932.814686543114
 31
0.0
  0
LINE
  5
73A
330
22
100
AcDbEntity
  8
2
100
AcDbLine
 10
10263.94652639833
 20
-2522.816177048778
 30
0.0
 11
10292.76229637201
 21
-2532.815996298233
 31
0.0
  0
LINE
  5
73B
330
22
100
AcDbEntity
  8
2
100
AcDbLine
 10
10263.94487523176
 20
-2942.814648114949
 30
0.0
 11
10677.69391603845
 21
-2932.814744402252
 31
0.0
  0
ARC
  5
73C
330
22
100
AcDbEntity
  8
2
100
AcDbCircle
 10
11612.69553279502
 20
-2732.81475471531
 30
0.0
 40
1334.999972619115
100
AcDbArc
 50
171.3839485884606
 51
188.6160514115386
  0
ARC
  5
73D
330
22
100
AcDbEntity
  8
2
100
AcDbCircle
 10
11612.69553279502
 20
-2732.81475471531
 30
0.0
 40
934.9999726191155
100
AcDbArc
 50
171.3839485884606
 51
188.6160514115386
  0
DIMENSION
  5
E0B
330
22
100
AcDbEntity
  8
寸法線
 48
35.0
100
AcDbDimension
  2
*D9
 10
11423.53186682855
 20
-2896.268449296057
 30
0.0
 11
13072.83133231514
 21
-1471.131704739469
 31
0.0
 70
   163
  1
I.D<>
 71
     5
 42
500.0000111758727
  3
1-35
100
AcDbDiametricDimension
 15
11801.85919876148
 25
-2569.361060134562
 35
0.0
 40
0.0
1001
ACAD
1000
DSTYLE
1002
{
1070
   288
1070
     1
1002
}
  0
LINE
  5
EE7
330
22
100
AcDbEntity
  8
3
  6
CENTER
100
AcDbLine
 10
13282.17731882783
 20
-4765.317262476306
 30
0.0
 11
12451.35495563127
 21
-4765.317262476306
 31
0.0
  0
LINE
  5
EE8
330
22
100
AcDbEntity
  8
3
  6
Continuous
100
AcDbLine
 10
12606.07268353384
 20
-5924.764117933394
 30
0.0
 11
12787.05494324702
 21
-5924.764117933394
 31
0.0
  0
LINE
  5
EE9
330
22
100
AcDbEntity
  8
3
  6
Continuous
100
AcDbLine
 10
12877.07743827736
 20
-5572.321536387741
 30
0.0
 11
12877.07743827736
 21
-5834.741622369195
 31
0.0
  0
ARC
  5
EEA
330
22
100
AcDbEntity
  8
3
  6
Continuous
100
AcDbCircle
 10
8781.053645964142
 20
-4765.317262476306
 30
0.0
 40
4096.023792313211
100
AcDbArc
 50
355.4804635681139
 51
5.089581616663068
  0
ARC
  5
EEB
330
22
100
AcDbEntity
  8
3
  6
Continuous
100
AcDbCircle
 10
12787.05493734739
 20
-5834.74162236919
 30
0.0
 40
90.02249556420151
100
AcDbArc
 50
269.9999962451469
 51
0.0
  0
SPLINE
  5
EEC
330
22
100
AcDbEntity
  8
3
100
AcDbSpline
210
0.0
220
0.0
230
1.0
 70
     8
 71
     3
 72
    25
 73
    21
 74
    19
 42
0.0000000001
 43
0.0000000001
 44
0.0000000001
 12
-0.9088068481484354
 22
-0.4172171050646258
 32
0.0
 13
-0.3606669891202437
 23
-0.932694656872729
 33
0.0
 40
0.0
 40
0.0
 40
0.0
 40
0.0
 40
35.90325491024585
 40
71.80169009635623
 40
107.6930973229471
 40
143.5966288686032
 40
179.5037524729625
 40
215.4041665012707
 40
251.296376144173
 40
287.1705303301082
 40
322.9971792396746
 40
358.7275039592358
 40
394.4833527929759
 40
430.3061364586988
 40
466.149483723324
 40
502.0217744093654
 40
537.924759556425
 40
573.7075175893742
 40
609.5075790629444
 40
645.3742175797421
 40
645.3742175797421
 40
645.3742175797421
 40
645.3742175797421
 10
12913.6771016542
 20
-5556.711920013328
 30
0.0
 10
12902.80072700978
 20
-5561.705070705345
 30
0.0
 10
12880.84271588888
 20
-5571.249505060504
 30
0.0
 10
12847.03956295712
 20
-5583.467372683729
 30
0.0
 10
12812.12099750874
 20
-5592.083959864588
 30
0.0
 10
12776.63330021017
 20
-5597.6128959683
 30
0.0
 10
12741.08288280036
 20
-5602.613272631622
 30
0.0
 10
12705.75424119001
 20
-5609.131303631608
 30
0.0
 10
12671.08196694871
 20
-5618.627597657333
 30
0.0
 10
12637.76324528012
 20
-5632.213152505144
 30
0.0
 10
12607.30321021335
 20
-5651.603829917953
 30
0.0
 10
12583.43765772145
 20
-5679.293387760846
 30
0.0
 10
12571.6479214778
 20
-5713.806799047309
 30
0.0
 10
12569.32785903892
 20
-5749.799025277133
 30
0.0
 10
12574.51671286357
 20
-5785.574409051122
 30
0.0
 10
12587.29924334721
 20
-5819.26753266655
 30
0.0
 10
12602.34375985243
 20
-5851.732761031199
 30
0.0
 10
12611.61360120217
 20
-5886.952619483475
 30
0.0
 10
12607.61034271776
 20
-5923.133795657213
 30
0.0
 10
12600.45530099091
 20
-5945.98047107425
 30
0.0
 10
12596.14333014967
 20
-5957.131345109116
 30
0.0
 11
12913.6771016542
 21
-5556.711920013328
 31
0.0
 11
12880.69637272747
 21
-5570.900479933627
 31
0.0
 11
12846.85144784591
 21
-5582.867881847699
 31
0.0
 11
12812.0305832537
 21
-5591.568485375946
 31
0.0
 11
12776.62452560094
 21
-5597.524546065627
 31
0.0
 11
12741.11701880116
 21
-5602.866688557424
 31
0.0
 11
12705.85918872722
 21
-5609.628725667725
 31
0.0
 11
12671.298013498
 21
-5619.312520369462
 31
0.0
 11
12638.21777102391
 21
-5633.192451796208
 31
0.0
 11
12608.37256644383
 21
-5653.011950671368
 31
0.0
 11
12585.4528964174
 21
-5680.422620682239
 31
0.0
 11
12573.23187631222
 21
-5714.025111563276
 31
0.0
 11
12570.57903364572
 21
-5749.749532557156
 31
0.0
 11
12575.77873281438
 21
-5785.213721137862
 31
0.0
 11
12587.67383973707
 21
-5819.056411195856
 31
0.0
 11
12601.3962050907
 21
-5852.233527278656
 31
0.0
 11
12609.40306485079
 21
-5887.10896231862
 31
0.0
 11
12606.49366890344
 21
-5922.79060769454
 31
0.0
 11
12596.14333014967
 21
-5957.131345109116
 31
0.0
  0
SPLINE
  5
EED
330
22
100
AcDbEntity
  8
3
100
AcDbSpline
210
0.0
220
0.0
230
1.0
 70
     8
 71
     3
 72
    29
 73
    25
 74
    23
 42
0.0000000001
 43
0.0000000001
 44
0.0000000001
 12
-0.9874086049190202
 22
-0.1581905399569598
 32
0.0
 13
0.9673712617183381
 23
0.2533630636092614
 33
0.0
 40
0.0
 40
0.0
 40
0.0
 40
0.0
 40
42.46962737898993
 40
84.93513300412317
 40
127.374897909476
 40
169.7116177545722
 40
211.7202847512204
 40
254.0622411091082
 40
296.5519006390149
 40
339.0025489545818
 40
381.3513043943445
 40
423.8081082713066
 40
466.2999366106238
 40
508.7460710711952
 40
550.9015428261134
 40
593.2036436536169
 40
635.6827114533577
 40
678.1671988914938
 40
720.6440114458689
 40
763.1080572708112
 40
805.4002048621953
 40
847.712018869015
 40
889.9820631652994
 40
932.316680369518
 40
932.316680369518
 40
932.316680369518
 40
932.316680369518
 10
12877.38576380808
 20
-4398.912076990156
 30
0.0
 10
12863.40747196751
 20
-4401.151508085773
 30
0.0
 10
12835.70516442946
 20
-4407.297185013439
 30
0.0
 10
12795.39352521753
 20
-4420.9860653715
 30
0.0
 10
12757.43238678896
 20
-4440.161604913213
 30
0.0
 10
12723.60047811378
 20
-4466.546251605884
 30
0.0
 10
12703.4440132666
 20
-4505.963100799987
 30
0.0
 10
12705.72930382079
 20
-4549.132979227471
 30
0.0
 10
12712.27444326123
 20
-4590.784020901229
 30
0.0
 10
12716.915254232
 20
-4633.261158029719
 30
0.0
 10
12709.55328116713
 20
-4675.648123244975
 30
0.0
 10
12692.5832762028
 20
-4714.703148704743
 30
0.0
 10
12673.35251065181
 20
-4752.534530201263
 30
0.0
 10
12655.96820120622
 20
-4791.211243370736
 30
0.0
 10
12650.3865515736
 20
-4834.73920875259
 30
0.0
 10
12667.3214065534
 20
-4874.78130492965
 30
0.0
 10
12689.67765761045
 20
-4910.582770333202
 30
0.0
 10
12712.57433937228
 20
-4946.539615720994
 30
0.0
 10
12729.54787773069
 20
-4985.526925544967
 30
0.0
 10
12746.08598464506
 20
-5024.703411029324
 30
0.0
 10
12772.94136250151
 20
-5058.492713690903
 30
0.0
 10
12809.67538140845
 20
-5081.022378080478
 30
0.0
 10
12851.70860441045
 20
-5090.70724330346
 30
0.0
 10
12880.22409104474
 20
-5086.952367948293
 30
0.0
 10
12893.87518839781
 20
-5083.377025177764
 30
0.0
 11
12877.38576380808
 21
-4398.912076990156
 31
0.0
 11
12835.90934393726
 21
-4408.043114412572
 31
0.0
 11
12795.77070250645
 21
-4421.907047191071
 31
0.0
 11
12758.07075007581
 21
-4441.396717068965
 31
0.0
 11
12725.80249696934
 21
-4468.803973201225
 31
0.0
 11
12707.20265148222
 21
-4506.470587738375
 31
0.0
 11
12706.43263140303
 21
-4548.805541822334
 31
0.0
 11
12711.95840826321
 21
-4590.934355680059
 31
0.0
 11
12714.91479465381
 21
-4633.281933201345
 31
0.0
 11
12707.96378423716
 21
-4675.056333753411
 31
0.0
 11
12692.21354153023
 21
-4714.483609212409
 31
0.0
 11
12673.64683870129
 21
-4752.704454593949
 31
0.0
 11
12657.90471788155
 21
-4792.123485058204
 31
0.0
 11
12654.12559885028
 21
-4834.109221424584
 31
0.0
 11
12668.18965111321
 21
-4874.004962655519
 31
0.0
 11
12689.76165466749
 21
-4910.598949371771
 31
0.0
 11
12711.58867066133
 21
-4947.047722268617
 31
0.0
 11
12729.48116019793
 21
-4985.572239435765
 31
0.0
 11
12747.83934717841
 21
-5023.862866991509
 31
0.0
 11
12774.59012727843
 21
-5056.619874057655
 31
0.0
 11
12810.5691932463
 21
-5078.886360458251
 31
0.0
 11
12851.81088758964
 21
-5088.153468556229
 31
0.0
 11
12893.87518839781
 21
-5083.377025177764
 31
0.0
  0
LINE
  5
EFF
330
22
100
AcDbEntity
  8
0
  6
Continuous
100
AcDbLine
 10
13182.12610839187
 20
-4600.317262476312
 30
0.0
 11
13182.12610839187
 21
-4585.317259794098
 31
0.0
  0
LINE
  5
F00
330
22
100
AcDbEntity
  8
0
  6
Continuous
100
AcDbLine
 10
13182.12610839187
 20
-4585.317259794098
 30
0.0
 11
13137.12610772131
 21
-4540.317259123539
 31
0.0
  0
LINE
  5
F01
330
22
100
AcDbEntity
  8
0
  6
CENTER
100
AcDbLine
 10
13062.12610660373
 20
-4824.783534233291
 30
0.0
 11
13062.12610660373
 21
-4694.711222326668
 31
0.0
  0
LINE
  5
F02
330
22
100
AcDbEntity
  8
0
  6
Continuous
100
AcDbLine
 10
13137.1261077213
 20
-4990.317265829062
 30
0.0
 11
13182.12610839186
 21
-4945.31726515851
 31
0.0
  0
LINE
  5
F03
330
22
100
AcDbEntity
  8
0
  6
Continuous
100
AcDbLine
 10
12870.89299558255
 20
-4990.317265829068
 30
0.0
 11
13137.12610772131
 21
-4990.317265829062
 31
0.0
  0
LINE
  5
F04
330
22
100
AcDbEntity
  8
0
  6
Continuous
100
AcDbLine
 10
12870.89299558254
 20
-4540.317259123545
 30
0.0
 11
13137.12610772131
 21
-4540.317259123545
 31
0.0
  0
LINE
  5
F05
330
22
100
AcDbEntity
  8
0
  6
Continuous
100
AcDbLine
 10
13182.12610839187
 20
-4945.31726515851
 30
0.0
 11
13182.12610839187
 21
-4930.317264934998
 31
0.0
  0
LINE
  5
F07
330
22
100
AcDbEntity
  8
0
100
AcDbLine
 10
13194.12610857067
 20
-4930.317264935004
 30
0.0
 11
12972.12610526262
 21
-4930.317262476306
 31
0.0
  0
LINE
  5
F08
330
22
100
AcDbEntity
  8
0
100
AcDbLine
 10
13194.12610857068
 20
-4600.317262476312
 30
0.0
 11
12972.12610526262
 21
-4600.317262476306
 31
0.0
  0
LINE
  5
F0B
330
22
100
AcDbEntity
  8
0
  6
Continuous
100
AcDbLine
 10
13194.12610857068
 20
-4600.317260017621
 30
0.0
 11
13194.12610857067
 21
-4930.317264935004
 31
0.0
  0
LINE
  5
F0C
330
22
100
AcDbEntity
  8
0
  6
Continuous
100
AcDbLine
 10
12972.12610526262
 20
-4600.317260017621
 30
0.0
 11
12972.12610526262
 21
-4930.317264934998
 31
0.0
  0
ARC
  5
F0D
330
22
100
AcDbEntity
  8
0
  6
Continuous
100
AcDbCircle
 10
8817.126043348295
 20
-4765.3172624763
 30
0.0
 40
4125.000061467289
100
AcDbArc
 50
356.8732238864202
 51
3.126776113579734
  0
DIMENSION
  5
F10
330
22
100
AcDbEntity
  8
寸法線
 48
20.0
100
AcDbDimension
  2
*D10
 10
13520.23253553596
 20
-4930.317264935004
 30
0.0
 11
13408.23253386703
 21
-4765.317263705656
 31
0.0
 70
    32
  1
110
 71
     5
 42
330.0000024586916
  3
1-35
100
AcDbAlignedDimension
 13
13194.12610857068
 23
-4600.317262476312
 33
0.0
 14
13194.12610857067
 24
-4930.317264935004
 34
0.0
 50
90.0
100
AcDbRotatedDimension
  0
DIMENSION
  5
F11
330
22
100
AcDbEntity
  8
寸法線
 48
20.0
100
AcDbDimension
  2
*D11
 10
13781.37349558285
 20
-4540.317259123545
 30
0.0
 11
13669.37349391392
 21
-4765.317262476302
 31
0.0
 70
    32
  1
150
 71
     5
 42
450.0000067055171
  3
1-35
100
AcDbAlignedDimension
 13
13137.1261077213
 23
-4990.317265829062
 33
0.0
 14
13137.1261077213
 24
-4540.317259123545
 34
0.0
 50
90.0
100
AcDbRotatedDimension
  0
LINE
  5
F12
102
{ACAD_REACTORS
330
1032
102
}
330
22
100
AcDbEntity
  8
0
  6
Continuous
100
AcDbLine
 10
6143.964754099244
 20
-8182.430741500269
 30
0.0
 11
6218.964755216831
 21
-8182.430741500269
 31
0.0
  0
LINE
  5
F13
102
{ACAD_REACTORS
330
1032
102
}
330
22
100
AcDbEntity
  8
0
  6
CENTER
100
AcDbLine
 10
6178.964754620785
 20
-8162.716725050596
 30
0.0
 11
6178.964754620785
 21
-8229.745334819428
 31
0.0
  0
LINE
  5
F16
102
{ACAD_REACTORS
330
1032
102
}
330
22
100
AcDbEntity
  8
0
  6
Continuous
100
AcDbLine
 10
6148.96475417375
 20
-8178.430741440665
 30
0.0
 11
6148.96475417375
 21
-8182.430741500269
 31
0.0
  0
LINE
  5
F17
102
{ACAD_REACTORS
330
1032
102
}
330
22
100
AcDbEntity
  8
0
  6
Continuous
100
AcDbLine
 10
6222.964755276436
 20
-8178.430741440665
 30
0.0
 11
6222.964755276436
 21
-8207.430741872798
 31
0.0
  0
LINE
  5
F18
102
{ACAD_REACTORS
330
1032
102
}
330
22
100
AcDbEntity
  8
0
  6
Continuous
100
AcDbLine
 10
6148.96475417375
 20
-8178.430741440665
 30
0.0
 11
6222.964755276436
 21
-8178.430741440665
 31
0.0
  0
LINE
  5
F19
102
{ACAD_REACTORS
330
1032
102
}
330
22
100
AcDbEntity
  8
0
  6
Continuous
100
AcDbLine
 10
6218.964755216831
 20
-8207.430741872798
 30
0.0
 11
6222.964755276436
 21
-8207.430741872798
 31
0.0
  0
LINE
  5
F1A
102
{ACAD_REACTORS
330
1032
102
}
330
22
100
AcDbEntity
  8
0
  6
Continuous
100
AcDbLine
 10
6118.964753726715
 20
-8122.430740606199
 30
0.0
 11
6135.964753980036
 21
-8122.430740606199
 31
0.0
  0
LINE
  5
F1B
102
{ACAD_REACTORS
330
1032
102
}
330
22
100
AcDbEntity
  8
0
  6
Continuous
100
AcDbLine
 10
6110.177957119311
 20
-8203.6439453399
 30
0.0
 11
6118.964753726715
 21
-8212.430741947304
 31
0.0
  0
LINE
  5
F1C
102
{ACAD_REACTORS
330
1032
102
}
330
22
100
AcDbEntity
  8
0
  6
Continuous
100
AcDbLine
 10
6218.964755216831
 20
-8182.430741500269
 30
0.0
 11
6218.964755216831
 21
-8209.4307419026
 31
0.0
  0
LINE
  5
F1D
102
{ACAD_REACTORS
330
1032
102
}
330
22
100
AcDbEntity
  8
0
  6
Continuous
100
AcDbLine
 10
6138.964754024739
 20
-8125.430740650903
 30
0.0
 11
6138.964754024739
 21
-8177.430741425764
 31
0.0
  0
LINE
  5
F1E
102
{ACAD_REACTORS
330
1032
102
}
330
22
100
AcDbEntity
  8
0
  6
Continuous
100
AcDbLine
 10
6088.964756810354
 20
-8212.430741947304
 30
0.0
 11
6215.96475522481
 21
-8212.430741947304
 31
0.0
  0
ARC
  5
F1F
102
{ACAD_REACTORS
330
1032
102
}
330
22
100
AcDbEntity
  8
0
  6
Continuous
100
AcDbCircle
 10
6135.964753980036
 20
-8125.430740650903
 30
0.0
 40
3.000000044703484
100
AcDbArc
 50
0.0
 51
90.0
  0
ARC
  5
F20
102
{ACAD_REACTORS
330
1032
102
}
330
22
100
AcDbEntity
  8
0
  6
Continuous
100
AcDbCircle
 10
6215.964755172128
 20
-8209.4307419026
 30
0.0
 40
3.000000044703484
100
AcDbArc
 50
270.0
 51
0.0
  0
ARC
  5
F21
102
{ACAD_REACTORS
330
1032
102
}
330
22
100
AcDbEntity
  8
0
  6
Continuous
100
AcDbCircle
 10
6143.964754099244
 20
-8177.430741425764
 30
0.0
 40
5.000000074505805
100
AcDbArc
 50
180.0
 51
270.0
  0
ARC
  5
F22
102
{ACAD_REACTORS
330
1032
102
}
330
22
100
AcDbEntity
  8
0
  6
Continuous
100
AcDbCircle
 10
6215.964755172128
 20
-8185.430741544973
 30
0.0
 40
3.000000044703484
100
AcDbArc
 50
0.0
 51
90.0
  0
LINE
  5
F25
330
22
100
AcDbEntity
  8
0
  6
Continuous
100
AcDbLine
 10
12952.07743939494
 20
-5834.764116592289
 30
0.0
 11
13177.0774427477
 21
-5834.764116592289
 31
0.0
  0
LINE
  5
F26
330
22
100
AcDbEntity
  8
0
  6
CENTER
100
AcDbLine
 10
13057.07744095956
 20
-5775.622067243268
 30
0.0
 11
13057.07744095956
 21
-5976.707896549767
 31
0.0
  0
LINE
  5
F29
330
22
100
AcDbEntity
  8
0
  6
Continuous
100
AcDbLine
 10
12967.07743961846
 20
-5822.764116413476
 30
0.0
 11
12967.07743961846
 21
-5834.764116592289
 31
0.0
  0
LINE
  5
F2A
330
22
100
AcDbEntity
  8
0
  6
Continuous
100
AcDbLine
 10
13189.07744292652
 20
-5822.764116413476
 30
0.0
 11
13189.07744292652
 21
-5909.764117709876
 31
0.0
  0
LINE
  5
F2B
330
22
100
AcDbEntity
  8
0
  6
Continuous
100
AcDbLine
 10
12967.07743961846
 20
-5822.764116413476
 30
0.0
 11
13189.07744292652
 21
-5822.764116413476
 31
0.0
  0
LINE
  5
F2C
330
22
100
AcDbEntity
  8
0
  6
Continuous
100
AcDbLine
 10
13177.0774427477
 20
-5909.764117709876
 30
0.0
 11
13189.07744292652
 21
-5909.764117709876
 31
0.0
  0
LINE
  5
F2D
330
22
100
AcDbEntity
  8
0
  6
Continuous
100
AcDbLine
 10
12877.07743827736
 20
-5654.76411391008
 30
0.0
 11
12928.07743903731
 21
-5654.76411391008
 31
0.0
  0
LINE
  5
F2E
330
22
100
AcDbEntity
  8
0
  6
Continuous
100
AcDbLine
 10
12850.71704845514
 20
-5898.40372811118
 30
0.0
 11
12877.07743827736
 21
-5924.764117933394
 31
0.0
  0
LINE
  5
F2F
330
22
100
AcDbEntity
  8
0
  6
Continuous
100
AcDbLine
 10
13177.0774427477
 20
-5834.764116592289
 30
0.0
 11
13177.0774427477
 21
-5915.764117799284
 31
0.0
  0
LINE
  5
F30
330
22
100
AcDbEntity
  8
0
  6
Continuous
100
AcDbLine
 10
12937.07743917142
 20
-5663.764114044191
 30
0.0
 11
12937.07743917142
 21
-5819.764116368772
 31
0.0
  0
LINE
  5
F31
330
22
100
AcDbEntity
  8
0
  6
Continuous
100
AcDbLine
 10
12877.07743827736
 20
-5924.764117933394
 30
0.0
 11
13168.07744277164
 21
-5924.764117933394
 31
0.0
  0
ARC
  5
F32
330
22
100
AcDbEntity
  8
0
  6
Continuous
100
AcDbCircle
 10
12928.07743903731
 20
-5663.764114044191
 30
0.0
 40
9.000000134110452
100
AcDbArc
 50
0.0
 51
90.0
  0
ARC
  5
F33
330
22
100
AcDbEntity
  8
0
  6
Continuous
100
AcDbCircle
 10
13168.07744261359
 20
-5915.764117799284
 30
0.0
 40
9.000000134110452
100
AcDbArc
 50
270.0
 51
0.0
  0
ARC
  5
F34
330
22
100
AcDbEntity
  8
0
  6
Continuous
100
AcDbCircle
 10
12952.07743939494
 20
-5819.764116368772
 30
0.0
 40
15.00000022351741
100
AcDbArc
 50
180.0
 51
270.0
  0
ARC
  5
F35
330
22
100
AcDbEntity
  8
0
  6
Continuous
100
AcDbCircle
 10
13168.07744261359
 20
-5843.764116726401
 30
0.0
 40
9.000000134110452
100
AcDbArc
 50
0.0
 51
90.0
  0
DIMENSION
  5
F38
330
22
100
AcDbEntity
  8
寸法線
 48
20.0
100
AcDbDimension
  2
*D12
 10
13189.07744292652
 20
-5691.24953730697
 30
0.0
 11
13078.07744127249
 21
-5691.24953730697
 31
0.0
 70
   160
  1
74
 71
     5
 42
222.0000033080578
  3
1-35
100
AcDbAlignedDimension
 13
12967.07743961846
 23
-5834.764116592289
 33
0.0
 14
13189.07744292652
 24
-5834.764116592289
 34
0.0
100
AcDbRotatedDimension
  0
DIMENSION
  5
F39
330
22
100
AcDbEntity
  8
寸法線
 48
20.0
100
AcDbDimension
  2
*D13
 10
13746.16268369857
 20
-5822.764116413476
 30
0.0
 11
13634.16268202964
 21
-5465.764114744544
 31
0.0
 70
    32
  1
29
 71
     5
 42
87.00000129640102
  3
1-35
100
AcDbAlignedDimension
 13
13189.07744292652
 23
-5909.764117709876
 33
0.0
 14
13189.07744292652
 24
-5822.764116413476
 34
0.0
 50
90.0
100
AcDbRotatedDimension
  0
DIMENSION
  5
F3A
330
22
100
AcDbEntity
  8
寸法線
 48
20.0
100
AcDbDimension
  2
*D14
 10
13966.71311679817
 20
-5822.764116413476
 30
0.0
 11
13854.71311512924
 21
-5465.764114744544
 31
0.0
 70
    32
  1
34
 71
     5
 42
102.0000015199184
  3
1-35
100
AcDbAlignedDimension
 13
13168.07744277164
 23
-5924.764117933394
 33
0.0
 14
13189.07744292652
 24
-5822.764116413476
 34
0.0
 50
90.0
100
AcDbRotatedDimension
  0
TEXT
  5
F3C
330
22
100
AcDbEntity
  8
0
 48
20.0
100
AcDbText
 10
13183.49560161409
 20
-5231.990887863613
 30
0.0
 40
90.0
  1
融着
100
AcDbText
  0
MTEXT
  5
F3E
330
22
100
AcDbEntity
  8
0
 48
20.0
100
AcDbMText
 10
12802.25595968452
 20
-6156.838486665737
 30
0.0
 40
90.0
 41
0.0
 71
     9
 72
     1
  1
融着アンカープレート
 73
     1
 44
1.0
  0
MTEXT
  5
F40
330
22
100
AcDbEntity
  8
0
 48
20.0
100
AcDbMText
 10
13382.19403800277
 20
-4212.930443317909
 30
0.0
 40
90.0
 41
0.0
 71
     1
 72
     1
  1
24×34アンカー穴
 73
     1
 44
1.0
  0
TEXT
  5
F41
330
22
100
AcDbEntity
  8
0
 48
20.0
100
AcDbText
 10
12795.8012973238
 20
-6397.356398882094
 30
0.0
 40
90.0
  1
融着アンカープレート詳細図
100
AcDbText
  0
LWPOLYLINE
  5
F42
330
22
100
AcDbEntity
  8
0
 48
20.0
100
AcDbPolyline
 90
        2
 70
     0
 43
0.0
 10
12758.21769413099
 20
-6416.034090701663
 10
14224.14344681979
 20
-6416.034090701663
  0
MTEXT
  5
F45
330
22
100
AcDbEntity
  8
0
 48
20.0
100
AcDbMText
 10
13629.4022989912
 20
-5139.722933195012
 30
0.0
 40
90.0
 41
0.0
 71
     1
 72
     1
  1
押え金具（ＳＵＳ）
 73
     1
 44
1.0
  0
TEXT
  5
F46
330
22
100
AcDbEntity
  8
0
 48
20.0
100
AcDbText
 10
11721.14928486689
 20
-6288.745295172144
 30
0.0
 40
90.0
  1
（ＰＥ製）
100
AcDbText
  0
LINE
  5
FC2
102
{ACAD_REACTORS
330
1032
102
}
330
22
100
AcDbEntity
  8
0
  6
DASHED
100
AcDbLine
 10
6195.964754620781
 20
-8182.430741500269
 30
0.0
 11
6195.964754620785
 21
-8212.430741947304
 31
0.0
  0
LINE
  5
FC3
102
{ACAD_REACTORS
330
1032
102
}
330
22
100
AcDbEntity
  8
0
  6
DASHED
100
AcDbLine
 10
6161.964754620785
 20
-8182.430741500269
 30
0.0
 11
6161.964754620782
 21
-8212.430741947304
 31
0.0
  0
LWPOLYLINE
  5
FC4
102
{ACAD_REACTORS
330
1032
102
}
330
22
100
AcDbEntity
  8
0
  6
DASHED
 48
35.0
100
AcDbPolyline
 90
        2
 70
     0
 43
0.0
 10
6161.964754620785
 20
-8182.430741500269
 10
6161.964754620785
 20
-8178.430741440665
  0
LWPOLYLINE
  5
FC5
102
{ACAD_REACTORS
330
1032
102
}
330
22
100
AcDbEntity
  8
0
  6
DASHED
 48
35.0
100
AcDbPolyline
 90
        2
 70
     0
 43
0.0
 10
6195.964754620781
 20
-8182.430741500269
 10
6195.964754620781
 20
-8178.430741440665
  0
LINE
  5
FC7
330
22
100
AcDbEntity
  8
0
  6
CENTER
100
AcDbLine
 10
13077.12610660373
 20
-4801.31726247631
 30
0.0
 11
13047.12610660373
 21
-4801.317262476309
 31
0.0
  0
LINE
  5
FC8
330
22
100
AcDbEntity
  8
0
  6
CENTER
100
AcDbLine
 10
13077.12610660373
 20
-4729.317262476308
 30
0.0
 11
13047.12610660373
 21
-4729.317262476308
 31
0.0
  0
LINE
  5
FCB
330
22
100
AcDbEntity
  8
0
  6
DASHED
100
AcDbLine
 10
13006.07744095956
 20
-5834.764116592289
 30
0.0
 11
13006.07744095956
 21
-5924.764117933394
 31
0.0
  0
LINE
  5
FCC
330
22
100
AcDbEntity
  8
0
  6
DASHED
100
AcDbLine
 10
13108.07744095956
 20
-5834.764116592289
 30
0.0
 11
13108.07744095956
 21
-5924.764117933394
 31
0.0
  0
LWPOLYLINE
  5
FCD
330
22
100
AcDbEntity
  8
0
  6
DASHED
 48
35.0
100
AcDbPolyline
 90
        2
 70
     0
 43
0.0
 10
13006.07744095956
 20
-5834.764116592289
 10
13006.07744095956
 20
-5822.764116413476
  0
LWPOLYLINE
  5
FCE
330
22
100
AcDbEntity
  8
0
  6
DASHED
 48
35.0
100
AcDbPolyline
 90
        2
 70
     0
 43
0.0
 10
13108.07744095956
 20
-5834.764116592289
 10
13108.07744095956
 20
-5822.764116413476
  0
LINE
  5
101D
102
{ACAD_REACTORS
330
1031
102
}
330
22
100
AcDbEntity
  8
0
  6
Continuous
100
AcDbLine
 10
13015.16686180769
 20
-2300.083504776003
 30
0.0
 11
13013.87276635078
 21
-2295.253874780953
 31
0.0
  0
LINE
  5
101E
102
{ACAD_REACTORS
330
1031
102
}
330
22
100
AcDbEntity
  8
0
  6
Continuous
100
AcDbLine
 10
13013.87276635078
 20
-2295.253874780953
 30
0.0
 11
12995.50159300616
 21
-2284.647272905103
 31
0.0
  0
LINE
  5
101F
102
{ACAD_REACTORS
330
1031
102
}
330
22
100
AcDbEntity
  8
0
  6
CENTER
100
AcDbLine
 10
12995.89521021835
 20
-2382.708856408004
 30
0.0
 11
12984.6734796977
 21
-2340.828787956091
 31
0.0
  0
LINE
  5
1020
102
{ACAD_REACTORS
330
1031
102
}
330
22
100
AcDbEntity
  8
0
  6
Continuous
100
AcDbLine
 10
13034.32445035004
 20
-2429.536149007475
 30
0.0
 11
13044.93105222588
 21
-2411.164975662851
 31
0.0
  0
LINE
  5
1021
102
{ACAD_REACTORS
330
1031
102
}
330
22
100
AcDbEntity
  8
0
  6
Continuous
100
AcDbLine
 10
12948.60397074065
 20
-2452.504882293621
 30
0.0
 11
13034.32445035004
 21
-2429.536149007472
 31
0.0
  0
LINE
  5
1022
102
{ACAD_REACTORS
330
1031
102
}
330
22
100
AcDbEntity
  8
0
  6
Continuous
100
AcDbLine
 10
12909.78111339677
 20
-2307.616006191247
 30
0.0
 11
12995.50159300616
 21
-2284.647272905103
 31
0.0
  0
LINE
  5
1023
102
{ACAD_REACTORS
330
1031
102
}
330
22
100
AcDbEntity
  8
0
  6
Continuous
100
AcDbLine
 10
13044.93105222589
 20
-2411.16497566285
 30
0.0
 11
13043.63695698109
 21
-2406.335346459441
 31
0.0
  0
LINE
  5
1024
102
{ACAD_REACTORS
330
1031
102
}
330
22
100
AcDbEntity
  8
0
  6
CENTER
100
AcDbLine
 10
13125.45035264548
 20
-2327.473322390092
 30
0.0
 11
12903.71234557524
 21
-2386.887842315847
 31
0.0
  0
LINE
  5
1025
102
{ACAD_REACTORS
330
1031
102
}
330
22
100
AcDbEntity
  8
0
  6
CENTER
100
AcDbLine
 10
12998.70033333371
 20
-2373.859201870232
 30
0.0
 11
12989.04107507082
 21
-2376.447392321255
 31
0.0
  0
LINE
  5
1026
102
{ACAD_REACTORS
330
1031
102
}
330
22
100
AcDbEntity
  8
0
  6
CENTER
100
AcDbLine
 10
12992.48867625125
 20
-2350.676982039292
 30
0.0
 11
12982.82941798836
 21
-2353.265172490316
 31
0.0
  0
LINE
  5
1027
102
{ACAD_REACTORS
330
1031
102
}
330
22
100
AcDbEntity
  8
0
100
AcDbLine
 10
13047.50066034382
 20
-2405.300070263608
 30
0.0
 11
12976.0221479212
 21
-2424.452679094949
 31
0.0
  0
LINE
  5
1028
102
{ACAD_REACTORS
330
1031
102
}
330
22
100
AcDbEntity
  8
0
100
AcDbLine
 10
13019.03056517043
 20
-2299.048228580172
 30
0.0
 11
12947.55205295992
 21
-2318.200838203151
 31
0.0
  0
LINE
  5
1029
102
{ACAD_REACTORS
330
1031
102
}
330
22
100
AcDbEntity
  8
0
  6
Continuous
100
AcDbLine
 10
13019.0305649583
 20
-2299.04822778853
 30
0.0
 11
13047.50066034382
 21
-2405.300070263608
 31
0.0
  0
LINE
  5
102A
102
{ACAD_REACTORS
330
1031
102
}
330
22
100
AcDbEntity
  8
0
  6
Continuous
100
AcDbLine
 10
12947.5520527478
 20
-2318.200837411513
 30
0.0
 11
12976.02214813332
 21
-2424.452679886589
 31
0.0
  0
ARC
  5
102B
102
{ACAD_REACTORS
330
1031
102
}
330
22
100
AcDbEntity
  8
0
  6
Continuous
100
AcDbCircle
 10
11623.97981109532
 20
-2729.791141457575
 30
0.0
 40
1375.000020489096
100
AcDbArc
 50
11.87322388642028
 51
18.1267761135797
  0
TEXT
  5
1034
330
22
100
AcDbEntity
  8
0
 48
35.0
100
AcDbText
 10
11567.87774758632
 20
-584.2439866617515
 30
0.0
 40
105.0
  1
０°
100
AcDbText
  0
TEXT
  5
1035
330
22
100
AcDbEntity
  8
0
 48
35.0
100
AcDbText
 10
11987.41459743587
 20
-1139.117062929474
 30
0.0
 40
105.0
  1
１５°
100
AcDbText
  0
TEXT
  5
1036
330
22
100
AcDbEntity
  8
0
 48
35.0
100
AcDbText
 10
13072.6857920705
 20
-2231.804183739407
 30
0.0
 40
105.0
  1
７５°
100
AcDbText
  0
TEXT
  5
1037
330
22
100
AcDbEntity
  8
0
 48
35.0
100
AcDbText
 10
13309.40780266963
 20
-2782.60588715548
 30
0.0
 40
105.0
  1
９０°
100
AcDbText
  0
TEXT
  5
1038
330
22
100
AcDbEntity
  8
0
 48
35.0
100
AcDbText
 10
12739.69654250378
 20
-3934.872772634788
 30
0.0
 40
105.0
  1
１３５°
100
AcDbText
  0
TEXT
  5
1039
330
22
100
AcDbEntity
  8
0
 48
35.0
100
AcDbText
 10
10882.00160332624
 20
-4409.478430357625
 30
0.0
 40
105.0
  1
１９５°
100
AcDbText
  0
TEXT
  5
103A
330
22
100
AcDbEntity
  8
0
 48
35.0
100
AcDbText
 10
9736.30207400809
 20
-3303.331698108078
 30
0.0
 40
105.0
  1
２５５°
100
AcDbText
  0
TEXT
  5
103B
330
22
100
AcDbEntity
  8
0
 48
35.0
100
AcDbText
 10
9622.913689317343
 20
-2786.604861143367
 30
0.0
 40
105.0
  1
２７０°
100
AcDbText
  0
TEXT
  5
103C
330
22
100
AcDbEntity
  8
0
 48
35.0
100
AcDbText
 10
10146.92275228863
 20
-1539.194989076741
 30
0.0
 40
105.0
  1
３１５°
100
AcDbText
  0
TEXT
  5
1045
330
22
100
AcDbEntity
  8
0
 48
35.0
100
AcDbText
 10
11441.73140841884
 20
-4431.078413767298
 30
0.0
 40
105.0
  1
１８０°
100
AcDbText
  0
LEADER
  5
1122
330
22
100
AcDbEntity
  8
0
 48
35.0
100
AcDbLeader
  3
1-35
 76
     3
 10
12877.07743827736
 20
-5654.76411391008
 30
0.0
 10
13097.54146502034
 20
-5260.047066720191
 30
0.0
 10
13422.48528878654
 20
-5260.047066720191
 30
0.0
1001
ACAD
1000
DSTYLE
1002
{
1070
   147
1040
1.700000047683715
1070
    77
1070
     0
1002
}
  0
LEADER
  5
1125
330
22
100
AcDbEntity
  8
0
 48
35.0
100
AcDbLeader
  3
1-35
 76
     3
 10
13189.07744292652
 20
-5822.764116413476
 30
0.0
 10
13552.46171153804
 20
-5260.047066720191
 30
0.0
 10
14589.07847772677
 20
-5260.047066720191
 30
0.0
1001
ACAD
1000
DSTYLE
1002
{
1070
   147
1040
1.700000047683715
1070
    77
1070
     0
1002
}
  0
LEADER
  5
1172
330
22
100
AcDbEntity
  8
0
 48
35.0
100
AcDbLeader
  3
1-35
 76
     3
 10
13077.12610660371
 20
-4729.317262476308
 30
0.0
 10
13245.67287385822
 20
-4328.026457390228
 30
0.0
 10
14422.09754624117
 20
-4328.026457390228
 30
0.0
1001
ACAD
1000
DSTYLE
1002
{
1070
   147
1040
1.700000047683715
1070
    77
1070
     0
1002
}
  0
LEADER
  5
1175
330
22
100
AcDbEntity
  8
0
 48
35.0
100
AcDbLeader
  3
1-35
 76
     3
 10
12957.68067454339
 20
-5884.999851019674
 30
0.0
 10
12888.93649970061
 20
-6175.231046206678
 30
0.0
 10
11730.19388740378
 20
-6175.231046206678
 30
0.0
1001
ACAD
1000
DSTYLE
1002
{
1070
   147
1040
1.700000047683715
1070
    77
1070
     0
1002
}
  0
LWPOLYLINE
  5
117B
330
22
100
AcDbEntity
  8
0
 48
20.0
100
AcDbPolyline
 90
        2
 70
     0
 43
0.0
 10
12758.21769413099
 20
-6431.54888770805
 10
14224.14344681979
 20
-6431.54888770805
  0
TEXT
  5
11C9
330
22
100
AcDbEntity
  8
0
 48
35.0
100
AcDbText
 10
10339.92189558115
 20
-7406.903078231874
 30
0.0
 40
105.0
  1
注記　１）タンク寸法公差：±１．５％
100
AcDbText
  0
TEXT
  5
11CA
330
22
100
AcDbEntity
  8
0
 48
35.0
100
AcDbText
 10
10339.92189558115
 20
-7232.438358531108
 30
0.0
 40
105.0
  1
　　　２）アンカープレート融着公差：Ｐ．Ｃ．Ｄ\U+00b1１．５％
100
AcDbText
  0
LWPOLYLINE
  5
11CC
330
22
100
AcDbEntity
  8
0
 48
35.0
100
AcDbPolyline
 90
        2
 70
     0
 43
0.0
 10
10156.04902099584
 20
-7458.449462011613
 10
14811.04902099584
 20
-7458.449462011613
  0
LEADER
  5
1233
330
22
100
AcDbEntity
  8
0
 48
35.0
100
AcDbLeader
  3
1-35
 73
     0
 40
105.0
 41
1358.0
 76
     3
 10
6178.964754620785
 20
-8212.430741947304
 30
0.0
 10
6565.117270100585
 20
-8714.202586060983
 30
0.0
 10
8162.957108037801
 20
-8714.202586060983
 30
0.0
340
1234
213
-378.2641321628907
223
-52.5
233
0.0
1001
ACAD
1000
DSTYLE
1002
{
1070
   147
1040
1.700000047683715
1070
    77
1070
     0
1002
}
  0
MTEXT
  5
1234
102
{ACAD_REACTORS
330
1233
102
}
330
22
100
AcDbEntity
  8
0
 48
35.0
100
AcDbMText
 10
6728.965984076559
 20
-8570.474132846895
 30
0.0
 40
105.0
 41
0.0
 71
     1
 72
     1
  1
4-24×34アンカー穴
 73
     1
 44
1.0
  0
DIMENSION
  5
1243
330
22
100
AcDbEntity
  8
寸法線
 48
35.0
100
AcDbDimension
  2
*D15
 10
3328.964768106338
 20
-9177.40239015959
 30
0.0
 11
4753.964761363561
 21
-9065.40238849066
 31
0.0
 70
    32
  1
P.C.Dφ<>
 71
     5
 42
2849.999986514447
  3
1-35
100
AcDbAlignedDimension
 13
6178.964754620785
 23
-8229.745334819428
 33
0.0
 14
3328.964768106338
 24
-8229.745334819428
 34
0.0
100
AcDbRotatedDimension
  0
ARC
  5
126A
102
{ACAD_REACTORS
330
1031
102
}
330
22
100
AcDbEntity
  8
0
 48
35.0
100
AcDbCircle
 10
12985.93524652959
 20
-2364.856282405786
 30
0.0
 40
12.00000000000045
100
AcDbArc
 50
104.9999999999826
 51
285.0000000000173
  0
ARC
  5
126B
102
{ACAD_REACTORS
330
1031
102
}
330
22
100
AcDbEntity
  8
0
 48
35.0
100
AcDbCircle
 10
12995.59450479248
 20
-2362.268091954763
 30
0.0
 40
12.00000000000114
100
AcDbArc
 50
285.0000000000347
 51
104.9999999999652
  0
LINE
  5
126D
102
{ACAD_REACTORS
330
1031
102
}
330
22
100
AcDbEntity
  8
0
  6
Continuous
100
AcDbLine
 10
11939.17494184252
 20
-1301.873330741357
 30
0.0
 11
11934.34531184748
 21
-1300.579235284442
 31
0.0
  0
LINE
  5
126E
102
{ACAD_REACTORS
330
1031
102
}
330
22
100
AcDbEntity
  8
0
  6
Continuous
100
AcDbLine
 10
11934.34531184748
 20
-1300.579235284442
 30
0.0
 11
11915.97413850285
 21
-1311.185837160286
 31
0.0
  0
LINE
  5
126F
102
{ACAD_REACTORS
330
1031
102
}
330
22
100
AcDbEntity
  8
0
  6
CENTER
100
AcDbLine
 10
12001.09476955779
 20
-1359.875746406609
 30
0.0
 11
11959.21470110588
 21
-1348.654015885959
 31
0.0
  0
LINE
  5
1270
102
{ACAD_REACTORS
330
1031
102
}
330
22
100
AcDbEntity
  8
0
  6
Continuous
100
AcDbLine
 10
12060.86301460522
 20
-1350.008694504175
 30
0.0
 11
12050.25641272938
 21
-1331.637521159549
 31
0.0
  0
LINE
  5
1271
102
{ACAD_REACTORS
330
1031
102
}
330
22
100
AcDbEntity
  8
0
  6
Continuous
100
AcDbLine
 10
12037.89428131908
 20
-1435.729174113561
 30
0.0
 11
12060.86301460522
 21
-1350.008694504171
 31
0.0
  0
LINE
  5
1272
102
{ACAD_REACTORS
330
1031
102
}
330
22
100
AcDbEntity
  8
0
  6
Continuous
100
AcDbLine
 10
11893.00540521671
 20
-1396.906316769677
 30
0.0
 11
11915.97413850285
 21
-1311.185837160286
 31
0.0
  0
LINE
  5
1273
102
{ACAD_REACTORS
330
1031
102
}
330
22
100
AcDbEntity
  8
0
  6
Continuous
100
AcDbLine
 10
12050.25641272938
 20
-1331.637521159546
 30
0.0
 11
12045.42678352596
 21
-1330.343425914751
 31
0.0
  0
LINE
  5
1274
102
{ACAD_REACTORS
330
1031
102
}
330
22
100
AcDbEntity
  8
0
  6
CENTER
100
AcDbLine
 10
12018.03696512024
 20
-1220.059934864852
 30
0.0
 11
11958.62244519448
 21
-1441.797941935088
 31
0.0
  0
LINE
  5
1275
102
{ACAD_REACTORS
330
1031
102
}
330
22
100
AcDbEntity
  8
0
  6
CENTER
100
AcDbLine
 10
11994.83330547104
 20
-1353.02161125908
 30
0.0
 11
11992.24511502002
 21
-1362.680869521968
 31
0.0
  0
LINE
  5
1276
102
{ACAD_REACTORS
330
1031
102
}
330
22
100
AcDbEntity
  8
0
  6
CENTER
100
AcDbLine
 10
11971.6510856401
 20
-1346.809954176622
 30
0.0
 11
11969.06289518908
 21
-1356.469212439508
 31
0.0
  0
LINE
  5
1277
102
{ACAD_REACTORS
330
1031
102
}
330
22
100
AcDbEntity
  8
0
100
AcDbLine
 10
12046.4620597218
 20
-1326.479722552029
 30
0.0
 11
12027.30944930718
 21
-1397.958234550409
 31
0.0
  0
LINE
  5
1278
102
{ACAD_REACTORS
330
1031
102
}
330
22
100
AcDbEntity
  8
0
100
AcDbLine
 10
11940.21021803837
 20
-1298.009627378627
 30
0.0
 11
11921.05760841538
 21
-1369.48813958913
 31
0.0
  0
LINE
  5
1279
102
{ACAD_REACTORS
330
1031
102
}
330
22
100
AcDbEntity
  8
0
  6
Continuous
100
AcDbLine
 10
11940.21021724672
 20
-1298.00962716651
 30
0.0
 11
12046.4620597218
 21
-1326.479722552029
 31
0.0
  0
LINE
  5
127A
102
{ACAD_REACTORS
330
1031
102
}
330
22
100
AcDbEntity
  8
0
  6
Continuous
100
AcDbLine
 10
11921.05760762374
 20
-1369.488139377014
 30
0.0
 11
12027.30945009882
 21
-1397.958234762527
 31
0.0
  0
ARC
  5
127B
102
{ACAD_REACTORS
330
1031
102
}
330
22
100
AcDbEntity
  8
0
  6
Continuous
100
AcDbCircle
 10
11615.71914605275
 20
-2721.530476415011
 30
0.0
 40
1375.000020489096
100
AcDbArc
 50
71.87322388642029
 51
78.12677611357969
  0
ARC
  5
127C
102
{ACAD_REACTORS
330
1031
102
}
330
22
100
AcDbEntity
  8
0
 48
35.0
100
AcDbCircle
 10
11980.65400510455
 20
-1359.575040980741
 30
0.0
 40
12.00000000000045
100
AcDbArc
 50
164.9999999999826
 51
345.0000000000173
  0
ARC
  5
127D
102
{ACAD_REACTORS
330
1031
102
}
330
22
100
AcDbEntity
  8
0
 48
35.0
100
AcDbCircle
 10
11983.24219555557
 20
-1349.915782717853
 30
0.0
 40
12.00000000000114
100
AcDbArc
 50
345.0000000000347
 51
164.9999999999652
  0
LINE
  5
127F
102
{ACAD_REACTORS
330
1031
102
}
330
22
100
AcDbEntity
  8
0
  6
Continuous
100
AcDbLine
 10
10536.70361282985
 20
-1734.604580680663
 30
0.0
 11
10533.16807829171
 21
-1738.140115218799
 31
0.0
  0
LINE
  5
1280
102
{ACAD_REACTORS
330
1031
102
}
330
22
100
AcDbEntity
  8
0
  6
Continuous
100
AcDbLine
 10
10533.16807829171
 20
-1738.140115218799
 30
0.0
 11
10533.16807829171
 21
-1759.353318970496
 31
0.0
  0
LINE
  5
1281
102
{ACAD_REACTORS
330
1031
102
}
330
22
100
AcDbEntity
  8
0
  6
CENTER
100
AcDbLine
 10
10617.89509213445
 20
-1709.981644713915
 30
0.0
 11
10587.23675420319
 21
-1740.639982645178
 31
0.0
  0
LINE
  5
1282
102
{ACAD_REACTORS
330
1031
102
}
330
22
100
AcDbEntity
  8
0
  6
Continuous
100
AcDbLine
 10
10639.2340970502
 20
-1653.28730021201
 30
0.0
 11
10618.0208932985
 21
-1653.287300212008
 31
0.0
  0
LINE
  5
1283
102
{ACAD_REACTORS
330
1031
102
}
330
22
100
AcDbEntity
  8
0
  6
Continuous
100
AcDbLine
 10
10701.98584337345
 20
-1716.03904653525
 30
0.0
 11
10639.2340970502
 21
-1653.287300212008
 31
0.0
  0
LINE
  5
1284
102
{ACAD_REACTORS
330
1031
102
}
330
22
100
AcDbEntity
  8
0
  6
Continuous
100
AcDbLine
 10
10595.91982461496
 20
-1822.105065293739
 30
0.0
 11
10533.16807829171
 21
-1759.353318970496
 31
0.0
  0
LINE
  5
1285
102
{ACAD_REACTORS
330
1031
102
}
330
22
100
AcDbEntity
  8
0
  6
Continuous
100
AcDbLine
 10
10618.0208932985
 20
-1653.287300212005
 30
0.0
 11
10614.48535933989
 21
-1656.82283417062
 31
0.0
  0
LINE
  5
1286
102
{ACAD_REACTORS
330
1031
102
}
330
22
100
AcDbEntity
  8
0
  6
CENTER
100
AcDbLine
 10
10505.28214526978
 20
-1625.40136719007
 30
0.0
 11
10667.60563241426
 21
-1787.724854334552
 31
0.0
  0
LINE
  5
1287
102
{ACAD_REACTORS
330
1031
102
}
330
22
100
AcDbEntity
  8
0
  6
CENTER
100
AcDbLine
 10
10608.82850493235
 20
-1711.977164104158
 30
0.0
 11
10615.89957274421
 21
-1719.048231916022
 31
0.0
  0
LINE
  5
1288
102
{ACAD_REACTORS
330
1031
102
}
330
22
100
AcDbEntity
  8
0
  6
CENTER
100
AcDbLine
 10
10591.85794218387
 20
-1728.947726852639
 30
0.0
 11
10598.92900999573
 21
-1736.018794664502
 31
0.0
  0
LINE
  5
1289
102
{ACAD_REACTORS
330
1031
102
}
330
22
100
AcDbEntity
  8
0
100
AcDbLine
 10
10611.656932173
 20
-1653.994407003731
 30
0.0
 11
10663.982834181
 21
-1706.320310170769
 31
0.0
  0
LINE
  5
128A
102
{ACAD_REACTORS
330
1031
102
}
330
22
100
AcDbEntity
  8
0
100
AcDbLine
 10
10533.87518566296
 20
-1731.776153513767
 30
0.0
 11
10586.20108825048
 21
-1784.102056101288
 31
0.0
  0
LINE
  5
128B
102
{ACAD_REACTORS
330
1031
102
}
330
22
100
AcDbEntity
  8
0
  6
Continuous
100
AcDbLine
 10
10533.87518508344
 20
-1731.776154093292
 30
0.0
 11
10611.656932173
 21
-1653.994407003731
 31
0.0
  0
LINE
  5
128C
102
{ACAD_REACTORS
330
1031
102
}
330
22
100
AcDbEntity
  8
0
  6
Continuous
100
AcDbLine
 10
10586.20108767096
 20
-1784.102056680813
 30
0.0
 11
10663.98283476052
 21
-1706.320309591248
 31
0.0
  0
ARC
  5
128D
102
{ACAD_REACTORS
330
1031
102
}
330
22
100
AcDbEntity
  8
0
  6
Continuous
100
AcDbCircle
 10
11604.43486775245
 20
-2724.554089672743
 30
0.0
 40
1375.000020489096
100
AcDbArc
 50
131.8732238864203
 51
138.1267761135797
  0
ARC
  5
128E
102
{ACAD_REACTORS
330
1031
102
}
330
22
100
AcDbEntity
  8
0
 48
35.0
100
AcDbCircle
 10
10607.41429136997
 20
-1727.533513290261
 30
0.0
 40
12.00000000000045
100
AcDbArc
 50
224.9999999999826
 51
45.00000000001734
  0
ARC
  5
128F
102
{ACAD_REACTORS
330
1031
102
}
330
22
100
AcDbEntity
  8
0
 48
35.0
100
AcDbCircle
 10
10600.34322355811
 20
-1720.462445478398
 30
0.0
 40
12.00000000000114
100
AcDbArc
 50
45.0000000000347
 51
224.9999999999652
  0
LINE
  5
1291
102
{ACAD_REACTORS
330
1031
102
}
330
22
100
AcDbEntity
  8
0
  6
Continuous
100
AcDbLine
 10
10210.22420378234
 20
-3165.546004654614
 30
0.0
 11
10211.51829923926
 21
-3170.375634649664
 31
0.0
  0
LINE
  5
1292
102
{ACAD_REACTORS
330
1031
102
}
330
22
100
AcDbEntity
  8
0
  6
Continuous
100
AcDbLine
 10
10211.51829923926
 20
-3170.375634649664
 30
0.0
 11
10229.88947258388
 21
-3180.982236525515
 31
0.0
  0
LINE
  5
1293
102
{ACAD_REACTORS
330
1031
102
}
330
22
100
AcDbEntity
  8
0
  6
CENTER
100
AcDbLine
 10
10229.49585537169
 20
-3082.920653022614
 30
0.0
 11
10240.71758589234
 21
-3124.800721474526
 31
0.0
  0
LINE
  5
1294
102
{ACAD_REACTORS
330
1031
102
}
330
22
100
AcDbEntity
  8
0
  6
Continuous
100
AcDbLine
 10
10191.06661524
 20
-3036.093360423143
 30
0.0
 11
10180.46001336415
 21
-3054.464533767766
 31
0.0
  0
LINE
  5
1295
102
{ACAD_REACTORS
330
1031
102
}
330
22
100
AcDbEntity
  8
0
  6
Continuous
100
AcDbLine
 10
10276.78709484939
 20
-3013.124627136996
 30
0.0
 11
10191.06661524
 21
-3036.093360423145
 31
0.0
  0
LINE
  5
1296
102
{ACAD_REACTORS
330
1031
102
}
330
22
100
AcDbEntity
  8
0
  6
Continuous
100
AcDbLine
 10
10315.60995219327
 20
-3158.013503239371
 30
0.0
 11
10229.88947258388
 21
-3180.982236525515
 31
0.0
  0
LINE
  5
1297
102
{ACAD_REACTORS
330
1031
102
}
330
22
100
AcDbEntity
  8
0
  6
Continuous
100
AcDbLine
 10
10180.46001336415
 20
-3054.464533767767
 30
0.0
 11
10181.75410860895
 21
-3059.294162971176
 31
0.0
  0
LINE
  5
1298
102
{ACAD_REACTORS
330
1031
102
}
330
22
100
AcDbEntity
  8
0
  6
CENTER
100
AcDbLine
 10
10099.94071294456
 20
-3138.156187040525
 30
0.0
 11
10321.6787200148
 21
-3078.741667114771
 31
0.0
  0
LINE
  5
1299
102
{ACAD_REACTORS
330
1031
102
}
330
22
100
AcDbEntity
  8
0
  6
CENTER
100
AcDbLine
 10
10226.69073225633
 20
-3091.770307560386
 30
0.0
 11
10236.34999051922
 21
-3089.182117109363
 31
0.0
  0
LINE
  5
129A
102
{ACAD_REACTORS
330
1031
102
}
330
22
100
AcDbEntity
  8
0
  6
CENTER
100
AcDbLine
 10
10232.90238933879
 20
-3114.952527391325
 30
0.0
 11
10242.56164760168
 21
-3112.364336940302
 31
0.0
  0
LINE
  5
129B
102
{ACAD_REACTORS
330
1031
102
}
330
22
100
AcDbEntity
  8
0
100
AcDbLine
 10
10177.89040524622
 20
-3060.32943916701
 30
0.0
 11
10249.36891766884
 21
-3041.176830335669
 31
0.0
  0
LINE
  5
129C
102
{ACAD_REACTORS
330
1031
102
}
330
22
100
AcDbEntity
  8
0
100
AcDbLine
 10
10206.36050041961
 20
-3166.581280850446
 30
0.0
 11
10277.83901263012
 21
-3147.428671227467
 31
0.0
  0
LINE
  5
129D
102
{ACAD_REACTORS
330
1031
102
}
330
22
100
AcDbEntity
  8
0
  6
Continuous
100
AcDbLine
 10
10206.36050063173
 20
-3166.581281642087
 30
0.0
 11
10177.89040524622
 21
-3060.32943916701
 31
0.0
  0
LINE
  5
129E
102
{ACAD_REACTORS
330
1031
102
}
330
22
100
AcDbEntity
  8
0
  6
Continuous
100
AcDbLine
 10
10277.83901284224
 20
-3147.428672019105
 30
0.0
 11
10249.36891745672
 21
-3041.176829544029
 31
0.0
  0
ARC
  5
129F
102
{ACAD_REACTORS
330
1031
102
}
330
22
100
AcDbEntity
  8
0
  6
Continuous
100
AcDbCircle
 10
11601.41125449472
 20
-2735.838367973043
 30
0.0
 40
1375.000020489096
100
AcDbArc
 50
191.8732238864203
 51
198.1267761135797
  0
ARC
  5
12A0
102
{ACAD_REACTORS
330
1031
102
}
330
22
100
AcDbEntity
  8
0
 48
35.0
100
AcDbCircle
 10
10239.45581906045
 20
-3100.773227024832
 30
0.0
 40
12.00000000000045
100
AcDbArc
 50
284.9999999999826
 51
105.0000000000173
  0
ARC
  5
12A1
102
{ACAD_REACTORS
330
1031
102
}
330
22
100
AcDbEntity
  8
0
 48
35.0
100
AcDbCircle
 10
10229.79656079756
 20
-3103.361417475855
 30
0.0
 40
12.00000000000114
100
AcDbArc
 50
105.0000000000347
 51
284.9999999999653
  0
LINE
  5
12A3
102
{ACAD_REACTORS
330
1031
102
}
330
22
100
AcDbEntity
  8
0
  6
Continuous
100
AcDbLine
 10
11286.21612374752
 20
-4163.75617868926
 30
0.0
 11
11291.04575374257
 21
-4165.050274146175
 31
0.0
  0
LINE
  5
12A4
102
{ACAD_REACTORS
330
1031
102
}
330
22
100
AcDbEntity
  8
0
  6
Continuous
100
AcDbLine
 10
11291.04575374257
 20
-4165.050274146175
 30
0.0
 11
11309.41692708719
 21
-4154.443672270328
 31
0.0
  0
LINE
  5
12A5
102
{ACAD_REACTORS
330
1031
102
}
330
22
100
AcDbEntity
  8
0
  6
CENTER
100
AcDbLine
 10
11224.29629603225
 20
-4105.753763024007
 30
0.0
 11
11266.17636448416
 21
-4116.975493544658
 31
0.0
  0
LINE
  5
12A6
102
{ACAD_REACTORS
330
1031
102
}
330
22
100
AcDbEntity
  8
0
  6
Continuous
100
AcDbLine
 10
11164.52805098482
 20
-4115.620814926443
 30
0.0
 11
11175.13465286067
 21
-4133.991988271067
 31
0.0
  0
LINE
  5
12A7
102
{ACAD_REACTORS
330
1031
102
}
330
22
100
AcDbEntity
  8
0
  6
Continuous
100
AcDbLine
 10
11187.49678427096
 20
-4029.900335317058
 30
0.0
 11
11164.52805098482
 21
-4115.620814926446
 31
0.0
  0
LINE
  5
12A8
102
{ACAD_REACTORS
330
1031
102
}
330
22
100
AcDbEntity
  8
0
  6
Continuous
100
AcDbLine
 10
11332.38566037334
 20
-4068.723192660939
 30
0.0
 11
11309.41692708719
 21
-4154.443672270328
 31
0.0
  0
LINE
  5
12A9
102
{ACAD_REACTORS
330
1031
102
}
330
22
100
AcDbEntity
  8
0
  6
Continuous
100
AcDbLine
 10
11175.13465286067
 20
-4133.991988271071
 30
0.0
 11
11179.96428206408
 21
-4135.286083515866
 31
0.0
  0
LINE
  5
12AA
102
{ACAD_REACTORS
330
1031
102
}
330
22
100
AcDbEntity
  8
0
  6
CENTER
100
AcDbLine
 10
11207.3541004698
 20
-4245.569574565762
 30
0.0
 11
11266.76862039556
 21
-4023.831567495528
 31
0.0
  0
LINE
  5
12AB
102
{ACAD_REACTORS
330
1031
102
}
330
22
100
AcDbEntity
  8
0
  6
CENTER
100
AcDbLine
 10
11230.557760119
 20
-4112.607898171536
 30
0.0
 11
11233.14595057003
 21
-4102.948639908649
 31
0.0
  0
LINE
  5
12AC
102
{ACAD_REACTORS
330
1031
102
}
330
22
100
AcDbEntity
  8
0
  6
CENTER
100
AcDbLine
 10
11253.73997994994
 20
-4118.819555253996
 30
0.0
 11
11256.32817040097
 21
-4109.160296991109
 31
0.0
  0
LINE
  5
12AD
102
{ACAD_REACTORS
330
1031
102
}
330
22
100
AcDbEntity
  8
0
100
AcDbLine
 10
11178.92900586824
 20
-4139.149786878589
 30
0.0
 11
11198.08161628286
 21
-4067.671274880209
 31
0.0
  0
LINE
  5
12AE
102
{ACAD_REACTORS
330
1031
102
}
330
22
100
AcDbEntity
  8
0
100
AcDbLine
 10
11285.18084755167
 20
-4167.619882051989
 30
0.0
 11
11304.33345717466
 21
-4096.141369841487
 31
0.0
  0
LINE
  5
12AF
102
{ACAD_REACTORS
330
1031
102
}
330
22
100
AcDbEntity
  8
0
  6
Continuous
100
AcDbLine
 10
11285.18084834332
 20
-4167.619882264108
 30
0.0
 11
11178.92900586824
 21
-4139.149786878589
 31
0.0
  0
LINE
  5
12B0
102
{ACAD_REACTORS
330
1031
102
}
330
22
100
AcDbEntity
  8
0
  6
Continuous
100
AcDbLine
 10
11304.3334579663
 20
-4096.141370053604
 30
0.0
 11
11198.08161549122
 21
-4067.671274668088
 31
0.0
  0
ARC
  5
12B1
102
{ACAD_REACTORS
330
1031
102
}
330
22
100
AcDbEntity
  8
0
  6
Continuous
100
AcDbCircle
 10
11609.67191953729
 20
-2744.099033015606
 30
0.0
 40
1375.000020489096
100
AcDbArc
 50
251.8732238864203
 51
258.1267761135797
  0
ARC
  5
12B2
102
{ACAD_REACTORS
330
1031
102
}
330
22
100
AcDbEntity
  8
0
 48
35.0
100
AcDbCircle
 10
11244.7370604855
 20
-4106.054468449876
 30
0.0
 40
12.00000000000045
100
AcDbArc
 50
344.9999999999826
 51
165.0000000000173
  0
ARC
  5
12B3
102
{ACAD_REACTORS
330
1031
102
}
330
22
100
AcDbEntity
  8
0
 48
35.0
100
AcDbCircle
 10
11242.14887003447
 20
-4115.713726712764
 30
0.0
 40
12.00000000000114
100
AcDbArc
 50
165.0000000000346
 51
344.9999999999652
  0
LINE
  5
12B5
102
{ACAD_REACTORS
330
1031
102
}
330
22
100
AcDbEntity
  8
0
  6
Continuous
100
AcDbLine
 10
12688.68745276019
 20
-3731.024928749957
 30
0.0
 11
12692.22298729832
 21
-3727.489394211822
 31
0.0
  0
LINE
  5
12B6
102
{ACAD_REACTORS
330
1031
102
}
330
22
100
AcDbEntity
  8
0
  6
Continuous
100
AcDbLine
 10
12692.22298729832
 20
-3727.489394211822
 30
0.0
 11
12692.22298729833
 21
-3706.276190460125
 31
0.0
  0
LINE
  5
12B7
102
{ACAD_REACTORS
330
1031
102
}
330
22
100
AcDbEntity
  8
0
  6
CENTER
100
AcDbLine
 10
12607.49597345558
 20
-3755.647864716706
 30
0.0
 11
12638.15431138684
 21
-3724.989526785443
 31
0.0
  0
LINE
  5
12B8
102
{ACAD_REACTORS
330
1031
102
}
330
22
100
AcDbEntity
  8
0
  6
Continuous
100
AcDbLine
 10
12586.15696853984
 20
-3812.342209218612
 30
0.0
 11
12607.37017229153
 21
-3812.342209218611
 31
0.0
  0
LINE
  5
12B9
102
{ACAD_REACTORS
330
1031
102
}
330
22
100
AcDbEntity
  8
0
  6
Continuous
100
AcDbLine
 10
12523.40522221659
 20
-3749.590462895373
 30
0.0
 11
12586.15696853984
 21
-3812.342209218611
 31
0.0
  0
LINE
  5
12BA
102
{ACAD_REACTORS
330
1031
102
}
330
22
100
AcDbEntity
  8
0
  6
Continuous
100
AcDbLine
 10
12629.47124097508
 20
-3643.524444136882
 30
0.0
 11
12692.22298729833
 21
-3706.276190460125
 31
0.0
  0
LINE
  5
12BB
102
{ACAD_REACTORS
330
1031
102
}
330
22
100
AcDbEntity
  8
0
  6
Continuous
100
AcDbLine
 10
12607.37017229153
 20
-3812.342209218614
 30
0.0
 11
12610.90570625015
 21
-3808.806675259999
 31
0.0
  0
LINE
  5
12BC
102
{ACAD_REACTORS
330
1031
102
}
330
22
100
AcDbEntity
  8
0
  6
CENTER
100
AcDbLine
 10
12720.10892032026
 20
-3840.228142240549
 30
0.0
 11
12557.78543317578
 21
-3677.904655096069
 31
0.0
  0
LINE
  5
12BD
102
{ACAD_REACTORS
330
1031
102
}
330
22
100
AcDbEntity
  8
0
  6
CENTER
100
AcDbLine
 10
12616.56256065769
 20
-3753.652345326462
 30
0.0
 11
12609.49149284583
 21
-3746.581277514599
 31
0.0
  0
LINE
  5
12BE
102
{ACAD_REACTORS
330
1031
102
}
330
22
100
AcDbEntity
  8
0
  6
CENTER
100
AcDbLine
 10
12633.53312340617
 20
-3736.681782577982
 30
0.0
 11
12626.4620555943
 21
-3729.610714766119
 31
0.0
  0
LINE
  5
12BF
102
{ACAD_REACTORS
330
1031
102
}
330
22
100
AcDbEntity
  8
0
100
AcDbLine
 10
12613.73413341704
 20
-3811.63510242689
 30
0.0
 11
12561.40823140904
 21
-3759.309199259849
 31
0.0
  0
LINE
  5
12C0
102
{ACAD_REACTORS
330
1031
102
}
330
22
100
AcDbEntity
  8
0
100
AcDbLine
 10
12691.51587992708
 20
-3733.853355916852
 30
0.0
 11
12639.18997733956
 21
-3681.527453329333
 31
0.0
  0
LINE
  5
12C1
102
{ACAD_REACTORS
330
1031
102
}
330
22
100
AcDbEntity
  8
0
  6
Continuous
100
AcDbLine
 10
12691.5158805066
 20
-3733.853355337331
 30
0.0
 11
12613.73413341704
 21
-3811.63510242689
 31
0.0
  0
LINE
  5
12C2
102
{ACAD_REACTORS
330
1031
102
}
330
22
100
AcDbEntity
  8
0
  6
Continuous
100
AcDbLine
 10
12639.18997791908
 20
-3681.52745274981
 30
0.0
 11
12561.40823082952
 21
-3759.30919983937
 31
0.0
  0
ARC
  5
12C3
102
{ACAD_REACTORS
330
1031
102
}
330
22
100
AcDbEntity
  8
0
  6
Continuous
100
AcDbCircle
 10
11620.95619783759
 20
-2741.075419757873
 30
0.0
 40
1375.000020489096
100
AcDbArc
 50
311.8732238864202
 51
318.1267761135797
  0
ARC
  5
12C4
102
{ACAD_REACTORS
330
1031
102
}
330
22
100
AcDbEntity
  8
0
 48
35.0
100
AcDbCircle
 10
12617.97677422006
 20
-3738.095996140356
 30
0.0
 40
12.00000000000045
100
AcDbArc
 50
44.9999999999826
 51
225.0000000000173
  0
ARC
  5
12C5
102
{ACAD_REACTORS
330
1031
102
}
330
22
100
AcDbEntity
  8
0
 48
35.0
100
AcDbCircle
 10
12625.04784203193
 20
-3745.167063952219
 30
0.0
 40
12.00000000000114
100
AcDbArc
 50
225.0000000000346
 51
44.99999999996521
  0
ARC
  5
12C9
330
22
100
AcDbEntity
  8
0
 48
35.0
100
AcDbCircle
 10
13047.12610660372
 20
-4765.317262476306
 30
0.0
 40
35.99999999999818
100
AcDbArc
 50
89.99999999998555
 51
270.0000000000144
  0
ARC
  5
12CA
330
22
100
AcDbEntity
  8
0
 48
35.0
100
AcDbCircle
 10
13077.12610660371
 20
-4765.317262476308
 30
0.0
 40
36.00000000000091
100
AcDbArc
 50
270.0000000000231
 51
89.99999999997685
  0
POINT
  5
15AF
330
22
100
AcDbEntity
  8
0
  6
Continuous
100
AcDbPoint
 10
4753.964761363561
 20
-4007.430741947307
 30
0.0
  0
POINT
  5
15B0
330
22
100
AcDbEntity
  8
0
  6
Continuous
100
AcDbPoint
 10
4753.964761363561
 20
-4007.430741947307
 30
0.0
  0
LINE
  5
15B1
330
22
100
AcDbEntity
  8
0
  6
CENTER
100
AcDbLine
 10
4753.964761363561
 20
-3816.555475845157
 30
0.0
 11
4753.964761363561
 21
-8373.776632737808
 31
0.0
  0
POINT
  5
15B2
330
22
100
AcDbEntity
  8
0
  6
Continuous
100
AcDbPoint
 10
3418.964844324256
 20
-4262.43065365792
 30
0.0
  0
LINE
  5
15B3
330
22
100
AcDbEntity
  8
0
  6
CENTER
100
AcDbLine
 10
4753.964761363564
 20
-3756.335665729075
 30
0.0
 11
4753.964761363564
 21
-8373.776632737811
 31
0.0
  0
LINE
  5
15B4
330
22
100
AcDbEntity
  8
0
  6
Continuous
100
AcDbLine
 10
4413.964768069087
 20
-3887.430356193483
 30
0.0
 11
4413.964768069087
 21
-3852.430507999065
 31
0.0
  0
LINE
  5
15B5
330
22
100
AcDbEntity
  8
0
  6
Continuous
100
AcDbLine
 10
4413.964768069087
 20
-3852.430507999065
 30
0.0
 11
5093.964754658038
 21
-3852.430507999065
 31
0.0
  0
LINE
  5
15B6
330
22
100
AcDbEntity
  8
0
  6
Continuous
100
AcDbLine
 10
4413.964768069087
 20
-3887.430356193483
 30
0.0
 11
5093.964754658038
 21
-3887.430356193483
 31
0.0
  0
LINE
  5
15B7
330
22
100
AcDbEntity
  8
0
  6
Continuous
100
AcDbLine
 10
5093.964754658038
 20
-3887.430356193483
 30
0.0
 11
5093.964754658038
 21
-3852.430507999065
 31
0.0
  0
LINE
  5
15B8
330
22
100
AcDbEntity
  8
0
  6
Continuous
100
AcDbLine
 10
3418.964845207127
 20
-4262.430731143962
 30
0.0
 11
3818.964845207127
 21
-4262.430731143962
 31
0.0
  0
LINE
  5
15B9
330
22
100
AcDbEntity
  8
0
  6
Continuous
100
AcDbLine
 10
3388.964769000406
 20
-4512.430659245858
 30
0.0
 11
6118.964753726715
 21
-4512.430659245858
 31
0.0
  0
LINE
  5
15BA
330
22
100
AcDbEntity
  8
0
  6
Continuous
100
AcDbLine
 10
3538.964772353168
 20
-4492.430582504876
 30
0.0
 11
4544.764898975787
 21
-4492.430582504876
 31
0.0
  0
LINE
  5
15BB
330
22
100
AcDbEntity
  8
0
  6
Continuous
100
AcDbLine
 10
4463.964769186677
 20
-3887.430356193483
 30
0.0
 11
4463.964769186677
 21
-3951.959776581143
 31
0.0
  0
LINE
  5
15BC
330
22
100
AcDbEntity
  8
0
  6
Continuous
100
AcDbLine
 10
5043.964753540454
 20
-3887.430356193483
 30
0.0
 11
5043.964753540454
 21
-3951.959776581143
 31
0.0
  0
LINE
  5
15BD
330
22
100
AcDbEntity
  8
0
  6
Continuous
100
AcDbLine
 10
4558.768748318336
 20
-4262.43065365792
 30
0.0
 11
4949.160774408785
 21
-4262.43065365792
 31
0.0
  0
LINE
  5
15BE
330
22
100
AcDbEntity
  8
0
  6
Continuous
100
AcDbLine
 10
4553.772744199454
 20
-4267.230657934387
 30
0.0
 11
4543.964895289238
 21
-4512.430629706988
 31
0.0
  0
LINE
  5
15BF
330
22
100
AcDbEntity
  8
0
  6
Continuous
100
AcDbLine
 10
4954.156778527664
 20
-4267.230657934387
 30
0.0
 11
4963.964627437887
 21
-4512.430629706988
 31
0.0
  0
LINE
  5
15C0
330
22
100
AcDbEntity
  8
0
  6
Continuous
100
AcDbLine
 10
4963.164623751338
 20
-4492.430582504876
 30
0.0
 11
5968.964750373958
 21
-4492.430582504876
 31
0.0
  0
LINE
  5
15C1
330
22
100
AcDbEntity
  8
0
  6
CENTER
100
AcDbLine
 10
3618.964793214797
 20
-4113.820726019823
 30
0.0
 11
3618.964793214797
 21
-4639.73397630029
 31
0.0
  0
LINE
  5
15C2
330
22
100
AcDbEntity
  8
0
  6
CENTER
100
AcDbLine
 10
5888.964729512329
 20
-4113.820726019823
 30
0.0
 11
5888.964729512329
 21
-4639.73397630029
 31
0.0
  0
LINE
  5
15C3
330
22
100
AcDbEntity
  8
0
  6
Continuous
100
AcDbLine
 10
3388.964769000406
 20
-4512.430499972069
 30
0.0
 11
3399.107261645968
 21
-4280.047684780964
 31
0.0
  0
LINE
  5
15C4
330
22
100
AcDbEntity
  8
0
  6
Continuous
100
AcDbLine
 10
6088.964702911194
 20
-4262.430808630002
 30
0.0
 11
5688.964702911195
 21
-4262.430808630002
 31
0.0
  0
LINE
  5
15C5
330
22
100
AcDbEntity
  8
0
  6
Continuous
100
AcDbLine
 10
6118.964753726715
 20
-4512.430659245858
 30
0.0
 11
6108.822273915706
 21
-4280.047762267004
 31
0.0
  0
ARC
  5
15C6
330
22
100
AcDbEntity
  8
0
  6
Continuous
100
AcDbCircle
 10
4753.964761363564
 20
-4343.268379077572
 30
0.0
 40
550.8377198317137
100
AcDbArc
 50
63.00867950838551
 51
116.9913323305741
  0
ARC
  5
15C7
330
22
100
AcDbEntity
  8
0
  6
Continuous
100
AcDbCircle
 10
4558.768748318336
 20
-4267.430577475732
 30
0.0
 40
4.999999813735481
100
AcDbArc
 50
89.99998201384908
 51
177.7088317122704
  0
ARC
  5
15C8
330
22
100
AcDbEntity
  8
0
  6
Continuous
100
AcDbCircle
 10
4949.160774408785
 20
-4267.430577475732
 30
0.0
 40
4.999999813735481
100
AcDbArc
 50
2.291188878030917
 51
89.99998201384908
  0
ARC
  5
15C9
330
22
100
AcDbEntity
  8
0
  6
Continuous
100
AcDbCircle
 10
4940.323344116587
 20
-5912.998961322871
 30
0.0
 40
1995.449915571023
100
AcDbArc
 50
104.5450704358375
 51
134.6099743586051
  0
ARC
  5
15CA
330
22
100
AcDbEntity
  8
0
  6
Continuous
100
AcDbCircle
 10
4433.964773284497
 20
-3951.959776581143
 30
0.0
 40
29.99999888241288
100
AcDbArc
 50
280.017152932244
 51
0.0
  0
ARC
  5
15CB
330
22
100
AcDbEntity
  8
0
  6
Continuous
100
AcDbCircle
 10
3418.964838928794
 20
-4282.430730398904
 30
0.0
 40
19.99999925494192
100
AcDbArc
 50
89.99998201384908
 51
173.156879460652
  0
ARC
  5
15CC
330
22
100
AcDbEntity
  8
0
  6
Continuous
100
AcDbCircle
 10
6088.964696632865
 20
-4282.430807884945
 30
0.0
 40
19.99999925494192
100
AcDbArc
 50
6.843084567168295
 51
89.99998201384908
  0
ARC
  5
15CD
330
22
100
AcDbEntity
  8
0
  6
Continuous
100
AcDbCircle
 10
5073.964749442636
 20
-3951.959776581143
 30
0.0
 40
29.99999888241288
100
AcDbArc
 50
179.9999640278024
 51
259.9828179257855
  0
DIMENSION
  5
15CE
330
22
100
AcDbEntity
  8
寸法線
 48
30.0
100
AcDbDimension
  2
*D34
 10
3418.964845207127
 20
-4071.299636233018
 30
0.0
 11
3090.464767569895
 21
-4071.299636233018
 31
0.0
 70
   160
 71
     5
 42
30.00007620672113
  3
1-30
100
AcDbAlignedDimension
 13
3388.964769000406
 23
-4512.430659245858
 33
0.0
 14
3418.964845207127
 24
-4262.430731143962
 34
0.0
100
AcDbRotatedDimension
1001
ACAD
1000
DSTYLE
1002
{
1070
   340
1005
11
1002
}
  0
DIMENSION
  5
15CF
330
22
100
AcDbEntity
  8
寸法線
 48
30.0
100
AcDbDimension
  2
*D35
 10
3818.964845207127
 20
-4071.299636233018
 30
0.0
 11
3618.964845207127
 21
-3975.299634802507
 31
0.0
 70
    32
 71
     5
 42
400.0
  3
1-30
100
AcDbAlignedDimension
 13
3418.964845207127
 23
-4262.430731143962
 33
0.0
 14
3818.964845207127
 24
-4262.430731143962
 34
0.0
100
AcDbRotatedDimension
1001
ACAD
1000
DSTYLE
1002
{
1070
   340
1005
11
1002
}
  0
DIMENSION
  5
15D0
330
22
100
AcDbEntity
  8
寸法線
 48
30.0
100
AcDbDimension
  2
*D36
 10
2438.799696379585
 20
-8212.430741947303
 30
0.0
 11
2342.799694949075
 21
-6002.43070059658
 31
0.0
 70
    32
 71
     5
 42
4420.000082701445
  3
1-30
100
AcDbAlignedDimension
 13
4753.964761363564
 23
-3792.430659245858
 33
0.0
 14
3335.764809010031
 24
-8212.430741947303
 34
0.0
 50
90.0
100
AcDbRotatedDimension
1001
ACAD
1000
DSTYLE
1002
{
1070
   340
1005
11
1002
}
  0
DIMENSION
  5
15D1
330
22
100
AcDbEntity
  8
寸法線
 48
30.0
100
AcDbDimension
  2
*D37
 10
5003.965500866986
 20
-3666.309035112036
 30
0.0
 11
4753.964710652146
 21
-3666.309035112036
 31
0.0
 70
   160
  1
I.Dφ<>
 71
     5
 42
500.0015804296817
  3
1-30
100
AcDbAlignedDimension
 13
4503.963920437305
 23
-3852.43055135281
 33
0.0
 14
5003.965500866986
 24
-3852.430499694628
 34
0.0
100
AcDbRotatedDimension
  0
DIMENSION
  5
15D2
330
22
100
AcDbEntity
  8
寸法線
100
AcDbDimension
  2
*D38
 10
2762.015865180725
 20
-3792.430659245858
 30
0.0
 11
2666.015863750214
 21
-4152.430579608963
 31
0.0
 70
    32
 71
     5
 42
719.999840726211
  3
1-30
100
AcDbAlignedDimension
 13
3388.964769000406
 23
-4512.430499972069
 33
0.0
 14
4753.964761363564
 24
-3792.430659245858
 34
0.0
 50
90.0
100
AcDbRotatedDimension
  0
ARC
  5
15D3
330
22
100
AcDbEntity
  8
0
  6
Continuous
100
AcDbCircle
 10
4567.606178610545
 20
-5912.998961322871
 30
0.0
 40
1995.449915571023
100
AcDbArc
 50
45.39002564139481
 51
75.45492956416248
  0
DIMENSION
  5
15D4
330
22
100
AcDbEntity
  8
寸法線
100
AcDbDimension
  2
*D39
 10
3151.839652993585
 20
-4512.430659245858
 30
0.0
 11
3039.839651324656
 21
-4913.180660914787
 31
0.0
 70
    32
 71
     5
 42
249.9999281018945
  3
1-35
100
AcDbAlignedDimension
 13
3418.964845207145
 23
-4262.430731143964
 33
0.0
 14
3388.964769000406
 24
-4512.430659245858
 34
0.0
 50
90.0
100
AcDbRotatedDimension
  0
LINE
  5
15D5
330
22
100
AcDbEntity
  8
0
  6
Continuous
100
AcDbLine
 10
3538.964772353168
 20
-4492.430582504876
 30
0.0
 11
3538.964772353168
 21
-4512.430659245858
 31
0.0
  0
ENDSEC
  0
SECTION
  2
OBJECTS
  0
DICTIONARY
  5
C
330
0
100
AcDbDictionary
281
     1
  3
ACAD_COLOR
350
1B
  3
ACAD_GROUP
350
D
  3
ACAD_LAYOUT
350
19
  3
ACAD_MATERIAL
350
1A
  3
ACAD_MLINESTYLE
350
16
  3
ACAD_PLOTSETTINGS
350
18
  3
ACAD_PLOTSTYLENAME
350
E
  3
ACAD_TABLESTYLE
350
1C
  3
AcDbVariableDictionary
350
52C
  0
DICTIONARY
  5
534
330
2
100
AcDbDictionary
280
     1
281
     1
  3
ACAD_LAYERFILTERS
360
538
  3
ACAD_LAYERSTATES
360
B8A
  3
ACLYDICTIONARY
360
537
  0
DICTIONARY
  5
525
330
22
100
AcDbDictionary
280
     1
281
     1
  3
ACAD_SORTENTS
360
526
  0
DICTIONARY
  5
1B
102
{ACAD_REACTORS
330
C
102
}
330
C
100
AcDbDictionary
281
     1
  0
DICTIONARY
  5
D
102
{ACAD_REACTORS
330
C
102
}
330
C
100
AcDbDictionary
281
     1
  3
A-P
350
1031
  3
A-P2
350
1032
  3
梯子
350
733
  3
梯子２
350
734
  3
梯子３
350
735
  0
DICTIONARY
  5
19
102
{ACAD_REACTORS
330
C
102
}
330
C
100
AcDbDictionary
281
     1
  3
Model
350
25
  3
レイアウト1
350
21
  0
DICTIONARY
  5
1A
102
{ACAD_REACTORS
330
C
102
}
330
C
100
AcDbDictionary
281
     1
  0
DICTIONARY
  5
16
102
{ACAD_REACTORS
330
C
102
}
330
C
100
AcDbDictionary
281
     1
  3
Standard
350
17
  0
DICTIONARY
  5
18
102
{ACAD_REACTORS
330
C
102
}
330
C
100
AcDbDictionary
281
     1
  0
ACDBDICTIONARYWDFLT
  5
E
102
{ACAD_REACTORS
330
C
102
}
330
C
100
AcDbDictionary
281
     1
  3
Normal
350
F
100
AcDbDictionaryWithDefault
340
F
  0
DICTIONARY
  5
1C
102
{ACAD_REACTORS
330
C
102
}
330
C
100
AcDbDictionary
281
     1
  3
Standard
350
1D
  0
DICTIONARY
  5
52C
102
{ACAD_REACTORS
330
C
102
}
330
C
100
AcDbDictionary
281
     1
  3
CTABLESTYLE
350
52D
  0
DICTIONARY
  5
538
102
{ACAD_REACTORS
330
534
102
}
330
534
100
AcDbDictionary
281
     1
  0
DICTIONARY
  5
B8A
102
{ACAD_REACTORS
330
534
102
}
330
534
100
AcDbDictionary
281
     1
  0
DICTIONARY
  5
537
102
{ACAD_REACTORS
330
534
102
}
330
534
100
AcDbDictionary
281
     1
1001
ACAD
1000
<All
  0
SORTENTSTABLE
  5
526
102
{ACAD_REACTORS
330
525
102
}
330
525
100
AcDbSortentsTable
330
22
331
255
  5
25A
331
4E1
  5
4E6
331
25D
  5
262
331
46B
  5
470
331
4A2
  5
4A7
331
518
  5
51D
331
F42
  5
FC3
331
F0B
  5
F15
331
4E9
  5
4EE
331
265
  5
26A
331
473
  5
478
331
4AA
  5
4AF
331
127D
  5
1280
331
F13
  5
F1D
331
4F1
  5
4F6
331
47B
  5
480
331
4B2
  5
4B7
331
528
  5
570
331
1285
  5
1287
331
F1B
  5
F27
331
1021
  5
1025
331
12BC
  5
12BE
331
444
  5
449
331
4BA
  5
4BF
331
128D
  5
128F
331
12C4
  5
12C7
331
736
  5
737
331
13E
  5
13E
331
27D
  5
282
331
44C
  5
451
331
483
  5
488
331
4C2
  5
4C7
331
4F9
  5
4FE
331
1029
  5
102D
331
285
  5
28A
331
454
  5
459
331
48B
  5
490
331
4CA
  5
4CF
331
501
  5
506
331
1295
  5
1297
331
EEC
  5
EEE
331
F2B
  5
F39
331
5D7
  5
706
331
45C
  5
461
331
493
  5
498
331
4D2
  5
4D7
331
509
  5
50E
331
129D
  5
129F
331
F33
  5
F41
331
1039
  5
1045
331
4DA
  5
4DF
331
464
  5
469
331
49B
  5
4A0
331
511
  5
516
331
12A5
  5
12A7
331
126E
  5
1270
331
F04
  5
F0F
331
FC2
  5
F21
331
12AD
  5
12AF
331
1276
  5
1278
331
256
  5
25B
331
4E2
  5
4E7
331
25E
  5
263
331
46C
  5
471
331
4A3
  5
4A8
331
519
  5
51E
331
F0C
  5
F18
331
4EA
  5
4EF
331
266
  5
26B
331
474
  5
479
331
4AB
  5
4B0
331
12B5
  5
12B7
331
4F2
  5
4F7
331
47C
  5
481
331
4B3
  5
4B8
331
529
  5
57D
331
1286
  5
1288
331
1022
  5
1026
331
F1C
  5
F28
331
12BD
  5
12BF
331
445
  5
44A
331
4BB
  5
4C0
331
128E
  5
1291
331
12C5
  5
12C8
331
737
  5
738
331
13F
  5
141
331
27E
  5
284
331
44D
  5
452
331
484
  5
489
331
4C3
  5
4C8
331
4FA
  5
4FF
331
539
  5
597
331
147
  5
149
331
102A
  5
1036
331
286
  5
28B
331
455
  5
45A
331
48C
  5
491
331
4CB
  5
4D0
331
502
  5
507
331
1296
  5
1298
331
EED
  5
EEF
331
F2C
  5
F3A
331
28E
  5
446
331
45D
  5
462
331
494
  5
499
331
4D3
  5
4D8
331
50A
  5
50F
331
129E
  5
12A0
331
103A
  5
1122
331
F34
  5
F44
331
4DB
  5
4E0
331
465
  5
46A
331
49C
  5
4A1
331
512
  5
517
331
12A6
  5
12A8
331
126F
  5
1271
331
11C9
  5
123B
331
F3C
  5
FBD
331
F05
  5
F10
331
FC3
  5
F20
331
12AE
  5
12B0
331
1277
  5
1279
331
257
  5
25C
331
4E3
  5
4E8
331
25F
  5
264
331
46D
  5
472
331
4A4
  5
4A9
331
51A
  5
51F
331
1122
  5
117B
331
F0D
  5
F19
331
FCB
  5
F36
331
4EB
  5
4F0
331
267
  5
26C
331
475
  5
47A
331
4AC
  5
4B1
331
12B6
  5
12B8
331
127F
  5
1281
331
1172
  5
11CA
331
4F3
  5
4F8
331
47D
  5
482
331
4B4
  5
4B9
331
52A
  5
58A
331
1287
  5
1289
331
1023
  5
1027
331
F1D
  5
F29
331
12BE
  5
12C0
331
446
  5
44B
331
4BC
  5
4C1
331
128F
  5
1292
331
138
  5
138
331
738
  5
739
331
44E
  5
453
331
485
  5
48A
331
4C4
  5
4C9
331
4FB
  5
500
331
F25
  5
F31
331
102B
  5
1037
331
456
  5
45B
331
48D
  5
492
331
4CC
  5
4D1
331
503
  5
508
331
1297
  5
1299
331
F2D
  5
F3B
331
28F
  5
447
331
45E
  5
463
331
495
  5
49A
331
4D4
  5
4D9
331
50B
  5
510
331
129F
  5
12A1
331
F35
  5
F45
331
103B
  5
1125
331
4DC
  5
4E1
331
466
  5
46B
331
49D
  5
4A2
331
513
  5
518
331
12A7
  5
12A9
331
1270
  5
1272
331
FC4
  5
FC9
331
11CA
  5
1243
331
12AF
  5
12B1
331
250
  5
255
331
258
  5
25D
331
4E4
  5
4E9
331
260
  5
265
331
46E
  5
473
331
4A5
  5
4AA
331
51B
  5
520
331
1278
  5
127A
331
F45
  5
FC4
331
FCC
  5
F35
331
4EC
  5
4F1
331
476
  5
47B
331
4AD
  5
4B2
331
131
  5
131
331
1280
  5
1282
331
12B7
  5
12B9
331
F16
  5
F22
331
58A
  5
5CA
331
4F4
  5
4F9
331
47E
  5
483
331
4B5
  5
4BA
331
1288
  5
128A
331
12BF
  5
12C1
331
F1E
  5
F2A
331
1024
  5
1028
331
117B
  5
123A
331
447
  5
44C
331
4BD
  5
4C2
331
739
  5
73A
331
280
  5
285
331
44F
  5
454
331
486
  5
48B
331
4C5
  5
4CA
331
4FC
  5
501
331
EE7
  5
EE7
331
F26
  5
F32
331
457
  5
45C
331
48E
  5
493
331
4CD
  5
4D2
331
504
  5
509
331
1298
  5
129A
331
F2E
  5
F3C
331
1034
  5
1038
331
45F
  5
464
331
290
  5
448
331
496
  5
49B
331
4D5
  5
4DA
331
50C
  5
511
331
12A0
  5
12A3
331
EFF
  5
F08
331
103C
  5
1172
331
4DD
  5
4E2
331
467
  5
46C
331
49E
  5
4A3
331
514
  5
519
331
12A8
  5
12AA
331
1271
  5
1273
331
F3E
  5
FBE
331
F07
  5
F13
331
FC5
  5
FCA
331
251
  5
258
331
259
  5
25E
331
4E5
  5
4EA
331
261
  5
266
331
46F
  5
474
331
4A6
  5
4AB
331
51C
  5
521
331
12B0
  5
12B2
331
1279
  5
127B
331
F46
  5
FC5
331
FCD
  5
FD5
331
4ED
  5
4F2
331
477
  5
47C
331
4AE
  5
4B3
331
132
  5
132
331
1281
  5
1283
331
12B8
  5
12BA
331
F17
  5
F23
331
101D
  5
101F
331
4F5
  5
4FA
331
47F
  5
484
331
4B6
  5
4BB
331
1289
  5
128B
331
F1F
  5
F2B
331
1025
  5
1029
331
12C0
  5
12C2
331
4BE
  5
4C3
331
448
  5
44D
331
73A
  5
73B
331
281
  5
286
331
450
  5
455
331
487
  5
48C
331
4C6
  5
4CB
331
4FD
  5
502
331
14A
  5
14C
331
1291
  5
1293
331
EE8
  5
EEA
331
458
  5
45D
331
48F
  5
494
331
4CE
  5
4D3
331
505
  5
50A
331
1299
  5
129B
331
F2F
  5
F3D
331
1035
  5
1039
331
460
  5
465
331
497
  5
49C
331
4D6
  5
4DB
331
50D
  5
512
331
12A1
  5
12A4
331
126A
  5
126D
331
F00
  5
F09
331
4DE
  5
4E3
331
49F
  5
4A4
331
515
  5
51A
331
12A9
  5
12AB
331
1272
  5
1274
331
1045
  5
1175
331
11CC
  5
1268
331
25A
  5
25F
331
468
  5
46D
331
F08
  5
F14
331
4E6
  5
4EB
331
262
  5
267
331
470
  5
475
331
4A7
  5
4AC
331
51D
  5
529
331
12B1
  5
12B3
331
127A
  5
127C
331
F10
  5
F1A
331
FCE
  5
FD6
331
1125
  5
11C9
331
4EE
  5
4F3
331
478
  5
47D
331
4AF
  5
4B4
331
1282
  5
1284
331
12B9
  5
12BB
331
1233
  5
1269
331
1175
  5
11CC
331
F18
  5
F24
331
101E
  5
1022
331
4F6
  5
4FB
331
4B7
  5
4BC
331
128A
  5
128C
331
1026
  5
102A
331
1243
  5
126B
331
12C1
  5
12C3
331
4BF
  5
4C4
331
13B
  5
13B
331
449
  5
44E
331
480
  5
485
331
F20
  5
F2C
331
73B
  5
73C
331
282
  5
287
331
451
  5
456
331
488
  5
48D
331
4C7
  5
4CC
331
4FE
  5
503
331
1292
  5
1294
331
EE9
  5
EEB
331
459
  5
45E
331
490
  5
495
331
4CF
  5
4D4
331
506
  5
50B
331
129A
  5
129C
331
F30
  5
F3E
331
1036
  5
103A
331
4D7
  5
4DC
331
461
  5
466
331
498
  5
49D
331
50E
  5
513
331
126B
  5
126E
331
F38
  5
F46
331
5E4
  5
707
331
4DF
  5
4E4
331
516
  5
51B
331
F01
  5
F0A
331
12AA
  5
12AC
331
1273
  5
1275
331
FC7
  5
FCB
331
25B
  5
260
331
469
  5
46E
331
4A0
  5
4A5
331
4E7
  5
4EC
331
263
  5
268
331
471
  5
476
331
4A8
  5
4AD
331
51E
  5
52A
331
F40
  5
FBF
331
12B2
  5
12B5
331
127B
  5
127D
331
4EF
  5
4F4
331
479
  5
47E
331
4B0
  5
4B5
331
F11
  5
F1B
331
1283
  5
1285
331
12BA
  5
12BC
331
1234
  5
126A
331
4F7
  5
4FC
331
4B8
  5
4BD
331
F19
  5
F25
331
101F
  5
1023
331
128B
  5
128D
331
1027
  5
102B
331
12C2
  5
12C4
331
27B
  5
280
331
44A
  5
44F
331
481
  5
486
331
4C0
  5
4C5
331
73C
  5
73D
331
283
  5
288
331
452
  5
457
331
489
  5
48E
331
4C8
  5
4CD
331
4FF
  5
504
331
F21
  5
F2F
331
1293
  5
1295
331
1B4
  5
1B9
331
45A
  5
45F
331
491
  5
496
331
4D0
  5
4D5
331
507
  5
50C
331
EEA
  5
EEC
331
F29
  5
F37
331
129B
  5
129D
331
4D8
  5
4DD
331
50F
  5
514
331
462
  5
467
331
499
  5
49E
331
F31
  5
F3F
331
1037
  5
103B
331
12A3
  5
12A5
331
F39
  5
FB9
331
517
  5
51C
331
E0B
  5
E0B
331
F02
  5
F0D
331
12AB
  5
12AD
331
1274
  5
1276
331
254
  5
259
331
4E0
  5
4E5
331
25C
  5
261
331
46A
  5
46F
331
4A1
  5
4A6
331
4E8
  5
4ED
331
264
  5
269
331
472
  5
477
331
4A9
  5
4AE
331
51F
  5
539
331
F41
  5
FC2
331
FC8
  5
FCC
331
12B3
  5
12B6
331
127C
  5
127F
331
4F0
  5
4F5
331
47A
  5
47F
331
4B1
  5
4B6
331
F12
  5
F1C
331
1284
  5
1286
331
4B9
  5
4BE
331
F1A
  5
F26
331
1020
  5
1024
331
12BB
  5
12BD
331
128C
  5
128E
331
12C3
  5
12C5
331
145
  5
147
331
27C
  5
281
331
44B
  5
450
331
482
  5
487
331
4C1
  5
4C6
331
4F8
  5
4FD
331
F22
  5
F30
331
1028
  5
102C
331
73D
  5
8AC
331
284
  5
289
331
453
  5
458
331
48A
  5
48F
331
4C9
  5
4CE
331
500
  5
505
331
1294
  5
1296
331
EEB
  5
EED
331
F2A
  5
F38
331
1B5
  5
1BA
331
45B
  5
460
331
492
  5
497
331
4D1
  5
4D6
331
508
  5
50D
331
129C
  5
129E
331
F32
  5
F40
331
1038
  5
103C
331
4D9
  5
4DE
331
463
  5
468
331
49A
  5
49F
331
510
  5
515
331
12A4
  5
12A6
331
126D
  5
126F
331
F3A
  5
FBB
331
F03
  5
F0E
331
12AC
  5
12AE
331
1275
  5
1277
  0
GROUP
  5
1031
102
{ACAD_REACTORS
330
D
102
}
330
D
100
AcDbGroup
300

 70
     0
 71
     1
340
102B
340
102A
340
1027
340
1025
340
1023
340
1022
340
1021
340
1020
340
101F
340
101E
340
101D
340
1029
340
1028
340
1026
340
1024
340
126B
340
126A
340
127D
340
127C
340
127B
340
127A
340
1278
340
1276
340
1275
340
1272
340
1271
340
126F
340
126E
340
126D
340
1279
340
1277
340
1274
340
1273
340
1270
340
128F
340
128E
340
128D
340
128C
340
128B
340
128A
340
1289
340
1288
340
1287
340
1286
340
1285
340
1283
340
1282
340
1281
340
1280
340
127F
340
1284
340
12A1
340
12A0
340
129F
340
129E
340
129D
340
129C
340
129B
340
129A
340
1299
340
1298
340
1297
340
1296
340
1295
340
1294
340
1293
340
1292
340
1291
340
12B3
340
12B2
340
12B1
340
12B0
340
12AF
340
12AD
340
12AC
340
12AB
340
12A9
340
12A7
340
12A6
340
12A5
340
12AE
340
12AA
340
12A8
340
12A4
340
12A3
340
12C5
340
12C3
340
12C2
340
12C0
340
12BA
340
12B9
340
12B8
340
12B6
340
12B5
340
12C4
340
12C1
340
12BF
340
12BE
340
12BD
340
12BC
340
12BB
340
12B7
  0
GROUP
  5
1032
102
{ACAD_REACTORS
330
D
102
}
330
D
100
AcDbGroup
300

 70
     0
 71
     1
340
FC5
340
FC4
340
F22
340
F21
340
F20
340
F1F
340
F1E
340
F1D
340
F1C
340
F1B
340
F1A
340
F19
340
F18
340
F17
340
F16
340
FC2
340
FC3
340
F13
340
F12
  0
GROUP
  5
733
102
{ACAD_REACTORS
330
D
102
}
330
D
100
AcDbGroup
300

 70
     0
 71
     1
  0
GROUP
  5
734
102
{ACAD_REACTORS
330
D
102
}
330
D
100
AcDbGroup
300

 70
     0
 71
     1
  0
GROUP
  5
735
102
{ACAD_REACTORS
330
D
102
}
330
D
100
AcDbGroup
300

 70
     0
 71
     1
  0
LAYOUT
  5
25
102
{ACAD_REACTORS
330
19
102
}
330
19
100
AcDbPlotSettings
  1

  2
DocuCentre-II C2200.pc3
  4
A3
  6

 40
4.900083065032958
 41
4.900057315826416
 42
4.85772705078125
 43
4.90008544921875
 44
419.9889831542968
 45
297.0106506347656
 46
0.0
 47
0.0
 48
706.0490209958389
 49
-9915.450390055774
140
14811.04902099584
141
-115.4503900557738
142
1.0
143
34.38305259819163
 70
 11952
 72
     1
 73
     0
 74
     4
  7

 75
     0
147
0.0290840959261597
 76
     0
 77
     2
 78
   300
148
-706.0490209958389
149
9915.450390055774
100
AcDbLayout
  1
Model
 70
     1
 71
     0
 10
0.0
 20
0.0
 11
12.0
 21
9.0
 12
0.0
 22
0.0
 32
0.0
 14
0.0
 24
0.0
 34
0.0
 15
0.0
 25
0.0
 35
0.0
146
0.0
 13
0.0
 23
0.0
 33
0.0
 16
1.0
 26
0.0
 36
0.0
 17
0.0
 27
1.0
 37
0.0
 76
     0
330
22
1001
ACAD_PSEXT
1000
DocuCentre-II C2200.pc3
1000
FX DocuCentre-II C2200
1000
192.168.8.52
1000

1070
     0
  0
LAYOUT
  5
21
102
{ACAD_REACTORS
330
19
102
}
330
19
100
AcDbPlotSettings
  1

  2
DocuCentre-II C2200
  4

  6

 40
0.0
 41
0.0
 42
0.0
 43
0.0
 44
0.0
 45
0.0
 46
0.0
 47
0.0
 48
0.0
 49
0.0
140
0.0
141
0.0
142
1.0
143
1.0
 70
   688
 72
     0
 73
     0
 74
     5
  7

 75
    16
147
1.0
 76
     0
 77
     2
 78
   300
148
0.0
149
0.0
100
AcDbLayout
  1
レイアウト1
 70
     1
 71
     1
 10
-144.1413879394531
 20
-67.9833984375
 11
277.8586120605469
 21
231.0166015625
 12
0.0
 22
0.0
 32
0.0
 14
-144.1413879394531
 24
-67.9833984375
 34
0.0
 15
277.8586120605469
 25
231.0166015625
 35
0.0
146
0.0
 13
0.0
 23
0.0
 33
0.0
 16
1.0
 26
0.0
 36
0.0
 17
0.0
 27
1.0
 37
0.0
 76
     0
330
1E
  0
MLINESTYLE
  5
17
102
{ACAD_REACTORS
330
16
102
}
330
16
100
AcDbMlineStyle
  2
STANDARD
 70
     0
  3

 62
   256
 51
90.0
 52
90.0
 71
     2
 49
0.5
 62
   256
  6
BYLAYER
 49
-0.5
 62
   256
  6
BYLAYER
  0
ACDBPLACEHOLDER
  5
F
102
{ACAD_REACTORS
330
E
102
}
330
E
  0
TABLESTYLE
  5
1D
102
{ACAD_REACTORS
330
1C
102
}
330
1C
100
AcDbTableStyle
  3
Standard
 70
     0
 71
     0
 40
0.06
 41
0.06
280
     0
281
     0
  7
STANDARD
140
0.18
170
     2
 62
     0
 63
     7
283
     0
274
    -2
284
     1
 64
     0
275
    -2
285
     1
 65
     0
276
    -2
286
     1
 66
     0
277
    -2
287
     1
 67
     0
278
    -2
288
     1
 68
     0
279
    -2
289
     1
 69
     0
  7
STANDARD
140
0.25
170
     5
 62
     0
 63
     7
283
     0
274
    -2
284
     1
 64
     0
275
    -2
285
     1
 65
     0
276
    -2
286
     1
 66
     0
277
    -2
287
     1
 67
     0
278
    -2
288
     1
 68
     0
279
    -2
289
     1
 69
     0
  7
STANDARD
140
0.18
170
     5
 62
     0
 63
     7
283
     0
274
    -2
284
     1
 64
     0
275
    -2
285
     1
 65
     0
276
    -2
286
     1
 66
     0
277
    -2
287
     1
 67
     0
278
    -2
288
     1
 68
     0
279
    -2
289
     1
 69
     0
  0
DICTIONARYVAR
  5
52D
102
{ACAD_REACTORS
330
52C
102
}
330
52C
100
DictionaryVariables
280
     0
  1
STANDARD
  0
ENDSEC
  0
EOF
