  0
SECTION
  2
HEADER
  9
$ACADVER
  1
AC1018
  9
$ACADMAINTVER
 70
    39
  9
$DWGCODEPAGE
  3
ANSI_932
  9
$INSBASE
 10
0.0
 20
0.0
 30
0.0
  9
$EXTMIN
 10
733.2753105687807
 20
198.0336821782675
 30
-0.0000000349181948
  9
$EXTMAX
 10
9194.104043915846
 20
6198.757029396118
 30
0.0000000814935746
  9
$LIMMIN
 10
933.5597096512683
 20
398.3830789640024
  9
$LIMMAX
 10
8993.559709651268
 20
5998.383078964002
  9
$ORTHOMODE
 70
     0
  9
$REGENMODE
 70
     1
  9
$FILLMODE
 70
     1
  9
$QTEXTMODE
 70
     0
  9
$MIRRTEXT
 70
     0
  9
$LTSCALE
 40
20.0
  9
$ATTMODE
 70
     1
  9
$TEXTSIZE
 40
60.0
  9
$TRACEWID
 40
0.05
  9
$TEXTSTYLE
  7
STANDARD
  9
$CLAYER
  8
0
  9
$CELTYPE
  6
BYLAYER
  9
$CECOLOR
 62
   256
  9
$CELTSCALE
 40
1.0
  9
$DISPSILH
 70
     0
  9
$DIMSCALE
 40
20.0
  9
$DIMASZ
 40
1.0
  9
$DIMEXO
 40
2.0
  9
$DIMDLI
 40
0.38
  9
$DIMRND
 40
0.0
  9
$DIMDLE
 40
0.0
  9
$DIMEXE
 40
3.0
  9
$DIMTP
 40
0.0
  9
$DIMTM
 40
0.0
  9
$DIMTXT
 40
3.0
  9
$DIMCEN
 40
0.09
  9
$DIMTSZ
 40
0.0
  9
$DIMTOL
 70
     0
  9
$DIMLIM
 70
     0
  9
$DIMTIH
 70
     0
  9
$DIMTOH
 70
     0
  9
$DIMSE1
 70
     0
  9
$DIMSE2
 70
     0
  9
$DIMTAD
 70
     1
  9
$DIMZIN
 70
     8
  9
$DIMBLK
  1
OPEN30
  9
$DIMASO
 70
     1
  9
$DIMSHO
 70
     0
  9
$DIMPOST
  1

  9
$DIMAPOST
  1

  9
$DIMALT
 70
     0
  9
$DIMALTD
 70
     3
  9
$DIMALTF
 40
0.03937007874016
  9
$DIMLFAC
 40
1.0
  9
$DIMTOFL
 70
     1
  9
$DIMTVP
 40
0.0
  9
$DIMTIX
 70
     0
  9
$DIMSOXD
 70
     0
  9
$DIMSAH
 70
     0
  9
$DIMBLK1
  1

  9
$DIMBLK2
  1

  9
$DIMSTYLE
  2
1-20
  9
$DIMCLRD
 70
     0
  9
$DIMCLRE
 70
     0
  9
$DIMCLRT
 70
     0
  9
$DIMTFAC
 40
1.0
  9
$DIMGAP
 40
1.7
  9
$DIMJUST
 70
     0
  9
$DIMSD1
 70
     0
  9
$DIMSD2
 70
     0
  9
$DIMTOLJ
 70
     0
  9
$DIMTZIN
 70
     8
  9
$DIMALTZ
 70
     0
  9
$DIMALTTZ
 70
     0
  9
$DIMUPT
 70
     0
  9
$DIMDEC
 70
     1
  9
$DIMTDEC
 70
     1
  9
$DIMALTU
 70
     2
  9
$DIMALTTD
 70
     3
  9
$DIMTXSTY
  7
STANDARD
  9
$DIMAUNIT
 70
     0
  9
$DIMADEC
 70
     0
  9
$DIMALTRND
 40
0.0
  9
$DIMAZIN
 70
     2
  9
$DIMDSEP
 70
    46
  9
$DIMATFIT
 70
     3
  9
$DIMFRAC
 70
     0
  9
$DIMLDRBLK
  1
OPEN30
  9
$DIMLUNIT
 70
     2
  9
$DIMLWD
 70
    -2
  9
$DIMLWE
 70
    -2
  9
$DIMTMOVE
 70
     0
  9
$LUNITS
 70
     2
  9
$LUPREC
 70
     4
  9
$SKETCHINC
 40
0.1
  9
$FILLETRAD
 40
0.0
  9
$AUNITS
 70
     0
  9
$AUPREC
 70
     0
  9
$MENU
  1
.
  9
$ELEVATION
 40
0.0
  9
$PELEVATION
 40
0.0
  9
$THICKNESS
 40
0.0
  9
$LIMCHECK
 70
     0
  9
$CHAMFERA
 40
0.0
  9
$CHAMFERB
 40
0.0
  9
$CHAMFERC
 40
0.0
  9
$CHAMFERD
 40
0.0
  9
$SKPOLY
 70
     0
  9
$TDCREATE
 40
2455625.606327755
  9
$TDUCREATE
 40
2455625.231327755
  9
$TDUPDATE
 40
2457892.763446667
  9
$TDUUPDATE
 40
2457892.388446667
  9
$TDINDWG
 40
0.0559807639
  9
$TDUSRTIMER
 40
0.0559807639
  9
$USRTIMER
 70
     1
  9
$ANGBASE
 50
0.0
  9
$ANGDIR
 70
     0
  9
$PDMODE
 70
     0
  9
$PDSIZE
 40
0.0
  9
$PLINEWID
 40
0.0
  9
$SPLFRAME
 70
     0
  9
$SPLINETYPE
 70
     6
  9
$SPLINESEGS
 70
     8
  9
$HANDSEED
  5
187F
  9
$SURFTAB1
 70
     6
  9
$SURFTAB2
 70
     6
  9
$SURFTYPE
 70
     6
  9
$SURFU
 70
     6
  9
$SURFV
 70
     6
  9
$UCSBASE
  2

  9
$UCSNAME
  2

  9
$UCSORG
 10
0.0
 20
0.0
 30
0.0
  9
$UCSXDIR
 10
1.0
 20
0.0
 30
0.0
  9
$UCSYDIR
 10
0.0
 20
1.0
 30
0.0
  9
$UCSORTHOREF
  2

  9
$UCSORTHOVIEW
 70
     0
  9
$UCSORGTOP
 10
0.0
 20
0.0
 30
0.0
  9
$UCSORGBOTTOM
 10
0.0
 20
0.0
 30
0.0
  9
$UCSORGLEFT
 10
0.0
 20
0.0
 30
0.0
  9
$UCSORGRIGHT
 10
0.0
 20
0.0
 30
0.0
  9
$UCSORGFRONT
 10
0.0
 20
0.0
 30
0.0
  9
$UCSORGBACK
 10
0.0
 20
0.0
 30
0.0
  9
$PUCSBASE
  2

  9
$PUCSNAME
  2

  9
$PUCSORG
 10
0.0
 20
0.0
 30
0.0
  9
$PUCSXDIR
 10
1.0
 20
0.0
 30
0.0
  9
$PUCSYDIR
 10
0.0
 20
1.0
 30
0.0
  9
$PUCSORTHOREF
  2

  9
$PUCSORTHOVIEW
 70
     0
  9
$PUCSORGTOP
 10
0.0
 20
0.0
 30
0.0
  9
$PUCSORGBOTTOM
 10
0.0
 20
0.0
 30
0.0
  9
$PUCSORGLEFT
 10
0.0
 20
0.0
 30
0.0
  9
$PUCSORGRIGHT
 10
0.0
 20
0.0
 30
0.0
  9
$PUCSORGFRONT
 10
0.0
 20
0.0
 30
0.0
  9
$PUCSORGBACK
 10
0.0
 20
0.0
 30
0.0
  9
$USERI1
 70
     0
  9
$USERI2
 70
     0
  9
$USERI3
 70
     0
  9
$USERI4
 70
     0
  9
$USERI5
 70
     0
  9
$USERR1
 40
0.0
  9
$USERR2
 40
0.0
  9
$USERR3
 40
0.0
  9
$USERR4
 40
0.0
  9
$USERR5
 40
0.0
  9
$WORLDVIEW
 70
     1
  9
$SHADEDGE
 70
     3
  9
$SHADEDIF
 70
    70
  9
$TILEMODE
 70
     1
  9
$MAXACTVP
 70
    64
  9
$PINSBASE
 10
0.0
 20
0.0
 30
0.0
  9
$PLIMCHECK
 70
     0
  9
$PEXTMIN
 10
-180.866882
 20
-53.932747
 30
0.0
  9
$PEXTMAX
 10
241.133118
 20
245.067253
 30
0.0
  9
$PLIMMIN
 10
-180.866882
 20
-53.932747
  9
$PLIMMAX
 10
241.133118
 20
245.067253
  9
$UNITMODE
 70
     0
  9
$VISRETAIN
 70
     1
  9
$PLINEGEN
 70
     0
  9
$PSLTSCALE
 70
     1
  9
$TREEDEPTH
 70
  3020
  9
$CMLSTYLE
  2
STANDARD
  9
$CMLJUST
 70
     0
  9
$CMLSCALE
 40
1.0
  9
$PROXYGRAPHICS
 70
     1
  9
$MEASUREMENT
 70
     1
  9
$CELWEIGHT
370
    -1
  9
$ENDCAPS
280
     0
  9
$JOINSTYLE
280
     0
  9
$LWDISPLAY
290
     0
  9
$INSUNITS
 70
     0
  9
$HYPERLINKBASE
  1

  9
$STYLESHEET
  1
monochrome.ctb
  9
$XEDIT
290
     1
  9
$CEPSNTYPE
380
     0
  9
$PSTYLEMODE
290
     1
  9
$FINGERPRINTGUID
  2
{DEA57A8E-4669-4386-868A-FA0332967780}
  9
$VERSIONGUID
  2
{CE058D54-07A1-43FA-BB26-0F1FCE1EE8AA}
  9
$EXTNAMES
290
     1
  9
$PSVPSCALE
 40
0.0
  9
$OLESTARTUP
290
     0
  9
$SORTENTS
280
   127
  9
$INDEXCTL
280
     0
  9
$HIDETEXT
280
     0
  9
$XCLIPFRAME
290
     0
  9
$HALOGAP
280
     0
  9
$OBSCOLOR
 70
   257
  9
$OBSLTYPE
280
     0
  9
$INTERSECTIONDISPLAY
280
     0
  9
$INTERSECTIONCOLOR
 70
   257
  9
$DIMASSOC
280
     1
  9
$PROJECTNAME
  1

  0
ENDSEC
  0
SECTION
  2
CLASSES
  0
CLASS
  1
ACDBDICTIONARYWDFLT
  2
AcDbDictionaryWithDefault
  3
ObjectDBX Classes
 90
        0
 91
        1
280
     0
281
     0
  0
CLASS
  1
TABLESTYLE
  2
AcDbTableStyle
  3
ObjectDBX Classes
 90
     2047
 91
        2
280
     0
281
     0
  0
CLASS
  1
SORTENTSTABLE
  2
AcDbSortentsTable
  3
ObjectDBX Classes
 90
        0
 91
        1
280
     0
281
     0
  0
CLASS
  1
DICTIONARYVAR
  2
AcDbDictionaryVar
  3
ObjectDBX Classes
 90
        0
 91
        1
280
     0
281
     0
  0
ENDSEC
  0
SECTION
  2
TABLES
  0
TABLE
  2
VPORT
  5
FE
330
0
100
AcDbSymbolTable
 70
     4
  0
VPORT
  5
187E
330
FE
100
AcDbSymbolTableRecord
100
AcDbViewportTableRecord
  2
*Active
 70
     0
 10
0.0
 20
0.0
 11
1.0
 21
1.0
 12
5570.925109175249
 22
3167.490464864433
 13
0.0
 23
0.0
 14
1.0
 24
1.0
 15
0.0
 25
0.0
 16
0.0
 26
0.0
 36
1.0
 17
0.0
 27
0.0
 37
0.0
 40
6108.476616554597
 41
2.240490797546012
 42
50.0
 43
0.0
 44
0.0
 50
0.0
 51
0.0
 71
     0
 72
  1000
 73
     1
 74
     3
 75
     0
 76
     0
 77
     0
 78
     0
281
     0
 65
     1
110
0.0
120
0.0
130
0.0
111
1.0
121
0.0
131
0.0
112
0.0
122
1.0
132
0.0
 79
     0
146
0.0
  0
ENDTAB
  0
TABLE
  2
LTYPE
  5
25
330
0
100
AcDbSymbolTable
 70
    46
  0
LTYPE
  5
26
330
25
100
AcDbSymbolTableRecord
100
AcDbLinetypeTableRecord
  2
BYBLOCK
 70
     0
  3

 72
    65
 73
     0
 40
0.0
  0
LTYPE
  5
27
330
25
100
AcDbSymbolTableRecord
100
AcDbLinetypeTableRecord
  2
BYLAYER
 70
     0
  3

 72
    65
 73
     0
 40
0.0
  0
LTYPE
  5
28
330
25
100
AcDbSymbolTableRecord
100
AcDbLinetypeTableRecord
  2
CONTINUOUS
 70
     0
  3
Solid line
 72
    65
 73
     0
 40
0.0
  0
LTYPE
  5
29
330
25
100
AcDbSymbolTableRecord
100
AcDbLinetypeTableRecord
  2
DASHED
 70
     0
  3
Dashed __ __ __ __ __ __ __ __ __ __ __ __ __ _
 72
    65
 73
     2
 40
4.5
 49
3.0
 74
     0
 49
-1.5
 74
     0
  0
LTYPE
  5
2A
330
25
100
AcDbSymbolTableRecord
100
AcDbLinetypeTableRecord
  2
CENTER
 70
     0
  3
Center ____ _ ____ _ ____ _ ____ _ ____ _ ____
 72
    65
 73
     4
 40
12.0
 49
7.5
 74
     0
 49
-1.5
 74
     0
 49
1.5
 74
     0
 49
-1.5
 74
     0
  0
LTYPE
  5
2B
330
25
100
AcDbSymbolTableRecord
100
AcDbLinetypeTableRecord
  2
PHANTOM
 70
     0
  3
Phantom ______  __  __  ______  __  __  ______
 72
    65
 73
     6
 40
15.0
 49
7.5
 74
     0
 49
-1.5
 74
     0
 49
1.5
 74
     0
 49
-1.5
 74
     0
 49
1.5
 74
     0
 49
-1.5
 74
     0
  0
LTYPE
  5
2C
330
25
100
AcDbSymbolTableRecord
100
AcDbLinetypeTableRecord
  2
DOT
 70
     0
  3
Dot . . . . . . . . . . . . . . . . . . . . . .
 72
    65
 73
     2
 40
1.5
 49
0.0
 74
     0
 49
-1.5
 74
     0
  0
LTYPE
  5
2D
330
25
100
AcDbSymbolTableRecord
100
AcDbLinetypeTableRecord
  2
HIDDEN
 70
     0
  3
Hidden __ __ __ __ __ __ __ __ __ __ __ __ __ _
 72
    65
 73
     2
 40
4.5
 49
3.0
 74
     0
 49
-1.5
 74
     0
  0
LTYPE
  5
2E
330
25
100
AcDbSymbolTableRecord
100
AcDbLinetypeTableRecord
  2
BORDER
 70
     0
  3
Border __ __ . __ __ . __ __ . __ __ . __ __ .
 72
    65
 73
     6
 40
3.5
 49
1.0
 74
     0
 49
-0.5
 74
     0
 49
1.0
 74
     0
 49
-0.5
 74
     0
 49
0.0
 74
     0
 49
-0.5
 74
     0
  0
LTYPE
  5
2F
330
25
100
AcDbSymbolTableRecord
100
AcDbLinetypeTableRecord
  2
BORDER2
 70
     0
  3
Border (.5x) __.__.__.__.__.__.__.__.__.__.__.
 72
    65
 73
     6
 40
1.75
 49
0.5
 74
     0
 49
-0.25
 74
     0
 49
0.5
 74
     0
 49
-0.25
 74
     0
 49
0.0
 74
     0
 49
-0.25
 74
     0
  0
LTYPE
  5
30
330
25
100
AcDbSymbolTableRecord
100
AcDbLinetypeTableRecord
  2
BORDERX2
 70
     0
  3
Border (2x) ____  ____  .  ____  ____  .  ___
 72
    65
 73
     6
 40
7.0
 49
2.0
 74
     0
 49
-1.0
 74
     0
 49
2.0
 74
     0
 49
-1.0
 74
     0
 49
0.0
 74
     0
 49
-1.0
 74
     0
  0
LTYPE
  5
31
330
25
100
AcDbSymbolTableRecord
100
AcDbLinetypeTableRecord
  2
CENTER2
 70
     0
  3
Center (.5x) ___ _ ___ _ ___ _ ___ _ ___ _ ___
 72
    65
 73
     4
 40
6.0
 49
3.75
 74
     0
 49
-0.75
 74
     0
 49
0.75
 74
     0
 49
-0.75
 74
     0
  0
LTYPE
  5
32
330
25
100
AcDbSymbolTableRecord
100
AcDbLinetypeTableRecord
  2
CENTERX2
 70
     0
  3
Center (2x) ________  __  ________  __  _____
 72
    65
 73
     4
 40
24.0
 49
15.0
 74
     0
 49
-3.0
 74
     0
 49
3.0
 74
     0
 49
-3.0
 74
     0
  0
LTYPE
  5
33
330
25
100
AcDbSymbolTableRecord
100
AcDbLinetypeTableRecord
  2
DASHDOT
 70
     0
  3
Dash dot __ . __ . __ . __ . __ . __ . __ . __
 72
    65
 73
     4
 40
6.0
 49
3.0
 74
     0
 49
-1.5
 74
     0
 49
0.0
 74
     0
 49
-1.5
 74
     0
  0
LTYPE
  5
34
330
25
100
AcDbSymbolTableRecord
100
AcDbLinetypeTableRecord
  2
DASHDOT2
 70
     0
  3
Dash dot (.5x) _._._._._._._._._._._._._._._.
 72
    65
 73
     4
 40
3.0
 49
1.5
 74
     0
 49
-0.75
 74
     0
 49
0.0
 74
     0
 49
-0.75
 74
     0
  0
LTYPE
  5
35
330
25
100
AcDbSymbolTableRecord
100
AcDbLinetypeTableRecord
  2
DASHDOTX2
 70
     0
  3
Dash dot (2x) ____  .  ____  .  ____  .  ___
 72
    65
 73
     4
 40
12.0
 49
6.0
 74
     0
 49
-3.0
 74
     0
 49
0.0
 74
     0
 49
-3.0
 74
     0
  0
LTYPE
  5
36
330
25
100
AcDbSymbolTableRecord
100
AcDbLinetypeTableRecord
  2
DASHED2
 70
     0
  3
Dashed (.5x) _ _ _ _ _ _ _ _ _ _ _ _ _ _ _ _ _
 72
    65
 73
     2
 40
2.25
 49
1.5
 74
     0
 49
-0.75
 74
     0
  0
LTYPE
  5
37
330
25
100
AcDbSymbolTableRecord
100
AcDbLinetypeTableRecord
  2
DASHEDX2
 70
     0
  3
Dashed (2x) ____  ____  ____  ____  ____  ___
 72
    65
 73
     2
 40
9.0
 49
6.0
 74
     0
 49
-3.0
 74
     0
  0
LTYPE
  5
38
330
25
100
AcDbSymbolTableRecord
100
AcDbLinetypeTableRecord
  2
DIVIDE
 70
     0
  3
Divide ____ . . ____ . . ____ . . ____ . . ____
 72
    65
 73
     6
 40
7.5
 49
3.0
 74
     0
 49
-1.5
 74
     0
 49
0.0
 74
     0
 49
-1.5
 74
     0
 49
0.0
 74
     0
 49
-1.5
 74
     0
  0
LTYPE
  5
39
330
25
100
AcDbSymbolTableRecord
100
AcDbLinetypeTableRecord
  2
DIVIDE2
 70
     0
  3
Divide (.5x) __..__..__..__..__..__..__..__.._
 72
    65
 73
     6
 40
3.75
 49
1.5
 74
     0
 49
-0.75
 74
     0
 49
0.0
 74
     0
 49
-0.75
 74
     0
 49
0.0
 74
     0
 49
-0.75
 74
     0
  0
LTYPE
  5
3A
330
25
100
AcDbSymbolTableRecord
100
AcDbLinetypeTableRecord
  2
DIVIDEX2
 70
     0
  3
Divide (2x) ________  .  .  ________  .  .  _
 72
    65
 73
     6
 40
15.0
 49
6.0
 74
     0
 49
-3.0
 74
     0
 49
0.0
 74
     0
 49
-3.0
 74
     0
 49
0.0
 74
     0
 49
-3.0
 74
     0
  0
LTYPE
  5
3B
330
25
100
AcDbSymbolTableRecord
100
AcDbLinetypeTableRecord
  2
DOT2
 70
     0
  3
Dot (.5x) .....................................
 72
    65
 73
     2
 40
0.75
 49
0.0
 74
     0
 49
-0.75
 74
     0
  0
LTYPE
  5
3C
330
25
100
AcDbSymbolTableRecord
100
AcDbLinetypeTableRecord
  2
DOTX2
 70
     0
  3
Dot (2x) .  .  .  .  .  .  .  .  .  .  .  .  . 
 72
    65
 73
     2
 40
3.0
 49
0.0
 74
     0
 49
-3.0
 74
     0
  0
LTYPE
  5
3D
330
25
100
AcDbSymbolTableRecord
100
AcDbLinetypeTableRecord
  2
HIDDEN2
 70
     0
  3
Hidden (.5x) _ _ _ _ _ _ _ _ _ _ _ _ _ _ _ _ _
 72
    65
 73
     2
 40
2.25
 49
1.5
 74
     0
 49
-0.75
 74
     0
  0
LTYPE
  5
3E
330
25
100
AcDbSymbolTableRecord
100
AcDbLinetypeTableRecord
  2
HIDDENX2
 70
     0
  3
Hidden (2x) ____ ____ ____ ____ ____ ____ ____
 72
    65
 73
     2
 40
9.0
 49
6.0
 74
     0
 49
-3.0
 74
     0
  0
LTYPE
  5
3F
330
25
100
AcDbSymbolTableRecord
100
AcDbLinetypeTableRecord
  2
PHANTOM2
 70
     0
  3
Phantom (.5x) ___ _ _ ___ _ _ ___ _ _ ___ _ _
 72
    65
 73
     6
 40
7.5
 49
3.75
 74
     0
 49
-0.75
 74
     0
 49
0.75
 74
     0
 49
-0.75
 74
     0
 49
0.75
 74
     0
 49
-0.75
 74
     0
  0
LTYPE
  5
40
330
25
100
AcDbSymbolTableRecord
100
AcDbLinetypeTableRecord
  2
PHANTOMX2
 70
     0
  3
Phantom (2x) ____________    ____    ____   _
 72
    65
 73
     6
 40
30.0
 49
15.0
 74
     0
 49
-3.0
 74
     0
 49
3.0
 74
     0
 49
-3.0
 74
     0
 49
3.0
 74
     0
 49
-3.0
 74
     0
  0
LTYPE
  5
41
330
25
100
AcDbSymbolTableRecord
100
AcDbLinetypeTableRecord
  2
ACAD_ISO02W100
 70
     0
  3
ISO dash __ __ __ __ __ __ __ __ __ __ __ __ __
 72
    65
 73
     2
 40
15.0
 49
12.0
 74
     0
 49
-3.0
 74
     0
  0
LTYPE
  5
42
330
25
100
AcDbSymbolTableRecord
100
AcDbLinetypeTableRecord
  2
ACAD_ISO03W100
 70
     0
  3
ISO dash space __    __    __    __    __    __
 72
    65
 73
     2
 40
30.0
 49
12.0
 74
     0
 49
-18.0
 74
     0
  0
LTYPE
  5
43
330
25
100
AcDbSymbolTableRecord
100
AcDbLinetypeTableRecord
  2
ACAD_ISO04W100
 70
     0
  3
ISO long-dash dot ____ . ____ . ____ . ____ . _
 72
    65
 73
     4
 40
30.0
 49
24.0
 74
     0
 49
-3.0
 74
     0
 49
0.0
 74
     0
 49
-3.0
 74
     0
  0
LTYPE
  5
44
330
25
100
AcDbSymbolTableRecord
100
AcDbLinetypeTableRecord
  2
ACAD_ISO05W100
 70
     0
  3
ISO long-dash double-dot ____ .. ____ .. ____ .
 72
    65
 73
     6
 40
33.0
 49
24.0
 74
     0
 49
-3.0
 74
     0
 49
0.0
 74
     0
 49
-3.0
 74
     0
 49
0.0
 74
     0
 49
-3.0
 74
     0
  0
LTYPE
  5
45
330
25
100
AcDbSymbolTableRecord
100
AcDbLinetypeTableRecord
  2
ACAD_ISO06W100
 70
     0
  3
ISO long-dash triple-dot ____ ... ____ ... ____
 72
    65
 73
     8
 40
36.0
 49
24.0
 74
     0
 49
-3.0
 74
     0
 49
0.0
 74
     0
 49
-3.0
 74
     0
 49
0.0
 74
     0
 49
-3.0
 74
     0
 49
0.0
 74
     0
 49
-3.0
 74
     0
  0
LTYPE
  5
46
330
25
100
AcDbSymbolTableRecord
100
AcDbLinetypeTableRecord
  2
ACAD_ISO07W100
 70
     0
  3
ISO dot . . . . . . . . . . . . . . . . . . . .
 72
    65
 73
     2
 40
3.0
 49
0.0
 74
     0
 49
-3.0
 74
     0
  0
LTYPE
  5
47
330
25
100
AcDbSymbolTableRecord
100
AcDbLinetypeTableRecord
  2
ACAD_ISO08W100
 70
     0
  3
ISO long-dash short-dash ____ __ ____ __ ____ _
 72
    65
 73
     4
 40
36.0
 49
24.0
 74
     0
 49
-3.0
 74
     0
 49
6.0
 74
     0
 49
-3.0
 74
     0
  0
LTYPE
  5
48
330
25
100
AcDbSymbolTableRecord
100
AcDbLinetypeTableRecord
  2
ACAD_ISO09W100
 70
     0
  3
ISO long-dash double-short-dash ____ __ __ ____
 72
    65
 73
     6
 40
45.0
 49
24.0
 74
     0
 49
-3.0
 74
     0
 49
6.0
 74
     0
 49
-3.0
 74
     0
 49
6.0
 74
     0
 49
-3.0
 74
     0
  0
LTYPE
  5
49
330
25
100
AcDbSymbolTableRecord
100
AcDbLinetypeTableRecord
  2
ACAD_ISO10W100
 70
     0
  3
ISO dash dot __ . __ . __ . __ . __ . __ . __ .
 72
    65
 73
     4
 40
18.0
 49
12.0
 74
     0
 49
-3.0
 74
     0
 49
0.0
 74
     0
 49
-3.0
 74
     0
  0
LTYPE
  5
4A
330
25
100
AcDbSymbolTableRecord
100
AcDbLinetypeTableRecord
  2
ACAD_ISO11W100
 70
     0
  3
ISO double-dash dot __ __ . __ __ . __ __ . __ 
 72
    65
 73
     6
 40
33.0
 49
12.0
 74
     0
 49
-3.0
 74
     0
 49
12.0
 74
     0
 49
-3.0
 74
     0
 49
0.0
 74
     0
 49
-3.0
 74
     0
  0
LTYPE
  5
4B
330
25
100
AcDbSymbolTableRecord
100
AcDbLinetypeTableRecord
  2
ACAD_ISO12W100
 70
     0
  3
ISO dash double-dot __ . . __ . . __ . . __ . .
 72
    65
 73
     6
 40
21.0
 49
12.0
 74
     0
 49
-3.0
 74
     0
 49
0.0
 74
     0
 49
-3.0
 74
     0
 49
0.0
 74
     0
 49
-3.0
 74
     0
  0
LTYPE
  5
4C
330
25
100
AcDbSymbolTableRecord
100
AcDbLinetypeTableRecord
  2
ACAD_ISO13W100
 70
     0
  3
ISO double-dash double-dot __ __ . . __ __ . . 
 72
    65
 73
     8
 40
36.0
 49
12.0
 74
     0
 49
-3.0
 74
     0
 49
12.0
 74
     0
 49
-3.0
 74
     0
 49
0.0
 74
     0
 49
-3.0
 74
     0
 49
0.0
 74
     0
 49
-3.0
 74
     0
  0
LTYPE
  5
4D
330
25
100
AcDbSymbolTableRecord
100
AcDbLinetypeTableRecord
  2
ACAD_ISO14W100
 70
     0
  3
ISO dash triple-dot __ . . . __ . . . __ . . . 
 72
    65
 73
     8
 40
24.0
 49
12.0
 74
     0
 49
-3.0
 74
     0
 49
0.0
 74
     0
 49
-3.0
 74
     0
 49
0.0
 74
     0
 49
-3.0
 74
     0
 49
0.0
 74
     0
 49
-3.0
 74
     0
  0
LTYPE
  5
4E
330
25
100
AcDbSymbolTableRecord
100
AcDbLinetypeTableRecord
  2
ACAD_ISO15W100
 70
     0
  3
ISO double-dash triple-dot __ __ . . . __ __ . 
 72
    65
 73
    10
 40
39.0
 49
12.0
 74
     0
 49
-3.0
 74
     0
 49
12.0
 74
     0
 49
-3.0
 74
     0
 49
0.0
 74
     0
 49
-3.0
 74
     0
 49
0.0
 74
     0
 49
-3.0
 74
     0
 49
0.0
 74
     0
 49
-3.0
 74
     0
  0
LTYPE
  5
4F
330
25
100
AcDbSymbolTableRecord
100
AcDbLinetypeTableRecord
  2
FENCELINE1
 70
     0
  3
Fenceline circle ----0-----0----0-----0----0---
 72
    65
 73
     4
 40
1.45
 49
0.25
 74
     0
 49
-0.1
 74
     4
 75
   133
340
24
 46
0.1
 50
0.0
 44
-0.1
 45
0.0
 49
-0.1
 74
     0
 49
1.0
 74
     0
  0
LTYPE
  5
50
330
25
100
AcDbSymbolTableRecord
100
AcDbLinetypeTableRecord
  2
FENCELINE2
 70
     0
  3
Fenceline square ----[]-----[]----[]-----[]----
 72
    65
 73
     4
 40
1.45
 49
0.25
 74
     0
 49
-0.1
 74
     4
 75
   132
340
24
 46
0.1
 50
0.0
 44
-0.1
 45
0.0
 49
-0.1
 74
     0
 49
1.0
 74
     0
  0
LTYPE
  5
51
330
25
100
AcDbSymbolTableRecord
100
AcDbLinetypeTableRecord
  2
TRACKS
 70
     0
  3
Tracks -|-|-|-|-|-|-|-|-|-|-|-|-|-|-|-|-|-|-|-|
 72
    65
 73
     2
 40
0.3
 49
0.15
 74
     4
 75
   130
340
24
 46
0.25
 50
0.0
 44
0.0
 45
0.0
 49
0.15
 74
     0
  0
LTYPE
  5
52
330
25
100
AcDbSymbolTableRecord
100
AcDbLinetypeTableRecord
  2
BATTING
 70
     0
  3
Batting SSSSSSSSSSSSSSSSSSSSSSSSSSSSSSSSSSSSSSS
 72
    65
 73
     4
 40
0.4001000000000002
 49
0.0001
 74
     0
 49
-0.1
 74
     4
 75
   134
340
24
 46
0.1
 50
0.0
 44
-0.1
 45
0.0
 49
-0.2
 74
     4
 75
   134
340
24
 46
0.1
 50
180.0
 44
0.1
 45
0.0
 49
-0.1
 74
     0
  0
LTYPE
  5
53
330
25
100
AcDbSymbolTableRecord
100
AcDbLinetypeTableRecord
  2
HOT_WATER_SUPPLY
 70
     0
  3
Hot water supply ---- HW ---- HW ---- HW ----
 72
    65
 73
     3
 40
0.9
 49
0.5
 74
     0
 49
-0.2
 74
     2
 75
     0
340
23
 46
0.1
 50
0.0
 44
-0.1
 45
-0.05
  9
HW
 49
-0.2
 74
     0
  0
LTYPE
  5
54
330
25
100
AcDbSymbolTableRecord
100
AcDbLinetypeTableRecord
  2
GAS_LINE
 70
     0
  3
Gas line ----GAS----GAS----GAS----GAS----GAS---
 72
    65
 73
     3
 40
0.95
 49
0.5
 74
     0
 49
-0.2
 74
     2
 75
     0
340
23
 46
0.1
 50
0.0
 44
-0.1
 45
-0.05
  9
GAS
 49
-0.25
 74
     0
  0
LTYPE
  5
55
330
25
100
AcDbSymbolTableRecord
100
AcDbLinetypeTableRecord
  2
ZIGZAG
 70
     0
  3
Zig zag /\/\/\/\/\/\/\/\/\/\/\/\/\/\/\/\/\/\/\/
 72
    65
 73
     4
 40
0.8001000000000001
 49
0.0001
 74
     0
 49
-0.2
 74
     4
 75
   131
340
24
 46
0.2
 50
0.0
 44
-0.2
 45
0.0
 49
-0.4
 74
     4
 75
   131
340
24
 46
0.2
 50
180.0
 44
0.2
 45
0.0
 49
-0.2
 74
     0
  0
ENDTAB
  0
TABLE
  2
LAYER
  5
C8
102
{ACAD_XDICTIONARY
360
4CA
102
}
330
0
100
AcDbSymbolTable
 70
     6
  0
LAYER
  5
C9
330
C8
100
AcDbSymbolTableRecord
100
AcDbLayerTableRecord
  2
0
 70
     0
 62
     7
  6
CONTINUOUS
370
    -3
390
3E2
  0
LAYER
  5
CA
330
C8
100
AcDbSymbolTableRecord
100
AcDbLayerTableRecord
  2
1
 70
     0
 62
     7
  6
CONTINUOUS
370
    -3
390
3E2
  0
LAYER
  5
CB
330
C8
100
AcDbSymbolTableRecord
100
AcDbLayerTableRecord
  2
2
 70
     0
 62
     7
  6
CONTINUOUS
370
    -3
390
3E2
  0
LAYER
  5
CC
330
C8
100
AcDbSymbolTableRecord
100
AcDbLayerTableRecord
  2
3
 70
     0
 62
     7
  6
CONTINUOUS
370
    -3
390
3E2
  0
LAYER
  5
CD
330
C8
100
AcDbSymbolTableRecord
100
AcDbLayerTableRecord
  2
DEFPOINTS
 70
     0
 62
     7
  6
CONTINUOUS
290
     0
370
    -3
390
3E2
  0
LAYER
  5
909
330
C8
100
AcDbSymbolTableRecord
100
AcDbLayerTableRecord
  2
寸法線
 70
     0
 62
     8
  6
CONTINUOUS
370
    -3
390
3E2
1001
AcAecLayerStandard
1000

1000

  0
ENDTAB
  0
TABLE
  2
STYLE
  5
CE
330
0
100
AcDbSymbolTable
 70
     5
  0
STYLE
  5
23
330
CE
100
AcDbSymbolTableRecord
100
AcDbTextStyleTableRecord
  2
STANDARD
 70
     0
 40
0.0
 41
1.0
 50
0.0
 71
     0
 42
60.0
  3
txt.shx
  4
extfont.shx
  0
STYLE
  5
24
330
CE
100
AcDbSymbolTableRecord
100
AcDbTextStyleTableRecord
  2

 70
     1
 40
0.0
 41
1.0
 50
0.0
 71
     0
 42
0.2
  3
ltypeshp.shx
  4

  0
STYLE
  5
4C1
330
CE
100
AcDbSymbolTableRecord
100
AcDbTextStyleTableRecord
  2
ＭＳゴシック
 70
     0
 40
0.0
 41
1.0
 50
0.0
 71
     0
 42
3.0
  3

  4

1001
ACAD
1000
MS Gothic
1071
    32817
  0
ENDTAB
  0
TABLE
  2
VIEW
  5
D3
330
0
100
AcDbSymbolTable
 70
     0
  0
ENDTAB
  0
TABLE
  2
UCS
  5
D4
330
0
100
AcDbSymbolTable
 70
     0
  0
ENDTAB
  0
TABLE
  2
APPID
  5
D1
330
0
100
AcDbSymbolTable
 70
     4
  0
APPID
  5
D2
330
D1
100
AcDbSymbolTableRecord
100
AcDbRegAppTableRecord
  2
ACAD
 70
     0
  0
APPID
  5
4C8
330
D1
100
AcDbSymbolTableRecord
100
AcDbRegAppTableRecord
  2
ACAD_PSEXT
 70
     0
  0
APPID
  5
811
330
D1
100
AcDbSymbolTableRecord
100
AcDbRegAppTableRecord
  2
ACAD_DSTYLE_DIMTEXT_FILL
 70
     0
  0
APPID
  5
90A
330
D1
100
AcDbSymbolTableRecord
100
AcDbRegAppTableRecord
  2
AcAecLayerStandard
 70
     0
  0
ENDTAB
  0
TABLE
  2
DIMSTYLE
  5
CF
330
0
100
AcDbSymbolTable
 70
     9
100
AcDbDimStyleTable
 71
     1
340
4C4
  0
DIMSTYLE
105
D0
102
{ACAD_REACTORS
330
25C
330
25D
330
261
330
262
330
264
102
}
330
CF
100
AcDbSymbolTableRecord
100
AcDbDimStyleTableRecord
  2
DIMSTYLE
 70
     0
 41
1.0
 42
1.0
 44
2.54
 73
     0
 74
     0
140
3.0
147
1.5
173
     1
271
     1
275
     1
340
23
  0
DIMSTYLE
105
4C2
330
CF
100
AcDbSymbolTableRecord
100
AcDbDimStyleTableRecord
  2
1-10
 70
     0
 40
10.0
 41
3.0
 42
2.0
 44
3.0
 73
     0
 74
     0
 77
     1
 78
     8
 79
     2
140
3.0
143
0.03937007874016
147
1.7
171
     3
172
     1
271
     1
272
     1
274
     3
283
     0
284
     8
340
23
341
D9
342
D9
  0
DIMSTYLE
105
4C3
330
CF
100
AcDbSymbolTableRecord
100
AcDbDimStyleTableRecord
  2
1-15
 70
     0
 40
15.0
 41
3.0
 42
2.0
 44
3.0
 73
     0
 74
     0
 77
     1
 78
     8
 79
     2
140
3.0
143
0.03937007874016
147
1.7
171
     3
172
     1
271
     1
272
     1
274
     3
283
     0
284
     8
340
23
341
D9
342
D9
  0
DIMSTYLE
105
4C4
102
{ACAD_REACTORS
330
977
330
978
330
979
330
97A
330
97B
330
B05
330
B12
330
B3A
330
B50
330
B5D
330
B6A
330
B77
330
1803
330
1804
102
}
330
CF
100
AcDbSymbolTableRecord
100
AcDbDimStyleTableRecord
  2
1-20
 70
     0
 40
20.0
 41
1.0
 42
2.0
 44
3.0
 73
     0
 74
     0
 77
     1
 78
     8
 79
     2
140
3.0
143
0.03937007874016
147
1.7
171
     3
172
     1
271
     1
272
     1
274
     3
283
     0
284
     8
340
23
341
D9
342
D9
  0
DIMSTYLE
105
4C5
330
CF
100
AcDbSymbolTableRecord
100
AcDbDimStyleTableRecord
  2
1-25
 70
     0
 40
25.0
 41
3.0
 42
2.0
 44
3.0
 73
     0
 74
     0
 77
     1
 78
     8
 79
     2
140
3.0
143
0.03937007874016
147
1.7
171
     3
172
     1
271
     1
272
     1
274
     3
283
     0
284
     8
340
23
341
D9
342
D9
  0
DIMSTYLE
105
4C6
330
CF
100
AcDbSymbolTableRecord
100
AcDbDimStyleTableRecord
  2
1-30
 70
     0
 40
30.0
 41
3.0
 42
2.0
 44
3.0
 73
     0
 74
     0
 77
     1
 78
     8
 79
     2
140
3.0
143
0.03937007874016
147
1.7
171
     3
172
     1
271
     1
272
     1
274
     3
283
     0
284
     8
340
23
341
D9
342
D9
  0
DIMSTYLE
105
4C7
330
CF
100
AcDbSymbolTableRecord
100
AcDbDimStyleTableRecord
  2
1-5
 70
     0
 40
5.0
 41
3.0
 42
2.0
 44
3.0
 73
     0
 74
     0
 77
     1
 78
     8
 79
     2
140
3.0
143
0.03937007874016
147
1.7
171
     3
172
     1
271
     1
272
     1
274
     3
283
     0
284
     8
340
23
341
D9
342
D9
  0
ENDTAB
  0
TABLE
  2
BLOCK_RECORD
  5
D5
330
0
100
AcDbSymbolTable
 70
    79
  0
BLOCK_RECORD
  5
D6
102
{ACAD_XDICTIONARY
360
D18
102
}
330
D5
100
AcDbSymbolTableRecord
100
AcDbBlockTableRecord
  2
*MODEL_SPACE
340
3E9
  0
BLOCK_RECORD
  5
D7
330
D5
100
AcDbSymbolTableRecord
100
AcDbBlockTableRecord
  2
*PAPER_SPACE
340
3EA
  0
BLOCK_RECORD
  5
D8
330
D5
100
AcDbSymbolTableRecord
100
AcDbBlockTableRecord
  2
_NONE
340
0
  0
BLOCK_RECORD
  5
D9
330
D5
100
AcDbSymbolTableRecord
100
AcDbBlockTableRecord
  2
_OPEN30
340
0
102
{BLKREFS
331
1CE
331
1CF
331
1D9
331
1DA
331
1E4
331
1E5
331
1EF
331
1F1
331
1FD
331
1FF
331
A01
331
A02
331
A0A
331
A0B
331
A13
331
A14
331
A1E
331
A1F
331
A29
331
A2A
331
B0A
331
B0B
331
D3B
331
D3C
331
D44
331
D45
331
D71
331
D72
331
D7A
331
D7B
331
D83
331
D84
331
DA8
331
DA9
331
DB6
331
DB7
331
DC2
331
DC3
331
DCE
331
DCF
331
DDA
331
DDB
331
DE6
331
DE7
331
DF2
331
DF3
331
DFE
331
DFF
331
E0A
331
E0B
331
F66
331
F67
331
F6F
331
F70
331
F78
331
F79
331
F81
331
F82
331
F8A
331
F8B
331
F93
331
F94
331
F9C
331
F9D
331
FA5
331
FA6
331
FAE
331
FAF
331
FBA
331
FBB
331
106A
331
106B
331
133E
331
133F
331
1347
331
1348
331
1350
331
1351
331
1582
331
1583
331
158E
331
158F
331
159A
331
159B
331
15A6
331
15A7
331
15B2
331
15B3
331
15BE
331
15BF
331
15CA
331
15CB
331
15D6
331
15D7
331
15E2
331
15E3
331
175E
331
175F
331
1767
331
1768
331
1770
331
1771
331
1779
331
177A
331
1782
331
1783
331
178B
331
178C
331
1794
331
1795
331
179D
331
179E
331
17A6
331
17A7
331
17B2
331
17B3
331
17BE
331
17BF
331
1829
331
182A
331
1844
331
1845
331
184D
331
184E
102
}
  0
BLOCK_RECORD
  5
DA
330
D5
100
AcDbSymbolTableRecord
100
AcDbBlockTableRecord
  2
KOZU0001
340
0
  0
BLOCK_RECORD
  5
DB
330
D5
100
AcDbSymbolTableRecord
100
AcDbBlockTableRecord
  2
KOZU0002
340
0
  0
BLOCK_RECORD
  5
DC
330
D5
100
AcDbSymbolTableRecord
100
AcDbBlockTableRecord
  2
KOZU0003
340
0
  0
BLOCK_RECORD
  5
DD
330
D5
100
AcDbSymbolTableRecord
100
AcDbBlockTableRecord
  2
KOZU0004
340
0
  0
BLOCK_RECORD
  5
DE
330
D5
100
AcDbSymbolTableRecord
100
AcDbBlockTableRecord
  2
KOZU0005
340
0
  0
BLOCK_RECORD
  5
DF
330
D5
100
AcDbSymbolTableRecord
100
AcDbBlockTableRecord
  2
KOZU0006
340
0
  0
BLOCK_RECORD
  5
E0
330
D5
100
AcDbSymbolTableRecord
100
AcDbBlockTableRecord
  2
KOZU0007
340
0
  0
BLOCK_RECORD
  5
E1
330
D5
100
AcDbSymbolTableRecord
100
AcDbBlockTableRecord
  2
KOZU0008
340
0
  0
BLOCK_RECORD
  5
E2
330
D5
100
AcDbSymbolTableRecord
100
AcDbBlockTableRecord
  2
KOZU0009
340
0
102
{BLKREFS
331
25E
102
}
  0
BLOCK_RECORD
  5
E3
330
D5
100
AcDbSymbolTableRecord
100
AcDbBlockTableRecord
  2
KOZU0010
340
0
102
{BLKREFS
331
25F
102
}
  0
BLOCK_RECORD
  5
E4
330
D5
100
AcDbSymbolTableRecord
100
AcDbBlockTableRecord
  2
KOZU0011
340
0
102
{BLKREFS
331
260
102
}
  0
BLOCK_RECORD
  5
E5
330
D5
100
AcDbSymbolTableRecord
100
AcDbBlockTableRecord
  2
KOZU0012
340
0
102
{BLKREFS
331
263
102
}
  0
BLOCK_RECORD
  5
E6
330
D5
100
AcDbSymbolTableRecord
100
AcDbBlockTableRecord
  2
KOZU0013
340
0
102
{BLKREFS
331
22E
102
}
  0
BLOCK_RECORD
  5
F9
330
D5
100
AcDbSymbolTableRecord
100
AcDbBlockTableRecord
  2
*D15
340
0
  0
BLOCK_RECORD
  5
FA
330
D5
100
AcDbSymbolTableRecord
100
AcDbBlockTableRecord
  2
*D16
340
0
  0
BLOCK_RECORD
  5
FB
330
D5
100
AcDbSymbolTableRecord
100
AcDbBlockTableRecord
  2
*D17
340
0
  0
BLOCK_RECORD
  5
FC
330
D5
100
AcDbSymbolTableRecord
100
AcDbBlockTableRecord
  2
*D18
340
0
  0
BLOCK_RECORD
  5
FD
330
D5
100
AcDbSymbolTableRecord
100
AcDbBlockTableRecord
  2
*D19
340
0
  0
BLOCK_RECORD
  5
98D
330
D5
100
AcDbSymbolTableRecord
100
AcDbBlockTableRecord
  2
*D20
340
0
  0
BLOCK_RECORD
  5
999
330
D5
100
AcDbSymbolTableRecord
100
AcDbBlockTableRecord
  2
*D21
340
0
  0
BLOCK_RECORD
  5
9A5
330
D5
100
AcDbSymbolTableRecord
100
AcDbBlockTableRecord
  2
*D22
340
0
  0
BLOCK_RECORD
  5
9B1
330
D5
100
AcDbSymbolTableRecord
100
AcDbBlockTableRecord
  2
*D23
340
0
  0
BLOCK_RECORD
  5
9BF
330
D5
100
AcDbSymbolTableRecord
100
AcDbBlockTableRecord
  2
*D24
340
0
  0
BLOCK_RECORD
  5
B06
330
D5
100
AcDbSymbolTableRecord
100
AcDbBlockTableRecord
  2
*D25
340
0
  0
BLOCK_RECORD
  5
B13
330
D5
100
AcDbSymbolTableRecord
100
AcDbBlockTableRecord
  2
*D26
340
0
  0
BLOCK_RECORD
  5
B3B
330
D5
100
AcDbSymbolTableRecord
100
AcDbBlockTableRecord
  2
*D27
340
0
  0
BLOCK_RECORD
  5
B51
330
D5
100
AcDbSymbolTableRecord
100
AcDbBlockTableRecord
  2
*D28
340
0
  0
BLOCK_RECORD
  5
B5E
330
D5
100
AcDbSymbolTableRecord
100
AcDbBlockTableRecord
  2
*D29
340
0
  0
BLOCK_RECORD
  5
B6B
330
D5
100
AcDbSymbolTableRecord
100
AcDbBlockTableRecord
  2
*D30
340
0
  0
BLOCK_RECORD
  5
B78
330
D5
100
AcDbSymbolTableRecord
100
AcDbBlockTableRecord
  2
*D31
340
0
  0
BLOCK_RECORD
  5
CD5
330
D5
100
AcDbSymbolTableRecord
100
AcDbBlockTableRecord
  2
*D32
340
0
  0
BLOCK_RECORD
  5
CE1
330
D5
100
AcDbSymbolTableRecord
100
AcDbBlockTableRecord
  2
*D33
340
0
  0
BLOCK_RECORD
  5
CED
330
D5
100
AcDbSymbolTableRecord
100
AcDbBlockTableRecord
  2
*D34
340
0
  0
BLOCK_RECORD
  5
1805
330
D5
100
AcDbSymbolTableRecord
100
AcDbBlockTableRecord
  2
*D75
340
0
  0
BLOCK_RECORD
  5
1811
330
D5
100
AcDbSymbolTableRecord
100
AcDbBlockTableRecord
  2
*D76
340
0
  0
ENDTAB
  0
ENDSEC
  0
SECTION
  2
BLOCKS
  0
BLOCK
  5
FF
330
D6
100
AcDbEntity
  8
0
100
AcDbBlockBegin
  2
*MODEL_SPACE
 70
     0
 10
0.0
 20
0.0
 30
0.0
  3
*MODEL_SPACE
  1

  0
ENDBLK
  5
100
330
D6
100
AcDbEntity
  8
0
100
AcDbBlockEnd
  0
BLOCK
  5
101
330
D7
100
AcDbEntity
 67
     1
  8
0
100
AcDbBlockBegin
  2
*PAPER_SPACE
 70
     0
 10
0.0
 20
0.0
 30
0.0
  3
*PAPER_SPACE
  1

  0
ENDBLK
  5
102
330
D7
100
AcDbEntity
 67
     1
  8
0
100
AcDbBlockEnd
  0
BLOCK
  5
103
330
D8
100
AcDbEntity
  8
0
100
AcDbBlockBegin
  2
_NONE
 70
     0
 10
0.0
 20
0.0
 30
0.0
  3
_NONE
  1

  0
CIRCLE
  5
104
330
D8
100
AcDbEntity
  8
0
  6
ByBlock
 62
     0
100
AcDbCircle
 10
0.0
 20
0.0
 30
0.0
 40
0.001
  0
ENDBLK
  5
105
330
D8
100
AcDbEntity
  8
0
100
AcDbBlockEnd
  0
BLOCK
  5
106
330
D9
100
AcDbEntity
  8
0
100
AcDbBlockBegin
  2
_OPEN30
 70
     0
 10
0.0
 20
0.0
 30
0.0
  3
_OPEN30
  1

  0
LINE
  5
107
330
D9
100
AcDbEntity
  8
0
  6
ByBlock
 62
     0
100
AcDbLine
 10
0.0
 20
0.0
 30
0.0
 11
-2.999999954944513
 21
-0.9999999849815248
 31
0.0
  0
LINE
  5
108
330
D9
100
AcDbEntity
  8
0
  6
ByBlock
 62
     0
100
AcDbLine
 10
0.0
 20
0.0
 30
0.0
 11
-2.999999954944526
 21
0.9999999849814884
 31
0.0
  0
LINE
  5
109
330
D9
100
AcDbEntity
  8
0
  6
ByBlock
 62
     0
100
AcDbLine
 10
0.0
 20
0.0
 30
0.0
 11
-2.99999995494452
 21
0.0
 31
0.0
  0
ENDBLK
  5
10A
330
D9
100
AcDbEntity
  8
0
100
AcDbBlockEnd
  0
BLOCK
  5
208
330
DA
100
AcDbEntity
  8
0
100
AcDbBlockBegin
  2
KOZU0001
 70
     0
 10
0.0
 20
0.0
 30
0.0
  3
KOZU0001
  1

  0
POINT
  5
209
330
DA
100
AcDbEntity
  8
0
  6
Continuous
 62
     7
100
AcDbPoint
 10
0.0
 20
0.0
 30
0.0
  0
LINE
  5
20A
330
DA
100
AcDbEntity
  8
0
  6
Continuous
 62
     7
100
AcDbLine
 10
-103.9999999999998
 20
-55.0
 30
0.0
 11
-30.0
 21
-55.0
 31
0.0
  0
LINE
  5
20B
330
DA
100
AcDbEntity
  8
0
  6
Continuous
 62
     3
100
AcDbLine
 10
-30.0
 20
-55.0
 30
0.0
 11
-30.0
 21
55.0
 31
0.0
  0
LINE
  5
20C
330
DA
100
AcDbEntity
  8
0
  6
Continuous
 62
     3
100
AcDbLine
 10
-103.9999999999998
 20
-55.0
 30
0.0
 11
-103.9999999999998
 21
55.0
 31
0.0
  0
LINE
  5
20D
330
DA
100
AcDbEntity
  8
0
  6
CENTER
 62
     6
100
AcDbLine
 10
-134.9995351955536
 20
0.0
 30
0.0
 11
201.9974257517774
 21
0.0
 31
0.0
  0
LINE
  5
20E
330
DA
100
AcDbEntity
  8
0
  6
Continuous
 62
     6
100
AcDbLine
 10
-100.0
 20
59.99999999999954
 30
0.0
 11
-100.0
 21
55.0
 31
0.0
  0
LINE
  5
20F
330
DA
100
AcDbEntity
  8
0
  6
Continuous
 62
     6
100
AcDbLine
 10
3.744369390526343
 20
-75.0
 30
0.0
 11
-84.99999999999955
 21
-75.0
 31
0.0
  0
LINE
  5
210
330
DA
100
AcDbEntity
  8
0
  6
Continuous
 62
     6
100
AcDbLine
 10
3.744369390526343
 20
75.0
 30
0.0
 11
-84.99999999999955
 21
75.0
 31
0.0
  0
LINE
  5
211
330
DA
100
AcDbEntity
  8
0
  6
Continuous
 62
     6
100
AcDbLine
 10
-84.99999999999868
 20
74.99999999999926
 30
0.0
 11
-99.999999999999
 21
59.99999999999897
 31
0.0
  0
LINE
  5
212
330
DA
100
AcDbEntity
  8
0
  6
CENTER
 62
     6
100
AcDbLine
 10
-60.00000000000023
 20
19.82209029029036
 30
0.0
 11
-60.00000000000023
 21
-23.53534636584209
 31
0.0
  0
LINE
  5
213
330
DA
100
AcDbEntity
  8
0
  6
Continuous
 62
     6
100
AcDbLine
 10
-100.0
 20
-59.99999999999972
 30
0.0
 11
-85.00000000000017
 21
-74.99999999999982
 31
0.0
  0
LINE
  5
214
330
DA
100
AcDbEntity
  8
0
  6
Continuous
 62
     6
100
AcDbLine
 10
-100.0
 20
-55.0
 30
0.0
 11
-100.0
 21
-60.00000000000046
 31
0.0
  0
LINE
  5
215
330
DA
100
AcDbEntity
  8
0
  6
Continuous
 62
     7
100
AcDbLine
 10
-103.9999999999998
 20
55.0
 30
0.0
 11
-30.0
 21
55.0
 31
0.0
  0
ARC
  5
216
330
DA
100
AcDbEntity
  8
0
  6
Continuous
 62
     6
100
AcDbCircle
 10
1355.000000000001
 20
0.0000000000001137
 30
0.0
 40
1375.0
100
AcDbArc
 50
176.8732238864203
 51
183.1267761135804
  0
CIRCLE
  5
217
330
DA
100
AcDbEntity
  8
0
  6
Continuous
 62
     6
100
AcDbCircle
 10
-60.00000000000023
 20
0.0
 30
0.0
 40
10.0
  0
ENDBLK
  5
218
330
DA
100
AcDbEntity
  8
0
100
AcDbBlockEnd
  0
BLOCK
  5
219
330
DB
100
AcDbEntity
  8
0
100
AcDbBlockBegin
  2
KOZU0002
 70
     0
 10
0.0
 20
0.0
 30
0.0
  3
KOZU0002
  1

  0
POINT
  5
21A
330
DB
100
AcDbEntity
  8
0
  6
Continuous
 62
     7
100
AcDbPoint
 10
0.0
 20
0.0
 30
0.0
  0
LINE
  5
21B
330
DB
100
AcDbEntity
  8
0
  6
Continuous
 62
     3
100
AcDbLine
 10
69.99999999999966
 20
30.0
 30
0.0
 11
100.0000000000002
 21
30.0
 31
0.0
  0
LINE
  5
21C
330
DB
100
AcDbEntity
  8
0
  6
Continuous
 62
     3
100
AcDbLine
 10
67.99999999999966
 20
0.0
 30
0.0
 11
97.00000005960452
 21
0.0
 31
0.0
  0
LINE
  5
21D
330
DB
100
AcDbEntity
  8
0
  6
Continuous
 62
     3
100
AcDbLine
 10
97.00000005960452
 20
0.0
 30
0.0
 11
127.4814567584957
 21
0.0
 31
0.0
  0
LINE
  5
21E
330
DB
100
AcDbEntity
  8
0
  6
Continuous
 62
     3
100
AcDbLine
 10
30.0
 20
34.00000000000006
 30
0.0
 11
30.0
 21
30.0
 31
0.0
  0
LINE
  5
21F
330
DB
100
AcDbEntity
  8
0
  6
Continuous
 62
     3
100
AcDbLine
 10
49.99999999999966
 20
34.00000000000006
 30
0.0
 11
49.99999999999966
 21
0.0
 31
0.0
  0
LINE
  5
220
330
DB
100
AcDbEntity
  8
0
  6
Continuous
 62
     3
100
AcDbLine
 10
69.99999999999966
 20
34.00000000000006
 30
0.0
 11
69.99999999999966
 21
0.0
 31
0.0
  0
LINE
  5
221
330
DB
100
AcDbEntity
  8
0
  6
Continuous
 62
     3
100
AcDbLine
 10
103.9999999999998
 20
34.00000000000006
 30
0.0
 11
103.9999999999998
 21
5.0
 31
0.0
  0
LINE
  5
222
330
DB
100
AcDbEntity
  8
0
  6
Continuous
 62
     3
100
AcDbLine
 10
30.00000000000023
 20
34.00000000000006
 30
0.0
 11
104.0
 21
34.00000000000006
 31
0.0
  0
LINE
  5
223
330
DB
100
AcDbEntity
  8
0
  6
Continuous
 62
     3
100
AcDbLine
 10
100.0000000000002
 20
5.0
 30
0.0
 11
104.0
 21
5.0
 31
0.0
  0
LINE
  5
224
330
DB
100
AcDbEntity
  8
0
  6
Continuous
 62
     3
100
AcDbLine
 10
0.0000000000002274
 20
90.0
 30
0.0
 11
17.00000000000011
 21
90.0
 31
0.0
  0
LINE
  5
225
330
DB
100
AcDbEntity
  8
0
  6
Continuous
 62
     7
100
AcDbLine
 10
-8.786796476472128
 20
8.786796476471764
 30
0.0
 11
-0.0000000000000804
 21
-0.0000000000002814
 31
0.0
  0
LINE
  5
226
330
DB
100
AcDbEntity
  8
0
  6
Continuous
 62
     3
100
AcDbLine
 10
100.0
 20
30.0
 30
0.0
 11
100.0
 21
3.0
 31
0.0
  0
LINE
  5
227
330
DB
100
AcDbEntity
  8
0
  6
Continuous
 62
     3
100
AcDbLine
 10
25.00000000000023
 20
30.0
 30
0.0
 11
49.99999999999966
 21
30.0
 31
0.0
  0
LINE
  5
228
330
DB
100
AcDbEntity
  8
0
  6
Continuous
 62
     3
100
AcDbLine
 10
20.0
 20
87.0
 30
0.0
 11
20.0
 21
35.0
 31
0.0
  0
LINE
  5
229
330
DB
100
AcDbEntity
  8
0
  6
Continuous
 62
     3
100
AcDbLine
 10
-29.99999646932815
 20
0.0
 30
0.0
 11
51.99999999999966
 21
0.0
 31
0.0
  0
ARC
  5
22A
330
DB
100
AcDbEntity
  8
0
  6
Continuous
 62
     3
100
AcDbCircle
 10
16.99999999999989
 20
87.0
 30
0.0
 40
3.0
100
AcDbArc
 50
0.0
 51
90.00000000000019
  0
ARC
  5
22B
330
DB
100
AcDbEntity
  8
0
  6
Continuous
 62
     3
100
AcDbCircle
 10
96.99999999999988
 20
3.0
 30
0.0
 40
3.0
100
AcDbArc
 50
270.0000000000005
 51
360.0
  0
ARC
  5
22C
330
DB
100
AcDbEntity
  8
0
  6
Continuous
 62
     3
100
AcDbCircle
 10
25.0
 20
35.0
 30
0.0
 40
5.0
100
AcDbArc
 50
180.0000000000004
 51
270.0000000000007
  0
ARC
  5
22D
330
DB
100
AcDbEntity
  8
0
  6
Continuous
 62
     3
100
AcDbCircle
 10
96.99999999999988
 20
27.0
 30
0.0
 40
3.0
100
AcDbArc
 50
0.0
 51
90.00000000000019
  0
INSERT
  5
22E
330
DB
100
AcDbEntity
  8
0
  6
Continuous
 62
     7
100
AcDbBlockReference
  2
KOZU0013
 10
0.0
 20
0.0
 30
0.0
  0
ENDBLK
  5
22F
330
DB
100
AcDbEntity
  8
0
100
AcDbBlockEnd
  0
BLOCK
  5
230
330
DC
100
AcDbEntity
  8
0
100
AcDbBlockBegin
  2
KOZU0003
 70
     0
 10
0.0
 20
0.0
 30
0.0
  3
KOZU0003
  1

  0
POINT
  5
231
330
DC
100
AcDbEntity
  8
0
  6
Continuous
 62
     7
100
AcDbPoint
 10
0.0
 20
0.0
 30
0.0
  0
LINE
  5
232
330
DC
100
AcDbEntity
  8
0
  6
Continuous
 62
     7
100
AcDbLine
 10
103.9999999999998
 20
316.8522312009989
 30
0.0
 11
29.99999999999977
 21
316.8522312009989
 31
0.0
  0
LINE
  5
233
330
DC
100
AcDbEntity
  8
0
  6
Continuous
 62
     3
100
AcDbLine
 10
30.0
 20
316.8522312009984
 30
0.0
 11
30.0
 21
206.8522312009989
 31
0.0
  0
LINE
  5
234
330
DC
100
AcDbEntity
  8
0
  6
Continuous
 62
     3
100
AcDbLine
 10
103.9999999999998
 20
316.8522312009984
 30
0.0
 11
103.9999999999998
 21
206.8522312009989
 31
0.0
  0
LINE
  5
235
330
DC
100
AcDbEntity
  8
0
  6
CENTER
 62
     6
100
AcDbLine
 10
134.9995351955536
 20
261.8522312009989
 30
0.0
 11
-201.9974257517774
 21
261.8522312009989
 31
0.0
  0
LINE
  5
236
330
DC
100
AcDbEntity
  8
0
  6
Continuous
 62
     6
100
AcDbLine
 10
100.0
 20
201.8522312009993
 30
0.0
 11
100.0
 21
206.8522312009989
 31
0.0
  0
LINE
  5
237
330
DC
100
AcDbEntity
  8
0
  6
Continuous
 62
     6
100
AcDbLine
 10
-2.077237976979176
 20
336.8522312009988
 30
0.0
 11
84.99999999999932
 21
336.8522312009988
 31
0.0
  0
LINE
  5
238
330
DC
100
AcDbEntity
  8
0
  6
Continuous
 62
     6
100
AcDbLine
 10
-2.077237976979176
 20
186.8522312009989
 30
0.0
 11
84.99999999999932
 21
186.8522312009989
 31
0.0
  0
LINE
  5
239
330
DC
100
AcDbEntity
  8
0
  6
Continuous
 62
     6
100
AcDbLine
 10
84.99999999999909
 20
186.8522312010001
 30
0.0
 11
99.99999999999971
 21
201.8522312010006
 31
0.0
  0
LINE
  5
23A
330
DC
100
AcDbEntity
  8
0
  6
CENTER
 62
     6
100
AcDbLine
 10
60.00000000000023
 20
242.0301409107085
 30
0.0
 11
60.00000000000023
 21
285.3875775668405
 31
0.0
  0
LINE
  5
23B
330
DC
100
AcDbEntity
  8
0
  6
Continuous
 62
     6
100
AcDbLine
 10
100.0000000000003
 20
321.8522312009977
 30
0.0
 11
85.00000000000051
 21
336.8522312009978
 31
0.0
  0
LINE
  5
23C
330
DC
100
AcDbEntity
  8
0
  6
Continuous
 62
     6
100
AcDbLine
 10
100.0
 20
316.8522312009984
 30
0.0
 11
100.0
 21
321.8522312009993
 31
0.0
  0
LINE
  5
23D
330
DC
100
AcDbEntity
  8
0
  6
Continuous
 62
     7
100
AcDbLine
 10
103.9999999999998
 20
206.8522312009989
 30
0.0
 11
29.99999999999977
 21
206.8522312009989
 31
0.0
  0
LINE
  5
23E
330
DC
100
AcDbEntity
  8
0
  6
Continuous
 62
     7
100
AcDbLine
 10
34.13939944361914
 20
-64.66657918773058
 30
0.0
 11
305.2954589115291
 21
-64.66657918773058
 31
0.0
  0
LINE
  5
23F
330
DC
100
AcDbEntity
  8
0
  6
Continuous
 62
     3
100
AcDbLine
 10
24.99999893647033
 20
30.00000000000023
 30
0.0
 11
100.0000000000002
 21
30.00000000000023
 31
0.0
  0
LINE
  5
240
330
DC
100
AcDbEntity
  8
0
  6
DASHED
 62
     3
100
AcDbLine
 10
69.99999999999932
 20
29.99999999999977
 30
0.0
 11
69.99999999999932
 21
-0.0000000000002274
 31
0.0
  0
LINE
  5
241
330
DC
100
AcDbEntity
  8
0
  6
DASHED
 62
     3
100
AcDbLine
 10
49.99999999999977
 20
29.99999999999977
 30
0.0
 11
49.99999999999977
 21
-0.0000000000002274
 31
0.0
  0
LINE
  5
242
330
DC
100
AcDbEntity
  8
0
  6
Continuous
 62
     3
100
AcDbLine
 10
-90.31233451968569
 20
0.0
 30
0.0
 11
-29.99999646932815
 21
0.0
 31
0.0
  0
LINE
  5
243
330
DC
100
AcDbEntity
  8
0
  6
Continuous
 62
     3
100
AcDbLine
 10
30.0
 20
33.99999999999977
 30
0.0
 11
30.0
 21
29.99999999999977
 31
0.0
  0
LINE
  5
244
330
DC
100
AcDbEntity
  8
0
  6
DASHED
 62
     3
100
AcDbLine
 10
49.99999999999977
 20
33.99999999999977
 30
0.0
 11
49.99999999999977
 21
29.99999999999977
 31
0.0
  0
LINE
  5
245
330
DC
100
AcDbEntity
  8
0
  6
DASHED
 62
     3
100
AcDbLine
 10
69.99999999999932
 20
33.99999999999977
 30
0.0
 11
69.99999999999932
 21
29.99999999999977
 31
0.0
  0
LINE
  5
246
330
DC
100
AcDbEntity
  8
0
  6
Continuous
 62
     3
100
AcDbLine
 10
103.9999999999998
 20
33.99999999999977
 30
0.0
 11
103.9999999999998
 21
4.999999999999773
 31
0.0
  0
LINE
  5
247
330
DC
100
AcDbEntity
  8
0
  6
Continuous
 62
     3
100
AcDbLine
 10
30.0
 20
33.99999999999977
 30
0.0
 11
104.0
 21
33.99999999999977
 31
0.0
  0
LINE
  5
248
330
DC
100
AcDbEntity
  8
0
  6
Continuous
 62
     3
100
AcDbLine
 10
100.0000000000002
 20
4.999999999999545
 30
0.0
 11
104.0
 21
4.999999999999545
 31
0.0
  0
LINE
  5
249
330
DC
100
AcDbEntity
  8
0
  6
Continuous
 62
     3
100
AcDbLine
 10
0.0
 20
90.00000000000023
 30
0.0
 11
17.0
 21
90.00000000000023
 31
0.0
  0
LINE
  5
24A
330
DC
100
AcDbEntity
  8
0
  6
Continuous
 62
     7
100
AcDbLine
 10
-8.786796476472138
 20
8.786796476471433
 30
0.0
 11
-0.0000000000000904
 21
-0.000000000000613
 31
0.0
  0
LINE
  5
24B
330
DC
100
AcDbEntity
  8
0
  6
Continuous
 62
     3
100
AcDbLine
 10
100.0
 20
29.99999999999977
 30
0.0
 11
100.0
 21
2.999999999999772
 31
0.0
  0
LINE
  5
24C
330
DC
100
AcDbEntity
  8
0
  6
CENTER
 62
     3
100
AcDbLine
 10
59.99999999999954
 20
44.85940021776172
 30
0.0
 11
59.99999999999954
 21
-11.58488562886419
 31
0.0
  0
LINE
  5
24D
330
DC
100
AcDbEntity
  8
0
  6
Continuous
 62
     3
100
AcDbLine
 10
19.99999999999977
 20
86.99999999999977
 30
0.0
 11
19.99999999999977
 21
34.99999999999977
 31
0.0
  0
LINE
  5
24E
330
DC
100
AcDbEntity
  8
0
  6
Continuous
 62
     3
100
AcDbLine
 10
0.0
 20
117.4514903019237
 30
0.0
 11
0.0
 21
29.9999966472385
 31
0.0
  0
LINE
  5
24F
330
DC
100
AcDbEntity
  8
0
  6
Continuous
 62
     3
100
AcDbLine
 10
-0.0000000000004547
 20
0.0
 30
0.0
 11
97.0
 21
0.0
 31
0.0
  0
ARC
  5
250
330
DC
100
AcDbEntity
  8
0
  6
Continuous
 62
     3
100
AcDbCircle
 10
-1364.999928809707
 20
261.8522312009989
 30
0.0
 40
1364.999928809706
100
AcDbArc
 50
355.4804635680935
 51
5.089581616662532
  0
ARC
  5
251
330
DC
100
AcDbEntity
  8
0
  6
Continuous
 62
     6
100
AcDbCircle
 10
-1355.000000000001
 20
261.8522312009989
 30
0.0
 40
1375.0
100
AcDbArc
 50
356.873223886421
 51
3.126776113579727
  0
CIRCLE
  5
252
330
DC
100
AcDbEntity
  8
0
  6
Continuous
 62
     6
100
AcDbCircle
 10
60.00000000000023
 20
261.8522312009989
 30
0.0
 40
10.0
  0
ARC
  5
253
330
DC
100
AcDbEntity
  8
0
  6
Continuous
 62
     3
100
AcDbCircle
 10
16.99999999999977
 20
87.00000000000022
 30
0.0
 40
3.0
100
AcDbArc
 50
0.0
 51
90.00000000000019
  0
ARC
  5
254
330
DC
100
AcDbEntity
  8
0
  6
Continuous
 62
     3
100
AcDbCircle
 10
97.0
 20
3.0
 30
0.0
 40
3.0
100
AcDbArc
 50
270.0000000000005
 51
360.0
  0
ARC
  5
255
330
DC
100
AcDbEntity
  8
0
  6
Continuous
 62
     3
100
AcDbCircle
 10
25.0
 20
34.99999999999977
 30
0.0
 40
5.0
100
AcDbArc
 50
180.0000000000004
 51
270.0000000000007
  0
ARC
  5
256
330
DC
100
AcDbEntity
  8
0
  6
Continuous
 62
     3
100
AcDbCircle
 10
97.0
 20
27.00000000000023
 30
0.0
 40
3.0
100
AcDbArc
 50
0.0
 51
90.00000000000019
  0
ARC
  5
257
330
DC
100
AcDbEntity
  8
0
  6
Continuous
 62
     3
100
AcDbCircle
 10
-29.99999843537808
 20
29.99999664723896
 30
0.0
 40
29.99999664723891
100
AcDbArc
 50
269.9999962451215
 51
360.0
  0
SPLINE
  5
258
330
DC
100
AcDbEntity
  8
0
  6
Continuous
 62
     7
100
AcDbSpline
210
0.0
220
0.0
230
1.0
 70
     8
 71
     3
 72
    25
 73
    21
 74
    19
 42
0.0000000001
 43
0.0000000001
 44
0.0000000001
 12
-0.908806848148435
 22
-0.4172171050646258
 32
0.0
 13
-0.3606669891202437
 23
-0.9326946568727292
 33
0.0
 40
0.0
 40
0.0
 40
0.0
 40
0.0
 40
11.96481793334517
 40
23.92774360785099
 40
35.88860724546002
 40
47.85359305935499
 40
59.81964199978979
 40
71.7837020983646
 40
83.74478087811899
 40
95.69968114295464
 40
107.6387768645355
 40
119.5460466996317
 40
131.4616836211028
 40
143.3996264077893
 40
155.3443369010523
 40
167.2987778184608
 40
179.2633940462989
 40
191.1879983264761
 40
203.1180743445244
 40
215.0709587918454
 40
215.0709587918454
 40
215.0709587918454
 40
215.0709587918454
 10
12.19683782052493
 20
122.6533949587786
 30
0.0
 10
8.572268328967162
 20
120.9894193918534
 30
0.0
 10
1.25481253943771
 20
117.8087598023514
 30
0.0
 10
-10.01004973644025
 20
113.7371667660501
 30
0.0
 10
-21.64664442248772
 20
110.8656761726082
 30
0.0
 10
-33.47298117902078
 20
109.0231487068405
 30
0.0
 10
-45.32028340591954
 20
107.3567553909124
 30
0.0
 10
-57.09363346098236
 20
105.1845994926963
 30
0.0
 10
-68.64818988546733
 20
102.0199267636096
 30
0.0
 10
-79.75155059101258
 20
97.49255090893974
 30
0.0
 10
-89.90230467856992
 20
91.03062931190931
 30
0.0
 10
-97.85549561329265
 20
81.80306959345132
 30
0.0
 10
-101.7844057472265
 20
70.30141989237778
 30
0.0
 10
-102.5575407182858
 20
58.30703770529582
 30
0.0
 10
-100.8283463027145
 20
46.38492266813055
 30
0.0
 10
-96.56858034230381
 20
35.1567340680063
 30
0.0
 10
-91.55500647818147
 20
24.33771156658524
 30
0.0
 10
-88.4658500086501
 20
12.60081109665026
 30
0.0
 10
-89.7998777658284
 20
0.5434248492822174
 30
0.0
 10
-92.18428792004155
 20
-7.070247970401016
 30
0.0
 10
-93.62129153501404
 20
-10.78637845647882
 30
0.0
 11
12.19683782052493
 21
122.6533949587786
 31
0.0
 11
1.205955756044153
 21
117.9250358752515
 31
0.0
 11
-10.07264893874568
 21
113.9369703250862
 31
0.0
 11
-21.67674916798797
 21
111.0374674664608
 31
0.0
 11
-33.47594942671526
 21
109.0525849054115
 31
0.0
 11
-45.30882603510602
 21
107.2723157079361
 31
0.0
 11
-57.05873872708338
 21
105.018810488679
 31
0.0
 11
-68.57624306957773
 21
101.791660151909
 31
0.0
 11
-79.60007451034013
 21
97.1662109080165
 31
0.0
 11
-89.5458727277059
 21
90.56143199661336
 31
0.0
 11
-97.18393157125756
 21
81.42671076232092
 31
0.0
 11
-101.2565546221979
 21
70.22866875805632
 31
0.0
 11
-102.1405889760122
 21
58.32350344045249
 31
0.0
 11
-100.4077882285254
 21
46.50514863373864
 31
0.0
 11
-96.44374076562508
 21
35.22707320573744
 31
0.0
 11
-91.87078184797128
 21
24.17084924740083
 31
0.0
 11
-89.20248703170269
 21
12.5486123709517
 31
0.0
 11
-90.17197446337057
 21
0.6579938876157545
 31
0.0
 11
-93.62129153501404
 21
-10.78637845647882
 31
0.0
  0
SPLINE
  5
259
330
DC
100
AcDbEntity
  8
0
  6
Continuous
 62
     7
100
AcDbSpline
210
0.0
220
0.0
230
1.0
 70
     8
 71
     3
 72
    29
 73
    25
 74
    23
 42
0.0000000001
 43
0.0000000001
 44
0.0000000001
 12
-0.98740860491902
 22
-0.1581905399569597
 32
0.0
 13
0.9673712617183381
 23
0.2533630636092615
 33
0.0
 40
0.0
 40
0.0
 40
0.0
 40
0.0
 40
14.15300332426912
 40
28.30463307406519
 40
42.4476847289955
 40
56.55631227045411
 40
70.55575367573621
 40
84.66626250203772
 40
98.82594155155087
 40
112.9726200512606
 40
127.085342831603
 40
141.2340727604326
 40
155.3944745559202
 40
169.539592528492
 40
183.5881433408728
 40
197.6854449920366
 40
211.8415948750546
 40
225.9993803412839
 40
240.1546918853672
 40
254.3058349569948
 40
268.3996929477759
 40
282.5001049747278
 40
296.5865404246104
 40
310.6945285050174
 40
310.6945285050174
 40
310.6945285050174
 40
310.6945285050174
 10
0.1027494831173499
 20
383.9567592661654
 30
0.0
 10
-4.55551627282626
 20
383.2104688535391
 30
0.0
 10
-13.7873103220921
 20
381.1624219797691
 30
0.0
 10
-27.22116381045669
 20
376.6006027695039
 30
0.0
 10
-39.87168905036178
 20
370.2103663090809
 30
0.0
 10
-51.14616446737075
 20
361.4176988330339
 30
0.0
 10
-57.86334381294889
 20
348.2820397771367
 30
0.0
 10
-57.10176538734937
 20
333.8956385385454
 30
0.0
 10
-54.92059472502469
 20
320.0154129286399
 30
0.0
 10
-53.37404761972091
 20
305.8599060725005
 30
0.0
 10
-55.82743243677317
 20
291.7344511962958
 30
0.0
 10
-61.48268933300307
 20
278.7193655350321
 30
0.0
 10
-67.89133213478338
 20
266.1120734612131
 30
0.0
 10
-73.68468262644168
 20
253.2230058635317
 30
0.0
 10
-75.54473689251721
 20
238.717182424961
 30
0.0
 10
-69.90105017342611
 20
225.3730807006653
 30
0.0
 10
-62.45082154774145
 20
213.4422674686239
 30
0.0
 10
-54.82056892076137
 20
201.4597069977309
 30
0.0
 10
-49.16418738552355
 20
188.4672585443827
 30
0.0
 10
-43.65286330497094
 20
175.411724564707
 30
0.0
 10
-34.70328404140069
 20
164.151458530592
 30
0.0
 10
-22.46167591271225
 20
156.6434791690648
 30
0.0
 10
-8.454128508057692
 20
153.4160238362848
 30
0.0
 10
1.048629484513218
 20
154.6673342519427
 30
0.0
 10
5.597850227730078
 20
155.858815279081
 30
0.0
 11
0.1027494831173499
 21
383.9567592661654
 31
0.0
 11
-13.71926743904983
 21
380.9138410450991
 31
0.0
 11
-27.09546969607644
 21
376.2936854465906
 31
0.0
 11
-39.65897884378367
 21
369.7987529596818
 31
0.0
 11
-50.41231897292392
 21
360.6653501343036
 31
0.0
 11
-56.610766768055
 21
348.1129159245194
 31
0.0
 11
-56.867379771957
 21
334.0047406667704
 31
0.0
 11
-55.0259139576896
 21
319.9653135260318
 31
0.0
 11
-54.04070146710392
 21
305.8529831400699
 31
0.0
 11
-56.35713152525899
 21
291.9316650968503
 31
0.0
 11
-61.60590274174344
 21
278.7925266427521
 31
0.0
 11
-67.7932565503321
 21
266.055429961915
 31
0.0
 11
-73.03929935611184
 21
252.9190911516567
 31
0.0
 11
-74.29866931846868
 21
238.9271017567936
 31
0.0
 11
-69.61170061509297
 21
225.6317552694891
 31
0.0
 11
-62.42280542896143
 21
213.4368233093146
 31
0.0
 11
-55.14905236480813
 21
201.2904079669391
 31
0.0
 11
-49.18642772392145
 21
188.4521856483332
 31
0.0
 11
-43.06855297814865
 21
175.6918385202685
 31
0.0
 11
-34.15383520509151
 21
164.77558274775
 31
0.0
 11
-22.16379782590982
 21
157.3552981861153
 31
0.0
 11
-8.420054650605141
 21
154.2670645137752
 31
0.0
 11
5.597850227730078
 21
155.858815279081
 31
0.0
  0
MTEXT
  5
25A
330
DC
100
AcDbEntity
  8
0
  6
Continuous
 62
     7
100
AcDbMText
 10
50.51138311253476
 20
-50.57121746711482
 30
0.0
 40
3.200000047683716
 41
166.4000024795532
 71
     7
 72
     1
  1
\W0.843501;融着アンカープレート詳細図
 73
     1
 44
1.0
  0
MTEXT
  5
25B
330
DC
100
AcDbEntity
  8
0
  6
Continuous
 62
     7
100
AcDbMText
 10
-170.4860795549939
 20
-64.75396372236764
 30
0.0
 40
3.200000047683716
 41
64.00000095367431
 71
     7
 72
     1
  1
\W0.848927;（ＰＥ製）
 73
     1
 44
1.0
  0
DIMENSION
  5
25C
330
DC
100
AcDbEntity
  8
0
  6
Continuous
 62
     7
100
AcDbDimension
  2
*D15
 10
189.6827484501018
 20
186.8522312009989
 30
0.0
 11
189.6827484501018
 21
262.7948494374402
 31
0.0
 71
     5
 42
-1.0
  3
DIMSTYLE
100
AcDbAlignedDimension
 13
84.99999999999932
 23
336.8522312009988
 33
0.0
 14
84.99999999999932
 24
186.8522312009989
 34
0.0
 50
90.0
100
AcDbRotatedDimension
1001
ACAD
1000
DSTYLE
1002
{
1070
    77
1070
     1
1070
   172
1070
     1
1070
   147
1040
0.0
1002
}
  0
DIMENSION
  5
25D
330
DC
100
AcDbEntity
  8
0
  6
Continuous
 62
     7
100
AcDbDimension
  2
*D16
 10
159.8248080823037
 20
206.8522312009989
 30
0.0
 11
159.8248080823037
 21
261.8522312009989
 31
0.0
 71
     5
 42
-1.0
  3
DIMSTYLE
100
AcDbAlignedDimension
 13
103.9999999999998
 23
316.8522312009989
 33
0.0
 14
103.9999999999998
 24
206.8522312009989
 34
0.0
 50
90.0
100
AcDbRotatedDimension
1001
ACAD
1000
DSTYLE
1002
{
1070
    77
1070
     1
1070
   172
1070
     1
1070
   147
1040
0.0
1002
}
  0
INSERT
  5
25E
330
DC
100
AcDbEntity
  8
0
  6
Continuous
 62
     7
100
AcDbBlockReference
  2
KOZU0009
 10
27.7357047652829
 20
9.35466072412608
 30
0.0
  0
INSERT
  5
25F
330
DC
100
AcDbEntity
  8
0
  6
Continuous
 62
     7
100
AcDbBlockReference
  2
KOZU0010
 10
-0.0000000000007105
 20
89.99999999999863
 30
0.0
  0
INSERT
  5
260
330
DC
100
AcDbEntity
  8
0
  6
Continuous
 62
     7
100
AcDbBlockReference
  2
KOZU0011
 10
103.999999999999
 20
33.99999999999928
 30
0.0
  0
DIMENSION
  5
261
330
DC
100
AcDbEntity
  8
0
  6
Continuous
 62
     7
100
AcDbDimension
  2
*D17
 10
103.9999999999998
 20
88.2883951778092
 30
0.0
 11
67.0
 21
88.2883951778092
 31
0.0
 71
     5
 42
-1.0
  3
DIMSTYLE
100
AcDbAlignedDimension
 13
30.0
 23
33.99999999999977
 33
0.0
 14
103.9999999999998
 24
33.99999999999977
 34
0.0
100
AcDbRotatedDimension
1001
ACAD
1000
DSTYLE
1002
{
1070
    77
1070
     1
1070
   172
1070
     1
1070
   147
1040
0.0
1002
}
  0
DIMENSION
  5
262
330
DC
100
AcDbEntity
  8
0
  6
Continuous
 62
     7
100
AcDbDimension
  2
*D18
 10
154.2490828108237
 20
4.999999999999545
 30
0.0
 11
154.2490828108237
 21
19.50000000000023
 31
0.0
 71
     5
 42
-1.0
  3
DIMSTYLE
100
AcDbAlignedDimension
 13
104.0
 23
33.99999999999977
 33
0.0
 14
104.0
 24
4.999999999999545
 34
0.0
 50
90.0
100
AcDbRotatedDimension
1001
ACAD
1000
DSTYLE
1002
{
1070
    77
1070
     1
1070
   172
1070
     1
1070
   147
1040
0.0
1002
}
  0
INSERT
  5
263
330
DC
100
AcDbEntity
  8
0
  6
Continuous
 62
     7
100
AcDbBlockReference
  2
KOZU0012
 10
67.58209291109508
 20
268.3723437067392
 30
0.0
  0
DIMENSION
  5
264
330
DC
100
AcDbEntity
  8
0
  6
Continuous
 62
     7
100
AcDbDimension
  2
*D19
 10
193.1223691594175
 20
0.0
 30
0.0
 11
193.1223691594175
 21
70.59678034851891
 31
0.0
 71
     5
 42
-1.0
  3
DIMSTYLE
100
AcDbAlignedDimension
 13
104.0
 23
33.99999999999977
 33
0.0
 14
97.0
 24
0.0
 34
0.0
 50
90.0
100
AcDbRotatedDimension
1001
ACAD
1000
DSTYLE
1002
{
1070
    77
1070
     1
1070
   172
1070
     1
1070
   147
1040
0.0
1002
}
  0
ENDBLK
  5
265
330
DC
100
AcDbEntity
  8
0
100
AcDbBlockEnd
  0
BLOCK
  5
266
330
DD
100
AcDbEntity
  8
0
100
AcDbBlockBegin
  2
KOZU0004
 70
     0
 10
0.0
 20
0.0
 30
0.0
  3
KOZU0004
  1

  0
LINE
  5
267
330
DD
100
AcDbEntity
  8
0
  6
Continuous
 62
     7
100
AcDbLine
 10
0.0
 20
0.0
 30
0.0
 11
12.02157328873453
 21
12.56376075075067
 31
0.0
  0
LINE
  5
268
330
DD
100
AcDbEntity
  8
0
  6
Continuous
 62
     7
100
AcDbLine
 10
0.0
 20
0.0
 30
0.0
 11
1.351508811430675
 21
2.858920011517528
 31
0.0
  0
LINE
  5
269
330
DD
100
AcDbEntity
  8
0
  6
Continuous
 62
     7
100
AcDbLine
 10
0.0
 20
0.0
 30
0.0
 11
2.796559056055056
 21
1.476230722355617
 31
0.0
  0
MTEXT
  5
26A
330
DD
100
AcDbEntity
  8
0
  6
Continuous
 62
     7
100
AcDbMText
 10
12.19877341426329
 20
12.56376075075068
 30
0.0
 40
3.200000047683716
 41
160.0000023841858
 71
     7
 72
     1
  1
\W0.844483;４－\U+2205２０アンカー穴
 73
     1
 44
1.0
  0
LINE
  5
26B
330
DD
100
AcDbEntity
  8
0
  6
Continuous
 62
     7
100
AcDbLine
 10
0.0
 20
0.0
 30
0.0
 11
12.02157328873453
 21
12.56376075075067
 31
0.0
  0
LINE
  5
26C
330
DD
100
AcDbEntity
  8
0
  6
Continuous
 62
     7
100
AcDbLine
 10
12.02157328873453
 20
12.56376075075067
 30
0.0
 11
45.8506731189805
 21
12.56376075075068
 31
0.0
  0
ENDBLK
  5
26D
330
DD
100
AcDbEntity
  8
0
100
AcDbBlockEnd
  0
BLOCK
  5
26E
330
DE
100
AcDbEntity
  8
0
100
AcDbBlockBegin
  2
KOZU0005
 70
     0
 10
0.0
 20
0.0
 30
0.0
  3
KOZU0005
  1

  0
LINE
  5
26F
330
DE
100
AcDbEntity
  8
0
  6
Continuous
 62
     7
100
AcDbLine
 10
0.0
 20
0.0
 30
0.0
 11
-6.774356432576182
 21
-10.03608360381679
 31
0.0
  0
CIRCLE
  5
270
330
DE
100
AcDbEntity
  8
0
  6
Continuous
 62
     7
100
AcDbCircle
 10
0.0
 20
0.0
 30
0.0
 40
0.5
  0
MTEXT
  5
271
330
DE
100
AcDbEntity
  8
0
  6
Continuous
 62
     7
100
AcDbMText
 10
-7.150709567719388
 20
-10.03608360381685
 30
0.0
 40
3.200000047683716
 41
128.0000019073486
 71
     9
 72
     1
  1
\W0.844483;融着アンカープレート
 73
     1
 44
1.0
  0
LINE
  5
272
330
DE
100
AcDbEntity
  8
0
  6
Continuous
 62
     7
100
AcDbLine
 10
0.0
 20
0.0
 30
0.0
 11
-6.774356432576182
 21
-10.03608360381679
 31
0.0
  0
LINE
  5
273
330
DE
100
AcDbEntity
  8
0
  6
Continuous
 62
     7
100
AcDbLine
 10
-6.774356432576169
 20
-10.03608360381676
 30
0.0
 11
-40.60345626282214
 21
-10.03608360381676
 31
0.0
  0
ENDBLK
  5
274
330
DE
100
AcDbEntity
  8
0
100
AcDbBlockEnd
  0
BLOCK
  5
275
330
DF
100
AcDbEntity
  8
0
100
AcDbBlockBegin
  2
KOZU0006
 70
     0
 10
0.0
 20
0.0
 30
0.0
  3
KOZU0006
  1

  0
LINE
  5
276
330
DF
100
AcDbEntity
  8
0
  6
Continuous
 62
     7
100
AcDbLine
 10
0.0
 20
0.0
 30
0.0
 11
7.266581708608129
 21
8.435021379586174
 31
0.0
  0
LINE
  5
277
330
DF
100
AcDbEntity
  8
0
  6
Continuous
 62
     7
100
AcDbLine
 10
0.0
 20
0.0
 30
0.0
 11
1.200416114747407
 21
2.92557701164828
 31
0.0
  0
LINE
  5
278
330
DF
100
AcDbEntity
  8
0
  6
Continuous
 62
     7
100
AcDbLine
 10
0.0
 20
0.0
 30
0.0
 11
2.715679098786893
 21
1.62021194047018
 31
0.0
  0
MTEXT
  5
279
330
DF
100
AcDbEntity
  8
0
  6
Continuous
 62
     7
100
AcDbMText
 10
8.311822438901428
 20
8.435021379586174
 30
0.0
 40
3.200000047683716
 41
25.60000038146973
 71
     7
 72
     1
  1
\W0.864391;融着
 73
     1
 44
1.0
  0
LINE
  5
27A
330
DF
100
AcDbEntity
  8
0
  6
Continuous
 62
     7
100
AcDbLine
 10
0.0
 20
0.0
 30
0.0
 11
7.266581708608129
 21
8.435021379586174
 31
0.0
  0
LINE
  5
27B
330
DF
100
AcDbEntity
  8
0
  6
Continuous
 62
     7
100
AcDbLine
 10
7.266581708608086
 20
8.435021379586146
 30
0.0
 11
16.53982236451483
 21
8.435021379586146
 31
0.0
  0
ENDBLK
  5
27C
330
DF
100
AcDbEntity
  8
0
100
AcDbBlockEnd
  0
BLOCK
  5
27D
330
E0
100
AcDbEntity
  8
0
100
AcDbBlockBegin
  2
KOZU0007
 70
     0
 10
0.0
 20
0.0
 30
0.0
  3
KOZU0007
  1

  0
LINE
  5
27E
330
E0
100
AcDbEntity
  8
0
  6
Continuous
 62
     7
100
AcDbLine
 10
0.0
 20
0.0
 30
0.0
 11
14.04085157732308
 21
15.8504475975038
 31
0.0
  0
LINE
  5
27F
330
E0
100
AcDbEntity
  8
0
  6
Continuous
 62
     7
100
AcDbLine
 10
0.0
 20
0.0
 30
0.0
 11
1.24071124144054
 21
2.908717125296513
 31
0.0
  0
LINE
  5
280
330
E0
100
AcDbEntity
  8
0
  6
Continuous
 62
     7
100
AcDbLine
 10
0.0
 20
0.0
 30
0.0
 11
2.737799268330339
 21
1.582546955372887
 31
0.0
  0
MTEXT
  5
281
330
E0
100
AcDbEntity
  8
0
  6
Continuous
 62
     7
100
AcDbMText
 10
14.5768953573471
 20
15.85044759750409
 30
0.0
 40
3.200000047683716
 41
115.2000017166137
 71
     7
 72
     1
  1
\W0.844962;押え金具（ＳＵＳ）
 73
     1
 44
1.0
  0
LINE
  5
282
330
E0
100
AcDbEntity
  8
0
  6
Continuous
 62
     7
100
AcDbLine
 10
0.0
 20
0.0
 30
0.0
 11
14.04085157732308
 21
15.8504475975038
 31
0.0
  0
LINE
  5
283
330
E0
100
AcDbEntity
  8
0
  6
Continuous
 62
     7
100
AcDbLine
 10
14.04085157732305
 20
15.8504475975038
 30
0.0
 11
44.66995141948996
 21
15.8504475975038
 31
0.0
  0
ENDBLK
  5
284
330
E0
100
AcDbEntity
  8
0
100
AcDbBlockEnd
  0
BLOCK
  5
285
330
E1
100
AcDbEntity
  8
0
100
AcDbBlockBegin
  2
KOZU0008
 70
     0
 10
0.0
 20
0.0
 30
0.0
  3
KOZU0008
  1

  0
LINE
  5
286
330
E1
100
AcDbEntity
  8
0
  6
Continuous
 62
     7
100
AcDbLine
 10
0.0
 20
0.0
 30
0.0
 11
18.76723240698988
 21
16.13861346065633
 31
0.0
  0
LINE
  5
287
330
E1
100
AcDbEntity
  8
0
  6
Continuous
 62
     7
100
AcDbLine
 10
0.0
 20
0.0
 30
0.0
 11
1.62261659838536
 21
2.714243002067879
 31
0.0
  0
LINE
  5
288
330
E1
100
AcDbEntity
  8
0
  6
Continuous
 62
     7
100
AcDbLine
 10
0.0
 20
0.0
 30
0.0
 11
2.926639079949016
 21
1.197824442623087
 31
0.0
  0
MTEXT
  5
289
330
E1
100
AcDbEntity
  8
0
  6
Continuous
 62
     7
100
AcDbMText
 10
19.08793939356016
 20
16.13861346065636
 30
0.0
 40
3.200000047683716
 41
134.4000020027161
 71
     7
 72
     1
  1
\W0.845565;\U+2205２０アンカー穴
 73
     1
 44
1.0
  0
LINE
  5
28A
330
E1
100
AcDbEntity
  8
0
  6
Continuous
 62
     7
100
AcDbLine
 10
0.0
 20
0.0
 30
0.0
 11
18.76723240698988
 21
16.13861346065633
 31
0.0
  0
LINE
  5
28B
330
E1
100
AcDbEntity
  8
0
  6
Continuous
 62
     7
100
AcDbLine
 10
18.76723240698988
 20
16.13861346065633
 30
0.0
 11
46.19633226107771
 21
16.13861346065633
 31
0.0
  0
ENDBLK
  5
28C
330
E1
100
AcDbEntity
  8
0
100
AcDbBlockEnd
  0
BLOCK
  5
28D
330
E2
100
AcDbEntity
  8
0
100
AcDbBlockBegin
  2
KOZU0009
 70
     0
 10
0.0
 20
0.0
 30
0.0
  3
KOZU0009
  1

  0
LINE
  5
28E
330
E2
100
AcDbEntity
  8
0
  6
Continuous
 62
     7
100
AcDbLine
 10
0.0
 20
0.0
 30
0.0
 11
-40.64613859545706
 21
-60.2165016229005
 31
0.0
  0
CIRCLE
  5
28F
330
E2
100
AcDbEntity
  8
0
  6
Continuous
 62
     7
100
AcDbCircle
 10
0.0
 20
0.0
 30
0.0
 40
0.5
  0
MTEXT
  5
290
330
E2
100
AcDbEntity
  8
0
  6
Continuous
 62
     7
100
AcDbMText
 10
-42.90425740631645
 20
-60.21650162290105
 30
0.0
 40
3.200000047683716
 41
128.0000019073486
 71
     9
 72
     1
  1
\W0.844483;融着アンカープレート
 73
     1
 44
1.0
  0
LINE
  5
291
330
E2
100
AcDbEntity
  8
0
  6
Continuous
 62
     7
100
AcDbLine
 10
0.0
 20
0.0
 30
0.0
 11
-40.64613859545706
 21
-60.2165016229005
 31
0.0
  0
LINE
  5
292
330
E2
100
AcDbEntity
  8
0
  6
Continuous
 62
     7
100
AcDbLine
 10
-40.64613859545739
 20
-60.21650162290082
 30
0.0
 11
-76.73225723656242
 21
-60.21650162290082
 31
0.0
  0
ENDBLK
  5
293
330
E2
100
AcDbEntity
  8
0
100
AcDbBlockEnd
  0
BLOCK
  5
294
330
E3
100
AcDbEntity
  8
0
100
AcDbBlockBegin
  2
KOZU0010
 70
     0
 10
0.0
 20
0.0
 30
0.0
  3
KOZU0010
  1

  0
LINE
  5
295
330
E3
100
AcDbEntity
  8
0
  6
Continuous
 62
     7
100
AcDbLine
 10
0.0
 20
0.0
 30
0.0
 11
43.59949025164842
 21
50.61012827751671
 31
0.0
  0
LINE
  5
296
330
E3
100
AcDbEntity
  8
0
  6
Continuous
 62
     7
100
AcDbLine
 10
0.0
 20
0.0
 30
0.0
 11
1.200416114747405
 21
2.92557701164828
 31
0.0
  0
LINE
  5
297
330
E3
100
AcDbEntity
  8
0
  6
Continuous
 62
     7
100
AcDbLine
 10
0.0
 20
0.0
 30
0.0
 11
2.715679098786892
 21
1.620211940470182
 31
0.0
  0
MTEXT
  5
298
330
E3
100
AcDbEntity
  8
0
  6
Continuous
 62
     7
100
AcDbMText
 10
49.87093463340833
 20
50.61012827751689
 30
0.0
 40
2.5
 41
20.0
 71
     7
 72
     1
  1
\W0.864391;融着
 73
     1
 44
1.0
  0
LINE
  5
299
330
E3
100
AcDbEntity
  8
0
  6
Continuous
 62
     7
100
AcDbLine
 10
0.0
 20
0.0
 30
0.0
 11
43.59949025164842
 21
50.61012827751671
 31
0.0
  0
LINE
  5
29A
330
E3
100
AcDbEntity
  8
0
  6
Continuous
 62
     7
100
AcDbLine
 10
43.5994902516484
 20
50.61012827751689
 30
0.0
 11
56.29905929962231
 21
50.61012827751689
 31
0.0
  0
ENDBLK
  5
29B
330
E3
100
AcDbEntity
  8
0
100
AcDbBlockEnd
  0
BLOCK
  5
29C
330
E4
100
AcDbEntity
  8
0
100
AcDbBlockBegin
  2
KOZU0011
 70
     0
 10
0.0
 20
0.0
 30
0.0
  3
KOZU0011
  1

  0
LINE
  5
29D
330
E4
100
AcDbEntity
  8
0
  6
Continuous
 62
     7
100
AcDbLine
 10
0.0
 20
0.0
 30
0.0
 11
84.24510946393859
 21
95.10268558502286
 31
0.0
  0
LINE
  5
29E
330
E4
100
AcDbEntity
  8
0
  6
Continuous
 62
     7
100
AcDbLine
 10
0.0
 20
0.0
 30
0.0
 11
1.240711241440541
 21
2.908717125296513
 31
0.0
  0
LINE
  5
29F
330
E4
100
AcDbEntity
  8
0
  6
Continuous
 62
     7
100
AcDbLine
 10
0.0
 20
0.0
 30
0.0
 11
2.73779926833034
 21
1.582546955372886
 31
0.0
  0
MTEXT
  5
2A0
330
E4
100
AcDbEntity
  8
0
  6
Continuous
 62
     7
100
AcDbMText
 10
87.46137214408294
 20
95.10268558502463
 30
0.0
 40
2.5
 41
90.0
 71
     7
 72
     1
  1
\W0.844962;押え金具（ＳＵＳ）
 73
     1
 44
1.0
  0
LINE
  5
2A1
330
E4
100
AcDbEntity
  8
0
  6
Continuous
 62
     7
100
AcDbLine
 10
0.0
 20
0.0
 30
0.0
 11
84.24510946393859
 21
95.10268558502286
 31
0.0
  0
LINE
  5
2A2
330
E4
100
AcDbEntity
  8
0
  6
Continuous
 62
     7
100
AcDbLine
 10
84.2451094639388
 20
95.10268558502323
 30
0.0
 11
111.3894959758317
 21
95.10268558502323
 31
0.0
  0
ENDBLK
  5
2A3
330
E4
100
AcDbEntity
  8
0
100
AcDbBlockEnd
  0
BLOCK
  5
2A4
330
E5
100
AcDbEntity
  8
0
100
AcDbBlockBegin
  2
KOZU0012
 70
     0
 10
0.0
 20
0.0
 30
0.0
  3
KOZU0012
  1

  0
LINE
  5
2A5
330
E5
100
AcDbEntity
  8
0
  6
Continuous
 62
     7
100
AcDbLine
 10
0.0
 20
0.0
 30
0.0
 11
112.6033944419396
 21
96.83168076393798
 31
0.0
  0
LINE
  5
2A6
330
E5
100
AcDbEntity
  8
0
  6
Continuous
 62
     7
100
AcDbLine
 10
0.0
 20
0.0
 30
0.0
 11
1.622616598385364
 21
2.714243002067878
 31
0.0
  0
LINE
  5
2A7
330
E5
100
AcDbEntity
  8
0
  6
Continuous
 62
     7
100
AcDbLine
 10
0.0
 20
0.0
 30
0.0
 11
2.926639079949018
 21
1.197824442623083
 31
0.0
  0
MTEXT
  5
2A8
330
E5
100
AcDbEntity
  8
0
  6
Continuous
 62
     7
100
AcDbMText
 10
114.5276363613609
 20
96.8316807639378
 30
0.0
 40
3.200000047683716
 41
134.4000020027161
 71
     7
 72
     1
  1
\W0.845565;\U+2205２０アンカー穴
 73
     1
 44
1.0
  0
LINE
  5
2A9
330
E5
100
AcDbEntity
  8
0
  6
Continuous
 62
     7
100
AcDbLine
 10
0.0
 20
0.0
 30
0.0
 11
112.6033944419396
 21
96.83168076393798
 31
0.0
  0
LINE
  5
2AA
330
E5
100
AcDbEntity
  8
0
  6
Continuous
 62
     7
100
AcDbLine
 10
112.6033944419398
 20
96.8316807639378
 30
0.0
 11
141.9556362154487
 21
96.8316807639378
 31
0.0
  0
ENDBLK
  5
2AB
330
E5
100
AcDbEntity
  8
0
100
AcDbBlockEnd
  0
BLOCK
  5
2AC
330
E6
100
AcDbEntity
  8
0
100
AcDbBlockBegin
  2
KOZU0013
 70
     0
 10
0.0
 20
0.0
 30
0.0
  3
KOZU0013
  1

  0
LINE
  5
2AD
330
E6
100
AcDbEntity
  8
0
  6
Continuous
 62
     7
100
AcDbLine
 10
89.79233006705014
 20
0.0000000000000071
 30
0.0
 11
100.0
 21
10.20769034831018
 31
0.0
  0
LINE
  5
2AE
330
E6
100
AcDbEntity
  8
0
  6
Continuous
 62
     7
100
AcDbLine
 10
80.81208292622362
 20
0.0
 30
0.0
 11
100.0
 21
19.18795544964893
 31
0.0
  0
LINE
  5
2AF
330
E6
100
AcDbEntity
  8
0
  6
Continuous
 62
     7
100
AcDbLine
 10
71.83183578539709
 20
0.0
 30
0.0
 11
99.82930195220157
 21
27.9975221617928
 31
0.0
  0
LINE
  5
2B0
330
E6
100
AcDbEntity
  8
0
  6
Continuous
 62
     7
100
AcDbLine
 10
69.99999999999966
 20
7.148425652266062
 30
0.0
 11
92.85152864463059
 21
30.00000000000001
 31
0.0
  0
LINE
  5
2B1
330
E6
100
AcDbEntity
  8
0
  6
Continuous
 62
     7
100
AcDbLine
 10
69.99999999999966
 20
16.12869075360482
 30
0.0
 11
83.87128150380409
 21
30.0
 31
0.0
  0
LINE
  5
2B2
330
E6
100
AcDbEntity
  8
0
  6
Continuous
 62
     7
100
AcDbLine
 10
69.99999999999966
 20
25.10895585494356
 30
0.0
 11
74.89103436297759
 21
30.0
 31
0.0
  0
ENDBLK
  5
2B3
330
E6
100
AcDbEntity
  8
0
100
AcDbBlockEnd
  0
BLOCK
  5
1CC
330
F9
100
AcDbEntity
  8
0
100
AcDbBlockBegin
  2
*D15
 70
     1
 10
0.0
 20
0.0
 30
0.0
  3
*D15
  1

  0
LINE
  5
1CD
330
F9
100
AcDbEntity
  8
0
  6
Continuous
 62
     7
100
AcDbLine
 10
189.6827484501019
 20
333.8522312460538
 30
0.0
 11
189.6827484501018
 21
189.8522311559429
 31
0.0
  0
INSERT
  5
1CE
330
F9
100
AcDbEntity
  8
0
  6
Continuous
 62
     7
100
AcDbBlockReference
  2
_OPEN30
 10
189.6827484501018
 20
336.8522312009984
 30
0.0
 50
90.00000000000019
  0
INSERT
  5
1CF
330
F9
100
AcDbEntity
  8
0
  6
Continuous
 62
     7
100
AcDbBlockReference
  2
_OPEN30
 10
189.6827484501018
 20
186.8522312009984
 30
0.0
 50
270.0000000000005
  0
LINE
  5
1D0
330
F9
100
AcDbEntity
  8
0
  6
Continuous
 62
     7
100
AcDbLine
 10
85.99999998498082
 20
336.8522312009988
 30
0.0
 11
198.8267484501021
 21
336.8522312009988
 31
0.0
  0
LINE
  5
1D1
330
F9
100
AcDbEntity
  8
0
  6
Continuous
 62
     7
100
AcDbLine
 10
85.99999998498082
 20
186.8522312009989
 30
0.0
 11
198.8267484501021
 21
186.8522312009989
 31
0.0
  0
MTEXT
  5
1D2
330
F9
100
AcDbEntity
  8
0
  6
Continuous
 62
     7
100
AcDbMText
 10
189.6827484501018
 20
262.7948494374402
 30
0.0
 40
2.5
 41
13.57166600227356
 71
     8
 72
     1
  1
\W1.22145;150
 11
0.0
 21
1.0
 31
0.0
 73
     1
 44
1.0
  0
POINT
  5
1D3
330
F9
100
AcDbEntity
  8
DEFPOINTS
  6
Continuous
 62
     7
100
AcDbPoint
 10
84.99999999999932
 20
336.8522312009988
 30
0.0
  0
POINT
  5
1D4
330
F9
100
AcDbEntity
  8
DEFPOINTS
  6
Continuous
 62
     7
100
AcDbPoint
 10
84.99999999999932
 20
186.8522312009989
 30
0.0
  0
POINT
  5
1D5
330
F9
100
AcDbEntity
  8
DEFPOINTS
  6
Continuous
 62
     7
100
AcDbPoint
 10
189.6827484501018
 20
186.8522312009984
 30
0.0
  0
ENDBLK
  5
1D6
330
F9
100
AcDbEntity
  8
0
100
AcDbBlockEnd
  0
BLOCK
  5
1D7
330
FA
100
AcDbEntity
  8
0
100
AcDbBlockBegin
  2
*D16
 70
     1
 10
0.0
 20
0.0
 30
0.0
  3
*D16
  1

  0
LINE
  5
1D8
330
FA
100
AcDbEntity
  8
0
  6
Continuous
 62
     7
100
AcDbLine
 10
159.8248080823037
 20
313.8522312460539
 30
0.0
 11
159.8248080823037
 21
209.8522311559434
 31
0.0
  0
INSERT
  5
1D9
330
FA
100
AcDbEntity
  8
0
  6
Continuous
 62
     7
100
AcDbBlockReference
  2
_OPEN30
 10
159.8248080823037
 20
316.8522312009984
 30
0.0
 50
90.00000000000019
  0
INSERT
  5
1DA
330
FA
100
AcDbEntity
  8
0
  6
Continuous
 62
     7
100
AcDbBlockReference
  2
_OPEN30
 10
159.8248080823037
 20
206.8522312009989
 30
0.0
 50
270.0000000000005
  0
LINE
  5
1DB
330
FA
100
AcDbEntity
  8
0
  6
Continuous
 62
     7
100
AcDbLine
 10
104.9999999849813
 20
316.8522312009989
 30
0.0
 11
168.9688080823039
 21
316.8522312009989
 31
0.0
  0
LINE
  5
1DC
330
FA
100
AcDbEntity
  8
0
  6
Continuous
 62
     7
100
AcDbLine
 10
104.9999999849813
 20
206.8522312009989
 30
0.0
 11
168.9688080823039
 21
206.8522312009989
 31
0.0
  0
MTEXT
  5
1DD
330
FA
100
AcDbEntity
  8
0
  6
Continuous
 62
     7
100
AcDbMText
 10
159.8248080823037
 20
261.8522312009989
 30
0.0
 40
2.5
 41
13.57166528701782
 71
     8
 72
     1
  1
\W1.437;110
 11
0.0
 21
1.0
 31
0.0
 73
     1
 44
1.0
  0
POINT
  5
1DE
330
FA
100
AcDbEntity
  8
DEFPOINTS
  6
Continuous
 62
     7
100
AcDbPoint
 10
103.9999999999998
 20
316.8522312009989
 30
0.0
  0
POINT
  5
1DF
330
FA
100
AcDbEntity
  8
DEFPOINTS
  6
Continuous
 62
     7
100
AcDbPoint
 10
103.9999999999998
 20
206.8522312009989
 30
0.0
  0
POINT
  5
1E0
330
FA
100
AcDbEntity
  8
DEFPOINTS
  6
Continuous
 62
     7
100
AcDbPoint
 10
159.8248080823037
 20
206.8522312009989
 30
0.0
  0
ENDBLK
  5
1E1
330
FA
100
AcDbEntity
  8
0
100
AcDbBlockEnd
  0
BLOCK
  5
1E2
330
FB
100
AcDbEntity
  8
0
100
AcDbBlockBegin
  2
*D17
 70
     1
 10
0.0
 20
0.0
 30
0.0
  3
*D17
  1

  0
LINE
  5
1E3
330
FB
100
AcDbEntity
  8
0
  6
Continuous
 62
     7
100
AcDbLine
 10
32.9999999549443
 20
88.2883951778092
 30
0.0
 11
101.000000045055
 21
88.28839517780918
 31
0.0
  0
INSERT
  5
1E4
330
FB
100
AcDbEntity
  8
0
  6
Continuous
 62
     7
100
AcDbBlockReference
  2
_OPEN30
 10
29.99999999999977
 20
88.2883951778092
 30
0.0
 50
180.0000000000004
  0
INSERT
  5
1E5
330
FB
100
AcDbEntity
  8
0
  6
Continuous
 62
     7
100
AcDbBlockReference
  2
_OPEN30
 10
103.9999999999996
 20
88.2883951778092
 30
0.0
  0
LINE
  5
1E6
330
FB
100
AcDbEntity
  8
0
  6
Continuous
 62
     7
100
AcDbLine
 10
30.0
 20
34.99999998498128
 30
0.0
 11
30.0
 21
97.43239517780851
 31
0.0
  0
LINE
  5
1E7
330
FB
100
AcDbEntity
  8
0
  6
Continuous
 62
     7
100
AcDbLine
 10
103.9999999999998
 20
34.99999998498128
 30
0.0
 11
103.9999999999998
 21
97.43239517780851
 31
0.0
  0
MTEXT
  5
1E8
330
FB
100
AcDbEntity
  8
0
  6
Continuous
 62
     7
100
AcDbMText
 10
67.0
 20
88.2883951778092
 30
0.0
 40
2.5
 41
8.571666359901428
 71
     8
 72
     1
  1
\W1.0286;74
 73
     1
 44
1.0
  0
POINT
  5
1E9
330
FB
100
AcDbEntity
  8
DEFPOINTS
  6
Continuous
 62
     7
100
AcDbPoint
 10
30.0
 20
33.99999999999977
 30
0.0
  0
POINT
  5
1EA
330
FB
100
AcDbEntity
  8
DEFPOINTS
  6
Continuous
 62
     7
100
AcDbPoint
 10
103.9999999999998
 20
33.99999999999977
 30
0.0
  0
POINT
  5
1EB
330
FB
100
AcDbEntity
  8
DEFPOINTS
  6
Continuous
 62
     7
100
AcDbPoint
 10
103.9999999999996
 20
88.2883951778092
 30
0.0
  0
ENDBLK
  5
1EC
330
FB
100
AcDbEntity
  8
0
100
AcDbBlockEnd
  0
BLOCK
  5
1ED
330
FC
100
AcDbEntity
  8
0
100
AcDbBlockBegin
  2
*D18
 70
     1
 10
0.0
 20
0.0
 30
0.0
  3
*D18
  1

  0
LINE
  5
1EE
330
FC
100
AcDbEntity
  8
0
  6
Continuous
 62
     7
100
AcDbLine
 10
154.2490828108237
 20
33.99999999999977
 30
0.0
 11
154.2490828108237
 21
4.999999999999773
 31
0.0
  0
INSERT
  5
1EF
330
FC
100
AcDbEntity
  8
0
  6
Continuous
 62
     7
100
AcDbBlockReference
  2
_OPEN30
 10
154.2490828108237
 20
33.99999999999977
 30
0.0
 50
270.0000000000002
  0
LINE
  5
1F0
330
FC
100
AcDbEntity
  8
0
  6
Continuous
 62
     7
100
AcDbLine
 10
154.2490828108237
 20
36.9999999549443
 30
0.0
 11
154.2490828108236
 21
40.34999990463234
 31
0.0
  0
INSERT
  5
1F1
330
FC
100
AcDbEntity
  8
0
  6
Continuous
 62
     7
100
AcDbBlockReference
  2
_OPEN30
 10
154.2490828108237
 20
4.999999999999773
 30
0.0
 50
90.00000000000051
  0
LINE
  5
1F2
330
FC
100
AcDbEntity
  8
0
  6
Continuous
 62
     7
100
AcDbLine
 10
154.2490828108237
 20
2.000000045055251
 30
0.0
 11
154.2490828108237
 21
-1.349999904632794
 31
0.0
  0
LINE
  5
1F3
330
FC
100
AcDbEntity
  8
0
  6
Continuous
 62
     7
100
AcDbLine
 10
104.9999999849815
 20
33.99999999999977
 30
0.0
 11
163.3930828108239
 21
33.99999999999977
 31
0.0
  0
LINE
  5
1F4
330
FC
100
AcDbEntity
  8
0
  6
Continuous
 62
     7
100
AcDbLine
 10
104.9999999849815
 20
4.999999999999545
 30
0.0
 11
163.3930828108239
 21
4.999999999999545
 31
0.0
  0
MTEXT
  5
1F5
330
FC
100
AcDbEntity
  8
0
  6
Continuous
 62
     7
100
AcDbMText
 10
154.2490828108237
 20
19.50000000000023
 30
0.0
 40
2.5
 41
8.571666359901428
 71
     8
 72
     1
  1
\W1.0286;29
 11
0.0
 21
1.0
 31
0.0
 73
     1
 44
1.0
  0
POINT
  5
1F6
330
FC
100
AcDbEntity
  8
DEFPOINTS
  6
Continuous
 62
     7
100
AcDbPoint
 10
104.0
 20
33.99999999999977
 30
0.0
  0
POINT
  5
1F7
330
FC
100
AcDbEntity
  8
DEFPOINTS
  6
Continuous
 62
     7
100
AcDbPoint
 10
104.0
 20
4.999999999999545
 30
0.0
  0
POINT
  5
1F8
330
FC
100
AcDbEntity
  8
DEFPOINTS
  6
Continuous
 62
     7
100
AcDbPoint
 10
154.2490828108237
 20
4.999999999999773
 30
0.0
  0
ENDBLK
  5
1F9
330
FC
100
AcDbEntity
  8
0
100
AcDbBlockEnd
  0
BLOCK
  5
1FA
330
FD
100
AcDbEntity
  8
0
100
AcDbBlockBegin
  2
*D19
 70
     1
 10
0.0
 20
0.0
 30
0.0
  3
*D19
  1

  0
LINE
  5
1FB
330
FD
100
AcDbEntity
  8
0
  6
Continuous
 62
     7
100
AcDbLine
 10
193.1223691594175
 20
33.99999999999977
 30
0.0
 11
193.1223691594175
 21
83.45427970955711
 31
0.0
  0
LINE
  5
1FC
330
FD
100
AcDbEntity
  8
0
  6
Continuous
 62
     7
100
AcDbLine
 10
193.1223691594175
 20
33.99999999999977
 30
0.0
 11
193.1223691594175
 21
-0.0000000000002274
 31
0.0
  0
INSERT
  5
1FD
330
FD
100
AcDbEntity
  8
0
  6
Continuous
 62
     7
100
AcDbBlockReference
  2
_OPEN30
 10
193.1223691594175
 20
33.99999999999977
 30
0.0
 50
270.0000000000002
  0
LINE
  5
1FE
330
FD
100
AcDbEntity
  8
0
  6
Continuous
 62
     7
100
AcDbLine
 10
193.1223691594175
 20
36.9999999549443
 30
0.0
 11
193.1223691594175
 21
40.34999990463234
 31
0.0
  0
INSERT
  5
1FF
330
FD
100
AcDbEntity
  8
0
  6
Continuous
 62
     7
100
AcDbBlockReference
  2
_OPEN30
 10
193.1223691594175
 20
-0.0000000000002274
 30
0.0
 50
90.00000000000051
  0
LINE
  5
200
330
FD
100
AcDbEntity
  8
0
  6
Continuous
 62
     7
100
AcDbLine
 10
193.1223691594176
 20
-2.999999954944748
 30
0.0
 11
193.1223691594176
 21
-6.349999904632794
 31
0.0
  0
LINE
  5
201
330
FD
100
AcDbEntity
  8
0
  6
Continuous
 62
     7
100
AcDbLine
 10
104.9999999849815
 20
33.99999999999977
 30
0.0
 11
206.8383691594179
 21
33.99999999999977
 31
0.0
  0
LINE
  5
202
330
FD
100
AcDbEntity
  8
0
  6
Continuous
 62
     7
100
AcDbLine
 10
97.99999998498151
 20
0.0
 30
0.0
 11
206.8383691594179
 21
0.0
 31
0.0
  0
MTEXT
  5
203
330
FD
100
AcDbEntity
  8
0
  6
Continuous
 62
     7
100
AcDbMText
 10
193.1223691594175
 20
70.59678034851891
 30
0.0
 40
2.5
 41
8.571666240692138
 71
     8
 72
     1
  1
\W1.0286;34
 11
0.0
 21
1.0
 31
0.0
 73
     1
 44
1.0
  0
POINT
  5
204
330
FD
100
AcDbEntity
  8
DEFPOINTS
  6
Continuous
 62
     7
100
AcDbPoint
 10
104.0
 20
33.99999999999977
 30
0.0
  0
POINT
  5
205
330
FD
100
AcDbEntity
  8
DEFPOINTS
  6
Continuous
 62
     7
100
AcDbPoint
 10
97.0
 20
0.0
 30
0.0
  0
POINT
  5
206
330
FD
100
AcDbEntity
  8
DEFPOINTS
  6
Continuous
 62
     7
100
AcDbPoint
 10
193.1223691594175
 20
-0.0000000000002274
 30
0.0
  0
ENDBLK
  5
207
330
FD
100
AcDbEntity
  8
0
100
AcDbBlockEnd
  0
BLOCK
  5
997
330
98D
100
AcDbEntity
  8
0
 48
20.0
100
AcDbBlockBegin
  2
*D20
 70
     1
 10
0.0
 20
0.0
 30
0.0
  3
*D20
  1

  0
LINE
  5
9FE
330
98D
100
AcDbEntity
  8
寸法線
 62
     0
 48
20.0
370
    -2
100
AcDbLine
 10
7936.278975293088
 20
3352.78350149799
 30
0.0
 11
8231.530785993818
 21
3352.78350149799
 31
0.0
  0
LINE
  5
9FF
330
98D
100
AcDbEntity
  8
寸法線
 62
     0
 48
20.0
370
    -2
100
AcDbLine
 10
7936.278975293084
 20
3682.783506415373
 30
0.0
 11
8231.530785993818
 21
3682.783506415373
 31
0.0
  0
LINE
  5
A00
330
98D
100
AcDbEntity
  8
寸法線
 62
     0
 48
20.0
370
    -2
100
AcDbLine
 10
8171.530785993821
 20
3372.78350149799
 30
0.0
 11
8171.530785993821
 21
3662.783506415374
 31
0.0
  0
INSERT
  5
A01
330
98D
100
AcDbEntity
  8
寸法線
 62
     0
 48
20.0
370
    -2
100
AcDbBlockReference
  2
_OPEN30
 10
8171.530785993821
 20
3352.78350149799
 30
0.0
 41
20.0
 42
20.0
 43
20.0
 50
270.0
  0
INSERT
  5
A02
330
98D
100
AcDbEntity
  8
寸法線
 62
     0
 48
20.0
370
    -2
100
AcDbBlockReference
  2
_OPEN30
 10
8171.530785993821
 20
3682.783506415373
 30
0.0
 41
20.0
 42
20.0
 43
20.0
 50
90.0
  0
MTEXT
  5
A03
330
98D
100
AcDbEntity
  8
寸法線
 62
     0
 48
20.0
100
AcDbMText
 10
8107.530785993819
 20
3517.783503956683
 30
0.0
 40
60.0
 41
0.0
 71
     5
 72
     1
  1
110
 11
0.0000000000000001
 21
1.0
 31
0.0
 73
     1
 44
1.0
  0
POINT
  5
A04
330
98D
100
AcDbEntity
  8
DEFPOINTS
 62
     0
 48
20.0
100
AcDbPoint
 10
7896.278975293087
 20
3352.78350149799
 30
0.0
  0
POINT
  5
A05
330
98D
100
AcDbEntity
  8
DEFPOINTS
 62
     0
 48
20.0
100
AcDbPoint
 10
7896.278975293085
 20
3682.783506415373
 30
0.0
  0
POINT
  5
A06
330
98D
100
AcDbEntity
  8
DEFPOINTS
 62
     0
 48
20.0
100
AcDbPoint
 10
8171.530785993821
 20
3682.783506415373
 30
0.0
  0
ENDBLK
  5
998
330
98D
100
AcDbEntity
  8
0
 48
20.0
100
AcDbBlockEnd
  0
BLOCK
  5
9A3
330
999
100
AcDbEntity
  8
0
 48
20.0
100
AcDbBlockBegin
  2
*D21
 70
     1
 10
0.0
 20
0.0
 30
0.0
  3
*D21
  1

  0
LINE
  5
A07
330
999
100
AcDbEntity
  8
寸法線
 62
     0
 48
20.0
370
    -2
100
AcDbLine
 10
7879.278974443717
 20
3742.783507309449
 30
0.0
 11
8371.935252901321
 21
3742.783507309449
 31
0.0
  0
LINE
  5
A08
330
999
100
AcDbEntity
  8
寸法線
 62
     0
 48
20.0
370
    -2
100
AcDbLine
 10
7879.278974443707
 20
3292.783500603916
 30
0.0
 11
8371.935252901321
 21
3292.783500603916
 31
0.0
  0
LINE
  5
A09
330
999
100
AcDbEntity
  8
寸法線
 62
     0
 48
20.0
370
    -2
100
AcDbLine
 10
8311.935252901321
 20
3722.783507309448
 30
0.0
 11
8311.935252901321
 21
3312.783500603915
 31
0.0
  0
INSERT
  5
A0A
330
999
100
AcDbEntity
  8
寸法線
 62
     0
 48
20.0
370
    -2
100
AcDbBlockReference
  2
_OPEN30
 10
8311.935252901321
 20
3742.783507309449
 30
0.0
 41
20.0
 42
20.0
 43
20.0
 50
90.0
  0
INSERT
  5
A0B
330
999
100
AcDbEntity
  8
寸法線
 62
     0
 48
20.0
370
    -2
100
AcDbBlockReference
  2
_OPEN30
 10
8311.935252901321
 20
3292.783500603916
 30
0.0
 41
20.0
 42
20.0
 43
20.0
 50
270.0
  0
MTEXT
  5
A0C
330
999
100
AcDbEntity
  8
寸法線
 62
     0
 48
20.0
100
AcDbMText
 10
8247.935252901321
 20
3517.783503956683
 30
0.0
 40
60.0
 41
0.0
 71
     5
 72
     1
  1
150
 11
0.0000000000000001
 21
1.0
 31
0.0
 73
     1
 44
1.0
  0
POINT
  5
A0D
330
999
100
AcDbEntity
  8
DEFPOINTS
 62
     0
 48
20.0
100
AcDbPoint
 10
7839.278974443718
 20
3742.783507309449
 30
0.0
  0
POINT
  5
A0E
330
999
100
AcDbEntity
  8
DEFPOINTS
 62
     0
 48
20.0
100
AcDbPoint
 10
7839.278974443707
 20
3292.783500603916
 30
0.0
  0
POINT
  5
A0F
330
999
100
AcDbEntity
  8
DEFPOINTS
 62
     0
 48
20.0
100
AcDbPoint
 10
8311.935252901321
 20
3292.783500603916
 30
0.0
  0
ENDBLK
  5
9A4
330
999
100
AcDbEntity
  8
0
 48
20.0
100
AcDbBlockEnd
  0
BLOCK
  5
9AF
330
9A5
100
AcDbEntity
  8
0
 48
20.0
100
AcDbBlockBegin
  2
*D22
 70
     1
 10
0.0
 20
0.0
 30
0.0
  3
*D22
  1

  0
LINE
  5
A10
330
9A5
100
AcDbEntity
  8
寸法線
 62
     0
 48
20.0
370
    -2
100
AcDbLine
 10
7668.612456074846
 20
2786.942734806606
 30
0.0
 11
7668.612456074846
 21
2926.931559705731
 31
0.0
  0
LINE
  5
A11
330
9A5
100
AcDbEntity
  8
寸法線
 62
     0
 48
20.0
370
    -2
100
AcDbLine
 10
7890.612459382905
 20
2786.942734806606
 30
0.0
 11
7890.612459382905
 21
2926.931559705731
 31
0.0
  0
LINE
  5
A12
330
9A5
100
AcDbEntity
  8
寸法線
 62
     0
 48
20.0
370
    -2
100
AcDbLine
 10
7688.612456074847
 20
2866.931559705732
 30
0.0
 11
7870.612459382904
 21
2866.931559705732
 31
0.0
  0
INSERT
  5
A13
330
9A5
100
AcDbEntity
  8
寸法線
 62
     0
 48
20.0
370
    -2
100
AcDbBlockReference
  2
_OPEN30
 10
7668.612456074846
 20
2866.931559705732
 30
0.0
 41
20.0
 42
20.0
 43
20.0
 50
180.0
  0
INSERT
  5
A14
330
9A5
100
AcDbEntity
  8
寸法線
 62
     0
 48
20.0
370
    -2
100
AcDbBlockReference
  2
_OPEN30
 10
7890.612459382905
 20
2866.931559705732
 30
0.0
 41
20.0
 42
20.0
 43
20.0
  0
MTEXT
  5
A15
330
9A5
100
AcDbEntity
  8
寸法線
 62
     0
 48
20.0
100
AcDbMText
 10
7779.612457728875
 20
2930.931559705732
 30
0.0
 40
60.0
 41
0.0
 71
     5
 72
     1
  1
74
 73
     1
 44
1.0
  0
POINT
  5
A16
330
9A5
100
AcDbEntity
  8
DEFPOINTS
 62
     0
 48
20.0
100
AcDbPoint
 10
7668.612456074846
 20
2746.942734806606
 30
0.0
  0
POINT
  5
A17
330
9A5
100
AcDbEntity
  8
DEFPOINTS
 62
     0
 48
20.0
100
AcDbPoint
 10
7890.612459382905
 20
2746.942734806606
 30
0.0
  0
POINT
  5
A18
330
9A5
100
AcDbEntity
  8
DEFPOINTS
 62
     0
 48
20.0
100
AcDbPoint
 10
7890.612459382905
 20
2866.931559705732
 30
0.0
  0
ENDBLK
  5
9B0
330
9A5
100
AcDbEntity
  8
0
 48
20.0
100
AcDbBlockEnd
  0
BLOCK
  5
9BD
330
9B1
100
AcDbEntity
  8
0
 48
20.0
100
AcDbBlockBegin
  2
*D23
 70
     1
 10
0.0
 20
0.0
 30
0.0
  3
*D23
  1

  0
LINE
  5
A19
330
9B1
100
AcDbEntity
  8
寸法線
 62
     0
 48
20.0
370
    -2
100
AcDbLine
 10
7930.612459382904
 20
2746.942734806606
 30
0.0
 11
8231.474827321051
 21
2746.942734806606
 31
0.0
  0
LINE
  5
A1A
330
9B1
100
AcDbEntity
  8
寸法線
 62
     0
 48
20.0
370
    -2
100
AcDbLine
 10
7930.612459382904
 20
2659.942733510205
 30
0.0
 11
8231.474827321051
 21
2659.942733510205
 31
0.0
  0
LINE
  5
A1B
330
9B1
100
AcDbEntity
  8
寸法線
 62
     0
 48
20.0
370
    -2
100
AcDbLine
 10
8171.474827321054
 20
2639.942733510205
 30
0.0
 11
8171.474827321054
 21
2619.942733510205
 31
0.0
  0
LINE
  5
A1C
330
9B1
100
AcDbEntity
  8
寸法線
 62
     0
 48
20.0
370
    -2
100
AcDbLine
 10
8171.474827321054
 20
2766.942734806606
 30
0.0
 11
8171.474827321054
 21
2954.942734806606
 31
0.0
  0
LINE
  5
A1D
330
9B1
100
AcDbEntity
  8
寸法線
 62
     0
 48
20.0
370
    -2
100
AcDbLine
 10
8171.474827321054
 20
2659.942733510205
 30
0.0
 11
8171.474827321054
 21
2746.942734806606
 31
0.0
  0
INSERT
  5
A1E
330
9B1
100
AcDbEntity
  8
寸法線
 62
     0
 48
20.0
370
    -2
100
AcDbBlockReference
  2
_OPEN30
 10
8171.474827321054
 20
2659.942733510205
 30
0.0
 41
20.0
 42
20.0
 43
20.0
 50
90.0
  0
INSERT
  5
A1F
330
9B1
100
AcDbEntity
  8
寸法線
 62
     0
 48
20.0
370
    -2
100
AcDbBlockReference
  2
_OPEN30
 10
8171.474827321054
 20
2746.942734806606
 30
0.0
 41
20.0
 42
20.0
 43
20.0
 50
270.0
  0
MTEXT
  5
A20
330
9B1
100
AcDbEntity
  8
寸法線
 62
     0
 48
20.0
100
AcDbMText
 10
8107.474827321052
 20
2870.942734806608
 30
0.0
 40
60.0
 41
0.0
 71
     5
 72
     1
  1
29
 11
0.0000000000000001
 21
1.0
 31
0.0
 73
     1
 44
1.0
  0
POINT
  5
A21
330
9B1
100
AcDbEntity
  8
DEFPOINTS
 62
     0
 48
20.0
100
AcDbPoint
 10
7890.612459382905
 20
2746.942734806606
 30
0.0
  0
POINT
  5
A22
330
9B1
100
AcDbEntity
  8
DEFPOINTS
 62
     0
 48
20.0
100
AcDbPoint
 10
7890.612459382905
 20
2659.942733510205
 30
0.0
  0
POINT
  5
A23
330
9B1
100
AcDbEntity
  8
DEFPOINTS
 62
     0
 48
20.0
100
AcDbPoint
 10
8171.474827321054
 20
2659.942733510205
 30
0.0
  0
ENDBLK
  5
9BE
330
9B1
100
AcDbEntity
  8
0
 48
20.0
100
AcDbBlockEnd
  0
BLOCK
  5
9CB
330
9BF
100
AcDbEntity
  8
0
 48
20.0
100
AcDbBlockBegin
  2
*D24
 70
     1
 10
0.0
 20
0.0
 30
0.0
  3
*D24
  1

  0
LINE
  5
A24
330
9BF
100
AcDbEntity
  8
寸法線
 62
     0
 48
20.0
370
    -2
100
AcDbLine
 10
7930.612459382904
 20
2746.942734806606
 30
0.0
 11
8415.891789623413
 21
2746.942734806606
 31
0.0
  0
LINE
  5
A25
330
9BF
100
AcDbEntity
  8
寸法線
 62
     0
 48
20.0
370
    -2
100
AcDbLine
 10
7909.612459228029
 20
2644.942733286687
 30
0.0
 11
8415.891789623413
 21
2644.942733286687
 31
0.0
  0
LINE
  5
A26
330
9BF
100
AcDbEntity
  8
寸法線
 62
     0
 48
20.0
370
    -2
100
AcDbLine
 10
8355.891789623415
 20
2624.942733286687
 30
0.0
 11
8355.891789623415
 21
2604.942733286688
 31
0.0
  0
LINE
  5
A27
330
9BF
100
AcDbEntity
  8
寸法線
 62
     0
 48
20.0
370
    -2
100
AcDbLine
 10
8355.891789623415
 20
2766.942734806606
 30
0.0
 11
8355.891789623415
 21
2954.942734806606
 31
0.0
  0
LINE
  5
A28
330
9BF
100
AcDbEntity
  8
寸法線
 62
     0
 48
20.0
370
    -2
100
AcDbLine
 10
8355.891789623415
 20
2644.942733286687
 30
0.0
 11
8355.891789623415
 21
2746.942734806606
 31
0.0
  0
INSERT
  5
A29
330
9BF
100
AcDbEntity
  8
寸法線
 62
     0
 48
20.0
370
    -2
100
AcDbBlockReference
  2
_OPEN30
 10
8355.891789623415
 20
2644.942733286687
 30
0.0
 41
20.0
 42
20.0
 43
20.0
 50
90.0
  0
INSERT
  5
A2A
330
9BF
100
AcDbEntity
  8
寸法線
 62
     0
 48
20.0
370
    -2
100
AcDbBlockReference
  2
_OPEN30
 10
8355.891789623415
 20
2746.942734806606
 30
0.0
 41
20.0
 42
20.0
 43
20.0
 50
270.0
  0
MTEXT
  5
A2B
330
9BF
100
AcDbEntity
  8
寸法線
 62
     0
 48
20.0
100
AcDbMText
 10
8291.891789623415
 20
2870.942734806608
 30
0.0
 40
60.0
 41
0.0
 71
     5
 72
     1
  1
34
 11
0.0000000000000001
 21
1.0
 31
0.0
 73
     1
 44
1.0
  0
POINT
  5
A2C
330
9BF
100
AcDbEntity
  8
DEFPOINTS
 62
     0
 48
20.0
100
AcDbPoint
 10
7890.612459382905
 20
2746.942734806606
 30
0.0
  0
POINT
  5
A2D
330
9BF
100
AcDbEntity
  8
DEFPOINTS
 62
     0
 48
20.0
100
AcDbPoint
 10
7869.612459228028
 20
2644.942733286687
 30
0.0
  0
POINT
  5
A2E
330
9BF
100
AcDbEntity
  8
DEFPOINTS
 62
     0
 48
20.0
100
AcDbPoint
 10
8355.891789623415
 20
2644.942733286687
 30
0.0
  0
ENDBLK
  5
9CC
330
9BF
100
AcDbEntity
  8
0
 48
20.0
100
AcDbBlockEnd
  0
BLOCK
  5
B10
330
B06
100
AcDbEntity
  8
0
 48
20.0
100
AcDbBlockBegin
  2
*D25
 70
     1
 10
0.0
 20
0.0
 30
0.0
  3
*D25
  1

  0
LINE
  5
B07
330
B06
100
AcDbEntity
  8
寸法線
 62
     0
 48
20.0
370
    -2
100
AcDbLine
 10
6090.842584647166
 20
5335.69493743478
 30
0.0
 11
6090.842584647166
 21
5527.529428030082
 31
0.0
  0
LINE
  5
B08
330
B06
100
AcDbEntity
  8
寸法線
 62
     0
 48
20.0
370
    -2
100
AcDbLine
 10
6340.842470607192
 20
5335.695070872971
 30
0.0
 11
6340.842470607192
 21
5527.529428030082
 31
0.0
  0
LINE
  5
B09
330
B06
100
AcDbEntity
  8
寸法線
 62
     0
 48
20.0
370
    -2
100
AcDbLine
 10
6110.842584647166
 20
5467.529428030083
 30
0.0
 11
6320.842470607193
 21
5467.529428030083
 31
0.0
  0
INSERT
  5
B0A
330
B06
100
AcDbEntity
  8
寸法線
 62
     0
 48
20.0
370
    -2
100
AcDbBlockReference
  2
_OPEN30
 10
6090.842584647166
 20
5467.529428030083
 30
0.0
 41
20.0
 42
20.0
 43
20.0
 50
180.0
  0
INSERT
  5
B0B
330
B06
100
AcDbEntity
  8
寸法線
 62
     0
 48
20.0
370
    -2
100
AcDbBlockReference
  2
_OPEN30
 10
6340.842470607192
 20
5467.529428030083
 30
0.0
 41
20.0
 42
20.0
 43
20.0
  0
MTEXT
  5
B0C
330
B06
100
AcDbEntity
  8
寸法線
 62
     0
 48
20.0
100
AcDbMText
 10
6215.842527627179
 20
5531.529428030083
 30
0.0
 40
60.0
 41
0.0
 71
     5
 72
     1
  1
250
 73
     1
 44
1.0
  0
POINT
  5
B0D
330
B06
100
AcDbEntity
  8
DEFPOINTS
 62
     0
 48
20.0
100
AcDbPoint
 10
6090.842584647166
 20
5295.69493743478
 30
0.0
  0
POINT
  5
B0E
330
B06
100
AcDbEntity
  8
DEFPOINTS
 62
     0
 48
20.0
100
AcDbPoint
 10
6340.842470607192
 20
5295.695070872971
 30
0.0
  0
POINT
  5
B0F
330
B06
100
AcDbEntity
  8
DEFPOINTS
 62
     0
 48
20.0
100
AcDbPoint
 10
6340.842470607192
 20
5467.529428030083
 30
0.0
  0
ENDBLK
  5
B11
330
B06
100
AcDbEntity
  8
0
 48
20.0
100
AcDbBlockEnd
  0
BLOCK
  5
B1D
330
B13
100
AcDbEntity
  8
0
 48
20.0
100
AcDbBlockBegin
  2
*D26
 70
     1
 10
0.0
 20
0.0
 30
0.0
  3
*D26
  1

  0
LINE
  5
D38
330
B13
100
AcDbEntity
  8
寸法線
 62
     0
 48
20.0
370
    -2
100
AcDbLine
 10
1820.431771360223
 20
1263.82919092157
 30
0.0
 11
1820.431771360223
 21
942.6187837837419
 31
0.0
  0
LINE
  5
D39
330
B13
100
AcDbEntity
  8
寸法線
 62
     0
 48
20.0
370
    -2
100
AcDbLine
 10
3240.431771360221
 20
1263.829181146329
 30
0.0
 11
3240.431771360221
 21
942.6187837837419
 31
0.0
  0
LINE
  5
D3A
330
B13
100
AcDbEntity
  8
寸法線
 62
     0
 48
20.0
370
    -2
100
AcDbLine
 10
1840.431771360223
 20
1002.618783783742
 30
0.0
 11
3220.431771360221
 21
1002.618783783742
 31
0.0
  0
INSERT
  5
D3B
330
B13
100
AcDbEntity
  8
寸法線
 62
     0
 48
20.0
370
    -2
100
AcDbBlockReference
  2
_OPEN30
 10
1820.431771360223
 20
1002.618783783742
 30
0.0
 41
20.0
 42
20.0
 43
20.0
 50
180.0
  0
INSERT
  5
D3C
330
B13
100
AcDbEntity
  8
寸法線
 62
     0
 48
20.0
370
    -2
100
AcDbBlockReference
  2
_OPEN30
 10
3240.431771360221
 20
1002.618783783742
 30
0.0
 41
20.0
 42
20.0
 43
20.0
  0
MTEXT
  5
D3D
330
B13
100
AcDbEntity
  8
寸法線
 62
     0
 48
20.0
100
AcDbMText
 10
2530.431771360222
 20
1066.618783783742
 30
0.0
 40
60.0
 41
0.0
 71
     5
 72
     1
  1
O.Dφ1420
 73
     1
 44
1.0
  0
POINT
  5
D3E
330
B13
100
AcDbEntity
  8
DEFPOINTS
 62
     0
 48
20.0
100
AcDbPoint
 10
1820.431771360223
 20
1303.82919092157
 30
0.0
  0
POINT
  5
D3F
330
B13
100
AcDbEntity
  8
DEFPOINTS
 62
     0
 48
20.0
100
AcDbPoint
 10
3240.431771360221
 20
1303.829181146329
 30
0.0
  0
POINT
  5
D40
330
B13
100
AcDbEntity
  8
DEFPOINTS
 62
     0
 48
20.0
100
AcDbPoint
 10
3240.431771360221
 20
1002.618783783742
 30
0.0
  0
ENDBLK
  5
B1E
330
B13
100
AcDbEntity
  8
0
 48
20.0
100
AcDbBlockEnd
  0
BLOCK
  5
B45
330
B3B
100
AcDbEntity
  8
0
 48
20.0
100
AcDbBlockBegin
  2
*D27
 70
     1
 10
0.0
 20
0.0
 30
0.0
  3
*D27
  1

  0
LINE
  5
D41
330
B3B
100
AcDbEntity
  8
寸法線
 62
     0
 48
20.0
370
    -2
100
AcDbLine
 10
1760.431770466151
 20
1207.448531837618
 30
0.0
 11
1760.431770466151
 21
789.0616888953932
 31
0.0
  0
LINE
  5
D42
330
B3B
100
AcDbEntity
  8
寸法線
 62
     0
 48
20.0
370
    -2
100
AcDbLine
 10
3300.431772254291
 20
1207.448531837618
 30
0.0
 11
3300.431772254291
 21
789.0616888953932
 31
0.0
  0
LINE
  5
D43
330
B3B
100
AcDbEntity
  8
寸法線
 62
     0
 48
20.0
370
    -2
100
AcDbLine
 10
1780.431770466151
 20
849.0616888953931
 30
0.0
 11
3280.431772254291
 21
849.0616888953931
 31
0.0
  0
INSERT
  5
D44
330
B3B
100
AcDbEntity
  8
寸法線
 62
     0
 48
20.0
370
    -2
100
AcDbBlockReference
  2
_OPEN30
 10
1760.431770466151
 20
849.0616888953931
 30
0.0
 41
20.0
 42
20.0
 43
20.0
 50
180.0
  0
INSERT
  5
D45
330
B3B
100
AcDbEntity
  8
寸法線
 62
     0
 48
20.0
370
    -2
100
AcDbBlockReference
  2
_OPEN30
 10
3300.431772254291
 20
849.0616888953931
 30
0.0
 41
20.0
 42
20.0
 43
20.0
  0
MTEXT
  5
D46
330
B3B
100
AcDbEntity
  8
寸法線
 62
     0
 48
20.0
100
AcDbMText
 10
2530.431771360222
 20
913.0616888953932
 30
0.0
 40
60.0
 41
0.0
 71
     5
 72
     1
  1
P.C.Dφ1540
 73
     1
 44
1.0
  0
POINT
  5
D47
330
B3B
100
AcDbEntity
  8
DEFPOINTS
 62
     0
 48
20.0
100
AcDbPoint
 10
1760.431770466151
 20
1247.448531837618
 30
0.0
  0
POINT
  5
D48
330
B3B
100
AcDbEntity
  8
DEFPOINTS
 62
     0
 48
20.0
100
AcDbPoint
 10
3300.431772254291
 20
1247.448531837618
 30
0.0
  0
POINT
  5
D49
330
B3B
100
AcDbEntity
  8
DEFPOINTS
 62
     0
 48
20.0
100
AcDbPoint
 10
3300.431772254291
 20
849.0616888953931
 30
0.0
  0
ENDBLK
  5
B46
330
B3B
100
AcDbEntity
  8
0
 48
20.0
100
AcDbBlockEnd
  0
BLOCK
  5
B5B
330
B51
100
AcDbEntity
  8
0
 48
20.0
100
AcDbBlockBegin
  2
*D28
 70
     1
 10
0.0
 20
0.0
 30
0.0
  3
*D28
  1

  0
LINE
  5
134D
330
B51
100
AcDbEntity
  8
寸法線
 62
     0
370
    -2
100
AcDbLine
 10
1810.431780777716
 20
1273.829181146331
 30
0.0
 11
1564.048126759734
 21
1273.829181146331
 31
0.0
  0
LINE
  5
134E
330
B51
100
AcDbEntity
  8
寸法線
 62
     0
370
    -2
100
AcDbLine
 10
1780.431809065068
 20
2753.829243929627
 30
0.0
 11
1564.048126759735
 21
2753.829243929627
 31
0.0
  0
LINE
  5
134F
330
B51
100
AcDbEntity
  8
寸法線
 62
     0
370
    -2
100
AcDbLine
 10
1624.048126759734
 20
1293.829181146331
 30
0.0
 11
1624.048126759735
 21
2733.829243929627
 31
0.0
  0
INSERT
  5
1350
330
B51
100
AcDbEntity
  8
寸法線
 62
     0
370
    -2
100
AcDbBlockReference
  2
_OPEN30
 10
1624.048126759734
 20
1273.829181146331
 30
0.0
 41
20.0
 42
20.0
 43
20.0
 50
270.0
  0
INSERT
  5
1351
330
B51
100
AcDbEntity
  8
寸法線
 62
     0
370
    -2
100
AcDbBlockReference
  2
_OPEN30
 10
1624.048126759735
 20
2753.829243929627
 30
0.0
 41
20.0
 42
20.0
 43
20.0
 50
90.0
  0
MTEXT
  5
1352
330
B51
100
AcDbEntity
  8
寸法線
 62
     0
100
AcDbMText
 10
1560.048126759735
 20
2013.829212537979
 30
0.0
 40
60.0
 41
0.0
 71
     5
 72
     1
  1
1480
 11
0.0000000000000001
 21
1.0
 31
0.0
 73
     1
 44
1.0
  0
POINT
  5
1353
330
B51
100
AcDbEntity
  8
DEFPOINTS
 62
     0
100
AcDbPoint
 10
1850.431780777716
 20
1273.829181146331
 30
0.0
  0
POINT
  5
1354
330
B51
100
AcDbEntity
  8
DEFPOINTS
 62
     0
100
AcDbPoint
 10
1820.431809065068
 20
2753.829243929627
 30
0.0
  0
POINT
  5
1355
330
B51
100
AcDbEntity
  8
DEFPOINTS
 62
     0
100
AcDbPoint
 10
1624.048126759735
 20
2753.829243929627
 30
0.0
  0
ENDBLK
  5
B5C
330
B51
100
AcDbEntity
  8
0
 48
20.0
100
AcDbBlockEnd
  0
BLOCK
  5
B68
330
B5E
100
AcDbEntity
  8
0
 48
20.0
100
AcDbBlockBegin
  2
*D29
 70
     1
 10
0.0
 20
0.0
 30
0.0
  3
*D29
  1

  0
LINE
  5
1841
330
B5E
100
AcDbEntity
  8
寸法線
 62
     0
370
    -2
100
AcDbLine
 10
1780.431809065068
 20
2753.829243929627
 30
0.0
 11
1564.048126759735
 21
2753.829243929627
 31
0.0
  0
LINE
  5
1842
330
B5E
100
AcDbEntity
  8
寸法線
 62
     0
370
    -2
100
AcDbLine
 10
2490.431622252939
 20
3093.829216933809
 30
0.0
 11
1564.048126759735
 21
3093.829216933809
 31
0.0
  0
LINE
  5
1843
330
B5E
100
AcDbEntity
  8
寸法線
 62
     0
370
    -2
100
AcDbLine
 10
1624.048126759735
 20
2773.829243929627
 30
0.0
 11
1624.048126759735
 21
3073.829216933809
 31
0.0
  0
INSERT
  5
1844
330
B5E
100
AcDbEntity
  8
寸法線
 62
     0
370
    -2
100
AcDbBlockReference
  2
_OPEN30
 10
1624.048126759735
 20
2753.829243929627
 30
0.0
 41
20.0
 42
20.0
 43
20.0
 50
270.0
  0
INSERT
  5
1845
330
B5E
100
AcDbEntity
  8
寸法線
 62
     0
370
    -2
100
AcDbBlockReference
  2
_OPEN30
 10
1624.048126759735
 20
3093.829216933809
 30
0.0
 41
20.0
 42
20.0
 43
20.0
 50
90.0
  0
MTEXT
  5
1846
330
B5E
100
AcDbEntity
  8
寸法線
 62
     0
100
AcDbMText
 10
1560.048126759735
 20
2923.829230431719
 30
0.0
 40
60.0
 41
0.0
 71
     5
 72
     1
  1
340
 11
0.0000000000000001
 21
1.0
 31
0.0
 73
     1
 44
1.0
  0
POINT
  5
1847
330
B5E
100
AcDbEntity
  8
DEFPOINTS
 62
     0
100
AcDbPoint
 10
1820.431809065068
 20
2753.829243929627
 30
0.0
  0
POINT
  5
1848
330
B5E
100
AcDbEntity
  8
DEFPOINTS
 62
     0
100
AcDbPoint
 10
2530.431622252939
 20
3093.829216933809
 30
0.0
  0
POINT
  5
1849
330
B5E
100
AcDbEntity
  8
DEFPOINTS
 62
     0
100
AcDbPoint
 10
1624.048126759735
 20
3093.829216933809
 30
0.0
  0
ENDBLK
  5
B69
330
B5E
100
AcDbEntity
  8
0
 48
20.0
100
AcDbBlockEnd
  0
BLOCK
  5
B75
330
B6B
100
AcDbEntity
  8
0
 48
20.0
100
AcDbBlockBegin
  2
*D30
 70
     1
 10
0.0
 20
0.0
 30
0.0
  3
*D30
  1

  0
LINE
  5
1344
330
B6B
100
AcDbEntity
  8
寸法線
 62
     0
370
    -2
100
AcDbLine
 10
1810.431780777716
 20
1273.829181146331
 30
0.0
 11
1381.036758460566
 21
1273.829181146331
 31
0.0
  0
LINE
  5
1345
330
B6B
100
AcDbEntity
  8
寸法線
 62
     0
370
    -2
100
AcDbLine
 10
2490.431584105983
 20
3093.829181146319
 30
0.0
 11
1381.036758460566
 21
3093.829181146319
 31
0.0
  0
LINE
  5
1346
330
B6B
100
AcDbEntity
  8
寸法線
 62
     0
370
    -2
100
AcDbLine
 10
1441.036758460566
 20
1293.829181146331
 30
0.0
 11
1441.036758460566
 21
3073.829181146319
 31
0.0
  0
INSERT
  5
1347
330
B6B
100
AcDbEntity
  8
寸法線
 62
     0
370
    -2
100
AcDbBlockReference
  2
_OPEN30
 10
1441.036758460566
 20
1273.829181146331
 30
0.0
 41
20.0
 42
20.0
 43
20.0
 50
270.0
  0
INSERT
  5
1348
330
B6B
100
AcDbEntity
  8
寸法線
 62
     0
370
    -2
100
AcDbBlockReference
  2
_OPEN30
 10
1441.036758460566
 20
3093.829181146319
 30
0.0
 41
20.0
 42
20.0
 43
20.0
 50
90.0
  0
MTEXT
  5
1349
330
B6B
100
AcDbEntity
  8
寸法線
 62
     0
100
AcDbMText
 10
1377.036758460566
 20
2183.829181146325
 30
0.0
 40
60.0
 41
0.0
 71
     5
 72
     1
  1
1820
 11
0.0000000000000001
 21
1.0
 31
0.0
 73
     1
 44
1.0
  0
POINT
  5
134A
330
B6B
100
AcDbEntity
  8
DEFPOINTS
 62
     0
100
AcDbPoint
 10
1850.431780777716
 20
1273.829181146331
 30
0.0
  0
POINT
  5
134B
330
B6B
100
AcDbEntity
  8
DEFPOINTS
 62
     0
100
AcDbPoint
 10
2530.431584105983
 20
3093.829181146319
 30
0.0
  0
POINT
  5
134C
330
B6B
100
AcDbEntity
  8
DEFPOINTS
 62
     0
100
AcDbPoint
 10
1441.036758460566
 20
3093.829181146319
 30
0.0
  0
ENDBLK
  5
B76
330
B6B
100
AcDbEntity
  8
0
 48
20.0
100
AcDbBlockEnd
  0
BLOCK
  5
B82
330
B78
100
AcDbEntity
  8
0
 48
20.0
100
AcDbBlockBegin
  2
*D31
 70
     1
 10
0.0
 20
0.0
 30
0.0
  3
*D31
  1

  0
LINE
  5
133B
330
B78
100
AcDbEntity
  8
寸法線
 62
     0
370
    -2
100
AcDbLine
 10
2340.431732771103
 20
3113.829181146331
 30
0.0
 11
2340.431732771103
 21
3287.205770715337
 31
0.0
  0
LINE
  5
133C
330
B78
100
AcDbEntity
  8
寸法線
 62
     0
370
    -2
100
AcDbLine
 10
2720.431687960635
 20
3113.829190685814
 30
0.0
 11
2720.431687960635
 21
3287.205770715337
 31
0.0
  0
LINE
  5
133D
330
B78
100
AcDbEntity
  8
寸法線
 62
     0
370
    -2
100
AcDbLine
 10
2360.431732771102
 20
3227.205770715338
 30
0.0
 11
2700.431687960635
 21
3227.205770715338
 31
0.0
  0
INSERT
  5
133E
330
B78
100
AcDbEntity
  8
寸法線
 62
     0
370
    -2
100
AcDbBlockReference
  2
_OPEN30
 10
2340.431732771103
 20
3227.205770715338
 30
0.0
 41
20.0
 42
20.0
 43
20.0
 50
180.0
  0
INSERT
  5
133F
330
B78
100
AcDbEntity
  8
寸法線
 62
     0
370
    -2
100
AcDbBlockReference
  2
_OPEN30
 10
2720.431687960635
 20
3227.205770715338
 30
0.0
 41
20.0
 42
20.0
 43
20.0
  0
MTEXT
  5
1340
330
B78
100
AcDbEntity
  8
寸法線
 62
     0
100
AcDbMText
 10
2530.431710365869
 20
3291.205770715338
 30
0.0
 40
60.0
 41
0.0
 71
     5
 72
     1
  1
I.Dφ380
 73
     1
 44
1.0
  0
POINT
  5
1341
330
B78
100
AcDbEntity
  8
DEFPOINTS
 62
     0
100
AcDbPoint
 10
2340.431732771103
 20
3073.829181146331
 30
0.0
  0
POINT
  5
1342
330
B78
100
AcDbEntity
  8
DEFPOINTS
 62
     0
100
AcDbPoint
 10
2720.431687960635
 20
3073.829190685814
 30
0.0
  0
POINT
  5
1343
330
B78
100
AcDbEntity
  8
DEFPOINTS
 62
     0
100
AcDbPoint
 10
2720.431687960635
 20
3227.205770715338
 30
0.0
  0
ENDBLK
  5
B83
330
B78
100
AcDbEntity
  8
0
 48
20.0
100
AcDbBlockEnd
  0
BLOCK
  5
CDF
330
CD5
100
AcDbEntity
  8
0
 48
20.0
100
AcDbBlockBegin
  2
*D32
 70
     1
 10
0.0
 20
0.0
 30
0.0
  3
*D32
  1

  0
LINE
  5
D6E
330
CD5
100
AcDbEntity
  8
寸法線
 62
     0
 48
20.0
370
    -2
100
AcDbLine
 10
3495.43177173275
 20
1273.82918114633
 30
0.0
 11
3809.048700532573
 21
1273.829181146329
 31
0.0
  0
LINE
  5
D6F
330
CD5
100
AcDbEntity
  8
寸法線
 62
     0
 48
20.0
370
    -2
100
AcDbLine
 10
3320.432191602777
 20
3573.82918114633
 30
0.0
 11
3809.048700532573
 21
3573.82918114633
 31
0.0
  0
LINE
  5
D70
330
CD5
100
AcDbEntity
  8
寸法線
 62
     0
 48
20.0
370
    -2
100
AcDbLine
 10
3749.048700532572
 20
1293.829181146329
 30
0.0
 11
3749.048700532573
 21
3553.82918114633
 31
0.0
  0
INSERT
  5
D71
330
CD5
100
AcDbEntity
  8
寸法線
 62
     0
 48
20.0
370
    -2
100
AcDbBlockReference
  2
_OPEN30
 10
3749.048700532572
 20
1273.829181146329
 30
0.0
 41
20.0
 42
20.0
 43
20.0
 50
270.0
  0
INSERT
  5
D72
330
CD5
100
AcDbEntity
  8
寸法線
 62
     0
 48
20.0
370
    -2
100
AcDbBlockReference
  2
_OPEN30
 10
3749.048700532573
 20
3573.82918114633
 30
0.0
 41
20.0
 42
20.0
 43
20.0
 50
90.0
  0
MTEXT
  5
D73
330
CD5
100
AcDbEntity
  8
寸法線
 62
     0
 48
20.0
100
AcDbMText
 10
3685.048700532572
 20
2423.829181146331
 30
0.0
 40
60.0
 41
0.0
 71
     5
 72
     1
  1
2300
 11
0.0000000000000001
 21
1.0
 31
0.0
 73
     1
 44
1.0
  0
POINT
  5
D74
330
CD5
100
AcDbEntity
  8
DEFPOINTS
 62
     0
 48
20.0
100
AcDbPoint
 10
3455.43177173275
 20
1273.82918114633
 30
0.0
  0
POINT
  5
D75
330
CD5
100
AcDbEntity
  8
DEFPOINTS
 62
     0
 48
20.0
100
AcDbPoint
 10
3280.432191602777
 20
3573.82918114633
 30
0.0
  0
POINT
  5
D76
330
CD5
100
AcDbEntity
  8
DEFPOINTS
 62
     0
 48
20.0
100
AcDbPoint
 10
3749.048700532573
 20
3573.82918114633
 30
0.0
  0
ENDBLK
  5
CE0
330
CD5
100
AcDbEntity
  8
0
 48
20.0
100
AcDbBlockEnd
  0
BLOCK
  5
CEB
330
CE1
100
AcDbEntity
  8
0
 48
20.0
100
AcDbBlockBegin
  2
*D33
 70
     1
 10
0.0
 20
0.0
 30
0.0
  3
*D33
  1

  0
LINE
  5
D77
330
CE1
100
AcDbEntity
  8
寸法線
 62
     0
 48
20.0
370
    -2
100
AcDbLine
 10
4642.264278167476
 20
1273.829303216638
 30
0.0
 11
4887.717142261043
 21
1273.829303216638
 31
0.0
  0
LINE
  5
D78
330
CE1
100
AcDbEntity
  8
寸法線
 62
     0
 48
20.0
370
    -2
100
AcDbLine
 10
4642.264186296331
 20
2473.829443168344
 30
0.0
 11
4887.717142261044
 21
2473.829443168344
 31
0.0
  0
LINE
  5
D79
330
CE1
100
AcDbEntity
  8
寸法線
 62
     0
 48
20.0
370
    -2
100
AcDbLine
 10
4827.717142261043
 20
1293.829303216638
 30
0.0
 11
4827.717142261043
 21
2453.829443168344
 31
0.0
  0
INSERT
  5
D7A
330
CE1
100
AcDbEntity
  8
寸法線
 62
     0
 48
20.0
370
    -2
100
AcDbBlockReference
  2
_OPEN30
 10
4827.717142261043
 20
1273.829303216638
 30
0.0
 41
20.0
 42
20.0
 43
20.0
 50
270.0
  0
INSERT
  5
D7B
330
CE1
100
AcDbEntity
  8
寸法線
 62
     0
 48
20.0
370
    -2
100
AcDbBlockReference
  2
_OPEN30
 10
4827.717142261043
 20
2473.829443168344
 30
0.0
 41
20.0
 42
20.0
 43
20.0
 50
90.0
  0
MTEXT
  5
D7C
330
CE1
100
AcDbEntity
  8
寸法線
 62
     0
 48
20.0
100
AcDbMText
 10
4763.717142261042
 20
1873.829373192492
 30
0.0
 40
60.0
 41
0.0
 71
     5
 72
     1
  1
300 ×4=1200
 11
0.0000000000000001
 21
1.0
 31
0.0
 73
     1
 44
1.0
  0
POINT
  5
D7D
330
CE1
100
AcDbEntity
  8
DEFPOINTS
 62
     0
 48
20.0
100
AcDbPoint
 10
4602.264278167476
 20
1273.829303216638
 30
0.0
  0
POINT
  5
D7E
330
CE1
100
AcDbEntity
  8
DEFPOINTS
 62
     0
 48
20.0
100
AcDbPoint
 10
4602.264186296331
 20
2473.829443168344
 30
0.0
  0
POINT
  5
D7F
330
CE1
100
AcDbEntity
  8
DEFPOINTS
 62
     0
 48
20.0
100
AcDbPoint
 10
4827.717142261043
 20
2473.829443168344
 30
0.0
  0
ENDBLK
  5
CEC
330
CE1
100
AcDbEntity
  8
0
 48
20.0
100
AcDbBlockEnd
  0
BLOCK
  5
CF7
330
CED
100
AcDbEntity
  8
0
 48
20.0
100
AcDbBlockBegin
  2
*D34
 70
     1
 10
0.0
 20
0.0
 30
0.0
  3
*D34
  1

  0
LINE
  5
D80
330
CED
100
AcDbEntity
  8
寸法線
 62
     0
 48
20.0
370
    -2
100
AcDbLine
 10
4122.26480832069
 20
3670.329304058505
 30
0.0
 11
4122.26480832069
 21
3854.767749317627
 31
0.0
  0
LINE
  5
D81
330
CED
100
AcDbEntity
  8
寸法線
 62
     0
 48
20.0
370
    -2
100
AcDbLine
 10
4522.264844798733
 20
3670.329304058505
 30
0.0
 11
4522.264844798733
 21
3854.767749317627
 31
0.0
  0
LINE
  5
D82
330
CED
100
AcDbEntity
  8
寸法線
 62
     0
 48
20.0
370
    -2
100
AcDbLine
 10
4142.264808320691
 20
3794.767749317627
 30
0.0
 11
4502.264844798733
 21
3794.767749317627
 31
0.0
  0
INSERT
  5
D83
330
CED
100
AcDbEntity
  8
寸法線
 62
     0
 48
20.0
370
    -2
100
AcDbBlockReference
  2
_OPEN30
 10
4122.26480832069
 20
3794.767749317627
 30
0.0
 41
20.0
 42
20.0
 43
20.0
 50
180.0
  0
INSERT
  5
D84
330
CED
100
AcDbEntity
  8
寸法線
 62
     0
 48
20.0
370
    -2
100
AcDbBlockReference
  2
_OPEN30
 10
4522.264844798733
 20
3794.767749317627
 30
0.0
 41
20.0
 42
20.0
 43
20.0
  0
MTEXT
  5
D85
330
CED
100
AcDbEntity
  8
寸法線
 62
     0
 48
20.0
100
AcDbMText
 10
4322.264826559711
 20
3858.767749317627
 30
0.0
 40
60.0
 41
0.0
 71
     5
 72
     1
  1
400
 73
     1
 44
1.0
  0
POINT
  5
D86
330
CED
100
AcDbEntity
  8
DEFPOINTS
 62
     0
 48
20.0
100
AcDbPoint
 10
4122.26480832069
 20
3630.329304058506
 30
0.0
  0
POINT
  5
D87
330
CED
100
AcDbEntity
  8
DEFPOINTS
 62
     0
 48
20.0
100
AcDbPoint
 10
4522.264844798733
 20
3630.329304058506
 30
0.0
  0
POINT
  5
D88
330
CED
100
AcDbEntity
  8
DEFPOINTS
 62
     0
 48
20.0
100
AcDbPoint
 10
4522.264844798733
 20
3794.767749317627
 30
0.0
  0
ENDBLK
  5
CF8
330
CED
100
AcDbEntity
  8
0
 48
20.0
100
AcDbBlockEnd
  0
BLOCK
  5
180F
330
1805
100
AcDbEntity
  8
0
100
AcDbBlockBegin
  2
*D75
 70
     1
 10
0.0
 20
0.0
 30
0.0
  3
*D75
  1

  0
LINE
  5
184A
330
1805
100
AcDbEntity
  8
寸法線
 62
     0
370
    -2
100
AcDbLine
 10
1780.431770918085
 20
2753.829212537979
 30
0.0
 11
1706.835912851191
 21
2753.829212537979
 31
0.0
  0
LINE
  5
184B
330
1805
100
AcDbEntity
  8
寸法線
 62
     0
370
    -2
100
AcDbLine
 10
1780.431770918087
 20
2928.829212388967
 30
0.0
 11
1706.835912851191
 21
2928.829212388967
 31
0.0
  0
LINE
  5
184C
330
1805
100
AcDbEntity
  8
寸法線
 62
     0
370
    -2
100
AcDbLine
 10
1766.835912851191
 20
2773.829212537979
 30
0.0
 11
1766.835912851191
 21
2908.829212388967
 31
0.0
  0
INSERT
  5
184D
330
1805
100
AcDbEntity
  8
寸法線
 62
     0
370
    -2
100
AcDbBlockReference
  2
_OPEN30
 10
1766.835912851191
 20
2753.829212537979
 30
0.0
 41
20.0
 42
20.0
 43
20.0
 50
270.0
  0
INSERT
  5
184E
330
1805
100
AcDbEntity
  8
寸法線
 62
     0
370
    -2
100
AcDbBlockReference
  2
_OPEN30
 10
1766.835912851191
 20
2928.829212388967
 30
0.0
 41
20.0
 42
20.0
 43
20.0
 50
90.0
  0
MTEXT
  5
184F
330
1805
100
AcDbEntity
  8
寸法線
 62
     0
100
AcDbMText
 10
1702.835912851191
 20
2841.329212463474
 30
0.0
 40
60.0
 41
0.0
 71
     5
 72
     1
  1
175
 11
0.0000000000000001
 21
1.0
 31
0.0
 73
     1
 44
1.0
  0
POINT
  5
1850
330
1805
100
AcDbEntity
  8
DEFPOINTS
 62
     0
100
AcDbPoint
 10
1820.431770918085
 20
2753.829212537979
 30
0.0
  0
POINT
  5
1851
330
1805
100
AcDbEntity
  8
DEFPOINTS
 62
     0
100
AcDbPoint
 10
1820.431770918087
 20
2928.829212388967
 30
0.0
  0
POINT
  5
1852
330
1805
100
AcDbEntity
  8
DEFPOINTS
 62
     0
100
AcDbPoint
 10
1766.835912851191
 20
2928.829212388967
 30
0.0
  0
ENDBLK
  5
1810
330
1805
100
AcDbEntity
  8
0
100
AcDbBlockEnd
  0
BLOCK
  5
181B
330
1811
100
AcDbEntity
  8
0
100
AcDbBlockBegin
  2
*D76
 70
     1
 10
0.0
 20
0.0
 30
0.0
  3
*D76
  1

  0
LINE
  5
1826
330
1811
100
AcDbEntity
  8
寸法線
 62
     0
370
    -2
100
AcDbLine
 10
2101.37266778849
 20
2968.829212388967
 30
0.0
 11
2101.37266778849
 21
3223.038114741289
 31
0.0
  0
LINE
  5
1827
330
1811
100
AcDbEntity
  8
寸法線
 62
     0
370
    -2
100
AcDbLine
 10
1851.397200251828
 20
2968.829212388969
 30
0.0
 11
1851.397200251828
 21
3223.038114741289
 31
0.0
  0
LINE
  5
1828
330
1811
100
AcDbEntity
  8
寸法線
 62
     0
370
    -2
100
AcDbLine
 10
2081.37266778849
 20
3163.038114741289
 30
0.0
 11
1871.397200251828
 21
3163.038114741289
 31
0.0
  0
INSERT
  5
1829
330
1811
100
AcDbEntity
  8
寸法線
 62
     0
370
    -2
100
AcDbBlockReference
  2
_OPEN30
 10
2101.37266778849
 20
3163.038114741289
 30
0.0
 41
20.0
 42
20.0
 43
20.0
  0
INSERT
  5
182A
330
1811
100
AcDbEntity
  8
寸法線
 62
     0
370
    -2
100
AcDbBlockReference
  2
_OPEN30
 10
1851.397200251828
 20
3163.038114741289
 30
0.0
 41
20.0
 42
20.0
 43
20.0
 50
180.0
  0
MTEXT
  5
182B
330
1811
100
AcDbEntity
  8
寸法線
 62
     0
100
AcDbMText
 10
1976.384934020159
 20
3227.038114741289
 30
0.0
 40
60.0
 41
0.0
 71
     5
 72
     1
  1
250
 73
     1
 44
1.0
  0
POINT
  5
182C
330
1811
100
AcDbEntity
  8
DEFPOINTS
 62
     0
100
AcDbPoint
 10
2101.37266778849
 20
2928.829212388967
 30
0.0
  0
POINT
  5
182D
330
1811
100
AcDbEntity
  8
DEFPOINTS
 62
     0
100
AcDbPoint
 10
1851.397200251828
 20
2928.829212388969
 30
0.0
  0
POINT
  5
182E
330
1811
100
AcDbEntity
  8
DEFPOINTS
 62
     0
100
AcDbPoint
 10
1851.397200251828
 20
3163.038114741289
 30
0.0
  0
ENDBLK
  5
181C
330
1811
100
AcDbEntity
  8
0
100
AcDbBlockEnd
  0
ENDSEC
  0
SECTION
  2
ENTITIES
  0
LINE
  5
2B4
330
D6
100
AcDbEntity
  8
0
  6
CENTER
100
AcDbLine
 10
2530.431771360222
 20
3136.835315179532
 30
0.0
 11
2530.431771360222
 21
1156.835315179532
 31
0.0
  0
LINE
  5
2B5
330
D6
100
AcDbEntity
  8
0
  6
Continuous
100
AcDbLine
 10
1850.431771360221
 20
1273.829181146329
 30
0.0
 11
3210.431771360222
 21
1273.829181146329
 31
0.0
  0
LINE
  5
2B6
330
D6
100
AcDbEntity
  8
0
  6
Continuous
100
AcDbLine
 10
1820.431809065068
 20
2753.829243929627
 30
0.0
 11
3240.431732771103
 21
2753.829181146331
 31
0.0
  0
LINE
  5
2C3
330
D6
100
AcDbEntity
  8
0
  6
Continuous
100
AcDbLine
 10
1820.431732743778
 20
2754.855912859314
 30
0.0
 11
1820.431771360222
 21
1303.82919092157
 31
0.0
  0
LINE
  5
2C7
330
D6
100
AcDbEntity
  8
0
  6
Continuous
100
AcDbLine
 10
3240.431770918086
 20
2754.856134578248
 30
0.0
 11
3240.431732771103
 21
1303.781063108199
 31
0.0
  0
LINE
  5
2C8
102
{ACAD_REACTORS
330
AF5
102
}
330
D6
100
AcDbEntity
  8
0
  6
Continuous
100
AcDbLine
 10
3265.43177173275
 20
1303.829181593364
 30
0.0
 11
3340.431772850337
 21
1303.829181593364
 31
0.0
  0
LINE
  5
2C9
102
{ACAD_REACTORS
330
AF5
102
}
330
D6
100
AcDbEntity
  8
0
  6
Continuous
100
AcDbLine
 10
3270.431771807256
 20
1307.829181652969
 30
0.0
 11
3270.431771807256
 21
1303.829181593364
 31
0.0
  0
LINE
  5
2CA
102
{ACAD_REACTORS
330
AF5
102
}
330
D6
100
AcDbEntity
  8
0
  6
DASHED
100
AcDbLine
 10
3290.431772105279
 20
1307.829181652969
 30
0.0
 11
3290.431772105279
 21
1273.829181146329
 31
0.0
  0
LINE
  5
2CB
102
{ACAD_REACTORS
330
AF5
102
}
330
D6
100
AcDbEntity
  8
0
  6
DASHED
100
AcDbLine
 10
3310.431772403302
 20
1307.829181652969
 30
0.0
 11
3310.431772403302
 21
1273.829181146329
 31
0.0
  0
LINE
  5
2CC
102
{ACAD_REACTORS
330
AF5
102
}
330
D6
100
AcDbEntity
  8
0
  6
Continuous
100
AcDbLine
 10
3344.431772909942
 20
1307.829181652969
 30
0.0
 11
3344.431772909942
 21
1278.829181220835
 31
0.0
  0
LINE
  5
2CD
102
{ACAD_REACTORS
330
AF5
102
}
330
D6
100
AcDbEntity
  8
0
  6
Continuous
100
AcDbLine
 10
3270.431771807256
 20
1307.829181652969
 30
0.0
 11
3344.431772909942
 21
1307.829181652969
 31
0.0
  0
LINE
  5
2CE
102
{ACAD_REACTORS
330
AF5
102
}
330
D6
100
AcDbEntity
  8
0
  6
Continuous
100
AcDbLine
 10
3340.431772850337
 20
1278.829181220835
 30
0.0
 11
3344.431772909942
 21
1278.829181220835
 31
0.0
  0
LINE
  5
2CF
102
{ACAD_REACTORS
330
AF5
102
}
330
D6
100
AcDbEntity
  8
0
  6
Continuous
100
AcDbLine
 10
3240.431771360221
 20
1363.829182487434
 30
0.0
 11
3257.431771613541
 21
1363.829182487434
 31
0.0
  0
LINE
  5
2D0
102
{ACAD_REACTORS
330
AF5
102
}
330
D6
100
AcDbEntity
  8
0
  6
Continuous
100
AcDbLine
 10
3231.644974752815
 20
1282.615977753735
 30
0.0
 11
3240.431771360221
 21
1273.829181146329
 31
0.0
  0
LINE
  5
2D1
102
{ACAD_REACTORS
330
AF5
102
}
330
D6
100
AcDbEntity
  8
0
  6
Continuous
100
AcDbLine
 10
3340.431772850337
 20
1303.829181593364
 30
0.0
 11
3340.431772850337
 21
1276.829181191033
 31
0.0
  0
LINE
  5
2D2
102
{ACAD_REACTORS
330
AF5
102
}
330
D6
100
AcDbEntity
  8
0
  6
Continuous
100
AcDbLine
 10
3260.431771658244
 20
1360.82918244273
 30
0.0
 11
3260.431771658244
 21
1308.82918166787
 31
0.0
  0
LINE
  5
2D3
102
{ACAD_REACTORS
330
AF5
102
}
330
D6
100
AcDbEntity
  8
0
  6
Continuous
100
AcDbLine
 10
3210.431774443858
 20
1273.829181146329
 30
0.0
 11
3337.431772858317
 21
1273.829181146329
 31
0.0
  0
LINE
  5
2D4
102
{ACAD_REACTORS
330
AF5
102
}
330
D6
100
AcDbEntity
  8
0
  6
CENTER
 48
0.2
100
AcDbLine
 10
3300.431772254291
 20
1330.623274673356
 30
0.0
 11
3300.431772254291
 21
1247.448531837618
 31
0.0
  0
ARC
  5
2DE
330
D6
100
AcDbEntity
  8
0
  6
Continuous
100
AcDbCircle
 10
1850.431771360221
 20
1303.829181146329
 30
0.0
 40
30.0
100
AcDbArc
 50
179.9999813306654
 51
270.00001798609
  0
ARC
  5
2E3
330
D6
100
AcDbEntity
  8
0
  6
Continuous
100
AcDbCircle
 10
3210.431771360222
 20
1303.829181146329
 30
0.0
 40
30.0
100
AcDbArc
 50
269.9999633445766
 51
0.0
  0
ARC
  5
2E4
102
{ACAD_REACTORS
330
AF5
102
}
330
D6
100
AcDbEntity
  8
0
  6
Continuous
100
AcDbCircle
 10
3257.431771613541
 20
1360.82918244273
 30
0.0
 40
3.000000044703484
100
AcDbArc
 50
0.0
 51
90.00000000000019
  0
ARC
  5
2E5
102
{ACAD_REACTORS
330
AF5
102
}
330
D6
100
AcDbEntity
  8
0
  6
Continuous
100
AcDbCircle
 10
3337.431772805634
 20
1276.829181191033
 30
0.0
 40
3.000000044703484
100
AcDbArc
 50
270.0000000000005
 51
0.0
  0
ARC
  5
2E6
102
{ACAD_REACTORS
330
AF5
102
}
330
D6
100
AcDbEntity
  8
0
  6
Continuous
100
AcDbCircle
 10
3265.43177173275
 20
1308.82918166787
 30
0.0
 40
5.000000074505805
100
AcDbArc
 50
180.0000000000004
 51
270.0000000000005
  0
ARC
  5
2E7
102
{ACAD_REACTORS
330
AF5
102
}
330
D6
100
AcDbEntity
  8
0
  6
Continuous
100
AcDbCircle
 10
3337.431772805634
 20
1300.829181548661
 30
0.0
 40
3.000000044703484
100
AcDbArc
 50
0.0
 51
90.00000000000019
  0
LINE
  5
344
330
D6
100
AcDbEntity
  8
0
  6
CENTER
100
AcDbLine
 10
7015.842889822947
 20
4617.111911043784
 30
0.0
 11
5415.842889822947
 21
4617.111911043784
 31
0.0
  0
LINE
  5
345
330
D6
100
AcDbEntity
  8
0
  6
CENTER
100
AcDbLine
 10
6215.842889822947
 20
3817.111911043785
 30
0.0
 11
6215.842889822947
 21
5417.111911043785
 31
0.0
  0
LINE
  5
346
330
D6
100
AcDbEntity
  8
0
  6
Continuous
100
AcDbLine
 10
6340.843194998728
 20
3938.528842196129
 30
0.0
 11
6340.843194998728
 21
4177.111911043785
 31
0.0
  0
LINE
  5
347
330
D6
100
AcDbEntity
  8
0
  6
Continuous
100
AcDbLine
 10
6340.843224966224
 20
4177.11233183359
 30
0.0
 11
6360.843185261494
 21
3922.076084633746
 31
0.0
  0
LINE
  5
348
330
D6
100
AcDbEntity
  8
0
  6
Continuous
100
AcDbLine
 10
6340.842527097841
 20
3938.528570524877
 30
0.0
 11
6360.842731206795
 21
3922.075452477442
 31
0.0
  0
LINE
  5
349
330
D6
100
AcDbEntity
  8
0
  6
Continuous
100
AcDbLine
 10
6090.843194998728
 20
3938.528842196129
 30
0.0
 11
6090.843194998728
 21
4177.111911043785
 31
0.0
  0
LINE
  5
34A
330
D6
100
AcDbEntity
  8
0
  6
Continuous
100
AcDbLine
 10
6090.842856247594
 20
4177.112462100505
 30
0.0
 11
6070.842770361799
 21
3922.076071693147
 31
0.0
  0
LINE
  5
34B
330
D6
100
AcDbEntity
  8
0
  6
Continuous
100
AcDbLine
 10
6090.842815490068
 20
3938.529563830584
 30
0.0
 11
6070.842602964551
 21
3922.076456014221
 31
0.0
  0
LINE
  5
34C
330
D6
100
AcDbEntity
  8
0
  6
Continuous
100
AcDbLine
 10
6894.425958670602
 20
4742.111911043784
 30
0.0
 11
6655.842889822946
 21
4742.111911043784
 31
0.0
  0
LINE
  5
34D
330
D6
100
AcDbEntity
  8
0
  6
Continuous
100
AcDbLine
 10
6655.842734485347
 20
4742.111977378452
 30
0.0
 11
6910.878825107672
 21
4762.111982574924
 31
0.0
  0
LINE
  5
34E
330
D6
100
AcDbEntity
  8
0
  6
Continuous
100
AcDbLine
 10
6894.425762014157
 20
4742.111612458678
 30
0.0
 11
6910.878874864422
 21
4762.111820843074
 31
0.0
  0
LINE
  5
34F
330
D6
100
AcDbEntity
  8
0
  6
Continuous
100
AcDbLine
 10
6894.425958670602
 20
4492.111911043784
 30
0.0
 11
6655.842889822946
 21
4492.111911043784
 31
0.0
  0
LINE
  5
350
330
D6
100
AcDbEntity
  8
0
  6
Continuous
100
AcDbLine
 10
6655.842784741361
 20
4492.112075544988
 30
0.0
 11
6910.878894378794
 21
4472.112068857345
 31
0.0
  0
LINE
  5
351
330
D6
100
AcDbEntity
  8
0
  6
Continuous
100
AcDbLine
 10
6894.425364058917
 20
4492.112008081303
 30
0.0
 11
6910.87857384844
 21
4472.111681858696
 31
0.0
  0
LINE
  5
352
330
D6
100
AcDbEntity
  8
0
  6
Continuous
100
AcDbLine
 10
6090.842584647166
 20
5295.694979891441
 30
0.0
 11
6090.842584647166
 21
5057.111911043785
 31
0.0
  0
LINE
  5
353
330
D6
100
AcDbEntity
  8
0
  6
Continuous
100
AcDbLine
 10
6090.842796186787
 20
5057.111654802973
 30
0.0
 11
6070.842809933824
 21
5312.147746910852
 31
0.0
  0
LINE
  5
354
330
D6
100
AcDbEntity
  8
0
  6
Continuous
100
AcDbLine
 10
6090.842760417455
 20
5295.695070872971
 30
0.0
 11
6070.842552790407
 21
5312.148184643856
 31
0.0
  0
LINE
  5
355
330
D6
100
AcDbEntity
  8
0
  6
Continuous
100
AcDbLine
 10
6340.842584647166
 20
5295.694979891441
 30
0.0
 11
6340.842584647166
 21
5057.111911043785
 31
0.0
  0
LINE
  5
356
330
D6
100
AcDbEntity
  8
0
  6
Continuous
100
AcDbLine
 10
6340.842737838098
 20
5057.112004595569
 30
0.0
 11
6360.84276197808
 21
5312.148093732338
 31
0.0
  0
LINE
  5
357
330
D6
100
AcDbEntity
  8
0
  6
Continuous
100
AcDbLine
 10
6340.843016510582
 20
5295.694237319978
 30
0.0
 11
6360.843226275352
 21
5312.147348492277
 31
0.0
  0
LINE
  5
358
330
D6
100
AcDbEntity
  8
0
  6
Continuous
100
AcDbLine
 10
5537.259820975291
 20
4492.111300692222
 30
0.0
 11
5775.842889822946
 21
4492.111300692222
 31
0.0
  0
LINE
  5
359
330
D6
100
AcDbEntity
  8
0
  6
Continuous
100
AcDbLine
 10
5775.843254817968
 20
4492.111818773644
 30
0.0
 11
5520.807142209426
 21
4472.111849973026
 31
0.0
  0
LINE
  5
35A
330
D6
100
AcDbEntity
  8
0
  6
Continuous
100
AcDbLine
 10
5537.259933367914
 20
4492.11159343412
 30
0.0
 11
5520.806816998443
 21
4472.111387944791
 31
0.0
  0
LINE
  5
35B
330
D6
100
AcDbEntity
  8
0
  6
Continuous
100
AcDbLine
 10
5537.259820975291
 20
4742.111300692222
 30
0.0
 11
5775.842889822946
 21
4742.111300692222
 31
0.0
  0
LINE
  5
35C
330
D6
100
AcDbEntity
  8
0
  6
Continuous
100
AcDbLine
 10
5775.842990253686
 20
4742.111780253958
 30
0.0
 11
5520.806902602476
 21
4762.111823337451
 31
0.0
  0
LINE
  5
35D
330
D6
100
AcDbEntity
  8
0
  6
Continuous
100
AcDbLine
 10
5537.260701777722
 20
4742.111823260619
 30
0.0
 11
5520.80759228339
 21
4762.112034405763
 31
0.0
  0
CIRCLE
  5
38E
330
D6
100
AcDbEntity
  8
0
  6
Continuous
100
AcDbCircle
 10
6215.842889822947
 20
4617.111911043784
 30
0.0
 40
250.0
  0
CIRCLE
  5
38F
330
D6
100
AcDbEntity
  8
0
  6
Continuous
100
AcDbCircle
 10
6215.842889822947
 20
4617.111911043784
 30
0.0
 40
190.0
  0
CIRCLE
  5
390
330
D6
100
AcDbEntity
  8
0
  6
Continuous
100
AcDbCircle
 10
6215.842889822947
 20
4617.111911043784
 30
0.0
 40
710.0
  0
ARC
  5
391
330
D6
100
AcDbEntity
  8
0
  6
Continuous
100
AcDbCircle
 10
6215.842889822947
 20
4617.111911043784
 30
0.0
 40
690.0
100
AcDbArc
 50
259.5627239531235
 51
280.4373120190566
  0
CIRCLE
  5
392
330
D6
100
AcDbEntity
  8
0
  6
CENTER
100
AcDbCircle
 10
6215.842889822947
 20
4617.111911043784
 30
0.0
 40
565.0
  0
ARC
  5
393
330
D6
100
AcDbEntity
  8
0
  6
Continuous
100
AcDbCircle
 10
6215.842889822947
 20
4617.111911043784
 30
0.0
 40
690.0
100
AcDbArc
 50
349.5626999906187
 51
10.43729403296653
  0
ARC
  5
394
330
D6
100
AcDbEntity
  8
0
  6
Continuous
100
AcDbCircle
 10
6215.842889822947
 20
4617.111911043784
 30
0.0
 40
690.0
100
AcDbArc
 50
79.5626948111333
 51
100.4372897072555
  0
ARC
  5
395
330
D6
100
AcDbEntity
  8
0
  6
Continuous
100
AcDbCircle
 10
6215.842889822947
 20
4617.111911043784
 30
0.0
 40
690.0
100
AcDbArc
 50
169.5626973156115
 51
190.4372853815452
  0
LINE
  5
5AF
330
D6
100
AcDbEntity
  8
0
100
AcDbLine
 10
933.5597096512671
 20
5998.383078964002
 30
0.0
 11
1073.559709651267
 21
5998.383078964002
 31
0.0
  0
LINE
  5
5B0
330
D6
100
AcDbEntity
  8
0
100
AcDbLine
 10
1073.559709651267
 20
5998.383078964002
 30
0.0
 11
1175.959709651265
 21
5998.383078964002
 31
0.0
  0
LINE
  5
5B1
330
D6
100
AcDbEntity
  8
0
100
AcDbLine
 10
933.5597096512671
 20
5998.383078964002
 30
0.0
 11
933.5597096512671
 21
5862.649745630669
 31
0.0
  0
LINE
  5
5B2
330
D6
100
AcDbEntity
  8
0
100
AcDbLine
 10
1175.959709651265
 20
5998.383078964002
 30
0.0
 11
1315.959709651265
 21
5998.383078964002
 31
0.0
  0
LINE
  5
5B3
330
D6
100
AcDbEntity
  8
0
100
AcDbLine
 10
1315.959709651265
 20
5998.383078964002
 30
0.0
 11
1455.959709651265
 21
5998.383078964002
 31
0.0
  0
LINE
  5
5B4
330
D6
100
AcDbEntity
  8
0
100
AcDbLine
 10
1455.959709651265
 20
5998.383078964002
 30
0.0
 11
1595.959709651265
 21
5998.383078964002
 31
0.0
  0
LINE
  5
5B5
330
D6
100
AcDbEntity
  8
0
100
AcDbLine
 10
1595.959709651265
 20
5998.383078964002
 30
0.0
 11
1735.959709651265
 21
5998.383078964002
 31
0.0
  0
LINE
  5
5B6
330
D6
100
AcDbEntity
  8
0
100
AcDbLine
 10
1735.959709651265
 20
5998.383078964002
 30
0.0
 11
1875.959709651265
 21
5998.383078964002
 31
0.0
  0
LINE
  5
5B7
330
D6
100
AcDbEntity
  8
0
100
AcDbLine
 10
1875.959709651265
 20
5998.383078964002
 30
0.0
 11
2015.959709651265
 21
5998.383078964002
 31
0.0
  0
LINE
  5
5B8
330
D6
100
AcDbEntity
  8
0
100
AcDbLine
 10
2015.959709651265
 20
5998.383078964002
 30
0.0
 11
2155.959709651265
 21
5998.383078964002
 31
0.0
  0
LINE
  5
5B9
330
D6
100
AcDbEntity
  8
0
100
AcDbLine
 10
2155.959709651265
 20
5998.383078964002
 30
0.0
 11
2295.959709651265
 21
5998.383078964002
 31
0.0
  0
LINE
  5
5BA
330
D6
100
AcDbEntity
  8
0
100
AcDbLine
 10
1175.959709651265
 20
5998.383078964002
 30
0.0
 11
1175.959709651265
 21
5862.649745630669
 31
0.0
  0
LINE
  5
5BB
330
D6
100
AcDbEntity
  8
0
100
AcDbLine
 10
2295.959709651265
 20
5998.383078964002
 30
0.0
 11
2435.959709651266
 21
5998.383078964002
 31
0.0
  0
LINE
  5
5BC
330
D6
100
AcDbEntity
  8
0
100
AcDbLine
 10
2435.959709651266
 20
5998.383078964002
 30
0.0
 11
2575.959709651265
 21
5998.383078964002
 31
0.0
  0
LINE
  5
5BD
330
D6
100
AcDbEntity
  8
0
100
AcDbLine
 10
2575.959709651265
 20
5998.383078964002
 30
0.0
 11
2715.959709651265
 21
5998.383078964002
 31
0.0
  0
LINE
  5
5BE
330
D6
100
AcDbEntity
  8
0
100
AcDbLine
 10
2295.959709651265
 20
5998.383078964002
 30
0.0
 11
2295.959709651265
 21
5862.649745630669
 31
0.0
  0
LINE
  5
5BF
330
D6
100
AcDbEntity
  8
0
100
AcDbLine
 10
2715.959709651265
 20
5998.383078964002
 30
0.0
 11
2855.959709651266
 21
5998.383078964002
 31
0.0
  0
LINE
  5
5C0
330
D6
100
AcDbEntity
  8
0
100
AcDbLine
 10
2855.959709651266
 20
5998.383078964002
 30
0.0
 11
2995.959709651265
 21
5998.383078964002
 31
0.0
  0
LINE
  5
5C1
330
D6
100
AcDbEntity
  8
0
100
AcDbLine
 10
2715.959709651265
 20
5998.383078964002
 30
0.0
 11
2715.959709651265
 21
5862.649745630669
 31
0.0
  0
LINE
  5
5C2
330
D6
100
AcDbEntity
  8
0
100
AcDbLine
 10
2995.959709651265
 20
5998.383078964002
 30
0.0
 11
2995.959709651265
 21
5862.649745630669
 31
0.0
  0
LINE
  5
5C3
330
D6
100
AcDbEntity
  8
0
100
AcDbLine
 10
933.5597096512671
 20
5862.649745630669
 30
0.0
 11
1073.559709651267
 21
5862.649745630669
 31
0.0
  0
LINE
  5
5C4
330
D6
100
AcDbEntity
  8
0
100
AcDbLine
 10
1073.559709651267
 20
5862.649745630669
 30
0.0
 11
1175.959709651265
 21
5862.649745630669
 31
0.0
  0
LINE
  5
5C5
330
D6
100
AcDbEntity
  8
0
100
AcDbLine
 10
1175.959709651265
 20
5862.649745630669
 30
0.0
 11
1315.959709651265
 21
5862.649745630669
 31
0.0
  0
LINE
  5
5C6
330
D6
100
AcDbEntity
  8
0
100
AcDbLine
 10
1315.959709651265
 20
5862.649745630669
 30
0.0
 11
1455.959709651265
 21
5862.649745630669
 31
0.0
  0
LINE
  5
5C7
330
D6
100
AcDbEntity
  8
0
100
AcDbLine
 10
1455.959709651265
 20
5862.649745630669
 30
0.0
 11
1595.959709651265
 21
5862.649745630669
 31
0.0
  0
LINE
  5
5C8
330
D6
100
AcDbEntity
  8
0
100
AcDbLine
 10
1595.959709651265
 20
5862.649745630669
 30
0.0
 11
1735.959709651265
 21
5862.649745630669
 31
0.0
  0
LINE
  5
5C9
330
D6
100
AcDbEntity
  8
0
100
AcDbLine
 10
1735.959709651265
 20
5862.649745630669
 30
0.0
 11
1875.959709651265
 21
5862.649745630669
 31
0.0
  0
LINE
  5
5CA
330
D6
100
AcDbEntity
  8
0
100
AcDbLine
 10
1875.959709651265
 20
5862.649745630669
 30
0.0
 11
2015.959709651265
 21
5862.649745630669
 31
0.0
  0
LINE
  5
5CB
330
D6
100
AcDbEntity
  8
0
100
AcDbLine
 10
2015.959709651265
 20
5862.649745630669
 30
0.0
 11
2155.959709651265
 21
5862.649745630669
 31
0.0
  0
LINE
  5
5CC
330
D6
100
AcDbEntity
  8
0
100
AcDbLine
 10
2155.959709651265
 20
5862.649745630669
 30
0.0
 11
2295.959709651265
 21
5862.649745630669
 31
0.0
  0
LINE
  5
5CD
330
D6
100
AcDbEntity
  8
0
100
AcDbLine
 10
2295.959709651265
 20
5862.649745630669
 30
0.0
 11
2435.959709651266
 21
5862.649745630669
 31
0.0
  0
LINE
  5
5CE
330
D6
100
AcDbEntity
  8
0
100
AcDbLine
 10
2435.959709651266
 20
5862.649745630669
 30
0.0
 11
2575.959709651265
 21
5862.649745630669
 31
0.0
  0
LINE
  5
5CF
330
D6
100
AcDbEntity
  8
0
100
AcDbLine
 10
2575.959709651265
 20
5862.649745630669
 30
0.0
 11
2715.959709651265
 21
5862.649745630669
 31
0.0
  0
LINE
  5
5D0
330
D6
100
AcDbEntity
  8
0
100
AcDbLine
 10
2715.959709651265
 20
5862.649745630669
 30
0.0
 11
2855.959709651266
 21
5862.649745630669
 31
0.0
  0
LINE
  5
5D1
330
D6
100
AcDbEntity
  8
0
100
AcDbLine
 10
2855.959709651266
 20
5862.649745630669
 30
0.0
 11
2995.959709651265
 21
5862.649745630669
 31
0.0
  0
TEXT
  5
5D2
330
D6
100
AcDbEntity
  8
0
100
AcDbText
 10
969.8907148014539
 20
5901.309363592751
 30
0.0
 40
64.0
  1
記 号
100
AcDbText
  0
TEXT
  5
5D3
330
D6
100
AcDbEntity
  8
0
100
AcDbText
 10
1315.820921587878
 20
5899.467556250436
 30
0.0
 40
64.0
  1
来　　　　　　　　歴
100
AcDbText
  0
TEXT
  5
5D4
330
D6
100
AcDbEntity
  8
0
100
AcDbText
 10
2320.179599100697
 20
5896.794125677494
 30
0.0
 40
64.0
  1
年・月・日
100
AcDbText
  0
TEXT
  5
5D5
330
D6
100
AcDbEntity
  8
0
100
AcDbText
 10
2766.842188838869
 20
5902.28398288209
 30
0.0
 40
64.0
  1
記 入
100
AcDbText
  0
LWPOLYLINE
  5
5D6
330
D6
100
AcDbEntity
  8
0
100
AcDbPolyline
 90
        4
 70
     1
 43
0.0
 10
933.5597096512683
 20
5998.383078964002
 10
8993.559709651268
 20
5998.383078964002
 10
8993.559709651268
 20
398.3830789640024
 10
933.5597096512683
 20
398.3830789640024
  0
LWPOLYLINE
  5
5D7
330
D6
100
AcDbEntity
  8
0
100
AcDbPolyline
 90
        4
 70
     1
 43
0.0
 10
733.5597096512683
 20
6198.383078964003
 10
9193.559709651268
 20
6198.383078964003
 10
9193.559709651268
 20
198.3830789640019
 10
733.5597096512683
 20
198.3830789640019
  0
LINE
  5
5D8
330
D6
100
AcDbEntity
  8
0
100
AcDbLine
 10
6333.559709651268
 20
1348.516412297335
 30
0.0
 11
6333.559709651268
 21
1212.783078964001
 31
0.0
  0
LINE
  5
5D9
330
D6
100
AcDbEntity
  8
0
100
AcDbLine
 10
6613.559709651267
 20
1348.516412297335
 30
0.0
 11
6613.559709651267
 21
1212.783078964001
 31
0.0
  0
LINE
  5
5DA
330
D6
100
AcDbEntity
  8
0
100
AcDbLine
 10
6893.559709651268
 20
1348.516412297335
 30
0.0
 11
6893.559709651268
 21
1212.783078964001
 31
0.0
  0
LINE
  5
5DB
330
D6
100
AcDbEntity
  8
0
100
AcDbLine
 10
7173.559709651268
 20
1348.516412297335
 30
0.0
 11
7173.559709651268
 21
1212.783078964001
 31
0.0
  0
LINE
  5
5DC
330
D6
100
AcDbEntity
  8
0
100
AcDbLine
 10
7453.559709651267
 20
1348.516412297335
 30
0.0
 11
7453.559709651267
 21
1212.783078964001
 31
0.0
  0
LINE
  5
5DD
330
D6
100
AcDbEntity
  8
0
100
AcDbLine
 10
7453.559709651267
 20
1212.783078964001
 30
0.0
 11
7453.559709651267
 21
1077.049745630667
 31
0.0
  0
LINE
  5
5DE
330
D6
100
AcDbEntity
  8
0
100
AcDbLine
 10
7453.559709651267
 20
1077.049745630667
 30
0.0
 11
7453.559709651267
 21
941.3164122973347
 31
0.0
  0
LINE
  5
5DF
330
D6
100
AcDbEntity
  8
0
100
AcDbLine
 10
7453.559709651267
 20
941.3164122973347
 30
0.0
 11
7453.559709651267
 21
805.5830789640021
 31
0.0
  0
LINE
  5
5E0
330
D6
100
AcDbEntity
  8
0
100
AcDbLine
 10
7453.559709651267
 20
805.5830789640021
 30
0.0
 11
7453.559709651267
 21
669.8497456306682
 31
0.0
  0
LINE
  5
5E1
330
D6
100
AcDbEntity
  8
0
100
AcDbLine
 10
7593.559709651268
 20
1348.516412297335
 30
0.0
 11
7593.559709651268
 21
1212.783078964001
 31
0.0
  0
LINE
  5
5E2
330
D6
100
AcDbEntity
  8
0
100
AcDbLine
 10
8993.559709651266
 20
1348.516412297335
 30
0.0
 11
8993.559709651266
 21
1212.783078964001
 31
0.0
  0
LINE
  5
5E3
330
D6
100
AcDbEntity
  8
0
100
AcDbLine
 10
7593.559709651268
 20
1212.783078964001
 30
0.0
 11
7593.559709651268
 21
1077.049745630667
 31
0.0
  0
LINE
  5
5E4
330
D6
100
AcDbEntity
  8
0
100
AcDbLine
 10
8993.559709651266
 20
1212.783078964001
 30
0.0
 11
8993.559709651266
 21
1077.049745630667
 31
0.0
  0
LINE
  5
5E5
330
D6
100
AcDbEntity
  8
0
100
AcDbLine
 10
7593.559709651268
 20
1077.049745630667
 30
0.0
 11
7593.559709651268
 21
941.3164122973347
 31
0.0
  0
LINE
  5
5E6
330
D6
100
AcDbEntity
  8
0
100
AcDbLine
 10
8993.559709651266
 20
1077.049745630667
 30
0.0
 11
8993.559709651266
 21
941.3164122973347
 31
0.0
  0
LINE
  5
5E7
330
D6
100
AcDbEntity
  8
0
100
AcDbLine
 10
7593.559709651268
 20
941.3164122973347
 30
0.0
 11
7593.559709651268
 21
805.5830789640021
 31
0.0
  0
LINE
  5
5E8
330
D6
100
AcDbEntity
  8
0
100
AcDbLine
 10
8993.559709651266
 20
941.3164122973347
 30
0.0
 11
8993.559709651266
 21
805.5830789640021
 31
0.0
  0
LINE
  5
5E9
330
D6
100
AcDbEntity
  8
0
100
AcDbLine
 10
7593.559709651268
 20
805.5830789640021
 30
0.0
 11
7593.559709651268
 21
669.8497456306682
 31
0.0
  0
LINE
  5
5EA
330
D6
100
AcDbEntity
  8
0
100
AcDbLine
 10
8993.559709651266
 20
805.5830789640021
 30
0.0
 11
8993.559709651266
 21
669.8497456306682
 31
0.0
  0
LINE
  5
5EB
330
D6
100
AcDbEntity
  8
0
100
AcDbLine
 10
6333.559709651268
 20
1212.783078964001
 30
0.0
 11
6473.559709651268
 21
1212.783078964001
 31
0.0
  0
LINE
  5
5EC
330
D6
100
AcDbEntity
  8
0
100
AcDbLine
 10
6473.559709651268
 20
1212.783078964001
 30
0.0
 11
6613.559709651267
 21
1212.783078964001
 31
0.0
  0
LINE
  5
5ED
330
D6
100
AcDbEntity
  8
0
100
AcDbLine
 10
6333.559709651268
 20
1212.783078964001
 30
0.0
 11
6333.559709651268
 21
1077.049745630667
 31
0.0
  0
LINE
  5
5EE
330
D6
100
AcDbEntity
  8
0
100
AcDbLine
 10
6333.559709651268
 20
1077.049745630667
 30
0.0
 11
6333.559709651268
 21
941.3164122973347
 31
0.0
  0
LINE
  5
5EF
330
D6
100
AcDbEntity
  8
0
100
AcDbLine
 10
6613.559709651267
 20
1212.783078964001
 30
0.0
 11
6753.559709651267
 21
1212.783078964001
 31
0.0
  0
LINE
  5
5F0
330
D6
100
AcDbEntity
  8
0
100
AcDbLine
 10
6753.559709651267
 20
1212.783078964001
 30
0.0
 11
6893.559709651268
 21
1212.783078964001
 31
0.0
  0
LINE
  5
5F1
330
D6
100
AcDbEntity
  8
0
100
AcDbLine
 10
6613.559709651267
 20
1212.783078964001
 30
0.0
 11
6613.559709651267
 21
1077.049745630667
 31
0.0
  0
LINE
  5
5F2
330
D6
100
AcDbEntity
  8
0
100
AcDbLine
 10
6613.559709651267
 20
1077.049745630667
 30
0.0
 11
6613.559709651267
 21
941.3164122973347
 31
0.0
  0
LINE
  5
5F3
330
D6
100
AcDbEntity
  8
0
100
AcDbLine
 10
6893.559709651268
 20
1212.783078964001
 30
0.0
 11
7033.559709651267
 21
1212.783078964001
 31
0.0
  0
LINE
  5
5F4
330
D6
100
AcDbEntity
  8
0
100
AcDbLine
 10
7033.559709651267
 20
1212.783078964001
 30
0.0
 11
7173.559709651268
 21
1212.783078964001
 31
0.0
  0
LINE
  5
5F5
330
D6
100
AcDbEntity
  8
0
100
AcDbLine
 10
6893.559709651268
 20
1212.783078964001
 30
0.0
 11
6893.559709651268
 21
1077.049745630667
 31
0.0
  0
LINE
  5
5F6
330
D6
100
AcDbEntity
  8
0
100
AcDbLine
 10
6893.559709651268
 20
1077.049745630667
 30
0.0
 11
6893.559709651268
 21
941.3164122973347
 31
0.0
  0
LINE
  5
5F7
330
D6
100
AcDbEntity
  8
0
100
AcDbLine
 10
7173.559709651268
 20
1212.783078964001
 30
0.0
 11
7313.559709651269
 21
1212.783078964001
 31
0.0
  0
LINE
  5
5F8
330
D6
100
AcDbEntity
  8
0
100
AcDbLine
 10
7313.559709651269
 20
1212.783078964001
 30
0.0
 11
7453.559709651267
 21
1212.783078964001
 31
0.0
  0
LINE
  5
5F9
330
D6
100
AcDbEntity
  8
0
100
AcDbLine
 10
7173.559709651268
 20
1212.783078964001
 30
0.0
 11
7173.559709651268
 21
1077.049745630667
 31
0.0
  0
LINE
  5
5FA
330
D6
100
AcDbEntity
  8
0
100
AcDbLine
 10
7173.559709651268
 20
1077.049745630667
 30
0.0
 11
7173.559709651268
 21
941.3164122973347
 31
0.0
  0
LINE
  5
5FB
330
D6
100
AcDbEntity
  8
0
100
AcDbLine
 10
6333.559709651268
 20
941.3164122973347
 30
0.0
 11
6473.559709651268
 21
941.3164122973347
 31
0.0
  0
LINE
  5
5FC
330
D6
100
AcDbEntity
  8
0
100
AcDbLine
 10
6333.559709651268
 20
941.3164122973347
 30
0.0
 11
6333.559709651268
 21
805.5830789640021
 31
0.0
  0
LINE
  5
5FD
330
D6
100
AcDbEntity
  8
0
100
AcDbLine
 10
6333.559709651268
 20
805.5830789640021
 30
0.0
 11
6333.559709651268
 21
669.8497456306682
 31
0.0
  0
LINE
  5
5FE
330
D6
100
AcDbEntity
  8
0
100
AcDbLine
 10
6473.559709651268
 20
941.3164122973347
 30
0.0
 11
6613.559709651267
 21
941.3164122973347
 31
0.0
  0
LINE
  5
5FF
330
D6
100
AcDbEntity
  8
0
100
AcDbLine
 10
6613.559709651267
 20
941.3164122973347
 30
0.0
 11
6753.559709651267
 21
941.3164122973347
 31
0.0
  0
LINE
  5
600
330
D6
100
AcDbEntity
  8
0
100
AcDbLine
 10
6753.559709651267
 20
941.3164122973347
 30
0.0
 11
6893.559709651268
 21
941.3164122973347
 31
0.0
  0
LINE
  5
601
330
D6
100
AcDbEntity
  8
0
100
AcDbLine
 10
6473.559709651268
 20
941.3164122973347
 30
0.0
 11
6473.559709651268
 21
805.5830789640021
 31
0.0
  0
LINE
  5
602
330
D6
100
AcDbEntity
  8
0
100
AcDbLine
 10
6473.559709651268
 20
805.5830789640021
 30
0.0
 11
6473.559709651268
 21
669.8497456306682
 31
0.0
  0
LINE
  5
603
330
D6
100
AcDbEntity
  8
0
100
AcDbLine
 10
6893.559709651268
 20
941.3164122973347
 30
0.0
 11
7033.559709651267
 21
941.3164122973347
 31
0.0
  0
LINE
  5
604
330
D6
100
AcDbEntity
  8
0
100
AcDbLine
 10
6893.559709651268
 20
941.3164122973347
 30
0.0
 11
6893.559709651268
 21
805.5830789640021
 31
0.0
  0
LINE
  5
605
330
D6
100
AcDbEntity
  8
0
100
AcDbLine
 10
6893.559709651268
 20
805.5830789640021
 30
0.0
 11
6893.559709651268
 21
669.8497456306682
 31
0.0
  0
LINE
  5
606
330
D6
100
AcDbEntity
  8
0
100
AcDbLine
 10
7033.559709651267
 20
941.3164122973347
 30
0.0
 11
7173.559709651268
 21
941.3164122973347
 31
0.0
  0
LINE
  5
607
330
D6
100
AcDbEntity
  8
0
100
AcDbLine
 10
7173.559709651268
 20
941.3164122973347
 30
0.0
 11
7313.559709651269
 21
941.3164122973347
 31
0.0
  0
LINE
  5
608
330
D6
100
AcDbEntity
  8
0
100
AcDbLine
 10
7313.559709651269
 20
941.3164122973347
 30
0.0
 11
7453.559709651267
 21
941.3164122973347
 31
0.0
  0
LINE
  5
609
330
D6
100
AcDbEntity
  8
0
100
AcDbLine
 10
7033.559709651267
 20
941.3164122973347
 30
0.0
 11
7033.559709651267
 21
805.5830789640021
 31
0.0
  0
LINE
  5
60A
330
D6
100
AcDbEntity
  8
0
100
AcDbLine
 10
7033.559709651267
 20
805.5830789640021
 30
0.0
 11
7033.559709651267
 21
669.8497456306682
 31
0.0
  0
LINE
  5
60B
330
D6
100
AcDbEntity
  8
0
100
AcDbLine
 10
6333.559709651268
 20
669.8497456306682
 30
0.0
 11
6473.559709651268
 21
669.8497456306682
 31
0.0
  0
LINE
  5
60C
330
D6
100
AcDbEntity
  8
0
100
AcDbLine
 10
6333.559709651268
 20
398.3830789640018
 30
0.0
 11
6473.559709651268
 21
398.3830789640018
 31
0.0
  0
LINE
  5
60D
330
D6
100
AcDbEntity
  8
0
100
AcDbLine
 10
6473.559709651268
 20
669.8497456306682
 30
0.0
 11
6613.559709651267
 21
669.8497456306682
 31
0.0
  0
LINE
  5
60E
330
D6
100
AcDbEntity
  8
0
100
AcDbLine
 10
6473.559709651268
 20
398.3830789640018
 30
0.0
 11
6613.559709651267
 21
398.3830789640018
 31
0.0
  0
LINE
  5
60F
330
D6
100
AcDbEntity
  8
0
100
AcDbLine
 10
6613.559709651267
 20
669.8497456306682
 30
0.0
 11
6753.559709651267
 21
669.8497456306682
 31
0.0
  0
LINE
  5
610
330
D6
100
AcDbEntity
  8
0
100
AcDbLine
 10
6613.559709651267
 20
398.3830789640018
 30
0.0
 11
6753.559709651267
 21
398.3830789640018
 31
0.0
  0
LINE
  5
611
330
D6
100
AcDbEntity
  8
0
100
AcDbLine
 10
6753.559709651267
 20
669.8497456306682
 30
0.0
 11
6893.559709651268
 21
669.8497456306682
 31
0.0
  0
LINE
  5
612
330
D6
100
AcDbEntity
  8
0
100
AcDbLine
 10
6753.559709651267
 20
398.3830789640018
 30
0.0
 11
6893.559709651268
 21
398.3830789640018
 31
0.0
  0
LINE
  5
613
330
D6
100
AcDbEntity
  8
0
100
AcDbLine
 10
6893.559709651268
 20
669.8497456306682
 30
0.0
 11
7033.559709651267
 21
669.8497456306682
 31
0.0
  0
LINE
  5
614
330
D6
100
AcDbEntity
  8
0
100
AcDbLine
 10
6893.559709651268
 20
398.3830789640018
 30
0.0
 11
7033.559709651267
 21
398.3830789640018
 31
0.0
  0
LINE
  5
615
330
D6
100
AcDbEntity
  8
0
100
AcDbLine
 10
7033.559709651267
 20
669.8497456306682
 30
0.0
 11
7173.559709651268
 21
669.8497456306682
 31
0.0
  0
LINE
  5
616
330
D6
100
AcDbEntity
  8
0
100
AcDbLine
 10
7033.559709651267
 20
398.3830789640018
 30
0.0
 11
7173.559709651268
 21
398.3830789640018
 31
0.0
  0
LINE
  5
617
330
D6
100
AcDbEntity
  8
0
100
AcDbLine
 10
7173.559709651268
 20
669.8497456306682
 30
0.0
 11
7313.559709651269
 21
669.8497456306682
 31
0.0
  0
LINE
  5
618
330
D6
100
AcDbEntity
  8
0
100
AcDbLine
 10
7173.559709651268
 20
398.3830789640018
 30
0.0
 11
7313.559709651269
 21
398.3830789640018
 31
0.0
  0
LINE
  5
619
330
D6
100
AcDbEntity
  8
0
100
AcDbLine
 10
7313.559709651269
 20
669.8497456306682
 30
0.0
 11
7453.559709651267
 21
669.8497456306682
 31
0.0
  0
LINE
  5
61A
330
D6
100
AcDbEntity
  8
0
100
AcDbLine
 10
7313.559709651269
 20
398.3830789640018
 30
0.0
 11
7453.559709651267
 21
398.3830789640018
 31
0.0
  0
LINE
  5
61B
330
D6
100
AcDbEntity
  8
0
100
AcDbLine
 10
6333.559709651268
 20
669.8497456306682
 30
0.0
 11
6333.559709651268
 21
534.1164122973345
 31
0.0
  0
LINE
  5
61C
330
D6
100
AcDbEntity
  8
0
100
AcDbLine
 10
6333.559709651268
 20
534.1164122973345
 30
0.0
 11
6333.559709651268
 21
398.3830789640018
 31
0.0
  0
LINE
  5
61D
330
D6
100
AcDbEntity
  8
0
100
AcDbLine
 10
7453.559709651267
 20
669.8497456306682
 30
0.0
 11
7593.559709651268
 21
669.8497456306682
 31
0.0
  0
LINE
  5
61E
330
D6
100
AcDbEntity
  8
0
100
AcDbLine
 10
7453.559709651267
 20
398.3830789640018
 30
0.0
 11
7593.559709651268
 21
398.3830789640018
 31
0.0
  0
LINE
  5
61F
330
D6
100
AcDbEntity
  8
0
100
AcDbLine
 10
7453.559709651267
 20
669.8497456306682
 30
0.0
 11
7453.559709651267
 21
534.1164122973345
 31
0.0
  0
LINE
  5
620
330
D6
100
AcDbEntity
  8
0
100
AcDbLine
 10
7453.559709651267
 20
534.1164122973345
 30
0.0
 11
7453.559709651267
 21
398.3830789640018
 31
0.0
  0
LINE
  5
621
330
D6
100
AcDbEntity
  8
0
100
AcDbLine
 10
7593.559709651268
 20
669.8497456306682
 30
0.0
 11
7733.559709651267
 21
669.8497456306682
 31
0.0
  0
LINE
  5
622
330
D6
100
AcDbEntity
  8
0
100
AcDbLine
 10
7593.559709651268
 20
398.3830789640018
 30
0.0
 11
7733.559709651267
 21
398.3830789640018
 31
0.0
  0
LINE
  5
623
330
D6
100
AcDbEntity
  8
0
100
AcDbLine
 10
7733.559709651267
 20
669.8497456306682
 30
0.0
 11
7873.559709651267
 21
669.8497456306682
 31
0.0
  0
LINE
  5
624
330
D6
100
AcDbEntity
  8
0
100
AcDbLine
 10
7733.559709651267
 20
398.3830789640018
 30
0.0
 11
7873.559709651267
 21
398.3830789640018
 31
0.0
  0
LINE
  5
625
330
D6
100
AcDbEntity
  8
0
100
AcDbLine
 10
7873.559709651267
 20
669.8497456306682
 30
0.0
 11
8013.559709651268
 21
669.8497456306682
 31
0.0
  0
LINE
  5
626
330
D6
100
AcDbEntity
  8
0
100
AcDbLine
 10
7873.559709651267
 20
398.3830789640018
 30
0.0
 11
8013.559709651268
 21
398.3830789640018
 31
0.0
  0
LINE
  5
627
330
D6
100
AcDbEntity
  8
0
100
AcDbLine
 10
8013.559709651268
 20
669.8497456306682
 30
0.0
 11
8153.559709651267
 21
669.8497456306682
 31
0.0
  0
LINE
  5
628
330
D6
100
AcDbEntity
  8
0
100
AcDbLine
 10
8013.559709651268
 20
398.3830789640018
 30
0.0
 11
8153.559709651267
 21
398.3830789640018
 31
0.0
  0
LINE
  5
629
330
D6
100
AcDbEntity
  8
0
100
AcDbLine
 10
8153.559709651267
 20
669.8497456306682
 30
0.0
 11
8293.559709651267
 21
669.8497456306682
 31
0.0
  0
LINE
  5
62A
330
D6
100
AcDbEntity
  8
0
100
AcDbLine
 10
8153.559709651267
 20
398.3830789640018
 30
0.0
 11
8293.559709651267
 21
398.3830789640018
 31
0.0
  0
LINE
  5
62B
330
D6
100
AcDbEntity
  8
0
100
AcDbLine
 10
8293.559709651267
 20
669.8497456306682
 30
0.0
 11
8433.559709651268
 21
669.8497456306682
 31
0.0
  0
LINE
  5
62C
330
D6
100
AcDbEntity
  8
0
100
AcDbLine
 10
8293.559709651267
 20
398.3830789640018
 30
0.0
 11
8433.559709651268
 21
398.3830789640018
 31
0.0
  0
LINE
  5
62D
330
D6
100
AcDbEntity
  8
0
100
AcDbLine
 10
8433.559709651268
 20
669.8497456306682
 30
0.0
 11
8573.559709651267
 21
669.8497456306682
 31
0.0
  0
LINE
  5
62E
330
D6
100
AcDbEntity
  8
0
100
AcDbLine
 10
8433.559709651268
 20
398.3830789640018
 30
0.0
 11
8573.559709651267
 21
398.3830789640018
 31
0.0
  0
LINE
  5
62F
330
D6
100
AcDbEntity
  8
0
100
AcDbLine
 10
8573.559709651267
 20
669.8497456306682
 30
0.0
 11
8713.559709651267
 21
669.8497456306682
 31
0.0
  0
LINE
  5
630
330
D6
100
AcDbEntity
  8
0
100
AcDbLine
 10
8573.559709651267
 20
398.3830789640018
 30
0.0
 11
8713.559709651267
 21
398.3830789640018
 31
0.0
  0
LINE
  5
631
330
D6
100
AcDbEntity
  8
0
100
AcDbLine
 10
8713.559709651267
 20
669.8497456306682
 30
0.0
 11
8853.559709651266
 21
669.8497456306682
 31
0.0
  0
LINE
  5
632
330
D6
100
AcDbEntity
  8
0
100
AcDbLine
 10
8713.559709651267
 20
398.3830789640018
 30
0.0
 11
8853.559709651266
 21
398.3830789640018
 31
0.0
  0
LINE
  5
633
330
D6
100
AcDbEntity
  8
0
100
AcDbLine
 10
8853.559709651266
 20
669.8497456306682
 30
0.0
 11
8993.559709651266
 21
669.8497456306682
 31
0.0
  0
LINE
  5
634
330
D6
100
AcDbEntity
  8
0
100
AcDbLine
 10
8853.559709651266
 20
398.3830789640018
 30
0.0
 11
8993.559709651266
 21
398.3830789640018
 31
0.0
  0
LINE
  5
635
330
D6
100
AcDbEntity
  8
0
100
AcDbLine
 10
7593.559709651268
 20
669.8497456306682
 30
0.0
 11
7593.559709651268
 21
534.1164122973345
 31
0.0
  0
LINE
  5
636
330
D6
100
AcDbEntity
  8
0
100
AcDbLine
 10
8993.559709651266
 20
669.8497456306682
 30
0.0
 11
8993.559709651266
 21
534.1164122973345
 31
0.0
  0
LINE
  5
637
330
D6
100
AcDbEntity
  8
0
100
AcDbLine
 10
7593.559709651268
 20
534.1164122973345
 30
0.0
 11
7593.559709651268
 21
398.3830789640018
 31
0.0
  0
LINE
  5
638
330
D6
100
AcDbEntity
  8
0
100
AcDbLine
 10
8993.559709651266
 20
534.1164122973345
 30
0.0
 11
8993.559709651266
 21
398.3830789640018
 31
0.0
  0
MTEXT
  5
639
330
D6
100
AcDbEntity
  8
0
100
AcDbMText
 10
6355.829425781227
 20
597.7990137178458
 30
0.0
 40
30.0
 41
280.0
 71
     1
 72
     5
  1
HOKKAIDO
 73
     1
 44
1.0
  0
MTEXT
  5
63A
330
D6
100
AcDbEntity
  8
0
100
AcDbMText
 10
6353.708189440254
 20
529.8780698941473
 30
0.0
 40
60.0
 41
280.0
 71
     1
 72
     5
  1
SUIKO
 73
     1
 44
1.0
  0
MTEXT
  5
63B
330
D6
100
AcDbEntity
  8
0
100
AcDbMText
 10
6643.106427344443
 20
551.52297973642
 30
0.0
 40
60.0
 41
893.3007031411397
 71
     1
 72
     5
  1
北海道スイコー株式会社
 73
     1
 44
1.0
  0
MTEXT
  5
63C
330
D6
100
AcDbEntity
  8
0
100
AcDbMText
 10
7486.288009144515
 20
630.6086442281921
 30
0.0
 40
70.0
 41
140.0
 71
     1
 72
     5
  1
図
 73
     1
 44
1.0
  0
MTEXT
  5
63D
330
D6
100
AcDbEntity
  8
0
100
AcDbMText
 10
7483.015375122156
 20
504.6855862454676
 30
0.0
 40
70.0
 41
140.0
 71
     1
 72
     5
  1
番
 73
     1
 44
1.0
  0
MTEXT
  5
63E
330
D6
100
AcDbEntity
  8
0
100
AcDbMText
 10
7483.015375122156
 20
1212.783078964001
 30
0.0
 40
70.0
 41
140.0
 71
     1
 72
     5
  1
名
 73
     1
 44
1.0
  0
MTEXT
  5
63F
330
D6
100
AcDbEntity
  8
0
100
AcDbMText
 10
7482.572456164693
 20
878.2182596520824
 30
0.0
 40
70.0
 41
140.0
 71
     1
 72
     5
  1
称
 73
     1
 44
1.0
  0
MTEXT
  5
640
330
D6
100
AcDbEntity
  8
0
100
AcDbMText
 10
6376.106890846455
 20
934.7762287302858
 30
0.0
 40
50.0
 41
140.0
 71
     1
 72
     5
  1
年
 73
     1
 44
1.0
  0
MTEXT
  5
641
330
D6
100
AcDbEntity
  8
0
100
AcDbMText
 10
6399.016635182666
 20
879.9899291977535
 30
0.0
 40
50.0
 41
140.0
 71
     1
 72
     5
  1
・
 73
     1
 44
1.0
  0
MTEXT
  5
642
330
D6
100
AcDbEntity
  8
0
100
AcDbMText
 10
6372.833930279117
 20
835.0139050158322
 30
0.0
 40
50.0
 41
140.0
 71
     1
 72
     5
  1
月
 73
     1
 44
1.0
  0
MTEXT
  5
643
330
D6
100
AcDbEntity
  8
0
100
AcDbMText
 10
6395.743674615402
 20
790.0378808338728
 30
0.0
 40
50.0
 41
140.0
 71
     1
 72
     5
  1
・
 73
     1
 44
1.0
  0
MTEXT
  5
644
330
D6
100
AcDbEntity
  8
0
100
AcDbMText
 10
6382.652485436079
 20
744.2565958644199
 30
0.0
 40
50.0
 41
140.0
 71
     1
 72
     5
  1
日
 73
     1
 44
1.0
  0
MTEXT
  5
645
330
D6
100
AcDbEntity
  8
0
100
AcDbMText
 10
6925.29485887913
 20
905.1690504146581
 30
0.0
 40
60.0
 41
140.0
 71
     1
 72
     5
  1
尺
 73
     1
 44
1.0
  0
MTEXT
  5
646
330
D6
100
AcDbEntity
  8
0
100
AcDbMText
 10
6925.177494486728
 20
784.6765576739263
 30
0.0
 40
60.0
 41
140.0
 71
     1
 72
     5
  1
度
 73
     1
 44
1.0
  0
MTEXT
  5
647
330
D6
100
AcDbEntity
  8
0
100
AcDbMText
 10
6363.015701667205
 20
1312.545402678456
 30
0.0
 40
60.0
 41
280.0
 71
     1
 72
     5
  1
設　計
 73
     1
 44
1.0
  0
MTEXT
  5
648
330
D6
100
AcDbEntity
  8
0
100
AcDbMText
 10
6639.742414554817
 20
1312.54540267842
 30
0.0
 40
60.0
 41
280.0
 71
     1
 72
     5
  1
製　図
 73
     1
 44
1.0
  0
MTEXT
  5
649
330
D6
100
AcDbEntity
  8
0
100
AcDbMText
 10
6919.742414554818
 20
1315.815494461981
 30
0.0
 40
60.0
 41
280.0
 71
     1
 72
     5
  1
検　図
 73
     1
 44
1.0
  0
MTEXT
  5
64A
330
D6
100
AcDbEntity
  8
0
100
AcDbMText
 10
7206.288009144443
 20
1312.545402678456
 30
0.0
 40
60.0
 41
280.0
 71
     1
 72
     5
  1
承　認
 73
     1
 44
1.0
  0
LINE
  5
64B
330
D6
100
AcDbEntity
  8
0
100
AcDbLine
 10
6333.559709651268
 20
1348.516412297335
 30
0.0
 11
6473.559709651268
 21
1348.516412297335
 31
0.0
  0
LINE
  5
64C
330
D6
100
AcDbEntity
  8
0
100
AcDbLine
 10
6473.559709651268
 20
1348.516412297335
 30
0.0
 11
6613.559709651267
 21
1348.516412297335
 31
0.0
  0
LINE
  5
64D
330
D6
100
AcDbEntity
  8
0
100
AcDbLine
 10
6613.559709651267
 20
1348.516412297335
 30
0.0
 11
6753.559709651267
 21
1348.516412297335
 31
0.0
  0
LINE
  5
64E
330
D6
100
AcDbEntity
  8
0
100
AcDbLine
 10
6753.559709651267
 20
1348.516412297335
 30
0.0
 11
6893.559709651268
 21
1348.516412297335
 31
0.0
  0
LINE
  5
64F
330
D6
100
AcDbEntity
  8
0
100
AcDbLine
 10
6893.559709651268
 20
1348.516412297335
 30
0.0
 11
7033.559709651267
 21
1348.516412297335
 31
0.0
  0
LINE
  5
650
330
D6
100
AcDbEntity
  8
0
100
AcDbLine
 10
7033.559709651267
 20
1348.516412297335
 30
0.0
 11
7173.559709651268
 21
1348.516412297335
 31
0.0
  0
LINE
  5
651
330
D6
100
AcDbEntity
  8
0
100
AcDbLine
 10
7173.559709651268
 20
1348.516412297335
 30
0.0
 11
7313.559709651269
 21
1348.516412297335
 31
0.0
  0
LINE
  5
652
330
D6
100
AcDbEntity
  8
0
100
AcDbLine
 10
7313.559709651269
 20
1348.516412297335
 30
0.0
 11
7453.559709651267
 21
1348.516412297335
 31
0.0
  0
LINE
  5
653
330
D6
100
AcDbEntity
  8
0
100
AcDbLine
 10
7453.559709651267
 20
1348.516412297335
 30
0.0
 11
7593.559709651268
 21
1348.516412297335
 31
0.0
  0
LINE
  5
654
330
D6
100
AcDbEntity
  8
0
100
AcDbLine
 10
7593.559709651268
 20
1348.516412297335
 30
0.0
 11
7733.559709651267
 21
1348.516412297335
 31
0.0
  0
LINE
  5
655
330
D6
100
AcDbEntity
  8
0
100
AcDbLine
 10
7733.559709651267
 20
1348.516412297335
 30
0.0
 11
7873.559709651267
 21
1348.516412297335
 31
0.0
  0
LINE
  5
656
330
D6
100
AcDbEntity
  8
0
100
AcDbLine
 10
7873.559709651267
 20
1348.516412297335
 30
0.0
 11
8013.559709651268
 21
1348.516412297335
 31
0.0
  0
LINE
  5
657
330
D6
100
AcDbEntity
  8
0
100
AcDbLine
 10
8013.559709651268
 20
1348.516412297335
 30
0.0
 11
8153.559709651267
 21
1348.516412297335
 31
0.0
  0
LINE
  5
658
330
D6
100
AcDbEntity
  8
0
100
AcDbLine
 10
8153.559709651267
 20
1348.516412297335
 30
0.0
 11
8293.559709651267
 21
1348.516412297335
 31
0.0
  0
LINE
  5
659
330
D6
100
AcDbEntity
  8
0
100
AcDbLine
 10
8293.559709651267
 20
1348.516412297335
 30
0.0
 11
8433.559709651268
 21
1348.516412297335
 31
0.0
  0
LINE
  5
65A
330
D6
100
AcDbEntity
  8
0
100
AcDbLine
 10
8433.559709651268
 20
1348.516412297335
 30
0.0
 11
8573.559709651267
 21
1348.516412297335
 31
0.0
  0
LINE
  5
65B
330
D6
100
AcDbEntity
  8
0
100
AcDbLine
 10
8573.559709651267
 20
1348.516412297335
 30
0.0
 11
8713.559709651267
 21
1348.516412297335
 31
0.0
  0
LINE
  5
65C
330
D6
100
AcDbEntity
  8
0
100
AcDbLine
 10
8713.559709651267
 20
1348.516412297335
 30
0.0
 11
8853.559709651266
 21
1348.516412297335
 31
0.0
  0
LINE
  5
65D
330
D6
100
AcDbEntity
  8
0
100
AcDbLine
 10
8853.559709651266
 20
1348.516412297335
 30
0.0
 11
8993.559709651266
 21
1348.516412297335
 31
0.0
  0
LINE
  5
65E
330
D6
100
AcDbEntity
  8
0
100
AcDbLine
 10
6333.559709651268
 20
1628.516412297335
 30
0.0
 11
6473.559709651268
 21
1628.516412297335
 31
0.0
  0
LINE
  5
65F
330
D6
100
AcDbEntity
  8
0
100
AcDbLine
 10
6333.559709651268
 20
1348.516412297335
 30
0.0
 11
6473.559709651268
 21
1348.516412297335
 31
0.0
  0
LINE
  5
660
330
D6
100
AcDbEntity
  8
0
100
AcDbLine
 10
6473.559709651268
 20
1628.516412297335
 30
0.0
 11
6613.559709651267
 21
1628.516412297335
 31
0.0
  0
LINE
  5
661
330
D6
100
AcDbEntity
  8
0
100
AcDbLine
 10
6473.559709651268
 20
1348.516412297335
 30
0.0
 11
6613.559709651267
 21
1348.516412297335
 31
0.0
  0
LINE
  5
662
330
D6
100
AcDbEntity
  8
0
100
AcDbLine
 10
6613.559709651267
 20
1628.516412297335
 30
0.0
 11
6753.559709651267
 21
1628.516412297335
 31
0.0
  0
LINE
  5
663
330
D6
100
AcDbEntity
  8
0
100
AcDbLine
 10
6613.559709651267
 20
1348.516412297335
 30
0.0
 11
6753.559709651267
 21
1348.516412297335
 31
0.0
  0
LINE
  5
664
330
D6
100
AcDbEntity
  8
0
100
AcDbLine
 10
6753.559709651267
 20
1628.516412297335
 30
0.0
 11
6893.559709651268
 21
1628.516412297335
 31
0.0
  0
LINE
  5
665
330
D6
100
AcDbEntity
  8
0
100
AcDbLine
 10
6753.559709651267
 20
1348.516412297335
 30
0.0
 11
6893.559709651268
 21
1348.516412297335
 31
0.0
  0
LINE
  5
666
330
D6
100
AcDbEntity
  8
0
100
AcDbLine
 10
6333.559709651268
 20
1628.516412297335
 30
0.0
 11
6333.559709651268
 21
1488.516412297335
 31
0.0
  0
LINE
  5
667
330
D6
100
AcDbEntity
  8
0
100
AcDbLine
 10
6333.559709651268
 20
1488.516412297335
 30
0.0
 11
6333.559709651268
 21
1348.516412297335
 31
0.0
  0
LINE
  5
668
330
D6
100
AcDbEntity
  8
0
100
AcDbLine
 10
6893.559709651268
 20
1628.516412297335
 30
0.0
 11
7033.559709651267
 21
1628.516412297335
 31
0.0
  0
LINE
  5
669
330
D6
100
AcDbEntity
  8
0
100
AcDbLine
 10
6893.559709651268
 20
1348.516412297335
 30
0.0
 11
7033.559709651267
 21
1348.516412297335
 31
0.0
  0
LINE
  5
66A
330
D6
100
AcDbEntity
  8
0
100
AcDbLine
 10
7033.559709651267
 20
1628.516412297335
 30
0.0
 11
7173.559709651268
 21
1628.516412297335
 31
0.0
  0
LINE
  5
66B
330
D6
100
AcDbEntity
  8
0
100
AcDbLine
 10
7033.559709651267
 20
1348.516412297335
 30
0.0
 11
7173.559709651268
 21
1348.516412297335
 31
0.0
  0
LINE
  5
66C
330
D6
100
AcDbEntity
  8
0
100
AcDbLine
 10
7173.559709651268
 20
1628.516412297335
 30
0.0
 11
7313.559709651269
 21
1628.516412297335
 31
0.0
  0
LINE
  5
66D
330
D6
100
AcDbEntity
  8
0
100
AcDbLine
 10
7173.559709651268
 20
1348.516412297335
 30
0.0
 11
7313.559709651269
 21
1348.516412297335
 31
0.0
  0
LINE
  5
66E
330
D6
100
AcDbEntity
  8
0
100
AcDbLine
 10
7313.559709651269
 20
1628.516412297335
 30
0.0
 11
7453.559709651267
 21
1628.516412297335
 31
0.0
  0
LINE
  5
66F
330
D6
100
AcDbEntity
  8
0
100
AcDbLine
 10
7313.559709651269
 20
1348.516412297335
 30
0.0
 11
7453.559709651267
 21
1348.516412297335
 31
0.0
  0
LINE
  5
670
330
D6
100
AcDbEntity
  8
0
100
AcDbLine
 10
7453.559709651267
 20
1628.516412297335
 30
0.0
 11
7593.559709651268
 21
1628.516412297335
 31
0.0
  0
LINE
  5
671
330
D6
100
AcDbEntity
  8
0
100
AcDbLine
 10
7453.559709651267
 20
1348.516412297335
 30
0.0
 11
7593.559709651268
 21
1348.516412297335
 31
0.0
  0
LINE
  5
672
330
D6
100
AcDbEntity
  8
0
100
AcDbLine
 10
7593.559709651268
 20
1628.516412297335
 30
0.0
 11
7733.559709651267
 21
1628.516412297335
 31
0.0
  0
LINE
  5
673
330
D6
100
AcDbEntity
  8
0
100
AcDbLine
 10
7593.559709651268
 20
1348.516412297335
 30
0.0
 11
7733.559709651267
 21
1348.516412297335
 31
0.0
  0
LINE
  5
674
330
D6
100
AcDbEntity
  8
0
100
AcDbLine
 10
7733.559709651267
 20
1628.516412297335
 30
0.0
 11
7873.559709651267
 21
1628.516412297335
 31
0.0
  0
LINE
  5
675
330
D6
100
AcDbEntity
  8
0
100
AcDbLine
 10
7733.559709651267
 20
1348.516412297335
 30
0.0
 11
7873.559709651267
 21
1348.516412297335
 31
0.0
  0
LINE
  5
676
330
D6
100
AcDbEntity
  8
0
100
AcDbLine
 10
7873.559709651267
 20
1628.516412297335
 30
0.0
 11
8013.559709651268
 21
1628.516412297335
 31
0.0
  0
LINE
  5
677
330
D6
100
AcDbEntity
  8
0
100
AcDbLine
 10
7873.559709651267
 20
1348.516412297335
 30
0.0
 11
8013.559709651268
 21
1348.516412297335
 31
0.0
  0
LINE
  5
678
330
D6
100
AcDbEntity
  8
0
100
AcDbLine
 10
8013.559709651268
 20
1628.516412297335
 30
0.0
 11
8153.559709651267
 21
1628.516412297335
 31
0.0
  0
LINE
  5
679
330
D6
100
AcDbEntity
  8
0
100
AcDbLine
 10
8013.559709651268
 20
1348.516412297335
 30
0.0
 11
8153.559709651267
 21
1348.516412297335
 31
0.0
  0
LINE
  5
67A
330
D6
100
AcDbEntity
  8
0
100
AcDbLine
 10
8153.559709651267
 20
1628.516412297335
 30
0.0
 11
8293.559709651267
 21
1628.516412297335
 31
0.0
  0
LINE
  5
67B
330
D6
100
AcDbEntity
  8
0
100
AcDbLine
 10
8153.559709651267
 20
1348.516412297335
 30
0.0
 11
8293.559709651267
 21
1348.516412297335
 31
0.0
  0
LINE
  5
67C
330
D6
100
AcDbEntity
  8
0
100
AcDbLine
 10
8293.559709651267
 20
1628.516412297335
 30
0.0
 11
8433.559709651268
 21
1628.516412297335
 31
0.0
  0
LINE
  5
67D
330
D6
100
AcDbEntity
  8
0
100
AcDbLine
 10
8293.559709651267
 20
1348.516412297335
 30
0.0
 11
8433.559709651268
 21
1348.516412297335
 31
0.0
  0
LINE
  5
67E
330
D6
100
AcDbEntity
  8
0
100
AcDbLine
 10
8433.559709651268
 20
1628.516412297335
 30
0.0
 11
8573.559709651267
 21
1628.516412297335
 31
0.0
  0
LINE
  5
67F
330
D6
100
AcDbEntity
  8
0
100
AcDbLine
 10
8433.559709651268
 20
1348.516412297335
 30
0.0
 11
8573.559709651267
 21
1348.516412297335
 31
0.0
  0
LINE
  5
680
330
D6
100
AcDbEntity
  8
0
100
AcDbLine
 10
8573.559709651267
 20
1628.516412297335
 30
0.0
 11
8713.559709651267
 21
1628.516412297335
 31
0.0
  0
LINE
  5
681
330
D6
100
AcDbEntity
  8
0
100
AcDbLine
 10
8573.559709651267
 20
1348.516412297335
 30
0.0
 11
8713.559709651267
 21
1348.516412297335
 31
0.0
  0
LINE
  5
682
330
D6
100
AcDbEntity
  8
0
100
AcDbLine
 10
8713.559709651267
 20
1628.516412297335
 30
0.0
 11
8853.559709651266
 21
1628.516412297335
 31
0.0
  0
LINE
  5
683
330
D6
100
AcDbEntity
  8
0
100
AcDbLine
 10
8713.559709651267
 20
1348.516412297335
 30
0.0
 11
8853.559709651266
 21
1348.516412297335
 31
0.0
  0
LINE
  5
684
330
D6
100
AcDbEntity
  8
0
100
AcDbLine
 10
8853.559709651266
 20
1628.516412297335
 30
0.0
 11
8993.559709651266
 21
1628.516412297335
 31
0.0
  0
LINE
  5
685
330
D6
100
AcDbEntity
  8
0
100
AcDbLine
 10
8853.559709651266
 20
1348.516412297335
 30
0.0
 11
8993.559709651266
 21
1348.516412297335
 31
0.0
  0
LINE
  5
686
330
D6
100
AcDbEntity
  8
0
100
AcDbLine
 10
6893.559709651268
 20
1628.516412297335
 30
0.0
 11
6893.559709651268
 21
1488.516412297335
 31
0.0
  0
LINE
  5
687
330
D6
100
AcDbEntity
  8
0
100
AcDbLine
 10
8993.559709651266
 20
1628.516412297335
 30
0.0
 11
8993.559709651266
 21
1488.516412297335
 31
0.0
  0
LINE
  5
688
330
D6
100
AcDbEntity
  8
0
100
AcDbLine
 10
6893.559709651268
 20
1488.516412297335
 30
0.0
 11
6893.559709651268
 21
1348.516412297335
 31
0.0
  0
LINE
  5
689
330
D6
100
AcDbEntity
  8
0
100
AcDbLine
 10
8993.559709651266
 20
1488.516412297335
 30
0.0
 11
8993.559709651266
 21
1348.516412297335
 31
0.0
  0
MTEXT
  5
68A
330
D6
100
AcDbEntity
  8
0
100
AcDbMText
 10
6405.568895788914
 20
1522.476054995145
 30
0.0
 40
70.0
 41
560.0
 71
     1
 72
     5
  1
納　入　先
 73
     1
 44
1.0
  0
TEXT
  5
75E
330
D6
100
AcDbEntity
  8
0
100
AcDbText
 10
7073.793277243385
 20
764.899199081934
 30
0.0
 40
60.0
  1
１／２０
100
AcDbText
  0
LINE
  5
94F
330
D6
100
AcDbEntity
  8
0
100
AcDbLine
 10
7277.571339668124
 20
2644.942733286687
 30
0.0
 11
7478.612466502648
 21
2644.942733286687
 31
0.0
  0
LINE
  5
950
330
D6
100
AcDbEntity
  8
0
100
AcDbLine
 10
7578.612454733742
 20
3036.447700959768
 30
0.0
 11
7578.612454733742
 21
2744.942722110816
 31
0.0
  0
ARC
  5
951
330
D6
100
AcDbEntity
  8
0
100
AcDbCircle
 10
3028.61269203472
 20
3517.783503956684
 30
0.0
 40
4549.999762699019
100
AcDbArc
 50
355.4804635680879
 51
5.089581616663068
  0
ARC
  5
952
330
D6
100
AcDbEntity
  8
0
100
AcDbCircle
 10
7478.612459949149
 20
2744.942722110818
 30
0.0
 40
99.9999888241297
100
AcDbArc
 50
269.9999962451469
 51
0.0
  0
SPLINE
  5
953
330
D6
100
AcDbEntity
  8
0
  6
Continuous
 62
     7
100
AcDbSpline
210
0.0
220
0.0
230
1.0
 70
     8
 71
     3
 72
    25
 73
    21
 74
    19
 42
0.0000000001
 43
0.0000000001
 44
0.0000000001
 12
-0.9088068481484352
 22
-0.4172171050646258
 32
0.0
 13
-0.3606669891202438
 23
-0.9326946568727292
 33
0.0
 40
0.0
 40
0.0
 40
0.0
 40
0.0
 40
39.88253233008727
 40
79.75971074994664
 40
119.6290822781137
 40
159.5119219040305
 40
199.3987517085019
 40
239.2781282922389
 40
279.1483911711812
 40
318.9985974466861
 40
358.7960332776778
 40
398.4864689876139
 40
438.205257734382
 40
477.9983999236809
 40
517.8143848440878
 40
557.6625210817884
 40
597.5447537499332
 40
637.2934341321529
 40
677.061335753002
 40
716.9031933727028
 40
716.9031933727028
 40
716.9031933727028
 40
716.9031933727028
 10
7619.268580802158
 20
3053.787383149281
 30
0.0
 10
7607.186741301131
 20
3048.240824922146
 30
0.0
 10
7582.79505061395
 20
3037.638549092456
 30
0.0
 10
7545.245381564993
 20
3024.066534474115
 30
0.0
 10
7506.456675112147
 20
3014.494942213897
 30
0.0
 10
7467.035758029038
 20
3008.35321569192
 30
0.0
 10
7427.545169355688
 20
3002.798630614998
 30
0.0
 10
7388.300936632906
 20
2995.55818451239
 30
0.0
 10
7349.785818662596
 20
2985.009384565329
 30
0.0
 10
7312.774272008493
 20
2969.918097388312
 30
0.0
 10
7278.938249721296
 20
2948.378286561909
 30
0.0
 10
7252.427598494453
 20
2917.619802724291
 30
0.0
 10
7239.331166483606
 20
2879.28115501964
 30
0.0
 10
7236.753963791037
 20
2839.299790382053
 30
0.0
 10
7242.517915581348
 20
2799.559301572492
 30
0.0
 10
7256.717176527152
 20
2762.131856755773
 30
0.0
 10
7273.429126945275
 20
2726.068398913473
 30
0.0
 10
7283.726375711449
 20
2686.945006148797
 30
0.0
 10
7279.279422744959
 20
2646.753749615174
 30
0.0
 10
7271.331363893247
 20
2621.374901005684
 30
0.0
 10
7266.541482950363
 20
2608.988138431758
 30
0.0
 11
7619.268580802158
 21
3053.787383149281
 31
0.0
 11
7582.632487752147
 21
3038.026257837571
 31
0.0
 11
7545.036417028962
 21
3024.732468877817
 31
0.0
 11
7506.356239943833
 21
3015.06754845837
 31
0.0
 11
7467.026010900617
 21
3008.451357708809
 31
0.0
 11
7427.583088763244
 21
3002.517127757411
 31
0.0
 11
7388.417515855495
 21
2995.005631533931
 31
0.0
 11
7350.025810371109
 21
2984.248549585924
 31
0.0
 11
7313.279174355554
 21
2968.83025909247
 31
0.0
 11
7280.126126267337
 21
2946.814099091637
 31
0.0
 11
7254.666192812573
 21
2916.365413154087
 31
0.0
 11
7241.090676312193
 21
2879.038646199818
 31
0.0
 11
7238.143810250109
 21
2839.35476854516
 31
0.0
 11
7243.919809410055
 21
2799.959965729478
 31
0.0
 11
7257.133290683559
 21
2762.366377522804
 31
0.0
 11
7272.376551530775
 21
2725.512131073584
 31
0.0
 11
7281.270838247754
 21
2686.771335316088
 31
0.0
 11
7278.038984249524
 21
2647.134974243714
 31
0.0
 11
7266.541482950363
 21
2608.988138431758
 31
0.0
  0
SPLINE
  5
954
330
D6
100
AcDbEntity
  8
0
  6
Continuous
 62
     7
100
AcDbSpline
210
0.0
220
0.0
230
1.0
 70
     8
 71
     3
 72
    29
 73
    25
 74
    23
 42
0.0000000001
 43
0.0000000001
 44
0.0000000001
 12
-0.98740860491902
 22
-0.1581905399569598
 32
0.0
 13
0.9673712617183381
 23
0.2533630636092615
 33
0.0
 40
0.0
 40
0.0
 40
0.0
 40
0.0
 40
47.17667774756555
 40
94.34877691355067
 40
141.4922824299853
 40
188.5213220586512
 40
235.185949648153
 40
282.2208061697763
 40
329.4197362983194
 40
376.5753314695981
 40
423.6177406380006
 40
470.780173612068
 40
517.9815129263889
 40
565.1320939570764
 40
611.9597971655649
 40
658.95038083552
 40
706.13754531713
 40
753.3307301137355
 40
800.5153893936215
 40
847.6858669649022
 40
894.665394248399
 40
941.666767641708
 40
988.6217418482326
 40
1035.648445793315
 40
1035.648445793315
 40
1035.648445793315
 40
1035.648445793315
 10
7578.9549530108
 20
3924.79859750724
 30
0.0
 10
7563.427400490986
 20
3922.310962798486
 30
0.0
 10
7532.654753866989
 20
3915.484140011238
 30
0.0
 10
7487.875241308374
 20
3900.27807541324
 30
0.0
 10
7445.706743369974
 20
3878.977246905332
 30
0.0
 10
7408.125131482709
 20
3849.668301870431
 30
0.0
 10
7385.734658447955
 20
3805.882751889959
 30
0.0
 10
7388.273235371936
 20
3757.928211936018
 30
0.0
 10
7395.54379443381
 20
3711.660846476025
 30
0.0
 10
7400.69896195392
 20
3664.475826648394
 30
0.0
 10
7392.521036874224
 20
3617.390972787707
 30
0.0
 10
7373.670189692717
 20
3574.007348672142
 30
0.0
 10
7352.308014292827
 20
3531.982989059101
 30
0.0
 10
7332.996943883379
 20
3489.019606846011
 30
0.0
 10
7326.796661416382
 20
3440.667291966908
 30
0.0
 10
7345.608462823417
 20
3396.1871967962
 30
0.0
 10
7370.442531706334
 20
3356.417735643127
 30
0.0
 10
7395.876929030508
 20
3316.475673224235
 30
0.0
 10
7414.731701223932
 20
3273.167269894091
 30
0.0
 10
7433.102781654927
 20
3229.648723934535
 30
0.0
 10
7462.934630557604
 20
3192.114440227386
 30
0.0
 10
7503.740003227365
 20
3167.087738034237
 30
0.0
 10
7550.431908446156
 20
3156.329466915541
 30
0.0
 10
7582.107861516238
 20
3160.500507622634
 30
0.0
 10
7597.27195549284
 20
3164.472117550292
 30
0.0
 11
7578.9549530108
 21
3924.79859750724
 31
0.0
 11
7532.881563270241
 21
3914.655536770352
 31
0.0
 11
7488.294222413488
 21
3899.255018108656
 31
0.0
 11
7446.415858587795
 21
3877.605243152294
 31
0.0
 11
7410.571207428137
 21
3847.160349464896
 31
0.0
 11
7389.909879065864
 21
3805.319018482562
 31
0.0
 11
7389.054515094551
 21
3758.291940320228
 31
0.0
 11
7395.192732223499
 21
3711.493849592539
 31
0.0
 11
7398.476784772448
 21
3664.452748895242
 31
0.0
 11
7390.755370701156
 21
3618.048352281267
 31
0.0
 11
7373.259476093938
 21
3574.251220458207
 31
0.0
 11
7352.634963701131
 21
3531.794231379558
 31
0.0
 11
7335.148091156937
 21
3488.006258371498
 31
0.0
 11
7330.950119766292
 21
3441.367102890448
 31
0.0
 11
7346.572937821948
 21
3397.049583672389
 31
0.0
 11
7370.535838437191
 21
3356.399763427787
 31
0.0
 11
7394.782015370733
 21
3315.911251534239
 31
0.0
 11
7414.657589164621
 21
3273.116933713732
 31
0.0
 11
7435.05047520242
 21
3230.582428269892
 31
0.0
 11
7464.766133430664
 21
3194.194852920015
 31
0.0
 11
7504.732879210587
 21
3169.460497609632
 31
0.0
 11
7550.545528011042
 21
3159.166285030634
 31
0.0
 11
7597.27195549284
 21
3164.472117550292
 31
0.0
  0
LINE
  5
955
330
D6
100
AcDbEntity
  8
0
  6
Continuous
100
AcDbLine
 10
7896.278975293085
 20
3352.78350149799
 30
0.0
 11
7674.278971985019
 21
3352.783501497996
 31
0.0
  0
LINE
  5
956
330
D6
100
AcDbEntity
  8
0
  6
Continuous
100
AcDbLine
 10
7884.27897511427
 20
3697.783506638891
 30
0.0
 11
7839.278974443718
 21
3742.783507309449
 31
0.0
  0
LINE
  5
957
330
D6
100
AcDbEntity
  8
0
  6
Continuous
100
AcDbLine
 10
7884.27897511427
 20
3682.783506415373
 30
0.0
 11
7884.27897511427
 21
3697.783506638891
 31
0.0
  0
LINE
  5
958
330
D6
100
AcDbEntity
  8
0
  6
CENTER
100
AcDbLine
 10
7764.278973326131
 20
3458.317232199698
 30
0.0
 11
7764.278973326131
 21
3588.38954410632
 31
0.0
  0
LINE
  5
959
330
D6
100
AcDbEntity
  8
0
  6
Continuous
100
AcDbLine
 10
7839.278974443711
 20
3292.78350060392
 30
0.0
 11
7884.27897511427
 21
3337.783501274478
 31
0.0
  0
LINE
  5
95A
330
D6
100
AcDbEntity
  8
0
  6
Continuous
100
AcDbLine
 10
7573.04586230496
 20
3292.783500603916
 30
0.0
 11
7839.278974443718
 21
3292.783500603916
 31
0.0
  0
LINE
  5
95B
330
D6
100
AcDbEntity
  8
0
  6
Continuous
100
AcDbLine
 10
7573.045862304955
 20
3742.783507309443
 30
0.0
 11
7839.278974443718
 21
3742.783507309449
 31
0.0
  0
LINE
  5
95C
330
D6
100
AcDbEntity
  8
0
  6
Continuous
100
AcDbLine
 10
7884.27897511427
 20
3337.783501274478
 30
0.0
 11
7884.27897511427
 21
3352.78350149799
 31
0.0
  0
LINE
  5
95D
330
D6
100
AcDbEntity
  8
0
  6
CENTER
100
AcDbLine
 10
8043.009902687956
 20
3517.783503956683
 30
0.0
 11
7139.766776002275
 21
3517.783503956687
 31
0.0
  0
LINE
  5
95E
330
D6
100
AcDbEntity
  8
0
100
AcDbLine
 10
7779.278973326133
 20
3487.783503956685
 30
0.0
 11
7749.278973326124
 21
3487.783503956685
 31
0.0
  0
LINE
  5
95F
330
D6
100
AcDbEntity
  8
0
100
AcDbLine
 10
7779.278973326123
 20
3547.783503956685
 30
0.0
 11
7749.278973326124
 21
3547.783503956685
 31
0.0
  0
LINE
  5
960
330
D6
100
AcDbEntity
  8
0
  6
Continuous
100
AcDbLine
 10
7896.278975293085
 20
3682.783506415373
 30
0.0
 11
7896.278975293087
 21
3352.78350149799
 31
0.0
  0
LINE
  5
961
330
D6
100
AcDbEntity
  8
0
  6
Continuous
100
AcDbLine
 10
7674.278971985019
 20
3682.783506415379
 30
0.0
 11
7674.278971985019
 21
3352.783501497996
 31
0.0
  0
LINE
  5
962
330
D6
100
AcDbEntity
  8
0
  6
Continuous
100
AcDbLine
 10
7896.278975293085
 20
3682.783506415373
 30
0.0
 11
7674.278971985026
 21
3682.783506415382
 31
0.0
  0
ARC
  5
963
330
D6
100
AcDbEntity
  8
0
  6
Continuous
100
AcDbCircle
 10
3519.27891007069
 20
3517.783503956684
 30
0.0
 40
4125.000061467289
100
AcDbArc
 50
356.8732238864202
 51
3.126776113579734
  0
LINE
  5
964
330
D6
100
AcDbEntity
  8
0
  6
Continuous
100
AcDbLine
 10
7653.612455851329
 20
2734.942734627792
 30
0.0
 11
7878.612459204091
 21
2734.942734627792
 31
0.0
  0
LINE
  5
965
330
D6
100
AcDbEntity
  8
0
  6
CENTER
 48
0.5
100
AcDbLine
 10
7758.612457415951
 20
2794.084783976811
 30
0.0
 11
7758.612457415951
 21
2592.998954670312
 31
0.0
  0
LINE
  5
966
330
D6
100
AcDbEntity
  8
0
  6
DASHED
100
AcDbLine
 10
7713.612457415951
 20
2734.942734627792
 30
0.0
 11
7713.612457415951
 21
2644.942733286687
 31
0.0
  0
LINE
  5
967
330
D6
100
AcDbEntity
  8
0
  6
DASHED
100
AcDbLine
 10
7803.612457415951
 20
2734.942734627792
 30
0.0
 11
7803.612457415951
 21
2644.942733286687
 31
0.0
  0
LINE
  5
968
330
D6
100
AcDbEntity
  8
0
  6
Continuous
100
AcDbLine
 10
7668.612456074846
 20
2746.942734806606
 30
0.0
 11
7668.612456074846
 21
2734.942734627792
 31
0.0
  0
LINE
  5
969
330
D6
100
AcDbEntity
  8
0
  6
Continuous
100
AcDbLine
 10
7890.612459382905
 20
2746.942734806606
 30
0.0
 11
7890.612459382905
 21
2659.942733510205
 31
0.0
  0
LINE
  5
96A
330
D6
100
AcDbEntity
  8
0
  6
Continuous
100
AcDbLine
 10
7668.612456074846
 20
2746.942734806606
 30
0.0
 11
7890.612459382905
 21
2746.942734806606
 31
0.0
  0
LINE
  5
96B
330
D6
100
AcDbEntity
  8
0
  6
Continuous
100
AcDbLine
 10
7878.612459204091
 20
2659.942733510205
 30
0.0
 11
7890.612459382905
 21
2659.942733510205
 31
0.0
  0
LINE
  5
96C
330
D6
100
AcDbEntity
  8
0
  6
Continuous
100
AcDbLine
 10
7578.612454733742
 20
2914.942737310001
 30
0.0
 11
7629.612455493701
 21
2914.942737310001
 31
0.0
  0
LINE
  5
96D
330
D6
100
AcDbEntity
  8
0
  6
Continuous
100
AcDbLine
 10
7549.323138442749
 20
2674.232049577685
 30
0.0
 11
7578.612454733742
 21
2644.942733286687
 31
0.0
  0
LINE
  5
96E
330
D6
100
AcDbEntity
  8
0
  6
Continuous
100
AcDbLine
 10
7878.612459204091
 20
2734.942734627792
 30
0.0
 11
7878.612459204091
 21
2653.942733420798
 31
0.0
  0
LINE
  5
96F
330
D6
100
AcDbEntity
  8
0
  6
Continuous
100
AcDbLine
 10
7638.612455627812
 20
2905.942737175891
 30
0.0
 11
7638.612455627812
 21
2749.942734851309
 31
0.0
  0
LINE
  5
970
330
D6
100
AcDbEntity
  8
0
  6
Continuous
100
AcDbLine
 10
7578.612454733742
 20
2644.942733286687
 30
0.0
 11
7869.612459228028
 21
2644.942733286687
 31
0.0
  0
ARC
  5
971
330
D6
100
AcDbEntity
  8
0
  6
Continuous
100
AcDbCircle
 10
7629.612455493701
 20
2905.942737175891
 30
0.0
 40
9.000000134110452
100
AcDbArc
 50
0.0
 51
90.0
  0
ARC
  5
972
330
D6
100
AcDbEntity
  8
0
  6
Continuous
100
AcDbCircle
 10
7869.61245906998
 20
2653.942733420798
 30
0.0
 40
9.000000134110452
100
AcDbArc
 50
270.0
 51
0.0
  0
ARC
  5
973
330
D6
100
AcDbEntity
  8
0
  6
Continuous
100
AcDbCircle
 10
7653.612455851329
 20
2749.942734851309
 30
0.0
 40
15.00000022351741
100
AcDbArc
 50
180.0
 51
270.0
  0
ARC
  5
974
330
D6
100
AcDbEntity
  8
0
  6
Continuous
100
AcDbCircle
 10
7869.61245906998
 20
2725.942734493682
 30
0.0
 40
9.000000134110452
100
AcDbArc
 50
0.0
 51
90.0
  0
LWPOLYLINE
  5
975
330
D6
100
AcDbEntity
  8
0
  6
DASHED
 48
20.0
100
AcDbPolyline
 90
        2
 70
     0
 43
0.0
 10
7713.612457415951
 20
2734.942734627792
 10
7713.612457415951
 20
2746.942734806606
  0
LWPOLYLINE
  5
976
330
D6
100
AcDbEntity
  8
0
  6
DASHED
 48
20.0
100
AcDbPolyline
 90
        2
 70
     0
 43
0.0
 10
7803.612457415951
 20
2734.942734627792
 10
7803.612457415951
 20
2746.942734806606
  0
DIMENSION
  5
977
330
D6
100
AcDbEntity
  8
寸法線
 48
20.0
100
AcDbDimension
  2
*D20
 10
8171.530785993821
 20
3682.783506415373
 30
0.0
 11
8107.530785993819
 21
3517.783503956683
 31
0.0
 70
    32
  1
110
 71
     5
 42
330.0000049173832
  3
1-20
100
AcDbAlignedDimension
 13
7896.278975293087
 23
3352.78350149799
 33
0.0
 14
7896.278975293085
 24
3682.783506415373
 34
0.0
 50
90.0
100
AcDbRotatedDimension
  0
DIMENSION
  5
978
330
D6
100
AcDbEntity
  8
寸法線
 48
20.0
100
AcDbDimension
  2
*D21
 10
8311.935252901321
 20
3292.783500603916
 30
0.0
 11
8247.935252901321
 21
3517.783503956683
 31
0.0
 70
    32
  1
150
 71
     5
 42
450.0000067055334
  3
1-20
100
AcDbAlignedDimension
 13
7839.278974443718
 23
3742.783507309449
 33
0.0
 14
7839.278974443707
 24
3292.783500603916
 34
0.0
 50
90.0
100
AcDbRotatedDimension
  0
DIMENSION
  5
979
330
D6
100
AcDbEntity
  8
寸法線
 48
20.0
100
AcDbDimension
  2
*D22
 10
7890.612459382905
 20
2866.931559705732
 30
0.0
 11
7779.612457728875
 21
2930.931559705732
 31
0.0
 70
    32
  1
74
 71
     5
 42
222.0000033080578
  3
1-20
100
AcDbAlignedDimension
 13
7668.612456074846
 23
2746.942734806606
 33
0.0
 14
7890.612459382905
 24
2746.942734806606
 34
0.0
100
AcDbRotatedDimension
  0
DIMENSION
  5
97A
330
D6
100
AcDbEntity
  8
寸法線
 48
20.0
100
AcDbDimension
  2
*D23
 10
8171.474827321054
 20
2659.942733510205
 30
0.0
 11
8171.474827321052
 21
2870.942734806608
 31
0.0
 70
   160
  1
29
 71
     5
 42
87.00000129640102
  3
1-20
100
AcDbAlignedDimension
 13
7890.612459382905
 23
2746.942734806606
 33
0.0
 14
7890.612459382905
 24
2659.942733510205
 34
0.0
 50
90.0
100
AcDbRotatedDimension
  0
DIMENSION
  5
97B
330
D6
100
AcDbEntity
  8
寸法線
 48
20.0
100
AcDbDimension
  2
*D24
 10
8355.891789623415
 20
2644.942733286687
 30
0.0
 11
8355.891789623415
 21
2870.942734806608
 31
0.0
 70
   160
  1
34
 71
     5
 42
102.0000015199184
  3
1-20
100
AcDbAlignedDimension
 13
7890.612459382905
 23
2746.942734806606
 33
0.0
 14
7869.612459228028
 24
2644.942733286687
 34
0.0
 50
90.0
100
AcDbRotatedDimension
  0
LEADER
  5
97C
330
D6
100
AcDbEntity
  8
0
 48
20.0
100
AcDbLeader
  3
1-20
 73
     0
 40
50.00000000000002
 41
530.0000000000001
 76
     3
 10
7779.278973326123
 20
3547.783503956685
 30
0.0
 10
7974.310354617732
 20
3855.967339955629
 30
0.0
 10
8647.95181963508
 20
3855.967339955629
 30
0.0
340
97D
213
617.5980618852791
223
-66.82161510992592
233
0.0
1001
ACAD
1000
DSTYLE
1002
{
1070
   147
1040
1.7
1070
    77
1070
     0
1002
}
  0
MTEXT
  5
97D
102
{ACAD_REACTORS
330
97C
102
}
330
D6
100
AcDbEntity
  8
0
 48
20.0
100
AcDbMText
 10
8064.353757749801
 20
3922.788955065556
 30
0.0
 40
50.0
 41
0.0
 71
     1
 72
     1
  1
20×30アンカー穴
 73
     1
 44
1.0
  0
LEADER
  5
97E
330
D6
100
AcDbEntity
  8
0
 48
20.0
100
AcDbLeader
  3
1-20
 73
     0
 40
50.0
 41
106.6666666666666
 76
     3
 10
7578.612454733742
 20
2914.942737310001
 30
0.0
 10
7727.643019929202
 20
3066.41400384617
 30
0.0
 10
7938.270033804579
 20
3066.41400384617
 30
0.0
340
97F
213
162.5629541749749
223
-62.01581008950597
233
0.0
1001
ACAD
1000
DSTYLE
1002
{
1070
   147
1040
1.7
1070
    77
1070
     0
1002
}
  0
MTEXT
  5
97F
102
{ACAD_REACTORS
330
97E
102
}
330
D6
100
AcDbEntity
  8
0
 48
20.0
100
AcDbMText
 10
7809.707079629605
 20
3128.429813935675
 30
0.0
 40
50.0
 41
0.0
 71
     1
 72
     1
  1
融着
 73
     1
 44
1.0
  0
LEADER
  5
980
330
D6
100
AcDbEntity
  8
0
 48
20.0
100
AcDbLeader
  3
1-20
 73
     0
 40
50.0
 41
500.0
 76
     3
 10
7890.612459382905
 20
2746.942734806606
 30
0.0
 10
8027.158243655993
 20
3066.41400384617
 30
0.0
 10
8622.051568241554
 20
3066.41400384617
 30
0.0
340
981
213
572.9792401943504
223
-66.67058150427329
233
0.0
1001
ACAD
1000
DSTYLE
1002
{
1070
   147
1040
1.7
1070
    77
1070
     0
1002
}
  0
MTEXT
  5
981
102
{ACAD_REACTORS
330
980
102
}
330
D6
100
AcDbEntity
  8
0
 48
20.0
100
AcDbMText
 10
8083.072328047203
 20
3133.084585350442
 30
0.0
 40
50.0
 41
0.0
 71
     1
 72
     1
  1
押え金具（ＳＵＳ）
 73
     1
 44
1.0
  0
LEADER
  5
982
330
D6
100
AcDbEntity
  8
0
 48
20.0
100
AcDbLeader
  3
1-20
 73
     0
 40
50.0
 41
576.6666666666667
 76
     3
 10
7644.100797564775
 20
2686.999270540923
 30
0.0
 10
7583.664576043638
 20
2480.381489465263
 30
0.0
 10
6938.905785730847
 20
2480.381489465263
 30
0.0
340
983
213
-634.3841059624082
223
-13.19177359575042
233
0.0
1001
ACAD
1000
DSTYLE
1002
{
1070
   147
1040
1.7
1070
    77
1070
     0
1002
}
  0
MTEXT
  5
983
102
{ACAD_REACTORS
330
982
102
}
330
D6
100
AcDbEntity
  8
0
 48
20.0
100
AcDbMText
 10
7539.289891693255
 20
2493.573263061014
 30
0.0
 40
50.0
 41
0.0
 71
     9
 72
     1
  1
融着アンカープレート
 73
     1
 44
1.0
  0
TEXT
  5
984
330
D6
100
AcDbEntity
  8
0
 48
20.0
100
AcDbText
 10
6938.075683356462
 20
2417.111055400418
 30
0.0
 40
50.0
  1
（ＰＥ製）
100
AcDbText
  0
TEXT
  5
985
330
D6
100
AcDbEntity
  8
0
 48
20.0
100
AcDbText
 10
7453.930281781456
 20
2317.898024717822
 30
0.0
 40
60.0
  1
融着アンカープレート詳細図
100
AcDbText
  0
LWPOLYLINE
  5
986
330
D6
100
AcDbEntity
  8
0
 48
20.0
100
AcDbPolyline
 90
        2
 70
     0
 43
0.0
 10
7407.795959193051
 20
2295.302583272044
 10
8414.579371935813
 20
2295.302583272044
  0
LWPOLYLINE
  5
987
330
D6
100
AcDbEntity
  8
0
 48
20.0
100
AcDbPolyline
 90
        2
 70
     0
 43
0.0
 10
7407.795959193051
 20
2278.285122509066
 10
8414.579371935813
 20
2278.285122509066
  0
TEXT
  5
988
330
D6
100
AcDbEntity
  8
0
 48
20.0
100
AcDbText
 10
6460.656075005778
 20
1846.987511057526
 30
0.0
 40
60.0
  1
注記　１）タンク寸法公差：±１．５％
100
AcDbText
  0
TEXT
  5
989
330
D6
100
AcDbEntity
  8
0
 48
20.0
100
AcDbText
 10
6460.656075005778
 20
1946.082738435004
 30
0.0
 40
60.0
  1
　　　２）アンカープレート融着公差：Ｐ．Ｃ．Ｄ\U+00b1１．５％
100
AcDbText
  0
LWPOLYLINE
  5
98A
330
D6
100
AcDbEntity
  8
0
 48
20.0
100
AcDbPolyline
 90
        2
 70
     0
 43
0.0
 10
6333.559709651266
 20
1816.958657800455
 10
8993.559709651268
 20
1816.958657800455
  0
ARC
  5
98B
330
D6
100
AcDbEntity
  8
0
 48
20.0
100
AcDbCircle
 10
7749.278973326124
 20
3517.783503956684
 30
0.0
 40
30.0
100
AcDbArc
 50
90.0
 51
270.0
  0
ARC
  5
98C
330
D6
100
AcDbEntity
  8
0
 48
20.0
100
AcDbCircle
 10
7779.278973326123
 20
3517.783503956684
 30
0.0
 40
30.0
100
AcDbArc
 50
270.0
 51
90.0
  0
LINE
  5
A79
102
{ACAD_REACTORS
330
ABE
102
}
330
D6
100
AcDbEntity
  8
2
  6
Continuous
100
AcDbLine
 10
6830.157456355171
 20
5153.644730486452
 30
0.0
 11
6777.831553767651
 21
5101.318827898928
 31
0.0
  0
LINE
  5
A7A
102
{ACAD_REACTORS
330
ABE
102
}
330
D6
100
AcDbEntity
  8
2
  6
Continuous
100
AcDbLine
 10
6746.011748140107
 20
5232.133584367733
 30
0.0
 11
6724.798544388406
 21
5232.133584367733
 31
0.0
  0
LINE
  5
A7B
102
{ACAD_REACTORS
330
ABE
102
}
330
D6
100
AcDbEntity
  8
2
  6
Continuous
100
AcDbLine
 10
6749.547282098721
 20
5228.598050409117
 30
0.0
 11
6746.011748140107
 21
5232.133584367733
 31
0.0
  0
LINE
  5
A7C
102
{ACAD_REACTORS
330
ABE
102
}
330
D6
100
AcDbEntity
  8
2
  6
CENTER
100
AcDbLine
 10
6774.170218644982
 20
5147.406570524991
 30
0.0
 11
6743.511880713722
 21
5178.064908456254
 31
0.0
  0
LINE
  5
A7D
102
{ACAD_REACTORS
330
ABE
102
}
330
D6
100
AcDbEntity
  8
2
  6
Continuous
100
AcDbLine
 10
6830.864563146895
 20
5126.067565609244
 30
0.0
 11
6830.864563146895
 21
5147.280769360943
 31
0.0
  0
LINE
  5
A7E
102
{ACAD_REACTORS
330
ABE
102
}
330
D6
100
AcDbEntity
  8
2
  6
Continuous
100
AcDbLine
 10
6768.112816823659
 20
5063.315819286004
 30
0.0
 11
6830.864563146898
 21
5126.067565609242
 31
0.0
  0
LINE
  5
A7F
102
{ACAD_REACTORS
330
ABE
102
}
330
D6
100
AcDbEntity
  8
2
  6
Continuous
100
AcDbLine
 10
6662.046798065168
 20
5169.381838044493
 30
0.0
 11
6724.798544388406
 21
5232.133584367733
 31
0.0
  0
LINE
  5
A80
102
{ACAD_REACTORS
330
ABE
102
}
330
D6
100
AcDbEntity
  8
2
  6
Continuous
100
AcDbLine
 10
6830.864563146895
 20
5147.280769360943
 30
0.0
 11
6827.32902918828
 21
5150.81630331956
 31
0.0
  0
LINE
  5
A81
102
{ACAD_REACTORS
330
ABE
102
}
330
D6
100
AcDbEntity
  8
2
  6
CENTER
 48
0.5
100
AcDbLine
 10
6861.559393189816
 20
5262.828414410656
 30
0.0
 11
6699.235906045334
 21
5100.504927266173
 31
0.0
  0
LINE
  5
A82
102
{ACAD_REACTORS
330
ABE
102
}
330
D6
100
AcDbEntity
  8
2
100
AcDbLine
 10
6770.760485692363
 20
5157.887371289474
 30
0.0
 11
6763.689417880501
 21
5150.816303477609
 31
0.0
  0
LINE
  5
A83
102
{ACAD_REACTORS
330
ABE
102
}
330
D6
100
AcDbEntity
  8
2
100
AcDbLine
 10
6756.618350068634
 20
5172.029506913204
 30
0.0
 11
6749.547282256767
 21
5164.958439101337
 31
0.0
  0
LINE
  5
A84
102
{ACAD_REACTORS
330
ABE
102
}
330
D6
100
AcDbEntity
  8
2
  6
Continuous
100
AcDbLine
 10
6752.375709265614
 20
5231.426477576009
 30
0.0
 11
6830.157456355171
 21
5153.644730486452
 31
0.0
  0
LINE
  5
A85
102
{ACAD_REACTORS
330
ABE
102
}
330
D6
100
AcDbEntity
  8
2
  6
Continuous
100
AcDbLine
 10
6700.049806678089
 20
5179.10057498849
 30
0.0
 11
6777.831553767651
 21
5101.318827898928
 31
0.0
  0
LINE
  5
A86
102
{ACAD_REACTORS
330
ABE
102
}
330
D6
100
AcDbEntity
  8
2
  6
Continuous
100
AcDbLine
 10
6752.375709265614
 20
5231.426477576009
 30
0.0
 11
6700.049806678089
 21
5179.10057498849
 31
0.0
  0
ARC
  5
A87
102
{ACAD_REACTORS
330
ABE
102
}
330
D6
100
AcDbEntity
  8
2
  6
Continuous
100
AcDbCircle
 10
5759.597773686152
 20
4160.866794906996
 30
0.0
 40
1375.000020489096
100
AcDbArc
 50
41.87322388637325
 51
48.12677611355315
  0
ARC
  5
A88
102
{ACAD_REACTORS
330
ABE
102
}
330
D6
100
AcDbEntity
  8
0
 48
20.0
100
AcDbCircle
 10
6756.618350068634
 20
5157.887371289477
 30
0.0
 40
10.0
100
AcDbArc
 50
135.0
 51
315.0
  0
ARC
  5
A89
102
{ACAD_REACTORS
330
ABE
102
}
330
D6
100
AcDbEntity
  8
0
 48
20.0
100
AcDbCircle
 10
6763.689417880498
 20
5164.95843910134
 30
0.0
 40
10.0
100
AcDbArc
 50
315.0
 51
135.0
  0
LINE
  5
ABF
102
{ACAD_REACTORS
330
ABE
102
}
330
D6
100
AcDbEntity
  8
2
  6
Continuous
100
AcDbLine
 10
5679.310070380279
 20
5231.426477576011
 30
0.0
 11
5731.635972967803
 21
5179.10057498849
 31
0.0
  0
LINE
  5
AC0
102
{ACAD_REACTORS
330
ABE
102
}
330
D6
100
AcDbEntity
  8
2
  6
Continuous
100
AcDbLine
 10
5600.821216498999
 20
5147.280769360946
 30
0.0
 11
5600.821216498999
 21
5126.067565609247
 31
0.0
  0
LINE
  5
AC1
102
{ACAD_REACTORS
330
ABE
102
}
330
D6
100
AcDbEntity
  8
2
  6
Continuous
100
AcDbLine
 10
5604.356750457615
 20
5150.816303319561
 30
0.0
 11
5600.821216498999
 21
5147.280769360946
 31
0.0
  0
LINE
  5
AC2
102
{ACAD_REACTORS
330
ABE
102
}
330
D6
100
AcDbEntity
  8
2
  6
CENTER
100
AcDbLine
 10
5685.548230341741
 20
5175.439239865823
 30
0.0
 11
5654.889892410477
 21
5144.780901934561
 31
0.0
  0
LINE
  5
AC3
102
{ACAD_REACTORS
330
ABE
102
}
330
D6
100
AcDbEntity
  8
2
  6
Continuous
100
AcDbLine
 10
5706.887235257487
 20
5232.133584367735
 30
0.0
 11
5685.674031505789
 21
5232.133584367734
 31
0.0
  0
LINE
  5
AC4
102
{ACAD_REACTORS
330
ABE
102
}
330
D6
100
AcDbEntity
  8
2
  6
Continuous
100
AcDbLine
 10
5769.638981580727
 20
5169.3818380445
 30
0.0
 11
5706.887235257489
 21
5232.133584367737
 31
0.0
  0
LINE
  5
AC5
102
{ACAD_REACTORS
330
ABE
102
}
330
D6
100
AcDbEntity
  8
2
  6
Continuous
100
AcDbLine
 10
5663.572962822238
 20
5063.315819286007
 30
0.0
 11
5600.821216498999
 21
5126.067565609247
 31
0.0
  0
LINE
  5
AC6
102
{ACAD_REACTORS
330
ABE
102
}
330
D6
100
AcDbEntity
  8
2
  6
Continuous
100
AcDbLine
 10
5685.674031505789
 20
5232.133584367734
 30
0.0
 11
5682.138497547172
 21
5228.598050409121
 31
0.0
  0
LINE
  5
AC7
102
{ACAD_REACTORS
330
ABE
102
}
330
D6
100
AcDbEntity
  8
2
  6
CENTER
 48
0.5
100
AcDbLine
 10
5570.126386456075
 20
5262.828414410656
 30
0.0
 11
5732.449873600558
 21
5100.504927266173
 31
0.0
  0
LINE
  5
AC8
102
{ACAD_REACTORS
330
ABE
102
}
330
D6
100
AcDbEntity
  8
2
100
AcDbLine
 10
5675.067429577257
 20
5172.029506913204
 30
0.0
 11
5682.138497389122
 21
5164.95843910134
 31
0.0
  0
LINE
  5
AC9
102
{ACAD_REACTORS
330
ABE
102
}
330
D6
100
AcDbEntity
  8
2
100
AcDbLine
 10
5660.925293953527
 20
5157.887371289474
 30
0.0
 11
5667.996361765394
 21
5150.816303477608
 31
0.0
  0
LINE
  5
ACA
102
{ACAD_REACTORS
330
ABE
102
}
330
D6
100
AcDbEntity
  8
2
  6
Continuous
100
AcDbLine
 10
5601.528323290722
 20
5153.644730486453
 30
0.0
 11
5679.310070380279
 21
5231.426477576011
 31
0.0
  0
LINE
  5
ACB
102
{ACAD_REACTORS
330
ABE
102
}
330
D6
100
AcDbEntity
  8
2
  6
Continuous
100
AcDbLine
 10
5653.854225878242
 20
5101.318827898928
 30
0.0
 11
5731.635972967803
 21
5179.10057498849
 31
0.0
  0
LINE
  5
ACC
102
{ACAD_REACTORS
330
ABE
102
}
330
D6
100
AcDbEntity
  8
2
  6
Continuous
100
AcDbLine
 10
5601.528323290722
 20
5153.644730486453
 30
0.0
 11
5653.854225878242
 21
5101.318827898928
 31
0.0
  0
ARC
  5
ACD
102
{ACAD_REACTORS
330
ABE
102
}
330
D6
100
AcDbEntity
  8
2
  6
Continuous
100
AcDbCircle
 10
6672.088005959733
 20
4160.866794906991
 30
0.0
 40
1375.000020489096
100
AcDbArc
 50
131.8732238863732
 51
138.1267761135531
  0
ARC
  5
ACE
102
{ACAD_REACTORS
330
ABE
102
}
330
D6
100
AcDbEntity
  8
0
 48
20.0
100
AcDbCircle
 10
5675.067429577254
 20
5157.887371289472
 30
0.0
 40
10.0
100
AcDbArc
 50
225.0
 51
45.0
  0
ARC
  5
ACF
102
{ACAD_REACTORS
330
ABE
102
}
330
D6
100
AcDbEntity
  8
0
 48
20.0
100
AcDbCircle
 10
5667.996361765393
 20
5164.958439101337
 30
0.0
 40
10.0
100
AcDbArc
 50
45.0
 51
225.0
  0
LINE
  5
AD1
102
{ACAD_REACTORS
330
ABE
102
}
330
D6
100
AcDbEntity
  8
2
  6
Continuous
100
AcDbLine
 10
5601.528323290719
 20
4080.579091601117
 30
0.0
 11
5653.854225878241
 21
4132.90499418864
 31
0.0
  0
LINE
  5
AD2
102
{ACAD_REACTORS
330
ABE
102
}
330
D6
100
AcDbEntity
  8
2
  6
Continuous
100
AcDbLine
 10
5685.674031505784
 20
4002.090237719836
 30
0.0
 11
5706.887235257484
 21
4002.090237719836
 31
0.0
  0
LINE
  5
AD3
102
{ACAD_REACTORS
330
ABE
102
}
330
D6
100
AcDbEntity
  8
2
  6
Continuous
100
AcDbLine
 10
5682.13849754717
 20
4005.625771678452
 30
0.0
 11
5685.674031505784
 21
4002.090237719836
 31
0.0
  0
LINE
  5
AD4
102
{ACAD_REACTORS
330
ABE
102
}
330
D6
100
AcDbEntity
  8
2
  6
CENTER
100
AcDbLine
 10
5657.515561000908
 20
4086.817251562578
 30
0.0
 11
5688.17389893217
 21
4056.158913631316
 31
0.0
  0
LINE
  5
AD5
102
{ACAD_REACTORS
330
ABE
102
}
330
D6
100
AcDbEntity
  8
2
  6
Continuous
100
AcDbLine
 10
5600.821216498996
 20
4108.156256478325
 30
0.0
 11
5600.821216498996
 21
4086.943052726627
 31
0.0
  0
LINE
  5
AD6
102
{ACAD_REACTORS
330
ABE
102
}
330
D6
100
AcDbEntity
  8
2
  6
Continuous
100
AcDbLine
 10
5663.572962822231
 20
4170.908002801565
 30
0.0
 11
5600.821216498993
 21
4108.156256478326
 31
0.0
  0
LINE
  5
AD7
102
{ACAD_REACTORS
330
ABE
102
}
330
D6
100
AcDbEntity
  8
2
  6
Continuous
100
AcDbLine
 10
5769.638981580723
 20
4064.841984043076
 30
0.0
 11
5706.887235257484
 21
4002.090237719836
 31
0.0
  0
LINE
  5
AD8
102
{ACAD_REACTORS
330
ABE
102
}
330
D6
100
AcDbEntity
  8
2
  6
Continuous
100
AcDbLine
 10
5600.821216498996
 20
4086.943052726627
 30
0.0
 11
5604.35675045761
 21
4083.40751876801
 31
0.0
  0
LINE
  5
AD9
102
{ACAD_REACTORS
330
ABE
102
}
330
D6
100
AcDbEntity
  8
2
  6
CENTER
 48
0.5
100
AcDbLine
 10
5570.126386456074
 20
3971.395407676914
 30
0.0
 11
5732.449873600558
 21
4133.718894821397
 31
0.0
  0
LINE
  5
ADA
102
{ACAD_REACTORS
330
ABE
102
}
330
D6
100
AcDbEntity
  8
2
100
AcDbLine
 10
5660.925293953527
 20
4076.336450798096
 30
0.0
 11
5667.99636176539
 21
4083.407518609959
 31
0.0
  0
LINE
  5
ADB
102
{ACAD_REACTORS
330
ABE
102
}
330
D6
100
AcDbEntity
  8
2
100
AcDbLine
 10
5675.067429577257
 20
4062.194315174365
 30
0.0
 11
5682.138497389122
 21
4069.265382986232
 31
0.0
  0
LINE
  5
ADC
102
{ACAD_REACTORS
330
ABE
102
}
330
D6
100
AcDbEntity
  8
2
  6
Continuous
100
AcDbLine
 10
5679.310070380278
 20
4002.79734451156
 30
0.0
 11
5601.528323290719
 21
4080.579091601117
 31
0.0
  0
LINE
  5
ADD
102
{ACAD_REACTORS
330
ABE
102
}
330
D6
100
AcDbEntity
  8
2
  6
Continuous
100
AcDbLine
 10
5731.635972967802
 20
4055.123247099079
 30
0.0
 11
5653.854225878241
 21
4132.90499418864
 31
0.0
  0
LINE
  5
ADE
102
{ACAD_REACTORS
330
ABE
102
}
330
D6
100
AcDbEntity
  8
2
  6
Continuous
100
AcDbLine
 10
5679.310070380278
 20
4002.79734451156
 30
0.0
 11
5731.635972967802
 21
4055.123247099079
 31
0.0
  0
ARC
  5
ADF
102
{ACAD_REACTORS
330
ABE
102
}
330
D6
100
AcDbEntity
  8
2
  6
Continuous
100
AcDbCircle
 10
6672.088005959739
 20
5073.357027180573
 30
0.0
 40
1375.000020489096
100
AcDbArc
 50
221.8732238863732
 51
228.1267761135531
  0
ARC
  5
AE0
102
{ACAD_REACTORS
330
ABE
102
}
330
D6
100
AcDbEntity
  8
0
 48
20.0
100
AcDbCircle
 10
5675.067429577257
 20
4076.336450798093
 30
0.0
 40
10.0
100
AcDbArc
 50
314.9999999999999
 51
134.9999999999999
  0
ARC
  5
AE1
102
{ACAD_REACTORS
330
ABE
102
}
330
D6
100
AcDbEntity
  8
0
 48
20.0
100
AcDbCircle
 10
5667.996361765393
 20
4069.26538298623
 30
0.0
 40
10.0
100
AcDbArc
 50
134.9999999999999
 51
314.9999999999999
  0
LINE
  5
AE3
102
{ACAD_REACTORS
330
ABE
102
}
330
D6
100
AcDbEntity
  8
2
  6
Continuous
100
AcDbLine
 10
6752.375709265613
 20
4002.797344511558
 30
0.0
 11
6700.049806678089
 21
4055.123247099079
 31
0.0
  0
LINE
  5
AE4
102
{ACAD_REACTORS
330
ABE
102
}
330
D6
100
AcDbEntity
  8
2
  6
Continuous
100
AcDbLine
 10
6830.864563146893
 20
4086.943052726623
 30
0.0
 11
6830.864563146893
 21
4108.156256478323
 31
0.0
  0
LINE
  5
AE5
102
{ACAD_REACTORS
330
ABE
102
}
330
D6
100
AcDbEntity
  8
2
  6
Continuous
100
AcDbLine
 10
6827.329029188277
 20
4083.407518768009
 30
0.0
 11
6830.864563146893
 21
4086.943052726623
 31
0.0
  0
LINE
  5
AE6
102
{ACAD_REACTORS
330
ABE
102
}
330
D6
100
AcDbEntity
  8
2
  6
CENTER
100
AcDbLine
 10
6746.137549304151
 20
4058.784582221746
 30
0.0
 11
6776.795887235414
 21
4089.442920153008
 31
0.0
  0
LINE
  5
AE7
102
{ACAD_REACTORS
330
ABE
102
}
330
D6
100
AcDbEntity
  8
2
  6
Continuous
100
AcDbLine
 10
6724.798544388405
 20
4002.090237719834
 30
0.0
 11
6746.011748140102
 21
4002.090237719835
 31
0.0
  0
LINE
  5
AE8
102
{ACAD_REACTORS
330
ABE
102
}
330
D6
100
AcDbEntity
  8
2
  6
Continuous
100
AcDbLine
 10
6662.046798065166
 20
4064.84198404307
 30
0.0
 11
6724.798544388403
 21
4002.090237719833
 31
0.0
  0
LINE
  5
AE9
102
{ACAD_REACTORS
330
ABE
102
}
330
D6
100
AcDbEntity
  8
2
  6
Continuous
100
AcDbLine
 10
6768.112816823654
 20
4170.908002801563
 30
0.0
 11
6830.864563146893
 21
4108.156256478323
 31
0.0
  0
LINE
  5
AEA
102
{ACAD_REACTORS
330
ABE
102
}
330
D6
100
AcDbEntity
  8
2
  6
Continuous
100
AcDbLine
 10
6746.011748140102
 20
4002.090237719835
 30
0.0
 11
6749.547282098721
 21
4005.625771678449
 31
0.0
  0
LINE
  5
AEB
102
{ACAD_REACTORS
330
ABE
102
}
330
D6
100
AcDbEntity
  8
2
  6
CENTER
 48
0.5
100
AcDbLine
 10
6861.559393189816
 20
3971.395407676914
 30
0.0
 11
6699.235906045332
 21
4133.718894821396
 31
0.0
  0
LINE
  5
AEC
102
{ACAD_REACTORS
330
ABE
102
}
330
D6
100
AcDbEntity
  8
2
100
AcDbLine
 10
6756.618350068634
 20
4062.194315174366
 30
0.0
 11
6749.54728225677
 21
4069.265382986229
 31
0.0
  0
LINE
  5
AED
102
{ACAD_REACTORS
330
ABE
102
}
330
D6
100
AcDbEntity
  8
2
100
AcDbLine
 10
6770.760485692365
 20
4076.336450798096
 30
0.0
 11
6763.689417880498
 21
4083.407518609962
 31
0.0
  0
LINE
  5
AEE
102
{ACAD_REACTORS
330
ABE
102
}
330
D6
100
AcDbEntity
  8
2
  6
Continuous
100
AcDbLine
 10
6830.15745635517
 20
4080.579091601117
 30
0.0
 11
6752.375709265613
 21
4002.797344511558
 31
0.0
  0
LINE
  5
AEF
102
{ACAD_REACTORS
330
ABE
102
}
330
D6
100
AcDbEntity
  8
2
  6
Continuous
100
AcDbLine
 10
6777.831553767651
 20
4132.90499418864
 30
0.0
 11
6700.049806678089
 21
4055.123247099079
 31
0.0
  0
LINE
  5
AF0
102
{ACAD_REACTORS
330
ABE
102
}
330
D6
100
AcDbEntity
  8
2
  6
Continuous
100
AcDbLine
 10
6830.15745635517
 20
4080.579091601117
 30
0.0
 11
6777.831553767651
 21
4132.90499418864
 31
0.0
  0
ARC
  5
AF1
102
{ACAD_REACTORS
330
ABE
102
}
330
D6
100
AcDbEntity
  8
2
  6
Continuous
100
AcDbCircle
 10
5759.597773686158
 20
5073.357027180578
 30
0.0
 40
1375.000020489096
100
AcDbArc
 50
311.8732238863732
 51
318.1267761135531
  0
ARC
  5
AF2
102
{ACAD_REACTORS
330
ABE
102
}
330
D6
100
AcDbEntity
  8
0
 48
20.0
100
AcDbCircle
 10
6756.618350068638
 20
4076.336450798097
 30
0.0
 40
10.0
100
AcDbArc
 50
44.99999999999993
 51
225.0
  0
ARC
  5
AF3
102
{ACAD_REACTORS
330
ABE
102
}
330
D6
100
AcDbEntity
  8
0
 48
20.0
100
AcDbCircle
 10
6763.689417880499
 20
4069.265382986232
 30
0.0
 40
10.0
100
AcDbArc
 50
225.0
 51
44.99999999999993
  0
DIMENSION
  5
B05
330
D6
100
AcDbEntity
  8
寸法線
 48
20.0
100
AcDbDimension
  2
*D25
 10
6340.842470607192
 20
5467.529428030083
 30
0.0
 11
6215.842527627179
 21
5531.529428030083
 31
0.0
 70
    32
 71
     5
 42
249.9998859600273
  3
1-20
100
AcDbAlignedDimension
 13
6090.842584647166
 23
5295.69493743478
 33
0.0
 14
6340.842470607192
 24
5295.695070872971
 34
0.0
100
AcDbRotatedDimension
  0
DIMENSION
  5
B12
330
D6
100
AcDbEntity
  8
寸法線
 48
20.0
100
AcDbDimension
  2
*D26
 10
3240.431771360221
 20
1002.618783783742
 30
0.0
 11
2530.431771360222
 21
1066.618783783742
 31
0.0
 70
    32
  1
O.Dφ<>
 71
     5
 42
1419.999999999998
  3
1-20
100
AcDbAlignedDimension
 13
1820.431771360223
 23
1303.82919092157
 33
0.0
 14
3240.431771360221
 24
1303.829181146329
 34
0.0
100
AcDbRotatedDimension
  0
DIMENSION
  5
B3A
330
D6
100
AcDbEntity
  8
寸法線
 48
20.0
100
AcDbDimension
  2
*D27
 10
3300.431772254291
 20
849.0616888953931
 30
0.0
 11
2530.431771360222
 21
913.0616888953932
 31
0.0
 70
    32
  1
P.C.Dφ<>
 71
     5
 42
1540.000001788139
  3
1-20
100
AcDbAlignedDimension
 13
1760.431770466151
 23
1247.448531837618
 33
0.0
 14
3300.431772254291
 24
1247.448531837618
 34
0.0
100
AcDbRotatedDimension
  0
DIMENSION
  5
B50
330
D6
100
AcDbEntity
  8
寸法線
 48
20.0
100
AcDbDimension
  2
*D28
 10
1624.048126759735
 20
2753.829243929627
 30
0.0
 11
1560.048126759735
 21
2013.829212537979
 31
0.0
 70
    32
 71
     5
 42
1480.000062783295
  3
1-20
100
AcDbAlignedDimension
 13
1850.431780777716
 23
1273.829181146331
 33
0.0
 14
1820.431809065068
 24
2753.829243929627
 34
0.0
 50
90.0
100
AcDbRotatedDimension
  0
DIMENSION
  5
B5D
330
D6
100
AcDbEntity
  8
寸法線
 48
20.0
100
AcDbDimension
  2
*D29
 10
1624.048126759735
 20
3093.829216933809
 30
0.0
 11
1560.048126759735
 21
2923.829230431719
 31
0.0
 70
    32
 71
     5
 42
339.9999730041823
  3
1-20
100
AcDbAlignedDimension
 13
1820.431809065068
 23
2753.829243929627
 33
0.0
 14
2530.431622252939
 24
3093.829216933809
 34
0.0
 50
90.0
100
AcDbRotatedDimension
  0
DIMENSION
  5
B6A
330
D6
100
AcDbEntity
  8
寸法線
 48
20.0
100
AcDbDimension
  2
*D30
 10
1441.036758460566
 20
3093.829181146319
 30
0.0
 11
1377.036758460566
 21
2183.829181146325
 31
0.0
 70
    32
 71
     5
 42
1819.999999999988
  3
1-20
100
AcDbAlignedDimension
 13
1850.431780777716
 23
1273.829181146331
 33
0.0
 14
2530.431584105983
 24
3093.829181146319
 34
0.0
 50
90.0
100
AcDbRotatedDimension
  0
DIMENSION
  5
B77
330
D6
100
AcDbEntity
  8
寸法線
 48
20.0
100
AcDbDimension
  2
*D31
 10
2720.431687960635
 20
3227.205770715338
 30
0.0
 11
2530.431710365869
 21
3227.205770715338
 31
0.0
 70
   160
  1
I.Dφ<>
 71
     5
 42
379.9999551895326
  3
1-20
100
AcDbAlignedDimension
 13
2340.431732771103
 23
3073.829181146331
 33
0.0
 14
2720.431687960635
 24
3073.829190685814
 34
0.0
100
AcDbRotatedDimension
  0
LEADER
  5
BCD
330
D6
100
AcDbEntity
  8
0
 48
20.0
100
AcDbLeader
  3
1-20
 73
     0
 40
50.00000000000002
 41
630.0000000000002
 76
     3
 10
3300.431772254291
 20
1273.829181146329
 30
0.0
 10
3495.463153545899
 20
976.2379060743478
 30
0.0
 10
4262.666452100202
 20
976.2379060743478
 30
0.0
340
BCE
213
711.1598954222336
223
-66.82161510992592
233
0.0
1001
ACAD
1000
DSTYLE
1002
{
1070
   147
1040
1.7
1070
    77
1070
     0
1002
}
  0
MTEXT
  5
BCE
102
{ACAD_REACTORS
330
BCD
102
}
330
D6
100
AcDbEntity
  8
0
 48
20.0
100
AcDbMText
 10
3585.506556677969
 20
1043.059521184273
 30
0.0
 40
50.0
 41
0.0
 71
     1
 72
     1
  1
4-20×30アンカー穴
 73
     1
 44
1.0
  0
TEXT
  5
BCF
330
D6
100
AcDbEntity
  8
0
 48
20.0
100
AcDbText
 10
6188.219914949103
 20
5640.780335292174
 30
0.0
 40
60.0
  1
０°
100
AcDbText
  0
TEXT
  5
BD0
330
D6
100
AcDbEntity
  8
0
 48
20.0
100
AcDbText
 10
6902.782952650579
 20
5285.81774387973
 30
0.0
 40
60.0
  1
４５°
100
AcDbText
  0
TEXT
  5
BD1
330
D6
100
AcDbEntity
  8
0
 48
20.0
100
AcDbText
 10
7197.446489644132
 20
4592.660748481228
 30
0.0
 40
60.0
  1
９０°
100
AcDbText
  0
TEXT
  5
BD2
330
D6
100
AcDbEntity
  8
0
 48
20.0
100
AcDbText
 10
6823.883765975151
 20
3884.948002401844
 30
0.0
 40
60.0
  1
１３５°
100
AcDbText
  0
TEXT
  5
BD3
330
D6
100
AcDbEntity
  8
0
 48
20.0
100
AcDbText
 10
6117.245029280515
 20
3700.038370731474
 30
0.0
 40
60.0
  1
１８０°
100
AcDbText
  0
TEXT
  5
BD4
330
D6
100
AcDbEntity
  8
0
 48
20.0
100
AcDbText
 10
5431.756697065975
 20
3855.188558077767
 30
0.0
 40
60.0
  1
２２５°
100
AcDbText
  0
TEXT
  5
BD5
330
D6
100
AcDbEntity
  8
0
 48
20.0
100
AcDbText
 10
5125.354178493649
 20
4594.603078396774
 30
0.0
 40
60.0
  1
２７０°
100
AcDbText
  0
TEXT
  5
BD6
330
D6
100
AcDbEntity
  8
0
 48
20.0
100
AcDbText
 10
5317.752561341134
 20
5278.421748092014
 30
0.0
 40
60.0
  1
３１５°
100
AcDbText
  0
TEXT
  5
BDF
330
D6
100
AcDbEntity
  8
0
 48
20.0
100
AcDbText
 10
7696.896629231625
 20
1095.514634116247
 30
0.0
 40
110.0
  1
ＬＡ－２０００
100
AcDbText
  0
TEXT
  5
BE0
330
D6
100
AcDbEntity
  8
0
 48
20.0
100
AcDbText
 10
7698.658174289999
 20
829.0416385868539
 30
0.0
 40
90.0
  1
製品図
100
AcDbText
  0
POINT
  5
17E8
330
D6
100
AcDbEntity
  8
0
100
AcDbPoint
 10
3210.431770471051
 20
2928.829212388967
 30
0.0
  0
LINE
  5
17E9
330
D6
100
AcDbEntity
  8
0
 48
0.5
100
AcDbLine
 10
3095.431770918088
 20
3024.175458210303
 30
0.0
 11
3095.431770918084
 21
2793.266452109206
 31
0.0
  0
LINE
  5
17EA
330
D6
100
AcDbEntity
  8
0
 48
0.5
100
AcDbLine
 10
1965.431770918085
 20
3024.175458210303
 30
0.0
 11
1965.431770918085
 21
2793.266452109206
 31
0.0
  0
LINE
  5
17EC
330
D6
100
AcDbEntity
  8
0
100
AcDbLine
 10
2280.431770918085
 20
3048.829216933822
 30
0.0
 11
2280.431770918085
 21
3073.829216933821
 31
0.0
  0
LINE
  5
17ED
330
D6
100
AcDbEntity
  8
0
100
AcDbLine
 10
2280.431770918085
 20
3073.829216933821
 30
0.0
 11
2780.431770918085
 21
3073.829216933821
 31
0.0
  0
LINE
  5
17EE
330
D6
100
AcDbEntity
  8
0
100
AcDbLine
 10
2280.431770918085
 20
3048.829216933822
 30
0.0
 11
2780.431770918085
 21
3048.829216933822
 31
0.0
  0
LINE
  5
17EF
330
D6
100
AcDbEntity
  8
0
100
AcDbLine
 10
2312.931770918086
 20
3048.829216933822
 30
0.0
 11
2312.931770918086
 21
2981.712317260738
 31
0.0
  0
LINE
  5
17F0
330
D6
100
AcDbEntity
  8
0
100
AcDbLine
 10
2747.931770918086
 20
3048.829216933822
 30
0.0
 11
2747.931770918086
 21
2981.712317260738
 31
0.0
  0
LINE
  5
17F1
330
D6
100
AcDbEntity
  8
0
100
AcDbLine
 10
2780.431770918085
 20
3048.829216933822
 30
0.0
 11
2780.431770918085
 21
3073.829216933821
 31
0.0
  0
LINE
  5
17F2
330
D6
100
AcDbEntity
  8
0
100
AcDbLine
 10
2410.154211448126
 20
2928.829212388967
 30
0.0
 11
2650.709330388045
 21
2928.829212388967
 31
0.0
  0
LINE
  5
17F3
330
D6
100
AcDbEntity
  8
0
100
AcDbLine
 10
2405.162354701878
 20
2924.114461275883
 30
0.0
 11
2395.431768906429
 21
2753.829212537979
 31
0.0
  0
LINE
  5
17F4
330
D6
100
AcDbEntity
  8
0
100
AcDbLine
 10
2655.701187134293
 20
2924.114461275883
 30
0.0
 11
2665.431772929742
 21
2753.829212537979
 31
0.0
  0
LINE
  5
17F5
330
D6
100
AcDbEntity
  8
0
100
AcDbLine
 10
2101.372667788487
 20
2928.829212388967
 30
0.0
 11
1854.597860331757
 21
2928.829212388967
 31
0.0
  0
LINE
  5
17F6
330
D6
100
AcDbEntity
  8
0
100
AcDbLine
 10
3211.183591337486
 20
2924.731522471136
 30
0.0
 11
3240.431770918086
 21
2754.856134578248
 31
0.0
  0
LINE
  5
17F7
330
D6
100
AcDbEntity
  8
0
100
AcDbLine
 10
2959.490874047684
 20
2928.829212388967
 30
0.0
 11
3206.265681504412
 21
2928.829212388967
 31
0.0
  0
LINE
  5
17F8
330
D6
100
AcDbEntity
  8
0
100
AcDbLine
 10
1849.679950498683
 20
2924.731522471134
 30
0.0
 11
1820.431770918085
 21
2754.856134578248
 31
0.0
  0
ARC
  5
17F9
330
D6
100
AcDbEntity
  8
0
100
AcDbCircle
 10
2530.431770918085
 20
2181.329216933821
 30
0.0
 40
912.5
100
AcDbArc
 50
77.98199096166432
 51
102.0180277076737
  0
ARC
  5
17FA
330
D6
100
AcDbEntity
  8
0
100
AcDbCircle
 10
2650.709330388045
 20
2923.829212314461
 30
0.0
 40
5.000000074505805
100
AcDbArc
 50
3.270487974581626
 51
90.0
  0
ARC
  5
17FB
330
D6
100
AcDbEntity
  8
0
100
AcDbCircle
 10
2297.931770694568
 20
2982.011060456015
 30
0.0
 40
15.00000022351741
100
AcDbArc
 50
277.597873114561
 51
0.0
  0
ARC
  5
17FC
330
D6
100
AcDbEntity
  8
0
100
AcDbCircle
 10
1935.431772631719
 20
2754.856134578248
 30
0.0
 40
115.0000017136335
100
AcDbArc
 50
111.4310162465613
 51
180.0
  0
ARC
  5
17FD
330
D6
100
AcDbEntity
  8
0
100
AcDbCircle
 10
2530.431770918085
 20
1239.011057650936
 30
0.0
 40
1743.438301191246
100
AcDbArc
 50
68.56898375343866
 51
82.40212688543897
  0
ARC
  5
17FE
330
D6
100
AcDbEntity
  8
0
100
AcDbCircle
 10
3206.265681504412
 20
2923.829212314461
 30
0.0
 40
5.000000074505805
100
AcDbArc
 50
10.39667281630642
 51
90.0
  0
ARC
  5
17FF
330
D6
100
AcDbEntity
  8
0
100
AcDbCircle
 10
3125.431769204452
 20
2754.856134578248
 30
0.0
 40
115.0000017136335
100
AcDbArc
 50
0.0
 51
68.56898375343866
  0
ARC
  5
1800
330
D6
100
AcDbEntity
  8
0
100
AcDbCircle
 10
2762.931771141603
 20
2982.011060456015
 30
0.0
 40
15.00000022351741
100
AcDbArc
 50
180.0
 51
262.402126885439
  0
ARC
  5
1801
330
D6
100
AcDbEntity
  8
0
100
AcDbCircle
 10
1854.597860331757
 20
2923.829212314461
 30
0.0
 40
5.000000074505805
100
AcDbArc
 50
90.0
 51
169.6033271836935
  0
ARC
  5
1802
330
D6
100
AcDbEntity
  8
0
100
AcDbCircle
 10
2530.431770918085
 20
1239.011057650936
 30
0.0
 40
1743.438301191246
100
AcDbArc
 50
97.59787311456104
 51
111.4310162465613
  0
DIMENSION
  5
1803
330
D6
100
AcDbEntity
  8
寸法線
 48
20.0
100
AcDbDimension
  2
*D75
 10
1766.835912851191
 20
2928.829212388967
 30
0.0
 11
1766.835912851191
 21
2841.329212463474
 31
0.0
 70
   161
 71
     5
 42
174.9999998509884
  3
1-20
100
AcDbAlignedDimension
 13
1820.431770918085
 23
2753.829212537979
 33
0.0
 14
1820.431770918087
 24
2928.829212388967
 34
0.0
1001
ACAD
1000
DSTYLE
1002
{
1070
   340
1005
23
1002
}
  0
DIMENSION
  5
1804
330
D6
100
AcDbEntity
  8
寸法線
 48
20.0
100
AcDbDimension
  2
*D76
 10
1851.397200251828
 20
3163.038114741289
 30
0.0
 11
1976.384934020159
 21
3227.038114741289
 31
0.0
 70
    32
 71
     5
 42
249.9754675366621
  3
1-20
100
AcDbAlignedDimension
 13
2101.37266778849
 23
2928.829212388967
 33
0.0
 14
1851.397200251828
 24
2928.829212388969
 34
0.0
100
AcDbRotatedDimension
1001
ACAD
1000
DSTYLE
1002
{
1070
   340
1005
23
1002
}
  0
ENDSEC
  0
SECTION
  2
OBJECTS
  0
DICTIONARY
  5
3DB
330
0
100
AcDbDictionary
281
     1
  3
ACAD_COLOR
350
3E4
  3
ACAD_GROUP
350
3DC
  3
ACAD_LAYOUT
350
3E7
  3
ACAD_MATERIAL
350
3E3
  3
ACAD_MLINESTYLE
350
3DD
  3
ACAD_PLOTSETTINGS
350
3E8
  3
ACAD_PLOTSTYLENAME
350
3E1
  3
ACAD_TABLESTYLE
350
3E5
  3
AcDbVariableDictionary
350
763
  0
DICTIONARY
  5
4CA
330
C8
100
AcDbDictionary
280
     1
281
     1
  3
ACAD_LAYERSTATES
360
4CB
  0
DICTIONARY
  5
D18
330
D6
100
AcDbDictionary
280
     1
281
     1
  3
ACAD_SORTENTS
360
D19
  0
DICTIONARY
  5
3E4
102
{ACAD_REACTORS
330
3DB
102
}
330
3DB
100
AcDbDictionary
281
     1
  0
DICTIONARY
  5
3DC
102
{ACAD_REACTORS
330
3DB
102
}
330
3DB
100
AcDbDictionary
281
     1
  3
A-P
350
ABE
  3
A-P2
350
AF5
  3
梯子
350
D14
  3
梯子２
350
D15
  3
梯子３
350
D16
  0
DICTIONARY
  5
3E7
102
{ACAD_REACTORS
330
3DB
102
}
330
3DB
100
AcDbDictionary
281
     1
  3
Model
350
3E9
  3
レイアウト1
350
3EA
  0
DICTIONARY
  5
3E3
102
{ACAD_REACTORS
330
3DB
102
}
330
3DB
100
AcDbDictionary
281
     1
  0
DICTIONARY
  5
3DD
102
{ACAD_REACTORS
330
3DB
102
}
330
3DB
100
AcDbDictionary
281
     1
  3
STANDARD
350
3DE
  0
DICTIONARY
  5
3E8
102
{ACAD_REACTORS
330
3DB
102
}
330
3DB
100
AcDbDictionary
281
     1
  0
ACDBDICTIONARYWDFLT
  5
3E1
102
{ACAD_REACTORS
330
3DB
102
}
330
3DB
100
AcDbDictionary
281
     1
  3
Normal
350
3E2
100
AcDbDictionaryWithDefault
340
3E2
  0
DICTIONARY
  5
3E5
102
{ACAD_REACTORS
330
3DB
102
}
330
3DB
100
AcDbDictionary
281
     1
  3
Standard
350
3E6
  3
表
350
4C9
  0
DICTIONARY
  5
763
102
{ACAD_REACTORS
330
3DB
102
}
330
3DB
100
AcDbDictionary
281
     1
  3
CTABLESTYLE
350
764
  0
DICTIONARY
  5
4CB
102
{ACAD_REACTORS
330
4CA
102
}
330
4CA
100
AcDbDictionary
281
     1
  0
SORTENTSTABLE
  5
D19
102
{ACAD_REACTORS
330
D18
102
}
330
D18
100
AcDbSortentsTable
330
D6
331
952
  5
956
331
644
  5
648
331
5CE
  5
5D2
331
348
  5
34C
331
60D
  5
611
331
683
  5
687
331
64C
  5
650
331
350
  5
354
331
5D6
  5
5DA
331
615
  5
619
331
95A
  5
95E
331
A87
  5
AC0
331
AE6
  5
AEA
331
61D
  5
621
331
358
  5
35C
331
5DE
  5
5E2
331
654
  5
658
331
962
  5
966
331
AEE
  5
AF2
331
BD4
  5
BE0
331
ABF
  5
AC3
331
B5D
  5
BCE
331
5E6
  5
5EA
331
65C
  5
660
331
96A
  5
96E
331
2C9
  5
2CC
331
625
  5
629
331
2D1
  5
2D4
331
390
  5
394
331
5AF
  5
5B3
331
5EE
  5
5F2
331
664
  5
668
331
972
  5
976
331
62D
  5
631
331
5B7
  5
5BB
331
5F6
  5
5FA
331
66C
  5
670
331
97A
  5
97E
331
AC7
  5
ACB
331
674
  5
678
331
5BF
  5
5C3
331
5FE
  5
602
331
635
  5
639
331
982
  5
986
331
ACF
  5
AD4
331
606
  5
60A
331
5C7
  5
5CB
331
63D
  5
641
331
67C
  5
680
331
98A
  5
A7A
331
AD7
  5
ADB
331
ADF
  5
AE4
331
684
  5
688
331
60E
  5
612
331
349
  5
34D
331
5CF
  5
5D3
331
645
  5
649
331
953
  5
957
331
A80
  5
A84
331
616
  5
61A
331
351
  5
355
331
5D7
  5
5DB
331
64D
  5
651
331
95B
  5
95F
331
A88
  5
AC1
331
AE7
  5
AEB
331
BCD
  5
BD1
331
61E
  5
622
331
359
  5
35D
331
5DF
  5
5E3
331
655
  5
659
331
963
  5
967
331
AEF
  5
AF3
331
BD5
  5
C79
331
5E7
  5
5EB
331
65D
  5
661
331
96B
  5
96F
331
2CA
  5
2CD
331
665
  5
669
331
5EF
  5
5F3
331
2D2
  5
2D5
331
391
  5
395
331
5B0
  5
5B4
331
626
  5
62A
331
973
  5
977
331
AC0
  5
AC4
331
66D
  5
671
331
5F7
  5
5FB
331
5B8
  5
5BC
331
62E
  5
632
331
97B
  5
97F
331
AC8
  5
ACC
331
636
  5
63A
331
5C0
  5
5C4
331
5FF
  5
603
331
675
  5
679
331
983
  5
987
331
63E
  5
642
331
607
  5
60B
331
67D
  5
681
331
98B
  5
A7B
331
A79
  5
A7D
331
AD8
  5
ADC
331
5C8
  5
5CC
331
685
  5
689
331
5D0
  5
5D4
331
34A
  5
34E
331
60F
  5
613
331
646
  5
64A
331
954
  5
958
331
A81
  5
A85
331
AE0
  5
AE5
331
64E
  5
652
331
2C3
  5
2C6
331
352
  5
356
331
5D8
  5
5DC
331
617
  5
61B
331
95C
  5
960
331
A89
  5
AC2
331
AE8
  5
AEC
331
BCE
  5
BD2
331
61F
  5
623
331
35A
  5
38E
331
5E0
  5
5E4
331
656
  5
65A
331
964
  5
968
331
AF0
  5
B05
331
BD6
  5
C7A
331
65E
  5
662
331
96C
  5
970
331
2CB
  5
2CE
331
5E8
  5
5EC
331
627
  5
62B
331
2D3
  5
2D6
331
392
  5
5AF
331
5B1
  5
5B5
331
5F0
  5
5F4
331
666
  5
66A
331
974
  5
978
331
AC1
  5
AC5
331
62F
  5
633
331
5B9
  5
5BD
331
5F8
  5
5FC
331
66E
  5
672
331
97C
  5
980
331
AC9
  5
ACD
331
676
  5
67A
331
2E3
  5
2E6
331
5C1
  5
5C5
331
600
  5
604
331
637
  5
63B
331
984
  5
988
331
AD1
  5
AD5
331
B77
  5
BD0
331
67E
  5
682
331
63F
  5
643
331
98C
  5
A7C
331
A7A
  5
A7E
331
AD9
  5
ADD
331
608
  5
60C
331
5C9
  5
5CD
331
686
  5
68A
331
610
  5
614
331
34B
  5
34F
331
5D1
  5
5D5
331
647
  5
64B
331
955
  5
959
331
A82
  5
A86
331
AE1
  5
AE6
331
2B4
  5
2B4
331
618
  5
61C
331
5D9
  5
5DD
331
353
  5
357
331
64F
  5
653
331
95D
  5
961
331
AE9
  5
AED
331
B50
  5
BCD
331
BCF
  5
BD3
331
75E
  5
952
331
35B
  5
38F
331
5E1
  5
5E5
331
657
  5
65B
331
965
  5
969
331
AF1
  5
B12
331
65F
  5
663
331
96D
  5
971
331
BDF
  5
C7B
331
2CC
  5
2CF
331
5E9
  5
5ED
331
620
  5
624
331
667
  5
66B
331
5F1
  5
5F5
331
393
  5
5B0
331
2D4
  5
2D7
331
5B2
  5
5B6
331
628
  5
62C
331
975
  5
979
331
AC2
  5
AC6
331
630
  5
634
331
5BA
  5
5BE
331
5F9
  5
5FD
331
66F
  5
673
331
97D
  5
981
331
ACA
  5
ACE
331
2E4
  5
2E7
331
5C2
  5
5C6
331
601
  5
605
331
638
  5
63C
331
677
  5
67B
331
985
  5
989
331
AD2
  5
AD6
331
67F
  5
683
331
A7B
  5
A7F
331
ADA
  5
ADE
331
344
  5
348
331
5CA
  5
5CE
331
609
  5
60D
331
640
  5
644
331
687
  5
75E
331
611
  5
615
331
34C
  5
350
331
5D2
  5
5D6
331
648
  5
64C
331
956
  5
95A
331
A83
  5
A87
331
2B5
  5
2B6
331
619
  5
61D
331
5DA
  5
5DE
331
354
  5
358
331
650
  5
654
331
95E
  5
962
331
AEA
  5
AEE
331
BD0
  5
BD4
331
35C
  5
390
331
5E2
  5
5E6
331
658
  5
65C
331
966
  5
96A
331
AF2
  5
B3A
331
96E
  5
972
331
BE0
  5
C7C
331
621
  5
625
331
2CD
  5
2D0
331
5EA
  5
5EE
331
660
  5
664
331
629
  5
62D
331
394
  5
5B1
331
5B3
  5
5B7
331
5F2
  5
5F6
331
668
  5
66C
331
976
  5
97A
331
AC3
  5
AC7
331
670
  5
674
331
5BB
  5
5BF
331
5FA
  5
5FE
331
631
  5
635
331
97E
  5
982
331
ACB
  5
ACF
331
B12
  5
B6A
331
2E5
  5
344
331
5C3
  5
5C7
331
602
  5
606
331
639
  5
63D
331
678
  5
67C
331
986
  5
98A
331
AD3
  5
AD7
331
A7C
  5
A80
331
94F
  5
953
331
ADB
  5
ADF
331
B3A
  5
B77
331
680
  5
684
331
60A
  5
60E
331
345
  5
349
331
5CB
  5
5CF
331
641
  5
645
331
688
  5
94F
331
612
  5
616
331
34D
  5
351
331
5D3
  5
5D7
331
649
  5
64D
331
957
  5
95B
331
A84
  5
A88
331
AE3
  5
AE7
331
2B6
  5
2B7
331
61A
  5
61E
331
5DB
  5
5DF
331
355
  5
359
331
651
  5
655
331
95F
  5
963
331
AEB
  5
AEF
331
BD1
  5
BD5
331
35D
  5
391
331
5E3
  5
5E7
331
659
  5
65D
331
967
  5
96B
331
AF3
  5
B50
331
96F
  5
973
331
622
  5
626
331
2CE
  5
2D1
331
5EB
  5
5EF
331
661
  5
665
331
669
  5
66D
331
5F3
  5
5F7
331
395
  5
5B2
331
5B4
  5
5B8
331
62A
  5
62E
331
977
  5
97B
331
AC4
  5
AC8
331
B6A
  5
BCF
331
97F
  5
983
331
632
  5
636
331
2DE
  5
2E1
331
5BC
  5
5C0
331
5FB
  5
5FF
331
671
  5
675
331
ACC
  5
AD1
331
2E6
  5
345
331
5C4
  5
5C8
331
603
  5
607
331
63A
  5
63E
331
679
  5
67D
331
987
  5
98B
331
AD4
  5
AD8
331
A7D
  5
A81
331
ADC
  5
AE0
331
346
  5
34A
331
5CC
  5
5D0
331
60B
  5
60F
331
642
  5
646
331
681
  5
685
331
950
  5
954
331
689
  5
950
331
613
  5
617
331
34E
  5
352
331
5D4
  5
5D8
331
64A
  5
64E
331
958
  5
95C
331
A85
  5
A89
331
AE4
  5
AE8
331
61B
  5
61F
331
5DC
  5
5E0
331
2C7
  5
2CA
331
356
  5
35A
331
652
  5
656
331
960
  5
964
331
AEC
  5
AF0
331
BD2
  5
BD6
331
5E4
  5
5E8
331
65A
  5
65E
331
968
  5
96C
331
623
  5
627
331
2CF
  5
2D2
331
38E
  5
392
331
5EC
  5
5F0
331
662
  5
666
331
970
  5
974
331
62B
  5
62F
331
5B5
  5
5B9
331
5F4
  5
5F8
331
66A
  5
66E
331
978
  5
97C
331
AC5
  5
AC9
331
672
  5
676
331
5BD
  5
5C1
331
5FC
  5
600
331
633
  5
637
331
980
  5
984
331
ACD
  5
AD2
331
604
  5
608
331
2E7
  5
346
331
5C5
  5
5C9
331
63B
  5
63F
331
67A
  5
67E
331
988
  5
98C
331
AD5
  5
AD9
331
A7E
  5
A82
331
ADD
  5
AE1
331
682
  5
686
331
60C
  5
610
331
347
  5
34B
331
5CD
  5
5D1
331
643
  5
647
331
951
  5
955
331
68A
  5
951
331
5D5
  5
5D9
331
34F
  5
353
331
614
  5
618
331
64B
  5
64F
331
959
  5
95D
331
A86
  5
ABF
331
AE5
  5
AE9
331
61C
  5
620
331
5DD
  5
5E1
331
357
  5
35B
331
653
  5
657
331
961
  5
965
331
AED
  5
AF1
331
BD3
  5
BDF
331
5E5
  5
5E9
331
65B
  5
65F
331
969
  5
96D
331
B05
  5
B5D
331
2C8
  5
2CB
331
624
  5
628
331
38F
  5
393
331
2D0
  5
2D3
331
5ED
  5
5F1
331
663
  5
667
331
971
  5
975
331
66B
  5
66F
331
5F5
  5
5F9
331
5B6
  5
5BA
331
62C
  5
630
331
979
  5
97D
331
AC6
  5
ACA
331
634
  5
638
331
5BE
  5
5C2
331
5FD
  5
601
331
673
  5
677
331
981
  5
985
331
ACE
  5
AD3
331
AD6
  5
ADA
331
5C6
  5
5CA
331
605
  5
609
331
63C
  5
640
331
67B
  5
67F
331
989
  5
A79
331
A7F
  5
A83
331
ADE
  5
AE3
  0
GROUP
  5
ABE
102
{ACAD_REACTORS
330
3DC
102
}
330
3DC
100
AcDbGroup
300

 70
     0
 71
     1
340
A89
340
A88
340
A87
340
A86
340
A85
340
A84
340
A83
340
A82
340
A81
340
A80
340
A7F
340
A7D
340
A7C
340
A7B
340
A79
340
A7A
340
A7E
340
ACF
340
AC0
340
AC4
340
ACE
340
ACD
340
ACC
340
ACB
340
ACA
340
AC9
340
AC8
340
AC7
340
AC6
340
AC5
340
AC3
340
AC2
340
AC1
340
ABF
340
AE1
340
AD7
340
AE0
340
ADF
340
ADE
340
ADD
340
ADC
340
ADB
340
ADA
340
AD9
340
AD8
340
AD6
340
AD5
340
AD4
340
AD3
340
AD2
340
AD1
340
AF3
340
AF2
340
AF1
340
AF0
340
AEF
340
AEE
340
AED
340
AEC
340
AEB
340
AEA
340
AE9
340
AE8
340
AE7
340
AE6
340
AE5
340
AE4
340
AE3
  0
GROUP
  5
AF5
102
{ACAD_REACTORS
330
3DC
102
}
330
3DC
100
AcDbGroup
300

 70
     0
 71
     1
340
2E7
340
2E6
340
2E5
340
2E4
340
2D4
340
2D3
340
2D2
340
2D1
340
2CF
340
2CE
340
2CD
340
2CC
340
2CB
340
2CA
340
2C9
340
2C8
340
2D0
  0
GROUP
  5
D14
102
{ACAD_REACTORS
330
3DC
102
}
330
3DC
100
AcDbGroup
300

 70
     0
 71
     1
  0
GROUP
  5
D15
102
{ACAD_REACTORS
330
3DC
102
}
330
3DC
100
AcDbGroup
300

 70
     0
 71
     1
  0
GROUP
  5
D16
102
{ACAD_REACTORS
330
3DC
102
}
330
3DC
100
AcDbGroup
300

 70
     0
 71
     1
  0
LAYOUT
  5
3E9
102
{ACAD_REACTORS
330
3E7
102
}
330
3E7
100
AcDbPlotSettings
  1

  2
DocuCentre-II C2200
  4
A3
  6

 40
4.857749938964843
 41
4.942420959472656
 42
4.9423828125
 43
4.857757568359375
 44
297.0106506347656
 45
420.0313415527343
 46
0.0
 47
0.0
 48
933.5597096512683
 49
398.3830789640024
140
8993.559709651268
141
5998.383078964002
142
1.0
143
19.64745910712476
 70
 11952
 72
     1
 73
     1
 74
     4
  7
monochrome.ctb
 75
     0
147
0.0508971666283998
 76
     0
 77
     2
 78
   300
148
-933.5597096512683
149
-398.3830789640024
100
AcDbLayout
  1
Model
 70
     1
 71
     0
 10
0.0
 20
0.0
 11
12.0
 21
9.0
 12
0.0
 22
0.0
 32
0.0
 14
0.0
 24
0.0
 34
0.0
 15
0.0
 25
0.0
 35
0.0
146
0.0
 13
0.0
 23
0.0
 33
0.0
 16
1.0
 26
0.0
 36
0.0
 17
0.0
 27
1.0
 37
0.0
 76
     0
330
D6
1001
ACAD_PSEXT
1000
DocuCentre-II C2200
1000
FX DocuCentre-II C2200
1000
192.168.8.52
1000

1070
     0
  0
LAYOUT
  5
3EA
102
{ACAD_REACTORS
330
3E7
102
}
330
3E7
100
AcDbPlotSettings
  1

  2
DocuCentre-II C2200
  4

  6

 40
0.0
 41
0.0
 42
0.0
 43
0.0
 44
0.0
 45
0.0
 46
0.0
 47
0.0
 48
0.0
 49
0.0
140
0.0
141
0.0
142
1.0
143
1.0
 70
   688
 72
     0
 73
     0
 74
     5
  7
monochrome.ctb
 75
    16
147
1.0
 76
     0
 77
     2
 78
   300
148
0.0
149
0.0
100
AcDbLayout
  1
レイアウト1
 70
     1
 71
     1
 10
-180.866882
 20
-53.932747
 11
241.133118
 21
245.067253
 12
0.0
 22
0.0
 32
0.0
 14
-180.866882
 24
-53.932747
 34
0.0
 15
241.133118
 25
245.067253
 35
0.0
146
0.0
 13
0.0
 23
0.0
 33
0.0
 16
1.0
 26
0.0
 36
0.0
 17
0.0
 27
1.0
 37
0.0
 76
     0
330
D7
  0
MLINESTYLE
  5
3DE
102
{ACAD_REACTORS
330
3DD
102
}
330
3DD
100
AcDbMlineStyle
  2
STANDARD
 70
     0
  3

 62
     0
 51
90.0
 52
90.0
 71
     2
 49
0.5
 62
   256
  6
BYLAYER
 49
-0.5
 62
   256
  6
BYLAYER
  0
ACDBPLACEHOLDER
  5
3E2
102
{ACAD_REACTORS
330
3E1
102
}
330
3E1
  0
TABLESTYLE
  5
3E6
102
{ACAD_REACTORS
330
3E5
102
}
330
3E5
100
AcDbTableStyle
  3
Standard
 70
     0
 71
     0
 40
1.5
 41
1.5
280
     0
281
     0
  7
STANDARD
140
4.5
170
     2
 62
     0
 63
     7
283
     0
274
    -2
284
     1
 64
     0
275
    -2
285
     1
 65
     0
276
    -2
286
     1
 66
     0
277
    -2
287
     1
 67
     0
278
    -2
288
     1
 68
     0
279
    -2
289
     1
 69
     0
  7
STANDARD
140
6.0
170
     5
 62
     0
 63
     7
283
     0
274
    -2
284
     1
 64
     0
275
    -2
285
     1
 65
     0
276
    -2
286
     1
 66
     0
277
    -2
287
     1
 67
     0
278
    -2
288
     1
 68
     0
279
    -2
289
     1
 69
     0
  7
STANDARD
140
4.5
170
     5
 62
     0
 63
     7
283
     0
274
    -2
284
     1
 64
     0
275
    -2
285
     1
 65
     0
276
    -2
286
     1
 66
     0
277
    -2
287
     1
 67
     0
278
    -2
288
     1
 68
     0
279
    -2
289
     1
 69
     0
  0
TABLESTYLE
  5
4C9
102
{ACAD_REACTORS
330
3E5
102
}
330
3E5
100
AcDbTableStyle
  3
Standard
 70
     0
 71
     0
 40
1.0
 41
1.0
280
     1
281
     1
  7
ＭＳゴシック
140
3.0
170
     5
 62
     0
 63
     7
283
     0
274
    -2
284
     1
 64
     0
275
    -2
285
     1
 65
     0
276
    -2
286
     1
 66
     0
277
    -2
287
     1
 67
     0
278
    -2
288
     1
 68
     0
279
    -2
289
     1
 69
     0
  7
STANDARD
140
6.0
170
     5
 62
     0
 63
     7
283
     0
274
    -2
284
     1
 64
     0
275
    -2
285
     1
 65
     0
276
    -2
286
     1
 66
     0
277
    -2
287
     1
 67
     0
278
    -2
288
     1
 68
     0
279
    -2
289
     1
 69
     0
  7
STANDARD
140
4.5
170
     5
 62
     0
 63
     7
283
     0
274
    -2
284
     1
 64
     0
275
    -2
285
     1
 65
     0
276
    -2
286
     1
 66
     0
277
    -2
287
     1
 67
     0
278
    -2
288
     1
 68
     0
279
    -2
289
     1
 69
     0
  0
DICTIONARYVAR
  5
764
102
{ACAD_REACTORS
330
763
102
}
330
763
100
DictionaryVariables
280
     0
  1
STANDARD
  0
ENDSEC
  0
EOF
